  0
SECTION
  2
HEADER
  9
$ACADVER
  1
AC1027
  9
$ACADMAINTVER
 70
    20
  9
$DWGCODEPAGE
  3
ANSI_932
  9
$LASTSAVEDBY
  1
hiroki nakayama
  9
$REQUIREDVERSIONS
160
                 0
  9
$INSBASE
 10
0.0
 20
0.0
 30
0.0
  9
$EXTMIN
 10
-0.0299222192437583
 20
-0.014759583196792
 30
-0.0000000000000058
  9
$EXTMAX
 10
395.0276461888724
 20
275.0032960643182
 30
0.0000000000000104
  9
$LIMMIN
 10
0.0
 20
0.0
  9
$LIMMAX
 10
59.40000000000001
 20
42.0
  9
$ORTHOMODE
 70
     1
  9
$REGENMODE
 70
     1
  9
$FILLMODE
 70
     1
  9
$QTEXTMODE
 70
     0
  9
$MIRRTEXT
 70
     1
  9
$LTSCALE
 40
3.0
  9
$ATTMODE
 70
     1
  9
$TEXTSIZE
 40
4.0
  9
$TRACEWID
 40
0.05
  9
$TEXTSTYLE
  7
STYLE1
  9
$CLAYER
  8
0
  9
$CELTYPE
  6
BYLAYER
  9
$CECOLOR
 62
   256
  9
$CELTSCALE
 40
1.0
  9
$DISPSILH
 70
     0
  9
$DIMSCALE
 40
1.0
  9
$DIMASZ
 40
2.0
  9
$DIMEXO
 40
1.0
  9
$DIMDLI
 40
0.0
  9
$DIMRND
 40
0.0
  9
$DIMDLE
 40
0.0
  9
$DIMEXE
 40
0.0
  9
$DIMTP
 40
0.0
  9
$DIMTM
 40
0.0
  9
$DIMTXT
 40
3.0
  9
$DIMCEN
 40
0.0
  9
$DIMTSZ
 40
0.0
  9
$DIMTOL
 70
     0
  9
$DIMLIM
 70
     0
  9
$DIMTIH
 70
     0
  9
$DIMTOH
 70
     0
  9
$DIMSE1
 70
     0
  9
$DIMSE2
 70
     0
  9
$DIMTAD
 70
     3
  9
$DIMZIN
 70
     8
  9
$DIMBLK
  1

  9
$DIMASO
 70
     1
  9
$DIMSHO
 70
     1
  9
$DIMPOST
  1

  9
$DIMAPOST
  1

  9
$DIMALT
 70
     0
  9
$DIMALTD
 70
     2
  9
$DIMALTF
 40
25.4
  9
$DIMLFAC
 40
1.0
  9
$DIMTOFL
 70
     1
  9
$DIMTVP
 40
1.0
  9
$DIMTIX
 70
     0
  9
$DIMSOXD
 70
     0
  9
$DIMSAH
 70
     0
  9
$DIMBLK1
  1

  9
$DIMBLK2
  1
DOTSMALL
  9
$DIMSTYLE
  2
S1
  9
$DIMCLRD
 70
     0
  9
$DIMCLRE
 70
     0
  9
$DIMCLRT
 70
     4
  9
$DIMTFAC
 40
0.7
  9
$DIMGAP
 40
1.0
  9
$DIMJUST
 70
     0
  9
$DIMSD1
 70
     0
  9
$DIMSD2
 70
     0
  9
$DIMTOLJ
 70
     2
  9
$DIMTZIN
 70
     8
  9
$DIMALTZ
 70
     8
  9
$DIMALTTZ
 70
     8
  9
$DIMUPT
 70
     0
  9
$DIMDEC
 70
     2
  9
$DIMTDEC
 70
     2
  9
$DIMALTU
 70
     2
  9
$DIMALTTD
 70
     2
  9
$DIMTXSTY
  7
STANDARD
  9
$DIMAUNIT
 70
     0
  9
$DIMADEC
 70
     2
  9
$DIMALTRND
 40
0.0
  9
$DIMAZIN
 70
     2
  9
$DIMDSEP
 70
    46
  9
$DIMATFIT
 70
     3
  9
$DIMFRAC
 70
     0
  9
$DIMLDRBLK
  1

  9
$DIMLUNIT
 70
     2
  9
$DIMLWD
 70
    -2
  9
$DIMLWE
 70
    -2
  9
$DIMTMOVE
 70
     1
  9
$DIMFXL
 40
1.0
  9
$DIMFXLON
 70
     0
  9
$DIMJOGANG
 40
0.7853981633974483
  9
$DIMTFILL
 70
     0
  9
$DIMTFILLCLR
 70
     0
  9
$DIMARCSYM
 70
     0
  9
$DIMLTYPE
  6

  9
$DIMLTEX1
  6

  9
$DIMLTEX2
  6

  9
$DIMTXTDIRECTION
 70
     0
  9
$LUNITS
 70
     2
  9
$LUPREC
 70
     4
  9
$SKETCHINC
 40
0.1
  9
$FILLETRAD
 40
2.0
  9
$AUNITS
 70
     0
  9
$AUPREC
 70
     0
  9
$MENU
  1
acad
  9
$ELEVATION
 40
0.0
  9
$PELEVATION
 40
0.0
  9
$THICKNESS
 40
0.0
  9
$LIMCHECK
 70
     0
  9
$CHAMFERA
 40
10.0
  9
$CHAMFERB
 40
10.0
  9
$CHAMFERC
 40
20.0
  9
$CHAMFERD
 40
0.0
  9
$SKPOLY
 70
     0
  9
$TDCREATE
 40
2450912.645647222
  9
$TDUCREATE
 40
2450912.270647222
  9
$TDUPDATE
 40
2457926.781519711
  9
$TDUUPDATE
 40
2457926.406519710
  9
$TDINDWG
 40
6.7149153472
  9
$TDUSRTIMER
 40
6.7149153472
  9
$USRTIMER
 70
     1
  9
$ANGBASE
 50
0.0
  9
$ANGDIR
 70
     0
  9
$PDMODE
 70
     0
  9
$PDSIZE
 40
0.0
  9
$PLINEWID
 40
0.0
  9
$SPLFRAME
 70
     0
  9
$SPLINETYPE
 70
     6
  9
$SPLINESEGS
 70
     8
  9
$HANDSEED
  5
DBE1
  9
$SURFTAB1
 70
     6
  9
$SURFTAB2
 70
     6
  9
$SURFTYPE
 70
     6
  9
$SURFU
 70
     6
  9
$SURFV
 70
     6
  9
$UCSBASE
  2

  9
$UCSNAME
  2

  9
$UCSORG
 10
0.0
 20
0.0
 30
0.0
  9
$UCSXDIR
 10
1.0
 20
0.0
 30
0.0
  9
$UCSYDIR
 10
0.0
 20
1.0
 30
0.0
  9
$UCSORTHOREF
  2

  9
$UCSORTHOVIEW
 70
     0
  9
$UCSORGTOP
 10
0.0
 20
0.0
 30
0.0
  9
$UCSORGBOTTOM
 10
0.0
 20
0.0
 30
0.0
  9
$UCSORGLEFT
 10
0.0
 20
0.0
 30
0.0
  9
$UCSORGRIGHT
 10
0.0
 20
0.0
 30
0.0
  9
$UCSORGFRONT
 10
0.0
 20
0.0
 30
0.0
  9
$UCSORGBACK
 10
0.0
 20
0.0
 30
0.0
  9
$PUCSBASE
  2

  9
$PUCSNAME
  2

  9
$PUCSORG
 10
0.0
 20
0.0
 30
0.0
  9
$PUCSXDIR
 10
1.0
 20
0.0
 30
0.0
  9
$PUCSYDIR
 10
0.0
 20
1.0
 30
0.0
  9
$PUCSORTHOREF
  2

  9
$PUCSORTHOVIEW
 70
     0
  9
$PUCSORGTOP
 10
0.0
 20
0.0
 30
0.0
  9
$PUCSORGBOTTOM
 10
0.0
 20
0.0
 30
0.0
  9
$PUCSORGLEFT
 10
0.0
 20
0.0
 30
0.0
  9
$PUCSORGRIGHT
 10
0.0
 20
0.0
 30
0.0
  9
$PUCSORGFRONT
 10
0.0
 20
0.0
 30
0.0
  9
$PUCSORGBACK
 10
0.0
 20
0.0
 30
0.0
  9
$USERI1
 70
     0
  9
$USERI2
 70
     0
  9
$USERI3
 70
     0
  9
$USERI4
 70
     0
  9
$USERI5
 70
     0
  9
$USERR1
 40
0.0
  9
$USERR2
 40
0.0
  9
$USERR3
 40
0.0
  9
$USERR4
 40
0.0
  9
$USERR5
 40
0.0
  9
$WORLDVIEW
 70
     1
  9
$SHADEDGE
 70
     3
  9
$SHADEDIF
 70
    70
  9
$TILEMODE
 70
     1
  9
$MAXACTVP
 70
    16
  9
$PINSBASE
 10
0.0
 20
0.0
 30
0.0
  9
$PLIMCHECK
 70
     0
  9
$PEXTMIN
 10
1.000000000000000E+20
 20
1.000000000000000E+20
 30
1.000000000000000E+20
  9
$PEXTMAX
 10
-1.000000000000000E+20
 20
-1.000000000000000E+20
 30
-1.000000000000000E+20
  9
$PLIMMIN
 10
0.0
 20
0.0
  9
$PLIMMAX
 10
12.0
 20
9.0
  9
$UNITMODE
 70
     0
  9
$VISRETAIN
 70
     0
  9
$PLINEGEN
 70
     0
  9
$PSLTSCALE
 70
     1
  9
$TREEDEPTH
 70
  3020
  9
$CMLSTYLE
  2
STANDARD
  9
$CMLJUST
 70
     0
  9
$CMLSCALE
 40
20.0
  9
$PROXYGRAPHICS
 70
     1
  9
$MEASUREMENT
 70
     0
  9
$CELWEIGHT
370
    -1
  9
$ENDCAPS
280
     0
  9
$JOINSTYLE
280
     0
  9
$LWDISPLAY
290
     0
  9
$INSUNITS
 70
     0
  9
$HYPERLINKBASE
  1

  9
$STYLESHEET
  1
CanonLBP-830 light.ctb
  9
$XEDIT
290
     1
  9
$CEPSNTYPE
380
     0
  9
$PSTYLEMODE
290
     1
  9
$FINGERPRINTGUID
  2
{5E0348CB-91E9-11D7-A9B7-00074088341F}
  9
$VERSIONGUID
  2
{1BEE7618-E386-4A49-B591-97014534ECB2}
  9
$EXTNAMES
290
     1
  9
$PSVPSCALE
 40
0.0
  9
$OLESTARTUP
290
     0
  9
$SORTENTS
280
   127
  9
$INDEXCTL
280
     0
  9
$HIDETEXT
280
     0
  9
$XCLIPFRAME
280
     0
  9
$HALOGAP
280
     0
  9
$OBSCOLOR
 70
   257
  9
$OBSLTYPE
280
     0
  9
$INTERSECTIONDISPLAY
280
     0
  9
$INTERSECTIONCOLOR
 70
   257
  9
$DIMASSOC
280
     1
  9
$PROJECTNAME
  1

  9
$CAMERADISPLAY
290
     0
  9
$LENSLENGTH
 40
50.0
  9
$CAMERAHEIGHT
 40
0.0
  9
$STEPSPERSEC
 40
2.0
  9
$STEPSIZE
 40
6.0
  9
$3DDWFPREC
 40
2.0
  9
$PSOLWIDTH
 40
0.25
  9
$PSOLHEIGHT
 40
4.0
  9
$LOFTANG1
 40
1.570796326794896
  9
$LOFTANG2
 40
1.570796326794896
  9
$LOFTMAG1
 40
0.0
  9
$LOFTMAG2
 40
0.0
  9
$LOFTPARAM
 70
     7
  9
$LOFTNORMALS
280
     1
  9
$LATITUDE
 40
37.795
  9
$LONGITUDE
 40
-122.394
  9
$NORTHDIRECTION
 40
0.0
  9
$TIMEZONE
 70
 -8000
  9
$LIGHTGLYPHDISPLAY
280
     1
  9
$TILEMODELIGHTSYNCH
280
     1
  9
$CMATERIAL
347
C71
  9
$SOLIDHIST
280
     1
  9
$SHOWHIST
280
     1
  9
$DWFFRAME
280
     2
  9
$DGNFRAME
280
     0
  9
$REALWORLDSCALE
290
     1
  9
$INTERFERECOLOR
 62
     1
  9
$INTERFEREOBJVS
345
C7E
  9
$INTERFEREVPVS
346
651B
  9
$CSHADOW
280
     0
  9
$SHADOWPLANELOCATION
 40
0.0
  0
ENDSEC
  0
SECTION
  2
CLASSES
  0
CLASS
  1
ACDBDICTIONARYWDFLT
  2
AcDbDictionaryWithDefault
  3
ObjectDBX Classes
 90
        0
 91
        1
280
     0
281
     0
  0
CLASS
  1
DICTIONARYVAR
  2
AcDbDictionaryVar
  3
ObjectDBX Classes
 90
        0
 91
       13
280
     0
281
     0
  0
CLASS
  1
SORTENTSTABLE
  2
AcDbSortentsTable
  3
ObjectDBX Classes
 90
        0
 91
        1
280
     0
281
     0
  0
CLASS
  1
MATERIAL
  2
AcDbMaterial
  3
ObjectDBX Classes
 90
     1153
 91
        3
280
     0
281
     0
  0
CLASS
  1
VISUALSTYLE
  2
AcDbVisualStyle
  3
ObjectDBX Classes
 90
     4095
 91
       26
280
     0
281
     0
  0
CLASS
  1
TABLESTYLE
  2
AcDbTableStyle
  3
ObjectDBX Classes
 90
     4095
 91
        1
280
     0
281
     0
  0
CLASS
  1
ACAD_EVALUATION_GRAPH
  2
AcDbEvalGraph
  3
ObjectDBX Classes
 90
     1153
 91
        0
280
     0
281
     0
  0
CLASS
  1
ACAECUSTOBJ
  2
AcAeEditorObj
  3
AcAeEditorObj
 90
     1024
 91
        0
280
     0
281
     0
  0
CLASS
  1
ACDB_DYNAMICBLOCKPURGEPREVENTER_VERSION
  2
AcDbDynamicBlockPurgePreventer
  3
ObjectDBX Classes
 90
     1153
 91
        0
280
     0
281
     0
  0
CLASS
  1
SCALE
  2
AcDbScale
  3
ObjectDBX Classes
 90
     1153
 91
       17
280
     0
281
     0
  0
CLASS
  1
MLEADERSTYLE
  2
AcDbMLeaderStyle
  3
ACDB_MLEADERSTYLE_CLASS
 90
     4095
 91
        1
280
     0
281
     0
  0
CLASS
  1
ACDBSECTIONVIEWSTYLE
  2
AcDbSectionViewStyle
  3
ObjectDBX Classes
 90
     1025
 91
        1
280
     0
281
     0
  0
CLASS
  1
ACDBDETAILVIEWSTYLE
  2
AcDbDetailViewStyle
  3
ObjectDBX Classes
 90
     1025
 91
        1
280
     0
281
     0
  0
CLASS
  1
CELLSTYLEMAP
  2
AcDbCellStyleMap
  3
ObjectDBX Classes
 90
     1152
 91
        1
280
     0
281
     0
  0
ENDSEC
  0
SECTION
  2
TABLES
  0
TABLE
  2
VPORT
  5
1D
102
{ACAD_XDICTIONARY
360
E64
102
}
330
0
100
AcDbSymbolTable
 70
     1
  0
VPORT
  5
C33
330
1D
100
AcDbSymbolTableRecord
100
AcDbViewportTableRecord
  2
*Active
 70
     0
 10
0.0
 20
0.0
 11
1.0
 21
1.0
 12
198.923035138182
 22
137.5047588665696
 13
0.0
 23
0.0
 14
1.399999999999999
 24
1.399999999999999
 15
1.0
 25
1.0
 16
0.0
 26
0.0
 36
1.0
 17
0.0
 27
0.0
 37
0.0
 40
277.3066880425491
 41
2.123873873873873
 42
50.0
 43
0.0
 44
0.0
 50
0.0
 51
0.0
 71
     0
 72
   100
 73
     1
 74
     0
 75
     0
 76
     0
 77
     0
 78
     2
281
     0
 65
     1
110
0.0
120
0.0
130
0.0
111
1.0
121
0.0
131
0.0
112
0.0
122
1.0
132
0.0
 79
     0
146
0.0
348
C7A
 60
     3
 61
     5
292
     1
282
     1
141
0.0
142
0.0
 63
   250
421
  3355443
1001
ACAD_NAV_VCDISPLAY
1070
     3
  0
ENDTAB
  0
TABLE
  2
LTYPE
  5
18
330
0
100
AcDbSymbolTable
 70
     4
  0
LTYPE
  5
19
330
18
100
AcDbSymbolTableRecord
100
AcDbLinetypeTableRecord
  2
BYBLOCK
 70
     0
  3

 72
    65
 73
     0
 40
0.0
  0
LTYPE
  5
1A
330
18
100
AcDbSymbolTableRecord
100
AcDbLinetypeTableRecord
  2
BYLAYER
 70
     0
  3

 72
    65
 73
     0
 40
0.0
  0
LTYPE
  5
A
330
18
100
AcDbSymbolTableRecord
100
AcDbLinetypeTableRecord
  2
CONTINUOUS
 70
     0
  3
Solid line
 72
    65
 73
     0
 40
0.0
  0
LTYPE
  5
E14
330
18
100
AcDbSymbolTableRecord
100
AcDbLinetypeTableRecord
  2
CENTER
 70
     0
  3
____ _ ____ _ ____ _ ____ _ ____ _ ____ _ ____ 
 72
    65
 73
     4
 40
2.0
 49
1.25
 74
     0
 49
-0.25
 74
     0
 49
0.25
 74
     0
 49
-0.25
 74
     0
  0
LTYPE
  5
14DF
330
18
100
AcDbSymbolTableRecord
100
AcDbLinetypeTableRecord
  2
HIDDEN
 70
     0
  3
Hidden __ __ __ __ __ __ __ __ __ __ __ __ __ __
 72
    65
 73
     2
 40
0.375
 49
0.25
 74
     0
 49
-0.125
 74
     0
  0
LTYPE
  5
653A
330
18
100
AcDbSymbolTableRecord
100
AcDbLinetypeTableRecord
  2
PHANTOM2
 70
     0
  3
___ _ _ ___ _ _ ___ _ _ ___ _ _
 72
    65
 73
     6
 40
1.25
 49
0.625
 74
     0
 49
-0.125
 74
     0
 49
0.125
 74
     0
 49
-0.125
 74
     0
 49
0.125
 74
     0
 49
-0.125
 74
     0
  0
ENDTAB
  0
TABLE
  2
LAYER
  5
14
102
{ACAD_XDICTIONARY
360
115
102
}
330
0
100
AcDbSymbolTable
 70
     6
  0
LAYER
  5
6
102
{ACAD_XDICTIONARY
360
6544
102
}
330
14
100
AcDbSymbolTableRecord
100
AcDbLayerTableRecord
  2
0
 70
     0
 62
     7
  6
CONTINUOUS
370
    -3
390
7
347
C73
348
0
  0
LAYER
  5
26
102
{ACAD_XDICTIONARY
360
6546
102
}
330
14
100
AcDbSymbolTableRecord
100
AcDbLayerTableRecord
  2
ADM
 70
     0
 62
     4
  6
CONTINUOUS
370
    -3
390
7
347
C73
348
0
  0
LAYER
  5
111
102
{ACAD_XDICTIONARY
360
654E
102
}
330
14
100
AcDbSymbolTableRecord
100
AcDbLayerTableRecord
  2
WAKU
 70
     0
 62
     7
  6
CONTINUOUS
370
    -3
390
7
347
C73
348
0
  0
LAYER
  5
399
330
14
100
AcDbSymbolTableRecord
100
AcDbLayerTableRecord
  2
DEFPOINTS
 70
     0
 62
     6
  6
CONTINUOUS
290
     0
370
    -3
390
7
347
C73
348
0
  0
LAYER
  5
E15
102
{ACAD_XDICTIONARY
360
6554
102
}
330
14
100
AcDbSymbolTableRecord
100
AcDbLayerTableRecord
  2
ACL
 70
     0
 62
     1
  6
CENTER
370
    -3
390
7
347
C73
348
0
  0
LAYER
  5
14E0
102
{ACAD_XDICTIONARY
360
655E
102
}
330
14
100
AcDbSymbolTableRecord
100
AcDbLayerTableRecord
  2
ALH
 70
     0
 62
     9
  6
HIDDEN
370
    -3
390
7
347
C73
348
0
  0
ENDTAB
  0
TABLE
  2
STYLE
  5
15
330
0
100
AcDbSymbolTable
 70
     3
  0
STYLE
  5
16
330
15
100
AcDbSymbolTableRecord
100
AcDbTextStyleTableRecord
  2
STANDARD
 70
     0
 40
0.0
 41
0.8
 50
0.0
 71
     0
 42
5.0
  3
romans.shx
  4
extfont.shx
  0
STYLE
  5
2B8B
330
15
100
AcDbSymbolTableRecord
100
AcDbTextStyleTableRecord
  2
STYLE1
 70
     4
 40
0.0
 41
0.8
 50
0.0
 71
     0
 42
4.0
  3
romans.shx
  4
extfont.shx
  0
ENDTAB
  0
TABLE
  2
VIEW
  5
1B
330
0
100
AcDbSymbolTable
 70
     0
  0
ENDTAB
  0
TABLE
  2
UCS
  5
1C
330
0
100
AcDbSymbolTable
 70
     0
  0
ENDTAB
  0
TABLE
  2
APPID
  5
1F
330
0
100
AcDbSymbolTable
 70
    26
  0
APPID
  5
20
330
1F
100
AcDbSymbolTableRecord
100
AcDbRegAppTableRecord
  2
ACAD
 70
     0
  0
APPID
  5
606
330
1F
100
AcDbSymbolTableRecord
100
AcDbRegAppTableRecord
  2
ASKOBJSC
 70
     0
  0
APPID
  5
607
330
1F
100
AcDbSymbolTableRecord
100
AcDbRegAppTableRecord
  2
ASKDWGSC
 70
     0
  0
APPID
  5
C67
330
1F
100
AcDbSymbolTableRecord
100
AcDbRegAppTableRecord
  2
CONTENTBLOCKICON
 70
     0
  0
APPID
  5
D1F
330
1F
100
AcDbSymbolTableRecord
100
AcDbRegAppTableRecord
  2
ACAD_EXEMPT_FROM_CAD_STANDARDS
 70
     0
  0
APPID
  5
1107
330
1F
100
AcDbSymbolTableRecord
100
AcDbRegAppTableRecord
  2
ACAUTHENVIRON
 70
     0
  0
APPID
  5
110B
330
1F
100
AcDbSymbolTableRecord
100
AcDbRegAppTableRecord
  2
AcDbDynamicBlockTrueName
 70
     0
  0
APPID
  5
110C
330
1F
100
AcDbSymbolTableRecord
100
AcDbRegAppTableRecord
  2
AcDbDynamicBlockGUID
 70
     0
  0
APPID
  5
110E
330
1F
100
AcDbSymbolTableRecord
100
AcDbRegAppTableRecord
  2
AcDbBlockRepETag
 70
     0
  0
APPID
  5
1A81
330
1F
100
AcDbSymbolTableRecord
100
AcDbRegAppTableRecord
  2
GENIUS_GENODEF_13
 70
     0
  0
APPID
  5
1A82
330
1F
100
AcDbSymbolTableRecord
100
AcDbRegAppTableRecord
  2
GENIUS_GENOBJ-N-CEN_13
 70
     0
  0
APPID
  5
1A83
330
1F
100
AcDbSymbolTableRecord
100
AcDbRegAppTableRecord
  2
GENIUS_GENOBJ-N-FIL_13
 70
     0
  0
APPID
  5
1A84
330
1F
100
AcDbSymbolTableRecord
100
AcDbRegAppTableRecord
  2
GENIUS_GENCEN_19
 70
     0
  0
APPID
  5
2048
330
1F
100
AcDbSymbolTableRecord
100
AcDbRegAppTableRecord
  2
GENIUS_GENFIL_13
 70
     0
  0
APPID
  5
2049
330
1F
100
AcDbSymbolTableRecord
100
AcDbRegAppTableRecord
  2
GENIUS_GENOBJ-N-CHA_13
 70
     0
  0
APPID
  5
20E9
330
1F
100
AcDbSymbolTableRecord
100
AcDbRegAppTableRecord
  2
GENIUS_GENREC_14
 70
     0
  0
APPID
  5
20EA
330
1F
100
AcDbSymbolTableRecord
100
AcDbRegAppTableRecord
  2
GENIUS_GENOBJ-N-REC_13
 70
     0
  0
APPID
  5
20EB
330
1F
100
AcDbSymbolTableRecord
100
AcDbRegAppTableRecord
  2
GENIUS_GENOBJ-N-HTC_13
 70
     0
  0
APPID
  5
20EC
330
1F
100
AcDbSymbolTableRecord
100
AcDbRegAppTableRecord
  2
GENIUS_GENHATCH_13
 70
     0
  0
APPID
  5
2B8C
330
1F
100
AcDbSymbolTableRecord
100
AcDbRegAppTableRecord
  2
ACAD_PSEXT
 70
     0
  0
APPID
  5
4879
330
1F
100
AcDbSymbolTableRecord
100
AcDbRegAppTableRecord
  2
ACAD_DSTYLE_DIMJOGGED_JOGANGLE_SYMBOL
 70
     0
  0
APPID
  5
6566
330
1F
100
AcDbSymbolTableRecord
100
AcDbRegAppTableRecord
  2
ACAD_NAV_VCDISPLAY
 70
     0
  0
APPID
  5
693C
330
1F
100
AcDbSymbolTableRecord
100
AcDbRegAppTableRecord
  2
GradientColor1ACI
 70
     0
  0
APPID
  5
693D
330
1F
100
AcDbSymbolTableRecord
100
AcDbRegAppTableRecord
  2
GradientColor2ACI
 70
     0
  0
APPID
  5
6CA2
330
1F
100
AcDbSymbolTableRecord
100
AcDbRegAppTableRecord
  2
AcadAnnoMonitorAlertIconDisabled
 70
     0
  0
APPID
  5
D614
330
1F
100
AcDbSymbolTableRecord
100
AcDbRegAppTableRecord
  2
ACAD_DSTYLE_DIMRADIAL_EXTENSION
 70
     0
  0
ENDTAB
  0
TABLE
  2
DIMSTYLE
  5
21
330
0
100
AcDbSymbolTable
 70
     3
100
AcDbDimStyleTable
 71
     1
340
104D
  0
DIMSTYLE
105
104D
330
21
100
AcDbSymbolTableRecord
100
AcDbDimStyleTableRecord
  2
S1
 70
     0
 41
2.0
 42
1.0
 43
0.0
 44
0.0
 73
     0
 74
     0
 77
     3
 78
     8
 79
     2
140
3.0
141
0.0
145
1.0
146
0.7
147
1.0
172
     1
178
     4
179
     2
271
     2
272
     2
279
     1
283
     2
284
     8
285
     8
286
     8
340
16
344
10B
  0
DIMSTYLE
105
104E
102
{ACAD_REACTORS
330
8E18
330
8E19
330
8E1A
330
8E1B
330
8E1C
330
8DC6
330
8DBA
330
8DBB
330
8DBC
330
8DBD
330
8DBE
330
8DBF
330
8DC0
330
8DC1
330
8DC2
330
8E0C
330
8E0D
330
8E0E
330
8E0F
330
8E10
330
8E11
330
8E12
330
8E13
330
8E14
330
8E15
330
8E16
330
8E17
102
}
330
21
100
AcDbSymbolTableRecord
100
AcDbDimStyleTableRecord
  2
S1$0
 70
     0
 41
0.8
 42
1.0
 43
0.0
 44
0.0
 73
     0
 74
     0
 77
     3
 78
     8
 79
     2
140
3.0
141
0.0
145
1.0
146
0.7
147
1.0
172
     1
178
     4
179
     2
271
     2
272
     2
279
     1
283
     2
284
     8
285
     8
286
     8
340
16
341
DBC
342
DBC
  0
ENDTAB
  0
TABLE
  2
BLOCK_RECORD
  5
1
330
0
100
AcDbSymbolTable
 70
    30
  0
BLOCK_RECORD
  5
2
102
{ACAD_XDICTIONARY
360
3
102
}
330
1
100
AcDbSymbolTableRecord
100
AcDbBlockTableRecord
  2
*MODEL_SPACE
340
C
 70
     0
280
     1
281
     0
  0
BLOCK_RECORD
  5
E
102
{ACAD_XDICTIONARY
360
F
102
}
330
1
100
AcDbSymbolTableRecord
100
AcDbBlockTableRecord
  2
*PAPER_SPACE
340
13
 70
     0
280
     1
281
     0
  0
BLOCK_RECORD
  5
10B
330
1
100
AcDbSymbolTableRecord
100
AcDbBlockTableRecord
  2
_DOTSMALL
340
0
 70
     0
280
     1
281
     0
  0
BLOCK_RECORD
  5
DBC
330
1
100
AcDbSymbolTableRecord
100
AcDbBlockTableRecord
  2
_Dot
340
0
310
2800000020000000200000000100080000000000000400000000000000000000000000000000000000000000000080000080000000808000800000008000800080800000C0C0C000C0DCC000F0CAA6000020400000206000002080000020A0000020C0000020E00000400000004020000040400000406000004080000040A0
310
000040C0000040E00000600000006020000060400000606000006080000060A0000060C0000060E00000800000008020000080400000806000008080000080A0000080C0000080E00000A0000000A0200000A0400000A0600000A0800000A0A00000A0C00000A0E00000C0000000C0200000C0400000C0600000C0800000C0
310
A00000C0C00000C0E00000E0000000E0200000E0400000E0600000E0800000E0A00000E0C00000E0E00040000000400020004000400040006000400080004000A0004000C0004000E00040200000402020004020400040206000402080004020A0004020C0004020E000404000004040200040404000404060004040800040
310
40A0004040C0004040E00040600000406020004060400040606000406080004060A0004060C0004060E00040800000408020004080400040806000408080004080A0004080C0004080E00040A0000040A0200040A0400040A0600040A0800040A0A00040A0C00040A0E00040C0000040C0200040C0400040C0600040C08000
310
40C0A00040C0C00040C0E00040E0000040E0200040E0400040E0600040E0800040E0A00040E0C00040E0E00080000000800020008000400080006000800080008000A0008000C0008000E00080200000802020008020400080206000802080008020A0008020C0008020E00080400000804020008040400080406000804080
310
008040A0008040C0008040E00080600000806020008060400080606000806080008060A0008060C0008060E00080800000808020008080400080806000808080008080A0008080C0008080E00080A0000080A0200080A0400080A0600080A0800080A0A00080A0C00080A0E00080C0000080C0200080C0400080C0600080C0
310
800080C0A00080C0C00080C0E00080E0000080E0200080E0400080E0600080E0800080E0A00080E0C00080E0E000C0000000C0002000C0004000C0006000C0008000C000A000C000C000C000E000C0200000C0202000C0204000C0206000C0208000C020A000C020C000C020E000C0400000C0402000C0404000C0406000C0
310
408000C040A000C040C000C040E000C0600000C0602000C0604000C0606000C0608000C060A000C060C000C060E000C0800000C0802000C0804000C0806000C0808000C080A000C080C000C080E000C0A00000C0A02000C0A04000C0A06000C0A08000C0A0A000C0A0C000C0A0E000C0C00000C0C02000C0C04000C0C06000
310
C0C08000C0C0A000F0FBFF00A4A0A000808080000000FF0000FF000000FFFF00FF000000FF00FF00FFFF0000FFFFFF0000000000000000000000000000000000000000000000000000000000000000000000000000000000000000000000000000000000000000000000000000000000000000000000000000000000000000
310
000000000000000000000000000000000000000000000000000000000000000000000000000000000000000000000000000000000000000000000000000000000000000000000000000000000000000000000000000000000000000000000000000000FFFFFFFFFFFFFFFFFFFFFFFFFF000000000000000000000000000000
310
000000FF00FF000000000000000000FF00FF0000000000000000000000000000000000FF00FF000000000000000000FF00FF00000000000000000000000000000000FF000000FF00000000000000FF00000000000000000000000000000000000000FF000000FF00000000000000FF00000000000000000000000000000000
310
0000FF0000000000FF0000000000FF00000000000000000000000000000000000000FF0000000000FF0000000000FF000000000000000000000000000000000000FF00000000000000FF000000FF00000000000000000000000000000000000000FF00000000000000FF000000FF0000000000000000000000000000000000
310
00FF000000000000000000FF00FF00000000000000000000000000000000000000FF000000000000000000FFFFFF00000000FFFF00FFFFFFFFFFFFFFFFFFFFFFFFFFFFFFFFFFFFFFFFFFFFFFFFFFFFFFFFFF000000000000000000000000000000FF000000000000000000FF00FF0000000000000000000000000000000000
310
0000FF0000000000000000FF000000FF00000000000000000000000000000000000000FF00000000000000FF000000FF00000000000000000000000000000000000000FF000000000000FF0000000000FF00000000000000000000000000000000000000FF0000000000FF0000000000FF0000000000000000000000000000
310
000000000000FF000000FF00000000000000FF00000000000000000000000000000000000000FF000000FF00000000000000FF0000000000000000000000000000000000000000FF00FF000000000000000000FF00FF0000000000000000000000000000000000FF00FF000000000000000000FF00FF000000000000000000
310
000000000000000000FFFFFFFFFFFFFFFFFFFFFFFFFF000000000000000000000000000000000000000000000000000000000000000000000000000000000000000000000000000000000000000000000000000000000000000000000000000000000000000000000000000000000000000000000000000000000000000000
310
0000000000000000000000000000000000000000000000000000000000000000000000000000000000000000000000000000000000000000
102
{BLKREFS
331
D721
331
D722
331
D72A
331
D72B
331
D733
331
D734
331
D73C
331
D73D
331
D745
331
D746
331
D74E
331
D74F
331
D757
331
D758
331
D760
331
D761
331
D769
331
D76A
331
D772
331
D773
331
D77B
331
D77C
331
D784
331
D785
331
D78D
331
D78E
331
D796
331
D797
331
D79F
331
D7A0
331
D7A8
331
D7A9
331
D7B1
331
D7B2
331
D7BA
331
D7BB
331
D7C3
331
D7C4
331
D7CC
331
D7CD
331
D7D5
331
D7D6
331
D7DE
331
D7DF
331
D7E7
331
D7E8
331
D7F0
331
D7F1
331
D7F9
331
D7FA
331
D807
331
D808
331
D814
331
D815
102
}
 70
     0
280
     1
281
     0
  0
BLOCK_RECORD
  5
8E1D
330
1
100
AcDbSymbolTableRecord
100
AcDbBlockTableRecord
  2
*D2
340
0
 70
     0
280
     1
281
     0
  0
BLOCK_RECORD
  5
8E29
330
1
100
AcDbSymbolTableRecord
100
AcDbBlockTableRecord
  2
*D3
340
0
 70
     0
280
     1
281
     0
  0
BLOCK_RECORD
  5
8E35
330
1
100
AcDbSymbolTableRecord
100
AcDbBlockTableRecord
  2
*D4
340
0
 70
     0
280
     1
281
     0
  0
BLOCK_RECORD
  5
8E41
330
1
100
AcDbSymbolTableRecord
100
AcDbBlockTableRecord
  2
*D5
340
0
 70
     0
280
     1
281
     0
  0
BLOCK_RECORD
  5
8E51
330
1
100
AcDbSymbolTableRecord
100
AcDbBlockTableRecord
  2
*D6
340
0
 70
     0
280
     1
281
     0
  0
BLOCK_RECORD
  5
8E61
330
1
100
AcDbSymbolTableRecord
100
AcDbBlockTableRecord
  2
*D7
340
0
 70
     0
280
     1
281
     0
  0
BLOCK_RECORD
  5
8E6D
330
1
100
AcDbSymbolTableRecord
100
AcDbBlockTableRecord
  2
*D8
340
0
 70
     0
280
     1
281
     0
  0
BLOCK_RECORD
  5
8E79
330
1
100
AcDbSymbolTableRecord
100
AcDbBlockTableRecord
  2
*D9
340
0
 70
     0
280
     1
281
     0
  0
BLOCK_RECORD
  5
8E85
330
1
100
AcDbSymbolTableRecord
100
AcDbBlockTableRecord
  2
*D10
340
0
 70
     0
280
     1
281
     0
  0
BLOCK_RECORD
  5
8E91
330
1
100
AcDbSymbolTableRecord
100
AcDbBlockTableRecord
  2
*D11
340
0
 70
     0
280
     1
281
     0
  0
BLOCK_RECORD
  5
8E9D
330
1
100
AcDbSymbolTableRecord
100
AcDbBlockTableRecord
  2
*D12
340
0
 70
     0
280
     1
281
     0
  0
BLOCK_RECORD
  5
8EA9
330
1
100
AcDbSymbolTableRecord
100
AcDbBlockTableRecord
  2
*D13
340
0
 70
     0
280
     1
281
     0
  0
BLOCK_RECORD
  5
8EB5
330
1
100
AcDbSymbolTableRecord
100
AcDbBlockTableRecord
  2
*D14
340
0
 70
     0
280
     1
281
     0
  0
BLOCK_RECORD
  5
8EC1
330
1
100
AcDbSymbolTableRecord
100
AcDbBlockTableRecord
  2
*D15
340
0
 70
     0
280
     1
281
     0
  0
BLOCK_RECORD
  5
8ECD
330
1
100
AcDbSymbolTableRecord
100
AcDbBlockTableRecord
  2
*D16
340
0
 70
     0
280
     1
281
     0
  0
BLOCK_RECORD
  5
8ED9
330
1
100
AcDbSymbolTableRecord
100
AcDbBlockTableRecord
  2
*D17
340
0
 70
     0
280
     1
281
     0
  0
BLOCK_RECORD
  5
8EE5
330
1
100
AcDbSymbolTableRecord
100
AcDbBlockTableRecord
  2
*D18
340
0
 70
     0
280
     1
281
     0
  0
BLOCK_RECORD
  5
8EF1
330
1
100
AcDbSymbolTableRecord
100
AcDbBlockTableRecord
  2
*D19
340
0
 70
     0
280
     1
281
     0
  0
BLOCK_RECORD
  5
8EFD
330
1
100
AcDbSymbolTableRecord
100
AcDbBlockTableRecord
  2
*D20
340
0
 70
     0
280
     1
281
     0
  0
BLOCK_RECORD
  5
8F09
330
1
100
AcDbSymbolTableRecord
100
AcDbBlockTableRecord
  2
*D21
340
0
 70
     0
280
     1
281
     0
  0
BLOCK_RECORD
  5
8F15
330
1
100
AcDbSymbolTableRecord
100
AcDbBlockTableRecord
  2
*D22
340
0
 70
     0
280
     1
281
     0
  0
BLOCK_RECORD
  5
8F21
330
1
100
AcDbSymbolTableRecord
100
AcDbBlockTableRecord
  2
*D23
340
0
 70
     0
280
     1
281
     0
  0
BLOCK_RECORD
  5
8F2D
330
1
100
AcDbSymbolTableRecord
100
AcDbBlockTableRecord
  2
*D24
340
0
 70
     0
280
     1
281
     0
  0
BLOCK_RECORD
  5
8F39
330
1
100
AcDbSymbolTableRecord
100
AcDbBlockTableRecord
  2
*D25
340
0
 70
     0
280
     1
281
     0
  0
BLOCK_RECORD
  5
8F45
330
1
100
AcDbSymbolTableRecord
100
AcDbBlockTableRecord
  2
*D26
340
0
 70
     0
280
     1
281
     0
  0
BLOCK_RECORD
  5
8F51
330
1
100
AcDbSymbolTableRecord
100
AcDbBlockTableRecord
  2
*D27
340
0
 70
     0
280
     1
281
     0
  0
BLOCK_RECORD
  5
8F5D
330
1
100
AcDbSymbolTableRecord
100
AcDbBlockTableRecord
  2
*D28
340
0
 70
     0
280
     1
281
     0
  0
ENDTAB
  0
ENDSEC
  0
SECTION
  2
BLOCKS
  0
BLOCK
  5
5
330
2
100
AcDbEntity
  8
0
100
AcDbBlockBegin
  2
*MODEL_SPACE
 70
     0
 10
0.0
 20
0.0
 30
0.0
  3
*MODEL_SPACE
  1

  0
ENDBLK
  5
B
330
2
100
AcDbEntity
  8
0
100
AcDbBlockEnd
  0
BLOCK
  5
11
330
E
100
AcDbEntity
 67
     1
  8
0
100
AcDbBlockBegin
  2
*PAPER_SPACE
 70
     0
 10
0.0
 20
0.0
 30
0.0
  3
*PAPER_SPACE
  1

  0
ENDBLK
  5
12
330
E
100
AcDbEntity
 67
     1
  8
0
100
AcDbBlockEnd
  0
BLOCK
  5
10C
330
10B
100
AcDbEntity
  8
0
100
AcDbBlockBegin
  2
_DOTSMALL
 70
     0
 10
0.0
 20
0.0
 30
0.0
  3
_DOTSMALL
  1

  0
LWPOLYLINE
  5
10D
330
10B
100
AcDbEntity
  8
0
  6
ByBlock
 62
     0
100
AcDbPolyline
 90
        2
 70
     1
 43
0.5
 10
-0.0625
 20
0.0
 42
1.0
 10
0.0625
 20
0.0
 42
1.0
  0
ENDBLK
  5
10E
330
10B
100
AcDbEntity
  8
0
100
AcDbBlockEnd
  0
BLOCK
  5
DBD
330
DBC
100
AcDbEntity
  8
0
100
AcDbBlockBegin
  2
_Dot
 70
     0
 10
0.0
 20
0.0
 30
0.0
  3
_Dot
  1

  0
LWPOLYLINE
  5
DBE
330
DBC
100
AcDbEntity
  8
0
  6
ByBlock
 62
     0
100
AcDbPolyline
 90
        2
 70
     1
 43
0.5
 10
-0.25
 20
0.0
 42
1.0
 10
0.25
 20
0.0
 42
1.0
  0
LINE
  5
DBF
330
DBC
100
AcDbEntity
  8
0
  6
ByBlock
 62
     0
370
    -2
100
AcDbLine
 10
-0.5
 20
0.0
 30
0.0
 11
-1.0
 21
0.0
 31
0.0
  0
ENDBLK
  5
DC0
330
DBC
100
AcDbEntity
  8
0
100
AcDbBlockEnd
  0
BLOCK
  5
8E1E
330
8E1D
100
AcDbEntity
  8
0
100
AcDbBlockBegin
  2
*D2
 70
     1
 10
0.0
 20
0.0
 30
0.0
  3
*D2
  1

  0
LINE
  5
D7E4
330
8E1D
100
AcDbEntity
  8
ADM
 62
     0
440
 16777216
370
    -2
100
AcDbLine
 10
140.3437397443717
 20
96.30331918690231
 30
0.0
 11
125.2515178781282
 21
96.30331918690231
 31
0.0
  0
LINE
  5
D7E5
330
8E1D
100
AcDbEntity
  8
ADM
 62
     0
440
 16777216
370
    -2
100
AcDbLine
 10
140.343739744374
 20
146.3033191869023
 30
0.0
 11
125.2515178781282
 21
146.3033191869023
 31
0.0
  0
LINE
  5
D7E6
330
8E1D
100
AcDbEntity
  8
ADM
 62
     0
440
 16777216
370
    -2
100
AcDbLine
 10
125.2515178781282
 20
97.10331918690231
 30
0.0
 11
125.2515178781282
 21
145.5033191869022
 31
0.0
  0
INSERT
  5
D7E7
330
8E1D
100
AcDbEntity
  8
ADM
 62
     0
440
 16777216
370
    -2
100
AcDbBlockReference
  2
_Dot
 10
125.2515178781282
 20
96.30331918690231
 30
0.0
 41
0.8
 42
0.8
 43
0.8
 50
270.0
  0
INSERT
  5
D7E8
330
8E1D
100
AcDbEntity
  8
ADM
 62
     0
440
 16777216
370
    -2
100
AcDbBlockReference
  2
_Dot
 10
125.2515178781282
 20
146.3033191869023
 30
0.0
 41
0.8
 42
0.8
 43
0.8
 50
90.0
  0
MTEXT
  5
D7E9
330
8E1D
100
AcDbEntity
  8
ADM
 62
     4
440
 16777216
100
AcDbMText
 10
122.7515178781282
 20
121.3033191869023
 30
0.0
 40
3.0
 41
0.0
 46
0.0
 71
     5
 72
     1
  1
\A2;50
 11
0.0000000000000001
 21
1.0
 31
0.0
 73
     1
 44
1.0
  0
POINT
  5
D7EA
330
8E1D
100
AcDbEntity
  8
DEFPOINTS
 62
     0
440
 16777216
100
AcDbPoint
 10
141.3437397443717
 20
96.30331918690231
 30
0.0
  0
POINT
  5
D7EB
330
8E1D
100
AcDbEntity
  8
DEFPOINTS
 62
     0
440
 16777216
100
AcDbPoint
 10
141.343739744374
 20
146.3033191869023
 30
0.0
  0
POINT
  5
D7EC
330
8E1D
100
AcDbEntity
  8
DEFPOINTS
 62
     0
440
 16777216
100
AcDbPoint
 10
125.2515178781282
 20
146.3033191869023
 30
0.0
  0
ENDBLK
  5
8E1F
330
8E1D
100
AcDbEntity
  8
0
100
AcDbBlockEnd
  0
BLOCK
  5
8E2A
330
8E29
100
AcDbEntity
  8
0
100
AcDbBlockBegin
  2
*D3
 70
     1
 10
0.0
 20
0.0
 30
0.0
  3
*D3
  1

  0
LINE
  5
D7ED
330
8E29
100
AcDbEntity
  8
ADM
 62
     0
440
 16777216
370
    -2
100
AcDbLine
 10
140.3437397443724
 20
143.3033191869018
 30
0.0
 11
140.3437397443724
 21
171.2078068931375
 31
0.0
  0
LINE
  5
D7EE
330
8E29
100
AcDbEntity
  8
ADM
 62
     0
440
 16777216
370
    -2
100
AcDbLine
 10
177.3437397443722
 20
146.8033191869024
 30
0.0
 11
177.3437397443722
 21
171.2078068931375
 31
0.0
  0
LINE
  5
D7EF
330
8E29
100
AcDbEntity
  8
ADM
 62
     0
440
 16777216
370
    -2
100
AcDbLine
 10
141.1437397443724
 20
171.2078068931375
 30
0.0
 11
176.5437397443722
 21
171.2078068931375
 31
0.0
  0
INSERT
  5
D7F0
330
8E29
100
AcDbEntity
  8
ADM
 62
     0
440
 16777216
370
    -2
100
AcDbBlockReference
  2
_Dot
 10
140.3437397443724
 20
171.2078068931375
 30
0.0
 41
0.8
 42
0.8
 43
0.8
 50
180.0
  0
INSERT
  5
D7F1
330
8E29
100
AcDbEntity
  8
ADM
 62
     0
440
 16777216
370
    -2
100
AcDbBlockReference
  2
_Dot
 10
177.3437397443722
 20
171.2078068931375
 30
0.0
 41
0.8
 42
0.8
 43
0.8
  0
MTEXT
  5
D7F2
330
8E29
100
AcDbEntity
  8
ADM
 62
     4
440
 16777216
100
AcDbMText
 10
158.8437397443723
 20
173.7078068931375
 30
0.0
 40
3.0
 41
0.0
 46
0.0
 71
     5
 72
     1
  1
\A2;37
 73
     1
 44
1.0
  0
POINT
  5
D7F3
330
8E29
100
AcDbEntity
  8
DEFPOINTS
 62
     0
440
 16777216
100
AcDbPoint
 10
140.3437397443724
 20
142.3033191869018
 30
0.0
  0
POINT
  5
D7F4
330
8E29
100
AcDbEntity
  8
DEFPOINTS
 62
     0
440
 16777216
100
AcDbPoint
 10
177.3437397443722
 20
145.8033191869024
 30
0.0
  0
POINT
  5
D7F5
330
8E29
100
AcDbEntity
  8
DEFPOINTS
 62
     0
440
 16777216
100
AcDbPoint
 10
177.3437397443722
 20
171.2078068931375
 30
0.0
  0
ENDBLK
  5
8E2B
330
8E29
100
AcDbEntity
  8
0
100
AcDbBlockEnd
  0
BLOCK
  5
8E36
330
8E35
100
AcDbEntity
  8
0
100
AcDbBlockBegin
  2
*D4
 70
     1
 10
0.0
 20
0.0
 30
0.0
  3
*D4
  1

  0
LINE
  5
D7F6
330
8E35
100
AcDbEntity
  8
ADM
 62
     0
440
 16777216
370
    -2
100
AcDbLine
 10
333.34373974438
 20
146.8033191869024
 30
0.0
 11
333.34373974438
 21
171.2078068931375
 31
0.0
  0
LINE
  5
D7F7
330
8E35
100
AcDbEntity
  8
ADM
 62
     0
440
 16777216
370
    -2
100
AcDbLine
 10
370.3437397443802
 20
143.3033191869018
 30
0.0
 11
370.3437397443802
 21
171.2078068931375
 31
0.0
  0
LINE
  5
D7F8
330
8E35
100
AcDbEntity
  8
ADM
 62
     0
440
 16777216
370
    -2
100
AcDbLine
 10
334.14373974438
 20
171.2078068931375
 30
0.0
 11
369.5437397443801
 21
171.2078068931375
 31
0.0
  0
INSERT
  5
D7F9
330
8E35
100
AcDbEntity
  8
ADM
 62
     0
440
 16777216
370
    -2
100
AcDbBlockReference
  2
_Dot
 10
333.34373974438
 20
171.2078068931375
 30
0.0
 41
0.8
 42
0.8
 43
0.8
 50
180.0
  0
INSERT
  5
D7FA
330
8E35
100
AcDbEntity
  8
ADM
 62
     0
440
 16777216
370
    -2
100
AcDbBlockReference
  2
_Dot
 10
370.3437397443802
 20
171.2078068931375
 30
0.0
 41
0.8
 42
0.8
 43
0.8
  0
MTEXT
  5
D7FB
330
8E35
100
AcDbEntity
  8
ADM
 62
     4
440
 16777216
100
AcDbMText
 10
351.8437397443801
 20
173.7078068931375
 30
0.0
 40
3.0
 41
0.0
 46
0.0
 71
     5
 72
     1
  1
\A2;37
 73
     1
 44
1.0
  0
POINT
  5
D7FC
330
8E35
100
AcDbEntity
  8
DEFPOINTS
 62
     0
440
 16777216
100
AcDbPoint
 10
333.34373974438
 20
145.8033191869024
 30
0.0
  0
POINT
  5
D7FD
330
8E35
100
AcDbEntity
  8
DEFPOINTS
 62
     0
440
 16777216
100
AcDbPoint
 10
370.3437397443802
 20
142.3033191869018
 30
0.0
  0
POINT
  5
D7FE
330
8E35
100
AcDbEntity
  8
DEFPOINTS
 62
     0
440
 16777216
100
AcDbPoint
 10
370.3437397443802
 20
171.2078068931375
 30
0.0
  0
ENDBLK
  5
8E37
330
8E35
100
AcDbEntity
  8
0
100
AcDbBlockEnd
  0
BLOCK
  5
8E42
330
8E41
100
AcDbEntity
  8
0
100
AcDbBlockBegin
  2
*D5
 70
     1
 10
0.0
 20
0.0
 30
0.0
  3
*D5
  1

  0
LINE
  5
D7FF
330
8E41
100
AcDbEntity
  8
ADM
 62
     0
440
 16777216
370
    -2
100
AcDbLine
 10
84.89719144851482
 20
17.76792811928214
 30
0.0
 11
84.89719144851482
 21
12.34362558948328
 31
0.0
  0
LINE
  5
D800
330
8E41
100
AcDbEntity
  8
ADM
 62
     0
440
 16777216
370
    -2
100
AcDbLine
 10
86.89719144851688
 20
18.76792811928214
 30
0.0
 11
86.89719144851688
 21
12.34362558948328
 31
0.0
  0
LINE
  5
D801
330
8E41
100
AcDbEntity
  8
ADM
 62
     0
440
 16777216
370
    -2
100
AcDbLine
 10
84.09719144851484
 20
12.34362558948328
 30
0.0
 11
83.29719144851484
 21
12.34362558948328
 31
0.0
  0
LINE
  5
D802
330
8E41
100
AcDbEntity
  8
ADM
 62
     0
440
 16777216
370
    -2
100
AcDbLine
 10
87.69719144851688
 20
12.34362558948328
 30
0.0
 11
88.49719144851688
 21
12.34362558948328
 31
0.0
  0
LINE
  5
D803
330
8E41
100
AcDbEntity
  8
ADM
 62
     0
440
 16777216
370
    -2
100
AcDbLine
 10
93.19007690293783
 20
12.34362558948328
 30
0.0
 11
86.89719144851688
 21
12.34362558948328
 31
0.0
  0
MTEXT
  5
D804
330
8E41
100
AcDbEntity
  8
ADM
 62
     4
440
 16777216
100
AcDbMText
 10
91.39007690293784
 20
14.84362558948328
 30
0.0
 40
3.0
 41
0.0
 46
0.0
 71
     5
 72
     1
  1
\A2;2
 73
     1
 44
1.0
  0
LINE
  5
D805
330
8E41
100
AcDbEntity
  8
ADM
 62
     0
440
 16777216
370
    -2
100
AcDbLine
 10
84.89719144851482
 20
12.34362558948328
 30
0.0
 11
86.89719144851688
 21
12.34362558948328
 31
0.0
  0
LINE
  5
D806
330
8E41
100
AcDbEntity
  8
ADM
 62
     0
440
 16777216
370
    -2
100
AcDbLine
 10
84.89719144851482
 20
12.34362558948328
 30
0.0
 11
86.89719144851688
 21
12.34362558948328
 31
0.0
  0
INSERT
  5
D807
330
8E41
100
AcDbEntity
  8
ADM
 62
     0
440
 16777216
370
    -2
100
AcDbBlockReference
  2
_Dot
 10
84.89719144851482
 20
12.34362558948328
 30
0.0
 41
0.8
 42
0.8
 43
0.8
  0
INSERT
  5
D808
330
8E41
100
AcDbEntity
  8
ADM
 62
     0
440
 16777216
370
    -2
100
AcDbBlockReference
  2
_Dot
 10
86.89719144851688
 20
12.34362558948328
 30
0.0
 41
0.8
 42
0.8
 43
0.8
 50
180.0
  0
POINT
  5
D809
330
8E41
100
AcDbEntity
  8
DEFPOINTS
 62
     0
440
 16777216
100
AcDbPoint
 10
84.89719144851482
 20
18.76792811928214
 30
0.0
  0
POINT
  5
D80A
330
8E41
100
AcDbEntity
  8
DEFPOINTS
 62
     0
440
 16777216
100
AcDbPoint
 10
86.89719144851688
 20
19.76792811928214
 30
0.0
  0
POINT
  5
D80B
330
8E41
100
AcDbEntity
  8
DEFPOINTS
 62
     0
440
 16777216
100
AcDbPoint
 10
86.89719144851688
 20
12.34362558948328
 30
0.0
  0
ENDBLK
  5
8E43
330
8E41
100
AcDbEntity
  8
0
100
AcDbBlockEnd
  0
BLOCK
  5
8E52
330
8E51
100
AcDbEntity
  8
0
100
AcDbBlockBegin
  2
*D6
 70
     1
 10
0.0
 20
0.0
 30
0.0
  3
*D6
  1

  0
LINE
  5
D80C
330
8E51
100
AcDbEntity
  8
ADM
 62
     0
440
 16777216
370
    -2
100
AcDbLine
 10
39.89719144851506
 20
19.76792811928211
 30
0.0
 11
39.89719144851506
 21
12.34362558948328
 31
0.0
  0
LINE
  5
D80D
330
8E51
100
AcDbEntity
  8
ADM
 62
     0
440
 16777216
370
    -2
100
AcDbLine
 10
36.89719144851688
 20
18.76792811928214
 30
0.0
 11
36.89719144851688
 21
12.34362558948328
 31
0.0
  0
LINE
  5
D80E
330
8E51
100
AcDbEntity
  8
ADM
 62
     0
440
 16777216
370
    -2
100
AcDbLine
 10
40.69719144851505
 20
12.34362558948328
 30
0.0
 11
41.49719144851506
 21
12.34362558948328
 31
0.0
  0
LINE
  5
D80F
330
8E51
100
AcDbEntity
  8
ADM
 62
     0
440
 16777216
370
    -2
100
AcDbLine
 10
36.09719144851688
 20
12.34362558948328
 30
0.0
 11
35.29719144851688
 21
12.34362558948328
 31
0.0
  0
LINE
  5
D810
330
8E51
100
AcDbEntity
  8
ADM
 62
     0
440
 16777216
370
    -2
100
AcDbLine
 10
30.87818403232468
 20
12.34362558948328
 30
0.0
 11
36.89719144851688
 21
12.34362558948328
 31
0.0
  0
MTEXT
  5
D811
330
8E51
100
AcDbEntity
  8
ADM
 62
     4
440
 16777216
100
AcDbMText
 10
32.67818403232468
 20
14.84362558948328
 30
0.0
 40
3.0
 41
0.0
 46
0.0
 71
     5
 72
     1
  1
\A2;3
 73
     1
 44
1.0
  0
LINE
  5
D812
330
8E51
100
AcDbEntity
  8
ADM
 62
     0
440
 16777216
370
    -2
100
AcDbLine
 10
39.89719144851506
 20
12.34362558948328
 30
0.0
 11
36.89719144851688
 21
12.34362558948328
 31
0.0
  0
LINE
  5
D813
330
8E51
100
AcDbEntity
  8
ADM
 62
     0
440
 16777216
370
    -2
100
AcDbLine
 10
39.89719144851506
 20
12.34362558948328
 30
0.0
 11
36.89719144851688
 21
12.34362558948328
 31
0.0
  0
INSERT
  5
D814
330
8E51
100
AcDbEntity
  8
ADM
 62
     0
440
 16777216
370
    -2
100
AcDbBlockReference
  2
_Dot
 10
39.89719144851506
 20
12.34362558948328
 30
0.0
 41
0.8
 42
0.8
 43
0.8
 50
180.0
  0
INSERT
  5
D815
330
8E51
100
AcDbEntity
  8
ADM
 62
     0
440
 16777216
370
    -2
100
AcDbBlockReference
  2
_Dot
 10
36.89719144851688
 20
12.34362558948328
 30
0.0
 41
0.8
 42
0.8
 43
0.8
  0
POINT
  5
D816
330
8E51
100
AcDbEntity
  8
DEFPOINTS
 62
     0
440
 16777216
100
AcDbPoint
 10
39.89719144851506
 20
20.76792811928211
 30
0.0
  0
POINT
  5
D817
330
8E51
100
AcDbEntity
  8
DEFPOINTS
 62
     0
440
 16777216
100
AcDbPoint
 10
36.89719144851688
 20
19.76792811928214
 30
0.0
  0
POINT
  5
D818
330
8E51
100
AcDbEntity
  8
DEFPOINTS
 62
     0
440
 16777216
100
AcDbPoint
 10
36.89719144851688
 20
12.34362558948328
 30
0.0
  0
ENDBLK
  5
8E53
330
8E51
100
AcDbEntity
  8
0
100
AcDbBlockEnd
  0
BLOCK
  5
8E62
330
8E61
100
AcDbEntity
  8
0
100
AcDbBlockBegin
  2
*D7
 70
     1
 10
0.0
 20
0.0
 30
0.0
  3
*D7
  1

  0
LINE
  5
D76F
330
8E61
100
AcDbEntity
  8
ADM
 62
     0
440
 16777216
370
    -2
100
AcDbLine
 10
87.89719144851687
 20
32.76792811928215
 30
0.0
 11
108.6386157073375
 21
32.76792811928215
 31
0.0
  0
LINE
  5
D770
330
8E61
100
AcDbEntity
  8
ADM
 62
     0
440
 16777216
370
    -2
100
AcDbLine
 10
87.89719144851687
 20
19.76792811928214
 30
0.0
 11
108.6386157073375
 21
19.76792811928214
 31
0.0
  0
LINE
  5
D771
330
8E61
100
AcDbEntity
  8
ADM
 62
     0
440
 16777216
370
    -2
100
AcDbLine
 10
108.6386157073375
 20
31.96792811928214
 30
0.0
 11
108.6386157073375
 21
20.56792811928214
 31
0.0
  0
INSERT
  5
D772
330
8E61
100
AcDbEntity
  8
ADM
 62
     0
440
 16777216
370
    -2
100
AcDbBlockReference
  2
_Dot
 10
108.6386157073375
 20
32.76792811928215
 30
0.0
 41
0.8
 42
0.8
 43
0.8
 50
90.0
  0
INSERT
  5
D773
330
8E61
100
AcDbEntity
  8
ADM
 62
     0
440
 16777216
370
    -2
100
AcDbBlockReference
  2
_Dot
 10
108.6386157073375
 20
19.76792811928214
 30
0.0
 41
0.8
 42
0.8
 43
0.8
 50
270.0
  0
MTEXT
  5
D774
330
8E61
100
AcDbEntity
  8
ADM
 62
     4
440
 16777216
100
AcDbMText
 10
106.1386157073375
 20
26.26792811928216
 30
0.0
 40
3.0
 41
0.0
 46
0.0
 71
     5
 72
     1
  1
\A2;13
 11
0.0000000000000001
 21
1.0
 31
0.0
 73
     1
 44
1.0
  0
POINT
  5
D775
330
8E61
100
AcDbEntity
  8
DEFPOINTS
 62
     0
440
 16777216
100
AcDbPoint
 10
86.89719144851688
 20
32.76792811928215
 30
0.0
  0
POINT
  5
D776
330
8E61
100
AcDbEntity
  8
DEFPOINTS
 62
     0
440
 16777216
100
AcDbPoint
 10
86.89719144851688
 20
19.76792811928214
 30
0.0
  0
POINT
  5
D777
330
8E61
100
AcDbEntity
  8
DEFPOINTS
 62
     0
440
 16777216
100
AcDbPoint
 10
108.6386157073375
 20
19.76792811928214
 30
0.0
  0
ENDBLK
  5
8E63
330
8E61
100
AcDbEntity
  8
0
100
AcDbBlockEnd
  0
BLOCK
  5
8E6E
330
8E6D
100
AcDbEntity
  8
0
100
AcDbBlockBegin
  2
*D8
 70
     1
 10
0.0
 20
0.0
 30
0.0
  3
*D8
  1

  0
LINE
  5
D71E
330
8E6D
100
AcDbEntity
  8
ADM
 62
     0
440
 16777216
370
    -2
100
AcDbLine
 10
39.89719144851483
 20
18.76792811928214
 30
0.0
 11
39.89719144851483
 21
12.34362558948328
 31
0.0
  0
LINE
  5
D71F
330
8E6D
100
AcDbEntity
  8
ADM
 62
     0
440
 16777216
370
    -2
100
AcDbLine
 10
84.89719144851482
 20
18.76792811928214
 30
0.0
 11
84.89719144851482
 21
12.34362558948328
 31
0.0
  0
LINE
  5
D720
330
8E6D
100
AcDbEntity
  8
ADM
 62
     0
440
 16777216
370
    -2
100
AcDbLine
 10
40.69719144851482
 20
12.34362558948328
 30
0.0
 11
84.09719144851484
 21
12.34362558948328
 31
0.0
  0
INSERT
  5
D721
330
8E6D
100
AcDbEntity
  8
ADM
 62
     0
440
 16777216
370
    -2
100
AcDbBlockReference
  2
_Dot
 10
39.89719144851483
 20
12.34362558948328
 30
0.0
 41
0.8
 42
0.8
 43
0.8
 50
180.0
  0
INSERT
  5
D722
330
8E6D
100
AcDbEntity
  8
ADM
 62
     0
440
 16777216
370
    -2
100
AcDbBlockReference
  2
_Dot
 10
84.89719144851482
 20
12.34362558948328
 30
0.0
 41
0.8
 42
0.8
 43
0.8
  0
MTEXT
  5
D723
330
8E6D
100
AcDbEntity
  8
ADM
 62
     4
440
 16777216
100
AcDbMText
 10
62.39719144851483
 20
14.84362558948328
 30
0.0
 40
3.0
 41
0.0
 46
0.0
 71
     5
 72
     1
  1
\A2;45
 73
     1
 44
1.0
  0
POINT
  5
D724
330
8E6D
100
AcDbEntity
  8
DEFPOINTS
 62
     0
440
 16777216
100
AcDbPoint
 10
39.89719144851483
 20
19.76792811928214
 30
0.0
  0
POINT
  5
D725
330
8E6D
100
AcDbEntity
  8
DEFPOINTS
 62
     0
440
 16777216
100
AcDbPoint
 10
84.89719144851482
 20
19.76792811928214
 30
0.0
  0
POINT
  5
D726
330
8E6D
100
AcDbEntity
  8
DEFPOINTS
 62
     0
440
 16777216
100
AcDbPoint
 10
84.89719144851482
 20
12.34362558948328
 30
0.0
  0
ENDBLK
  5
8E6F
330
8E6D
100
AcDbEntity
  8
0
100
AcDbBlockEnd
  0
BLOCK
  5
8E7A
330
8E79
100
AcDbEntity
  8
0
100
AcDbBlockBegin
  2
*D9
 70
     1
 10
0.0
 20
0.0
 30
0.0
  3
*D9
  1

  0
LINE
  5
D727
330
8E79
100
AcDbEntity
  8
ADM
 62
     0
440
 16777216
370
    -2
100
AcDbLine
 10
36.89719144851688
 20
18.76792811928213
 30
0.0
 11
36.89719144851688
 21
5.058868499882692
 31
0.0
  0
LINE
  5
D728
330
8E79
100
AcDbEntity
  8
ADM
 62
     0
440
 16777216
370
    -2
100
AcDbLine
 10
86.89719144851688
 20
18.76792811928214
 30
0.0
 11
86.89719144851688
 21
5.058868499882692
 31
0.0
  0
LINE
  5
D729
330
8E79
100
AcDbEntity
  8
ADM
 62
     0
440
 16777216
370
    -2
100
AcDbLine
 10
37.69719144851688
 20
5.058868499882692
 30
0.0
 11
86.09719144851688
 21
5.058868499882692
 31
0.0
  0
INSERT
  5
D72A
330
8E79
100
AcDbEntity
  8
ADM
 62
     0
440
 16777216
370
    -2
100
AcDbBlockReference
  2
_Dot
 10
36.89719144851688
 20
5.058868499882692
 30
0.0
 41
0.8
 42
0.8
 43
0.8
 50
180.0
  0
INSERT
  5
D72B
330
8E79
100
AcDbEntity
  8
ADM
 62
     0
440
 16777216
370
    -2
100
AcDbBlockReference
  2
_Dot
 10
86.89719144851688
 20
5.058868499882692
 30
0.0
 41
0.8
 42
0.8
 43
0.8
  0
MTEXT
  5
D72C
330
8E79
100
AcDbEntity
  8
ADM
 62
     4
440
 16777216
100
AcDbMText
 10
61.89719144851688
 20
7.558868499882692
 30
0.0
 40
3.0
 41
0.0
 46
0.0
 71
     5
 72
     1
  1
\A2;50
 73
     1
 44
1.0
  0
POINT
  5
D72D
330
8E79
100
AcDbEntity
  8
DEFPOINTS
 62
     0
440
 16777216
100
AcDbPoint
 10
36.89719144851688
 20
19.76792811928213
 30
0.0
  0
POINT
  5
D72E
330
8E79
100
AcDbEntity
  8
DEFPOINTS
 62
     0
440
 16777216
100
AcDbPoint
 10
86.89719144851688
 20
19.76792811928214
 30
0.0
  0
POINT
  5
D72F
330
8E79
100
AcDbEntity
  8
DEFPOINTS
 62
     0
440
 16777216
100
AcDbPoint
 10
86.89719144851688
 20
5.058868499882692
 30
0.0
  0
ENDBLK
  5
8E7B
330
8E79
100
AcDbEntity
  8
0
100
AcDbBlockEnd
  0
BLOCK
  5
8E86
330
8E85
100
AcDbEntity
  8
0
100
AcDbBlockBegin
  2
*D10
 70
     1
 10
0.0
 20
0.0
 30
0.0
  3
*D10
  1

  0
LINE
  5
D730
330
8E85
100
AcDbEntity
  8
ADM
 62
     0
440
 16777216
370
    -2
100
AcDbLine
 10
35.89719144851688
 20
269.7679281192822
 30
0.0
 11
9.044333516993503
 21
269.7679281192822
 31
0.0
  0
LINE
  5
D731
330
8E85
100
AcDbEntity
  8
ADM
 62
     0
440
 16777216
370
    -2
100
AcDbLine
 10
35.89719144851688
 20
19.76792811928214
 30
0.0
 11
9.044333516993447
 21
19.76792811928215
 31
0.0
  0
LINE
  5
D732
330
8E85
100
AcDbEntity
  8
ADM
 62
     0
440
 16777216
370
    -2
100
AcDbLine
 10
9.044333516993503
 20
268.9679281192822
 30
0.0
 11
9.044333516993448
 21
20.56792811928215
 31
0.0
  0
INSERT
  5
D733
330
8E85
100
AcDbEntity
  8
ADM
 62
     0
440
 16777216
370
    -2
100
AcDbBlockReference
  2
_Dot
 10
9.044333516993503
 20
269.7679281192822
 30
0.0
 41
0.8
 42
0.8
 43
0.8
 50
90.0
  0
INSERT
  5
D734
330
8E85
100
AcDbEntity
  8
ADM
 62
     0
440
 16777216
370
    -2
100
AcDbBlockReference
  2
_Dot
 10
9.044333516993447
 20
19.76792811928215
 30
0.0
 41
0.8
 42
0.8
 43
0.8
 50
270.0
  0
MTEXT
  5
D735
330
8E85
100
AcDbEntity
  8
ADM
 62
     4
440
 16777216
100
AcDbMText
 10
6.544333516993452
 20
144.7679281192822
 30
0.0
 40
3.0
 41
0.0
 46
0.0
 71
     5
 72
     1
  1
\A2;H
 11
0.0000000000000001
 21
1.0
 31
0.0
 73
     1
 44
1.0
  0
POINT
  5
D736
330
8E85
100
AcDbEntity
  8
DEFPOINTS
 62
     0
440
 16777216
100
AcDbPoint
 10
36.89719144851688
 20
269.7679281192822
 30
0.0
  0
POINT
  5
D737
330
8E85
100
AcDbEntity
  8
DEFPOINTS
 62
     0
440
 16777216
100
AcDbPoint
 10
36.89719144851688
 20
19.76792811928214
 30
0.0
  0
POINT
  5
D738
330
8E85
100
AcDbEntity
  8
DEFPOINTS
 62
     0
440
 16777216
100
AcDbPoint
 10
9.044333516993447
 20
19.76792811928215
 30
0.0
  0
ENDBLK
  5
8E87
330
8E85
100
AcDbEntity
  8
0
100
AcDbBlockEnd
  0
BLOCK
  5
8E92
330
8E91
100
AcDbEntity
  8
0
100
AcDbBlockBegin
  2
*D11
 70
     1
 10
0.0
 20
0.0
 30
0.0
  3
*D11
  1

  0
LINE
  5
D739
330
8E91
100
AcDbEntity
  8
ADM
 62
     0
440
 16777216
370
    -2
100
AcDbLine
 10
50.39719144851687
 20
236.7679281192823
 30
0.0
 11
19.89901260470332
 21
236.7679281192823
 31
0.0
  0
LINE
  5
D73A
330
8E91
100
AcDbEntity
  8
ADM
 62
     0
440
 16777216
370
    -2
100
AcDbLine
 10
35.89719144851688
 20
269.7679281192822
 30
0.0
 11
19.89901260470333
 21
269.7679281192822
 31
0.0
  0
LINE
  5
D73B
330
8E91
100
AcDbEntity
  8
ADM
 62
     0
440
 16777216
370
    -2
100
AcDbLine
 10
19.89901260470332
 20
237.5679281192823
 30
0.0
 11
19.89901260470333
 21
268.9679281192822
 31
0.0
  0
INSERT
  5
D73C
330
8E91
100
AcDbEntity
  8
ADM
 62
     0
440
 16777216
370
    -2
100
AcDbBlockReference
  2
_Dot
 10
19.89901260470332
 20
236.7679281192823
 30
0.0
 41
0.8
 42
0.8
 43
0.8
 50
270.0
  0
INSERT
  5
D73D
330
8E91
100
AcDbEntity
  8
ADM
 62
     0
440
 16777216
370
    -2
100
AcDbBlockReference
  2
_Dot
 10
19.89901260470333
 20
269.7679281192822
 30
0.0
 41
0.8
 42
0.8
 43
0.8
 50
90.0
  0
MTEXT
  5
D73E
330
8E91
100
AcDbEntity
  8
ADM
 62
     4
440
 16777216
100
AcDbMText
 10
17.39901260470328
 20
253.2679281192822
 30
0.0
 40
3.0
 41
0.0
 46
0.0
 71
     5
 72
     1
  1
\A2;33
 11
0.0000000000000001
 21
1.0
 31
0.0
 73
     1
 44
1.0
  0
POINT
  5
D73F
330
8E91
100
AcDbEntity
  8
DEFPOINTS
 62
     0
440
 16777216
100
AcDbPoint
 10
51.39719144851688
 20
236.7679281192823
 30
0.0
  0
POINT
  5
D740
330
8E91
100
AcDbEntity
  8
DEFPOINTS
 62
     0
440
 16777216
100
AcDbPoint
 10
36.89719144851688
 20
269.7679281192822
 30
0.0
  0
POINT
  5
D741
330
8E91
100
AcDbEntity
  8
DEFPOINTS
 62
     0
440
 16777216
100
AcDbPoint
 10
19.89901260470333
 20
269.7679281192822
 30
0.0
  0
ENDBLK
  5
8E93
330
8E91
100
AcDbEntity
  8
0
100
AcDbBlockEnd
  0
BLOCK
  5
8E9E
330
8E9D
100
AcDbEntity
  8
0
100
AcDbBlockBegin
  2
*D12
 70
     1
 10
0.0
 20
0.0
 30
0.0
  3
*D12
  1

  0
LINE
  5
D742
330
8E9D
100
AcDbEntity
  8
ADM
 62
     0
440
 16777216
370
    -2
100
AcDbLine
 10
50.39719144851687
 20
52.76792811928214
 30
0.0
 11
19.88181945428596
 21
52.76792811928215
 31
0.0
  0
LINE
  5
D743
330
8E9D
100
AcDbEntity
  8
ADM
 62
     0
440
 16777216
370
    -2
100
AcDbLine
 10
35.89719144851688
 20
19.76792811928214
 30
0.0
 11
19.88181945428596
 21
19.76792811928215
 31
0.0
  0
LINE
  5
D744
330
8E9D
100
AcDbEntity
  8
ADM
 62
     0
440
 16777216
370
    -2
100
AcDbLine
 10
19.88181945428596
 20
51.96792811928215
 30
0.0
 11
19.88181945428596
 21
20.56792811928215
 31
0.0
  0
INSERT
  5
D745
330
8E9D
100
AcDbEntity
  8
ADM
 62
     0
440
 16777216
370
    -2
100
AcDbBlockReference
  2
_Dot
 10
19.88181945428596
 20
52.76792811928215
 30
0.0
 41
0.8
 42
0.8
 43
0.8
 50
90.0
  0
INSERT
  5
D746
330
8E9D
100
AcDbEntity
  8
ADM
 62
     0
440
 16777216
370
    -2
100
AcDbBlockReference
  2
_Dot
 10
19.88181945428596
 20
19.76792811928215
 30
0.0
 41
0.8
 42
0.8
 43
0.8
 50
270.0
  0
MTEXT
  5
D747
330
8E9D
100
AcDbEntity
  8
ADM
 62
     4
440
 16777216
100
AcDbMText
 10
17.38181945428596
 20
36.26792811928216
 30
0.0
 40
3.0
 41
0.0
 46
0.0
 71
     5
 72
     1
  1
\A2;33
 11
0.0000000000000001
 21
1.0
 31
0.0
 73
     1
 44
1.0
  0
POINT
  5
D748
330
8E9D
100
AcDbEntity
  8
DEFPOINTS
 62
     0
440
 16777216
100
AcDbPoint
 10
51.39719144851688
 20
52.76792811928214
 30
0.0
  0
POINT
  5
D749
330
8E9D
100
AcDbEntity
  8
DEFPOINTS
 62
     0
440
 16777216
100
AcDbPoint
 10
36.89719144851688
 20
19.76792811928214
 30
0.0
  0
POINT
  5
D74A
330
8E9D
100
AcDbEntity
  8
DEFPOINTS
 62
     0
440
 16777216
100
AcDbPoint
 10
19.88181945428596
 20
19.76792811928215
 30
0.0
  0
ENDBLK
  5
8E9F
330
8E9D
100
AcDbEntity
  8
0
100
AcDbBlockEnd
  0
BLOCK
  5
8EAA
330
8EA9
100
AcDbEntity
  8
0
100
AcDbBlockBegin
  2
*D13
 70
     1
 10
0.0
 20
0.0
 30
0.0
  3
*D13
  1

  0
LINE
  5
D74B
330
8EA9
100
AcDbEntity
  8
ADM
 62
     0
440
 16777216
370
    -2
100
AcDbLine
 10
50.39719144851687
 20
52.76792811928214
 30
0.0
 11
19.89901260470329
 21
52.76792811928215
 31
0.0
  0
LINE
  5
D74C
330
8EA9
100
AcDbEntity
  8
ADM
 62
     0
440
 16777216
370
    -2
100
AcDbLine
 10
50.39719144851687
 20
236.7679281192823
 30
0.0
 11
19.89901260470333
 21
236.7679281192823
 31
0.0
  0
LINE
  5
D74D
330
8EA9
100
AcDbEntity
  8
ADM
 62
     0
440
 16777216
370
    -2
100
AcDbLine
 10
19.89901260470329
 20
53.56792811928215
 30
0.0
 11
19.89901260470333
 21
235.9679281192823
 31
0.0
  0
INSERT
  5
D74E
330
8EA9
100
AcDbEntity
  8
ADM
 62
     0
440
 16777216
370
    -2
100
AcDbBlockReference
  2
_Dot
 10
19.89901260470329
 20
52.76792811928215
 30
0.0
 41
0.8
 42
0.8
 43
0.8
 50
270.0
  0
INSERT
  5
D74F
330
8EA9
100
AcDbEntity
  8
ADM
 62
     0
440
 16777216
370
    -2
100
AcDbBlockReference
  2
_Dot
 10
19.89901260470333
 20
236.7679281192823
 30
0.0
 41
0.8
 42
0.8
 43
0.8
 50
90.0
  0
MTEXT
  5
D750
330
8EA9
100
AcDbEntity
  8
ADM
 62
     4
440
 16777216
100
AcDbMText
 10
17.39901260470328
 20
144.7679281192822
 30
0.0
 40
3.0
 41
0.0
 46
0.0
 71
     5
 72
     1
  1
\A2;H-66
 11
0.0000000000000001
 21
1.0
 31
0.0
 73
     1
 44
1.0
  0
POINT
  5
D751
330
8EA9
100
AcDbEntity
  8
DEFPOINTS
 62
     0
440
 16777216
100
AcDbPoint
 10
51.39719144851688
 20
52.76792811928214
 30
0.0
  0
POINT
  5
D752
330
8EA9
100
AcDbEntity
  8
DEFPOINTS
 62
     0
440
 16777216
100
AcDbPoint
 10
51.39719144851688
 20
236.7679281192823
 30
0.0
  0
POINT
  5
D753
330
8EA9
100
AcDbEntity
  8
DEFPOINTS
 62
     0
440
 16777216
100
AcDbPoint
 10
19.89901260470333
 20
236.7679281192823
 30
0.0
  0
ENDBLK
  5
8EAB
330
8EA9
100
AcDbEntity
  8
0
100
AcDbBlockEnd
  0
BLOCK
  5
8EB6
330
8EB5
100
AcDbEntity
  8
0
100
AcDbBlockBegin
  2
*D14
 70
     1
 10
0.0
 20
0.0
 30
0.0
  3
*D14
  1

  0
LINE
  5
D754
330
8EB5
100
AcDbEntity
  8
ADM
 62
     0
440
 16777216
370
    -2
100
AcDbLine
 10
140.343739744374
 20
95.30331918690206
 30
0.0
 11
140.343739744374
 21
32.02234674075112
 31
0.0
  0
LINE
  5
D755
330
8EB5
100
AcDbEntity
  8
ADM
 62
     0
440
 16777216
370
    -2
100
AcDbLine
 10
370.3437397443784
 20
95.30331918690206
 30
0.0
 11
370.3437397443784
 21
32.02234674075112
 31
0.0
  0
LINE
  5
D756
330
8EB5
100
AcDbEntity
  8
ADM
 62
     0
440
 16777216
370
    -2
100
AcDbLine
 10
141.143739744374
 20
32.02234674075112
 30
0.0
 11
369.5437397443783
 21
32.02234674075112
 31
0.0
  0
INSERT
  5
D757
330
8EB5
100
AcDbEntity
  8
ADM
 62
     0
440
 16777216
370
    -2
100
AcDbBlockReference
  2
_Dot
 10
140.343739744374
 20
32.02234674075112
 30
0.0
 41
0.8
 42
0.8
 43
0.8
 50
180.0
  0
INSERT
  5
D758
330
8EB5
100
AcDbEntity
  8
ADM
 62
     0
440
 16777216
370
    -2
100
AcDbBlockReference
  2
_Dot
 10
370.3437397443784
 20
32.02234674075112
 30
0.0
 41
0.8
 42
0.8
 43
0.8
  0
MTEXT
  5
D759
330
8EB5
100
AcDbEntity
  8
ADM
 62
     4
440
 16777216
100
AcDbMText
 10
255.3437397443762
 20
34.52234674075112
 30
0.0
 40
3.0
 41
0.0
 46
0.0
 71
     5
 72
     1
  1
\A2;W
 73
     1
 44
1.0
  0
POINT
  5
D75A
330
8EB5
100
AcDbEntity
  8
DEFPOINTS
 62
     0
440
 16777216
100
AcDbPoint
 10
140.343739744374
 20
96.30331918690206
 30
0.0
  0
POINT
  5
D75B
330
8EB5
100
AcDbEntity
  8
DEFPOINTS
 62
     0
440
 16777216
100
AcDbPoint
 10
370.3437397443784
 20
96.30331918690206
 30
0.0
  0
POINT
  5
D75C
330
8EB5
100
AcDbEntity
  8
DEFPOINTS
 62
     0
440
 16777216
100
AcDbPoint
 10
370.3437397443784
 20
32.02234674075112
 30
0.0
  0
ENDBLK
  5
8EB7
330
8EB5
100
AcDbEntity
  8
0
100
AcDbBlockEnd
  0
BLOCK
  5
8EC2
330
8EC1
100
AcDbEntity
  8
0
100
AcDbBlockBegin
  2
*D15
 70
     1
 10
0.0
 20
0.0
 30
0.0
  3
*D15
  1

  0
LINE
  5
D75D
330
8EC1
100
AcDbEntity
  8
ADM
 62
     0
440
 16777216
370
    -2
100
AcDbLine
 10
157.343739744376
 20
95.80331918690237
 30
0.0
 11
157.343739744376
 21
40.02234674075111
 31
0.0
  0
LINE
  5
D75E
330
8EC1
100
AcDbEntity
  8
ADM
 62
     0
440
 16777216
370
    -2
100
AcDbLine
 10
140.343739744374
 20
95.3033191869024
 30
0.0
 11
140.343739744374
 21
40.02234674075111
 31
0.0
  0
LINE
  5
D75F
330
8EC1
100
AcDbEntity
  8
ADM
 62
     0
440
 16777216
370
    -2
100
AcDbLine
 10
156.543739744376
 20
40.02234674075111
 30
0.0
 11
141.143739744374
 21
40.02234674075111
 31
0.0
  0
INSERT
  5
D760
330
8EC1
100
AcDbEntity
  8
ADM
 62
     0
440
 16777216
370
    -2
100
AcDbBlockReference
  2
_Dot
 10
157.343739744376
 20
40.02234674075111
 30
0.0
 41
0.8
 42
0.8
 43
0.8
  0
INSERT
  5
D761
330
8EC1
100
AcDbEntity
  8
ADM
 62
     0
440
 16777216
370
    -2
100
AcDbBlockReference
  2
_Dot
 10
140.343739744374
 20
40.02234674075111
 30
0.0
 41
0.8
 42
0.8
 43
0.8
 50
180.0
  0
MTEXT
  5
D762
330
8EC1
100
AcDbEntity
  8
ADM
 62
     4
440
 16777216
100
AcDbMText
 10
148.8437397443749
 20
42.52234674075111
 30
0.0
 40
3.0
 41
0.0
 46
0.0
 71
     5
 72
     1
  1
\A2;17
 73
     1
 44
1.0
  0
POINT
  5
D763
330
8EC1
100
AcDbEntity
  8
DEFPOINTS
 62
     0
440
 16777216
100
AcDbPoint
 10
157.343739744376
 20
96.80331918690237
 30
0.0
  0
POINT
  5
D764
330
8EC1
100
AcDbEntity
  8
DEFPOINTS
 62
     0
440
 16777216
100
AcDbPoint
 10
140.343739744374
 20
96.3033191869024
 30
0.0
  0
POINT
  5
D765
330
8EC1
100
AcDbEntity
  8
DEFPOINTS
 62
     0
440
 16777216
100
AcDbPoint
 10
140.343739744374
 20
40.02234674075111
 30
0.0
  0
ENDBLK
  5
8EC3
330
8EC1
100
AcDbEntity
  8
0
100
AcDbBlockEnd
  0
BLOCK
  5
8ECE
330
8ECD
100
AcDbEntity
  8
0
100
AcDbBlockBegin
  2
*D16
 70
     1
 10
0.0
 20
0.0
 30
0.0
  3
*D16
  1

  0
LINE
  5
D766
330
8ECD
100
AcDbEntity
  8
ADM
 62
     0
440
 16777216
370
    -2
100
AcDbLine
 10
353.3437397443763
 20
95.80331918690237
 30
0.0
 11
353.3437397443763
 21
40.02234674075111
 31
0.0
  0
LINE
  5
D767
330
8ECD
100
AcDbEntity
  8
ADM
 62
     0
440
 16777216
370
    -2
100
AcDbLine
 10
370.3437397443784
 20
95.30331918690206
 30
0.0
 11
370.3437397443784
 21
40.02234674075111
 31
0.0
  0
LINE
  5
D768
330
8ECD
100
AcDbEntity
  8
ADM
 62
     0
440
 16777216
370
    -2
100
AcDbLine
 10
354.1437397443763
 20
40.02234674075111
 30
0.0
 11
369.5437397443783
 21
40.02234674075111
 31
0.0
  0
INSERT
  5
D769
330
8ECD
100
AcDbEntity
  8
ADM
 62
     0
440
 16777216
370
    -2
100
AcDbBlockReference
  2
_Dot
 10
353.3437397443763
 20
40.02234674075111
 30
0.0
 41
0.8
 42
0.8
 43
0.8
 50
180.0
  0
INSERT
  5
D76A
330
8ECD
100
AcDbEntity
  8
ADM
 62
     0
440
 16777216
370
    -2
100
AcDbBlockReference
  2
_Dot
 10
370.3437397443784
 20
40.02234674075111
 30
0.0
 41
0.8
 42
0.8
 43
0.8
  0
MTEXT
  5
D76B
330
8ECD
100
AcDbEntity
  8
ADM
 62
     4
440
 16777216
100
AcDbMText
 10
361.8437397443774
 20
42.52234674075111
 30
0.0
 40
3.0
 41
0.0
 46
0.0
 71
     5
 72
     1
  1
\A2;17
 73
     1
 44
1.0
  0
POINT
  5
D76C
330
8ECD
100
AcDbEntity
  8
DEFPOINTS
 62
     0
440
 16777216
100
AcDbPoint
 10
353.3437397443763
 20
96.80331918690237
 30
0.0
  0
POINT
  5
D76D
330
8ECD
100
AcDbEntity
  8
DEFPOINTS
 62
     0
440
 16777216
100
AcDbPoint
 10
370.3437397443784
 20
96.30331918690206
 30
0.0
  0
POINT
  5
D76E
330
8ECD
100
AcDbEntity
  8
DEFPOINTS
 62
     0
440
 16777216
100
AcDbPoint
 10
370.3437397443784
 20
40.02234674075111
 30
0.0
  0
ENDBLK
  5
8ECF
330
8ECD
100
AcDbEntity
  8
0
100
AcDbBlockEnd
  0
BLOCK
  5
8EDA
330
8ED9
100
AcDbEntity
  8
0
100
AcDbBlockBegin
  2
*D17
 70
     1
 10
0.0
 20
0.0
 30
0.0
  3
*D17
  1

  0
LINE
  5
D778
330
8ED9
100
AcDbEntity
  8
ADM
 62
     0
440
 16777216
370
    -2
100
AcDbLine
 10
157.3437397443742
 20
95.80331918690246
 30
0.0
 11
157.3437397443742
 21
40.02234674075111
 31
0.0
  0
LINE
  5
D779
330
8ED9
100
AcDbEntity
  8
ADM
 62
     0
440
 16777216
370
    -2
100
AcDbLine
 10
163.3437397443761
 20
102.2633191869021
 30
0.0
 11
163.3437397443761
 21
40.02234674075111
 31
0.0
  0
LINE
  5
D77A
330
8ED9
100
AcDbEntity
  8
ADM
 62
     0
440
 16777216
370
    -2
100
AcDbLine
 10
158.1437397443743
 20
40.02234674075111
 30
0.0
 11
162.5437397443761
 21
40.02234674075111
 31
0.0
  0
INSERT
  5
D77B
330
8ED9
100
AcDbEntity
  8
ADM
 62
     0
440
 16777216
370
    -2
100
AcDbBlockReference
  2
_Dot
 10
157.3437397443742
 20
40.02234674075111
 30
0.0
 41
0.8
 42
0.8
 43
0.8
 50
180.0
  0
INSERT
  5
D77C
330
8ED9
100
AcDbEntity
  8
ADM
 62
     0
440
 16777216
370
    -2
100
AcDbBlockReference
  2
_Dot
 10
163.3437397443761
 20
40.02234674075111
 30
0.0
 41
0.8
 42
0.8
 43
0.8
  0
MTEXT
  5
D77D
330
8ED9
100
AcDbEntity
  8
ADM
 62
     4
440
 16777216
100
AcDbMText
 10
160.3437397443751
 20
42.52234674075111
 30
0.0
 40
3.0
 41
0.0
 46
0.0
 71
     5
 72
     1
  1
\A2;6
 73
     1
 44
1.0
  0
POINT
  5
D77E
330
8ED9
100
AcDbEntity
  8
DEFPOINTS
 62
     0
440
 16777216
100
AcDbPoint
 10
157.3437397443742
 20
96.80331918690246
 30
0.0
  0
POINT
  5
D77F
330
8ED9
100
AcDbEntity
  8
DEFPOINTS
 62
     0
440
 16777216
100
AcDbPoint
 10
163.3437397443761
 20
103.2633191869021
 30
0.0
  0
POINT
  5
D780
330
8ED9
100
AcDbEntity
  8
DEFPOINTS
 62
     0
440
 16777216
100
AcDbPoint
 10
163.3437397443761
 20
40.02234674075111
 30
0.0
  0
ENDBLK
  5
8EDB
330
8ED9
100
AcDbEntity
  8
0
100
AcDbBlockEnd
  0
BLOCK
  5
8EE6
330
8EE5
100
AcDbEntity
  8
0
100
AcDbBlockBegin
  2
*D18
 70
     1
 10
0.0
 20
0.0
 30
0.0
  3
*D18
  1

  0
LINE
  5
D781
330
8EE5
100
AcDbEntity
  8
ADM
 62
     0
440
 16777216
370
    -2
100
AcDbLine
 10
163.3437397443742
 20
102.2633191869069
 30
0.0
 11
163.3437397443742
 21
40.02234674075111
 31
0.0
  0
LINE
  5
D782
330
8EE5
100
AcDbEntity
  8
ADM
 62
     0
440
 16777216
370
    -2
100
AcDbLine
 10
223.3437397443756
 20
100.5633191869019
 30
0.0
 11
223.3437397443756
 21
40.02234674075111
 31
0.0
  0
LINE
  5
D783
330
8EE5
100
AcDbEntity
  8
ADM
 62
     0
440
 16777216
370
    -2
100
AcDbLine
 10
164.1437397443743
 20
40.02234674075111
 30
0.0
 11
222.5437397443756
 21
40.02234674075111
 31
0.0
  0
INSERT
  5
D784
330
8EE5
100
AcDbEntity
  8
ADM
 62
     0
440
 16777216
370
    -2
100
AcDbBlockReference
  2
_Dot
 10
163.3437397443742
 20
40.02234674075111
 30
0.0
 41
0.8
 42
0.8
 43
0.8
 50
180.0
  0
INSERT
  5
D785
330
8EE5
100
AcDbEntity
  8
ADM
 62
     0
440
 16777216
370
    -2
100
AcDbBlockReference
  2
_Dot
 10
223.3437397443756
 20
40.02234674075111
 30
0.0
 41
0.8
 42
0.8
 43
0.8
  0
MTEXT
  5
D786
330
8EE5
100
AcDbEntity
  8
ADM
 62
     4
440
 16777216
100
AcDbMText
 10
193.3437397443749
 20
42.52234674075111
 30
0.0
 40
3.0
 41
0.0
 46
0.0
 71
     5
 72
     1
  1
\A2;60
 73
     1
 44
1.0
  0
POINT
  5
D787
330
8EE5
100
AcDbEntity
  8
DEFPOINTS
 62
     0
440
 16777216
100
AcDbPoint
 10
163.3437397443742
 20
103.2633191869069
 30
0.0
  0
POINT
  5
D788
330
8EE5
100
AcDbEntity
  8
DEFPOINTS
 62
     0
440
 16777216
100
AcDbPoint
 10
223.3437397443756
 20
101.5633191869019
 30
0.0
  0
POINT
  5
D789
330
8EE5
100
AcDbEntity
  8
DEFPOINTS
 62
     0
440
 16777216
100
AcDbPoint
 10
223.3437397443756
 20
40.02234674075111
 30
0.0
  0
ENDBLK
  5
8EE7
330
8EE5
100
AcDbEntity
  8
0
100
AcDbBlockEnd
  0
BLOCK
  5
8EF2
330
8EF1
100
AcDbEntity
  8
0
100
AcDbBlockBegin
  2
*D19
 70
     1
 10
0.0
 20
0.0
 30
0.0
  3
*D19
  1

  0
LINE
  5
D78A
330
8EF1
100
AcDbEntity
  8
ADM
 62
     0
440
 16777216
370
    -2
100
AcDbLine
 10
286.1437397443763
 20
100.5633191869093
 30
0.0
 11
286.1437397443763
 21
40.02234674075111
 31
0.0
  0
LINE
  5
D78B
330
8EF1
100
AcDbEntity
  8
ADM
 62
     0
440
 16777216
370
    -2
100
AcDbLine
 10
346.1437397443754
 20
102.2633191869021
 30
0.0
 11
346.1437397443754
 21
40.02234674075111
 31
0.0
  0
LINE
  5
D78C
330
8EF1
100
AcDbEntity
  8
ADM
 62
     0
440
 16777216
370
    -2
100
AcDbLine
 10
286.9437397443763
 20
40.02234674075111
 30
0.0
 11
345.3437397443753
 21
40.02234674075111
 31
0.0
  0
INSERT
  5
D78D
330
8EF1
100
AcDbEntity
  8
ADM
 62
     0
440
 16777216
370
    -2
100
AcDbBlockReference
  2
_Dot
 10
286.1437397443763
 20
40.02234674075111
 30
0.0
 41
0.8
 42
0.8
 43
0.8
 50
180.0
  0
INSERT
  5
D78E
330
8EF1
100
AcDbEntity
  8
ADM
 62
     0
440
 16777216
370
    -2
100
AcDbBlockReference
  2
_Dot
 10
346.1437397443754
 20
40.02234674075111
 30
0.0
 41
0.8
 42
0.8
 43
0.8
  0
MTEXT
  5
D78F
330
8EF1
100
AcDbEntity
  8
ADM
 62
     4
440
 16777216
100
AcDbMText
 10
316.1437397443758
 20
42.52234674075111
 30
0.0
 40
3.0
 41
0.0
 46
0.0
 71
     5
 72
     1
  1
\A2;60
 73
     1
 44
1.0
  0
POINT
  5
D790
330
8EF1
100
AcDbEntity
  8
DEFPOINTS
 62
     0
440
 16777216
100
AcDbPoint
 10
286.1437397443763
 20
101.5633191869093
 30
0.0
  0
POINT
  5
D791
330
8EF1
100
AcDbEntity
  8
DEFPOINTS
 62
     0
440
 16777216
100
AcDbPoint
 10
346.1437397443754
 20
103.2633191869021
 30
0.0
  0
POINT
  5
D792
330
8EF1
100
AcDbEntity
  8
DEFPOINTS
 62
     0
440
 16777216
100
AcDbPoint
 10
346.1437397443754
 20
40.02234674075111
 30
0.0
  0
ENDBLK
  5
8EF3
330
8EF1
100
AcDbEntity
  8
0
100
AcDbBlockEnd
  0
BLOCK
  5
8EFE
330
8EFD
100
AcDbEntity
  8
0
100
AcDbBlockBegin
  2
*D20
 70
     1
 10
0.0
 20
0.0
 30
0.0
  3
*D20
  1

  0
LINE
  5
D793
330
8EFD
100
AcDbEntity
  8
ADM
 62
     0
440
 16777216
370
    -2
100
AcDbLine
 10
346.1437397443754
 20
102.2633191869021
 30
0.0
 11
346.1437397443754
 21
40.02234674075111
 31
0.0
  0
LINE
  5
D794
330
8EFD
100
AcDbEntity
  8
ADM
 62
     0
440
 16777216
370
    -2
100
AcDbLine
 10
353.3437397443768
 20
95.80331918690246
 30
0.0
 11
353.3437397443768
 21
40.02234674075111
 31
0.0
  0
LINE
  5
D795
330
8EFD
100
AcDbEntity
  8
ADM
 62
     0
440
 16777216
370
    -2
100
AcDbLine
 10
346.9437397443754
 20
40.02234674075111
 30
0.0
 11
352.5437397443767
 21
40.02234674075111
 31
0.0
  0
INSERT
  5
D796
330
8EFD
100
AcDbEntity
  8
ADM
 62
     0
440
 16777216
370
    -2
100
AcDbBlockReference
  2
_Dot
 10
346.1437397443754
 20
40.02234674075111
 30
0.0
 41
0.8
 42
0.8
 43
0.8
 50
180.0
  0
INSERT
  5
D797
330
8EFD
100
AcDbEntity
  8
ADM
 62
     0
440
 16777216
370
    -2
100
AcDbBlockReference
  2
_Dot
 10
353.3437397443768
 20
40.02234674075111
 30
0.0
 41
0.8
 42
0.8
 43
0.8
  0
MTEXT
  5
D798
330
8EFD
100
AcDbEntity
  8
ADM
 62
     4
440
 16777216
100
AcDbMText
 10
349.7437397443761
 20
42.52234674075111
 30
0.0
 40
3.0
 41
0.0
 46
0.0
 71
     5
 72
     1
  1
\A2;7.2
 73
     1
 44
1.0
  0
POINT
  5
D799
330
8EFD
100
AcDbEntity
  8
DEFPOINTS
 62
     0
440
 16777216
100
AcDbPoint
 10
346.1437397443754
 20
103.2633191869021
 30
0.0
  0
POINT
  5
D79A
330
8EFD
100
AcDbEntity
  8
DEFPOINTS
 62
     0
440
 16777216
100
AcDbPoint
 10
353.3437397443768
 20
96.80331918690248
 30
0.0
  0
POINT
  5
D79B
330
8EFD
100
AcDbEntity
  8
DEFPOINTS
 62
     0
440
 16777216
100
AcDbPoint
 10
353.3437397443768
 20
40.02234674075111
 30
0.0
  0
ENDBLK
  5
8EFF
330
8EFD
100
AcDbEntity
  8
0
100
AcDbBlockEnd
  0
BLOCK
  5
8F0A
330
8F09
100
AcDbEntity
  8
0
100
AcDbBlockBegin
  2
*D21
 70
     1
 10
0.0
 20
0.0
 30
0.0
  3
*D21
  1

  0
LINE
  5
D79C
330
8F09
100
AcDbEntity
  8
ADM
 62
     0
440
 16777216
370
    -2
100
AcDbLine
 10
85.39719144851687
 20
256.7679281192824
 30
0.0
 11
108.6386157073375
 21
256.7679281192824
 31
0.0
  0
LINE
  5
D79D
330
8F09
100
AcDbEntity
  8
ADM
 62
     0
440
 16777216
370
    -2
100
AcDbLine
 10
87.89719144851687
 20
269.7679281192822
 30
0.0
 11
108.6386157073375
 21
269.7679281192822
 31
0.0
  0
LINE
  5
D79E
330
8F09
100
AcDbEntity
  8
ADM
 62
     0
440
 16777216
370
    -2
100
AcDbLine
 10
108.6386157073375
 20
257.5679281192825
 30
0.0
 11
108.6386157073375
 21
268.9679281192822
 31
0.0
  0
INSERT
  5
D79F
330
8F09
100
AcDbEntity
  8
ADM
 62
     0
440
 16777216
370
    -2
100
AcDbBlockReference
  2
_Dot
 10
108.6386157073375
 20
256.7679281192824
 30
0.0
 41
0.8
 42
0.8
 43
0.8
 50
270.0
  0
INSERT
  5
D7A0
330
8F09
100
AcDbEntity
  8
ADM
 62
     0
440
 16777216
370
    -2
100
AcDbBlockReference
  2
_Dot
 10
108.6386157073375
 20
269.7679281192822
 30
0.0
 41
0.8
 42
0.8
 43
0.8
 50
90.0
  0
MTEXT
  5
D7A1
330
8F09
100
AcDbEntity
  8
ADM
 62
     4
440
 16777216
100
AcDbMText
 10
106.1386157073375
 20
263.2679281192823
 30
0.0
 40
3.0
 41
0.0
 46
0.0
 71
     5
 72
     1
  1
\A2;13
 11
0.0000000000000001
 21
1.0
 31
0.0
 73
     1
 44
1.0
  0
POINT
  5
D7A2
330
8F09
100
AcDbEntity
  8
DEFPOINTS
 62
     0
440
 16777216
100
AcDbPoint
 10
84.39719144851688
 20
256.7679281192824
 30
0.0
  0
POINT
  5
D7A3
330
8F09
100
AcDbEntity
  8
DEFPOINTS
 62
     0
440
 16777216
100
AcDbPoint
 10
86.89719144851688
 20
269.7679281192822
 30
0.0
  0
POINT
  5
D7A4
330
8F09
100
AcDbEntity
  8
DEFPOINTS
 62
     0
440
 16777216
100
AcDbPoint
 10
108.6386157073375
 20
269.7679281192822
 30
0.0
  0
ENDBLK
  5
8F0B
330
8F09
100
AcDbEntity
  8
0
100
AcDbBlockEnd
  0
BLOCK
  5
8F16
330
8F15
100
AcDbEntity
  8
0
100
AcDbBlockBegin
  2
*D22
 70
     1
 10
0.0
 20
0.0
 30
0.0
  3
*D22
  1

  0
LINE
  5
D7A5
330
8F15
100
AcDbEntity
  8
ADM
 62
     0
440
 16777216
370
    -2
100
AcDbLine
 10
85.39719144851687
 20
32.76792811928198
 30
0.0
 11
108.6386157073375
 21
32.76792811928198
 31
0.0
  0
LINE
  5
D7A6
330
8F15
100
AcDbEntity
  8
ADM
 62
     0
440
 16777216
370
    -2
100
AcDbLine
 10
81.0971914485167
 20
40.76792811928211
 30
0.0
 11
108.6386157073375
 21
40.76792811928211
 31
0.0
  0
LINE
  5
D7A7
330
8F15
100
AcDbEntity
  8
ADM
 62
     0
440
 16777216
370
    -2
100
AcDbLine
 10
108.6386157073375
 20
33.56792811928198
 30
0.0
 11
108.6386157073375
 21
39.96792811928212
 31
0.0
  0
INSERT
  5
D7A8
330
8F15
100
AcDbEntity
  8
ADM
 62
     0
440
 16777216
370
    -2
100
AcDbBlockReference
  2
_Dot
 10
108.6386157073375
 20
32.76792811928198
 30
0.0
 41
0.8
 42
0.8
 43
0.8
 50
270.0
  0
INSERT
  5
D7A9
330
8F15
100
AcDbEntity
  8
ADM
 62
     0
440
 16777216
370
    -2
100
AcDbBlockReference
  2
_Dot
 10
108.6386157073375
 20
40.76792811928211
 30
0.0
 41
0.8
 42
0.8
 43
0.8
 50
90.0
  0
MTEXT
  5
D7AA
330
8F15
100
AcDbEntity
  8
ADM
 62
     4
440
 16777216
100
AcDbMText
 10
106.1386157073375
 20
36.76792811928206
 30
0.0
 40
3.0
 41
0.0
 46
0.0
 71
     5
 72
     1
  1
\A2;8
 11
0.0000000000000001
 21
1.0
 31
0.0
 73
     1
 44
1.0
  0
POINT
  5
D7AB
330
8F15
100
AcDbEntity
  8
DEFPOINTS
 62
     0
440
 16777216
100
AcDbPoint
 10
84.39719144851688
 20
32.76792811928198
 30
0.0
  0
POINT
  5
D7AC
330
8F15
100
AcDbEntity
  8
DEFPOINTS
 62
     0
440
 16777216
100
AcDbPoint
 10
80.0971914485167
 20
40.76792811928211
 30
0.0
  0
POINT
  5
D7AD
330
8F15
100
AcDbEntity
  8
DEFPOINTS
 62
     0
440
 16777216
100
AcDbPoint
 10
108.6386157073375
 20
40.76792811928211
 30
0.0
  0
ENDBLK
  5
8F17
330
8F15
100
AcDbEntity
  8
0
100
AcDbBlockEnd
  0
BLOCK
  5
8F22
330
8F21
100
AcDbEntity
  8
0
100
AcDbBlockBegin
  2
*D23
 70
     1
 10
0.0
 20
0.0
 30
0.0
  3
*D23
  1

  0
LINE
  5
D7AE
330
8F21
100
AcDbEntity
  8
ADM
 62
     0
440
 16777216
370
    -2
100
AcDbLine
 10
81.03719144851812
 20
116.7679281192822
 30
0.0
 11
108.6386157073375
 21
116.7679281192822
 31
0.0
  0
LINE
  5
D7AF
330
8F21
100
AcDbEntity
  8
ADM
 62
     0
440
 16777216
370
    -2
100
AcDbLine
 10
81.0971914485167
 20
40.76792811928211
 30
0.0
 11
108.6386157073375
 21
40.76792811928211
 31
0.0
  0
LINE
  5
D7B0
330
8F21
100
AcDbEntity
  8
ADM
 62
     0
440
 16777216
370
    -2
100
AcDbLine
 10
108.6386157073375
 20
115.9679281192822
 30
0.0
 11
108.6386157073375
 21
41.56792811928212
 31
0.0
  0
INSERT
  5
D7B1
330
8F21
100
AcDbEntity
  8
ADM
 62
     0
440
 16777216
370
    -2
100
AcDbBlockReference
  2
_Dot
 10
108.6386157073375
 20
116.7679281192822
 30
0.0
 41
0.8
 42
0.8
 43
0.8
 50
90.0
  0
INSERT
  5
D7B2
330
8F21
100
AcDbEntity
  8
ADM
 62
     0
440
 16777216
370
    -2
100
AcDbBlockReference
  2
_Dot
 10
108.6386157073375
 20
40.76792811928211
 30
0.0
 41
0.8
 42
0.8
 43
0.8
 50
270.0
  0
MTEXT
  5
D7B3
330
8F21
100
AcDbEntity
  8
ADM
 62
     4
440
 16777216
100
AcDbMText
 10
106.1386157073375
 20
78.76792811928218
 30
0.0
 40
3.0
 41
0.0
 46
0.0
 71
     5
 72
     1
  1
\A2;76
 11
0.0000000000000001
 21
1.0
 31
0.0
 73
     1
 44
1.0
  0
POINT
  5
D7B4
330
8F21
100
AcDbEntity
  8
DEFPOINTS
 62
     0
440
 16777216
100
AcDbPoint
 10
80.03719144851812
 20
116.7679281192822
 30
0.0
  0
POINT
  5
D7B5
330
8F21
100
AcDbEntity
  8
DEFPOINTS
 62
     0
440
 16777216
100
AcDbPoint
 10
80.0971914485167
 20
40.76792811928211
 30
0.0
  0
POINT
  5
D7B6
330
8F21
100
AcDbEntity
  8
DEFPOINTS
 62
     0
440
 16777216
100
AcDbPoint
 10
108.6386157073375
 20
40.76792811928211
 30
0.0
  0
ENDBLK
  5
8F23
330
8F21
100
AcDbEntity
  8
0
100
AcDbBlockEnd
  0
BLOCK
  5
8F2E
330
8F2D
100
AcDbEntity
  8
0
100
AcDbBlockBegin
  2
*D24
 70
     1
 10
0.0
 20
0.0
 30
0.0
  3
*D24
  1

  0
LINE
  5
D7B7
330
8F2D
100
AcDbEntity
  8
ADM
 62
     0
440
 16777216
370
    -2
100
AcDbLine
 10
81.03713347256007
 20
175.7679281192822
 30
0.0
 11
108.6386157073373
 21
175.7679281192822
 31
0.0
  0
LINE
  5
D7B8
330
8F2D
100
AcDbEntity
  8
ADM
 62
     0
440
 16777216
370
    -2
100
AcDbLine
 10
81.09713347255866
 20
251.7679281192824
 30
0.0
 11
108.6386157073373
 21
251.7679281192824
 31
0.0
  0
LINE
  5
D7B9
330
8F2D
100
AcDbEntity
  8
ADM
 62
     0
440
 16777216
370
    -2
100
AcDbLine
 10
108.6386157073373
 20
176.5679281192823
 30
0.0
 11
108.6386157073373
 21
250.9679281192823
 31
0.0
  0
INSERT
  5
D7BA
330
8F2D
100
AcDbEntity
  8
ADM
 62
     0
440
 16777216
370
    -2
100
AcDbBlockReference
  2
_Dot
 10
108.6386157073373
 20
175.7679281192822
 30
0.0
 41
0.8
 42
0.8
 43
0.8
 50
270.0
  0
INSERT
  5
D7BB
330
8F2D
100
AcDbEntity
  8
ADM
 62
     0
440
 16777216
370
    -2
100
AcDbBlockReference
  2
_Dot
 10
108.6386157073373
 20
251.7679281192824
 30
0.0
 41
0.8
 42
0.8
 43
0.8
 50
90.0
  0
MTEXT
  5
D7BC
330
8F2D
100
AcDbEntity
  8
ADM
 62
     4
440
 16777216
100
AcDbMText
 10
106.1386157073372
 20
213.7679281192824
 30
0.0
 40
3.0
 41
0.0
 46
0.0
 71
     5
 72
     1
  1
\A2;76
 11
0.0000000000000001
 21
1.0
 31
0.0
 73
     1
 44
1.0
  0
POINT
  5
D7BD
330
8F2D
100
AcDbEntity
  8
DEFPOINTS
 62
     0
440
 16777216
100
AcDbPoint
 10
80.03713347256008
 20
175.7679281192822
 30
0.0
  0
POINT
  5
D7BE
330
8F2D
100
AcDbEntity
  8
DEFPOINTS
 62
     0
440
 16777216
100
AcDbPoint
 10
80.09713347255866
 20
251.7679281192824
 30
0.0
  0
POINT
  5
D7BF
330
8F2D
100
AcDbEntity
  8
DEFPOINTS
 62
     0
440
 16777216
100
AcDbPoint
 10
108.6386157073373
 20
251.7679281192824
 30
0.0
  0
ENDBLK
  5
8F2F
330
8F2D
100
AcDbEntity
  8
0
100
AcDbBlockEnd
  0
BLOCK
  5
8F3A
330
8F39
100
AcDbEntity
  8
0
100
AcDbBlockBegin
  2
*D25
 70
     1
 10
0.0
 20
0.0
 30
0.0
  3
*D25
  1

  0
LINE
  5
D7C0
330
8F39
100
AcDbEntity
  8
ADM
 62
     0
440
 16777216
370
    -2
100
AcDbLine
 10
81.09713347255866
 20
251.7679281192824
 30
0.0
 11
108.6386157073373
 21
251.7679281192824
 31
0.0
  0
LINE
  5
D7C1
330
8F39
100
AcDbEntity
  8
ADM
 62
     0
440
 16777216
370
    -2
100
AcDbLine
 10
85.39719144851687
 20
256.7679281192824
 30
0.0
 11
108.6386157073373
 21
256.7679281192824
 31
0.0
  0
LINE
  5
D7C2
330
8F39
100
AcDbEntity
  8
ADM
 62
     0
440
 16777216
370
    -2
100
AcDbLine
 10
108.6386157073373
 20
252.5679281192824
 30
0.0
 11
108.6386157073373
 21
255.9679281192824
 31
0.0
  0
INSERT
  5
D7C3
330
8F39
100
AcDbEntity
  8
ADM
 62
     0
440
 16777216
370
    -2
100
AcDbBlockReference
  2
_Dot
 10
108.6386157073373
 20
251.7679281192824
 30
0.0
 41
0.8
 42
0.8
 43
0.8
 50
270.0
  0
INSERT
  5
D7C4
330
8F39
100
AcDbEntity
  8
ADM
 62
     0
440
 16777216
370
    -2
100
AcDbBlockReference
  2
_Dot
 10
108.6386157073373
 20
256.7679281192824
 30
0.0
 41
0.8
 42
0.8
 43
0.8
 50
90.0
  0
MTEXT
  5
D7C5
330
8F39
100
AcDbEntity
  8
ADM
 62
     4
440
 16777216
100
AcDbMText
 10
106.1386157073372
 20
254.2679281192824
 30
0.0
 40
3.0
 41
0.0
 46
0.0
 71
     5
 72
     1
  1
\A2;5
 11
0.0000000000000001
 21
1.0
 31
0.0
 73
     1
 44
1.0
  0
POINT
  5
D7C6
330
8F39
100
AcDbEntity
  8
DEFPOINTS
 62
     0
440
 16777216
100
AcDbPoint
 10
80.09713347255866
 20
251.7679281192824
 30
0.0
  0
POINT
  5
D7C7
330
8F39
100
AcDbEntity
  8
DEFPOINTS
 62
     0
440
 16777216
100
AcDbPoint
 10
84.39719144851688
 20
256.7679281192824
 30
0.0
  0
POINT
  5
D7C8
330
8F39
100
AcDbEntity
  8
DEFPOINTS
 62
     0
440
 16777216
100
AcDbPoint
 10
108.6386157073373
 20
256.7679281192824
 30
0.0
  0
ENDBLK
  5
8F3B
330
8F39
100
AcDbEntity
  8
0
100
AcDbBlockEnd
  0
BLOCK
  5
8F46
330
8F45
100
AcDbEntity
  8
0
100
AcDbBlockBegin
  2
*D26
 70
     1
 10
0.0
 20
0.0
 30
0.0
  3
*D26
  1

  0
LINE
  5
D7C9
330
8F45
100
AcDbEntity
  8
ADM
 62
     0
440
 16777216
370
    -2
100
AcDbLine
 10
213.0245703532769
 20
171.8033497044808
 30
0.0
 11
248.0968041334968
 21
171.8033497044808
 31
0.0
  0
LINE
  5
D7CA
330
8F45
100
AcDbEntity
  8
ADM
 62
     0
440
 16777216
370
    -2
100
AcDbLine
 10
223.9437397443758
 20
126.8033191869024
 30
0.0
 11
248.0968041334968
 21
126.8033191869024
 31
0.0
  0
LINE
  5
D7CB
330
8F45
100
AcDbEntity
  8
ADM
 62
     0
440
 16777216
370
    -2
100
AcDbLine
 10
248.0968041334968
 20
171.0033497044808
 30
0.0
 11
248.0968041334968
 21
127.6033191869024
 31
0.0
  0
INSERT
  5
D7CC
330
8F45
100
AcDbEntity
  8
ADM
 62
     0
440
 16777216
370
    -2
100
AcDbBlockReference
  2
_Dot
 10
248.0968041334968
 20
171.8033497044808
 30
0.0
 41
0.8
 42
0.8
 43
0.8
 50
90.0
  0
INSERT
  5
D7CD
330
8F45
100
AcDbEntity
  8
ADM
 62
     0
440
 16777216
370
    -2
100
AcDbBlockReference
  2
_Dot
 10
248.0968041334968
 20
126.8033191869024
 30
0.0
 41
0.8
 42
0.8
 43
0.8
 50
270.0
  0
MTEXT
  5
D7CE
330
8F45
100
AcDbEntity
  8
ADM
 62
     4
440
 16777216
100
AcDbMText
 10
245.5968041334968
 20
149.3033344456916
 30
0.0
 40
3.0
 41
0.0
 46
0.0
 71
     5
 72
     1
  1
\A2;45
 11
0.0000000000000001
 21
1.0
 31
0.0
 73
     1
 44
1.0
  0
POINT
  5
D7CF
330
8F45
100
AcDbEntity
  8
DEFPOINTS
 62
     0
440
 16777216
100
AcDbPoint
 10
212.0245703532769
 20
171.8033497044808
 30
0.0
  0
POINT
  5
D7D0
330
8F45
100
AcDbEntity
  8
DEFPOINTS
 62
     0
440
 16777216
100
AcDbPoint
 10
222.9437397443758
 20
126.8033191869024
 30
0.0
  0
POINT
  5
D7D1
330
8F45
100
AcDbEntity
  8
DEFPOINTS
 62
     0
440
 16777216
100
AcDbPoint
 10
248.0968041334968
 20
126.8033191869024
 30
0.0
  0
ENDBLK
  5
8F47
330
8F45
100
AcDbEntity
  8
0
100
AcDbBlockEnd
  0
BLOCK
  5
8F52
330
8F51
100
AcDbEntity
  8
0
100
AcDbBlockBegin
  2
*D27
 70
     1
 10
0.0
 20
0.0
 30
0.0
  3
*D27
  1

  0
LINE
  5
D7D2
330
8F51
100
AcDbEntity
  8
ADM
 62
     0
440
 16777216
370
    -2
100
AcDbLine
 10
238.0188311380534
 20
126.8033191869024
 30
0.0
 11
248.0968041334968
 21
126.8033191869024
 31
0.0
  0
LINE
  5
D7D3
330
8F51
100
AcDbEntity
  8
ADM
 62
     0
440
 16777216
370
    -2
100
AcDbLine
 10
224.0437397443757
 20
101.303319186902
 30
0.0
 11
248.0968041334968
 21
101.303319186902
 31
0.0
  0
LINE
  5
D7D4
330
8F51
100
AcDbEntity
  8
ADM
 62
     0
440
 16777216
370
    -2
100
AcDbLine
 10
248.0968041334968
 20
126.0033191869024
 30
0.0
 11
248.0968041334968
 21
102.103319186902
 31
0.0
  0
INSERT
  5
D7D5
330
8F51
100
AcDbEntity
  8
ADM
 62
     0
440
 16777216
370
    -2
100
AcDbBlockReference
  2
_Dot
 10
248.0968041334968
 20
126.8033191869024
 30
0.0
 41
0.8
 42
0.8
 43
0.8
 50
90.0
  0
INSERT
  5
D7D6
330
8F51
100
AcDbEntity
  8
ADM
 62
     0
440
 16777216
370
    -2
100
AcDbBlockReference
  2
_Dot
 10
248.0968041334968
 20
101.303319186902
 30
0.0
 41
0.8
 42
0.8
 43
0.8
 50
270.0
  0
MTEXT
  5
D7D7
330
8F51
100
AcDbEntity
  8
ADM
 62
     4
440
 16777216
100
AcDbMText
 10
245.5968041334968
 20
114.0533191869022
 30
0.0
 40
3.0
 41
0.0
 46
0.0
 71
     5
 72
     1
  1
\A2;25.5
 11
0.0000000000000001
 21
1.0
 31
0.0
 73
     1
 44
1.0
  0
POINT
  5
D7D8
330
8F51
100
AcDbEntity
  8
DEFPOINTS
 62
     0
440
 16777216
100
AcDbPoint
 10
237.0188311380534
 20
126.8033191869024
 30
0.0
  0
POINT
  5
D7D9
330
8F51
100
AcDbEntity
  8
DEFPOINTS
 62
     0
440
 16777216
100
AcDbPoint
 10
223.0437397443757
 20
101.303319186902
 30
0.0
  0
POINT
  5
D7DA
330
8F51
100
AcDbEntity
  8
DEFPOINTS
 62
     0
440
 16777216
100
AcDbPoint
 10
248.0968041334968
 20
101.303319186902
 30
0.0
  0
ENDBLK
  5
8F53
330
8F51
100
AcDbEntity
  8
0
100
AcDbBlockEnd
  0
BLOCK
  5
8F5E
330
8F5D
100
AcDbEntity
  8
0
100
AcDbBlockBegin
  2
*D28
 70
     1
 10
0.0
 20
0.0
 30
0.0
  3
*D28
  1

  0
LINE
  5
D7DB
330
8F5D
100
AcDbEntity
  8
ADM
 62
     0
440
 16777216
370
    -2
100
AcDbLine
 10
224.0437397443757
 20
101.303319186902
 30
0.0
 11
248.0968041334968
 21
101.303319186902
 31
0.0
  0
LINE
  5
D7DC
330
8F5D
100
AcDbEntity
  8
ADM
 62
     0
440
 16777216
370
    -2
100
AcDbLine
 10
213.0245703532769
 20
56.30328866932401
 30
0.0
 11
248.0968041334968
 21
56.30328866932401
 31
0.0
  0
LINE
  5
D7DD
330
8F5D
100
AcDbEntity
  8
ADM
 62
     0
440
 16777216
370
    -2
100
AcDbLine
 10
248.0968041334968
 20
100.503319186902
 30
0.0
 11
248.0968041334968
 21
57.10328866932401
 31
0.0
  0
INSERT
  5
D7DE
330
8F5D
100
AcDbEntity
  8
ADM
 62
     0
440
 16777216
370
    -2
100
AcDbBlockReference
  2
_Dot
 10
248.0968041334968
 20
101.303319186902
 30
0.0
 41
0.8
 42
0.8
 43
0.8
 50
90.0
  0
INSERT
  5
D7DF
330
8F5D
100
AcDbEntity
  8
ADM
 62
     0
440
 16777216
370
    -2
100
AcDbBlockReference
  2
_Dot
 10
248.0968041334968
 20
56.30328866932401
 30
0.0
 41
0.8
 42
0.8
 43
0.8
 50
270.0
  0
MTEXT
  5
D7E0
330
8F5D
100
AcDbEntity
  8
ADM
 62
     4
440
 16777216
100
AcDbMText
 10
245.5968041334968
 20
78.80330392811305
 30
0.0
 40
3.0
 41
0.0
 46
0.0
 71
     5
 72
     1
  1
\A2;45
 11
0.0000000000000001
 21
1.0
 31
0.0
 73
     1
 44
1.0
  0
POINT
  5
D7E1
330
8F5D
100
AcDbEntity
  8
DEFPOINTS
 62
     0
440
 16777216
100
AcDbPoint
 10
223.0437397443757
 20
101.303319186902
 30
0.0
  0
POINT
  5
D7E2
330
8F5D
100
AcDbEntity
  8
DEFPOINTS
 62
     0
440
 16777216
100
AcDbPoint
 10
212.0245703532769
 20
56.30328866932401
 30
0.0
  0
POINT
  5
D7E3
330
8F5D
100
AcDbEntity
  8
DEFPOINTS
 62
     0
440
 16777216
100
AcDbPoint
 10
248.0968041334968
 20
56.30328866932401
 30
0.0
  0
ENDBLK
  5
8F5F
330
8F5D
100
AcDbEntity
  8
0
100
AcDbBlockEnd
  0
ENDSEC
  0
SECTION
  2
ENTITIES
  0
LINE
  5
8D9A
330
2
100
AcDbEntity
  8
0
100
AcDbLine
 10
86.89719144851688
 20
19.76792811928214
 30
0.0
 11
36.89719144851688
 21
19.76792811928214
 31
0.0
  0
LINE
  5
8D9B
330
2
100
AcDbEntity
  8
0
100
AcDbLine
 10
36.89719144851688
 20
269.7679281192822
 30
0.0
 11
36.89719144851688
 21
145.7679281192822
 31
0.0
  0
LINE
  5
8D9C
330
2
100
AcDbEntity
  8
0
100
AcDbLine
 10
36.89719144851688
 20
143.7679281192822
 30
0.0
 11
36.89719144851688
 21
19.76792811928213
 31
0.0
  0
LINE
  5
8D9D
330
2
100
AcDbEntity
  8
0
100
AcDbLine
 10
86.89719144851688
 20
269.7679281192822
 30
0.0
 11
86.89719144851665
 21
145.7679281192822
 31
0.0
  0
LINE
  5
8D9E
330
2
100
AcDbEntity
  8
0
100
AcDbLine
 10
86.89719144851688
 20
143.7679281192822
 30
0.0
 11
86.89719144851688
 21
19.76792811928214
 31
0.0
  0
LWPOLYLINE
  5
8D9F
330
2
100
AcDbEntity
  8
WAKU
100
AcDbPolyline
 90
        4
 70
     1
 43
0.0
 10
0.0
 20
0.0
 10
395.0
 20
0.0
 10
395.0
 20
275.0
 10
0.0
 20
275.0
  0
LINE
  5
8DA0
330
2
100
AcDbEntity
  8
0
100
AcDbLine
 10
51.39719144851688
 20
52.24571662218557
 30
0.0
 11
51.39719144851665
 21
143.7679281192822
 31
0.0
  0
LINE
  5
8DA1
330
2
100
AcDbEntity
  8
0
100
AcDbLine
 10
51.3971914485171
 20
145.7679281192822
 30
0.0
 11
51.39719144851688
 21
237.2901396163788
 31
0.0
  0
LINE
  5
8DA2
330
2
100
AcDbEntity
  8
0
100
AcDbLine
 10
56.39719144851688
 20
236.7679281192823
 30
0.0
 11
56.3971914485171
 21
145.7679281192822
 31
0.0
  0
LINE
  5
8DA3
330
2
100
AcDbEntity
  8
0
100
AcDbLine
 10
56.39719144851688
 20
143.7679281192822
 30
0.0
 11
56.39719144851688
 21
55.76792811928209
 31
0.0
  0
LINE
  5
8DA5
330
2
100
AcDbEntity
  8
0
100
AcDbLine
 10
81.89719144851711
 20
118.3679281192824
 30
0.0
 11
81.89719144851734
 21
45.76792811928211
 31
0.0
  0
LINE
  5
8DA8
330
2
100
AcDbEntity
  8
0
100
AcDbLine
 10
58.99719144851679
 20
116.7738257638967
 30
0.0
 11
58.99719144851701
 21
143.7679281192822
 31
0.0
  0
LINE
  5
8DA9
330
2
100
AcDbEntity
  8
0
100
AcDbLine
 10
58.99719144851679
 20
145.7679281192822
 30
0.0
 11
58.99719144851679
 21
175.7679281192821
 31
0.0
  0
LINE
  5
8DAA
330
2
100
AcDbEntity
  8
0
100
AcDbLine
 10
333.3437397443797
 20
131.8033191869024
 30
0.0
 11
255.3437397443761
 21
131.8033191869024
 31
0.0
  0
LINE
  5
8DAB
330
2
100
AcDbEntity
  8
0
100
AcDbLine
 10
253.3437397443763
 20
131.8033191869024
 30
0.0
 11
201.3443259829751
 21
131.8033191869024
 31
0.0
  0
LINE
  5
8DAC
330
2
100
AcDbEntity
  8
0
100
AcDbLine
 10
182.3443259829764
 20
131.8033191869024
 30
0.0
 11
177.3437397443727
 21
131.8033191869024
 31
0.0
  0
LINE
  5
8DAD
330
2
100
AcDbEntity
  8
0
100
AcDbLine
 10
177.3437397443826
 20
143.3033191869045
 30
0.0
 11
182.3443259829764
 21
143.3033191869045
 31
0.0
  0
LINE
  5
8DAE
330
2
100
AcDbEntity
  8
0
100
AcDbLine
 10
204.6585723229787
 20
143.3033191869045
 30
0.0
 11
253.3437397443763
 21
143.3033191869045
 31
0.0
  0
LINE
  5
8DAF
330
2
100
AcDbEntity
  8
0
100
AcDbLine
 10
157.3437397443847
 20
98.30331918690454
 30
0.0
 11
182.3443259829764
 21
98.30331918690456
 31
0.0
  0
LINE
  5
8DB0
330
2
100
AcDbEntity
  8
0
100
AcDbLine
 10
201.3443259829746
 20
98.30331918690454
 30
0.0
 11
253.3437397443763
 21
98.30331918690454
 31
0.0
  0
LINE
  5
8DB1
330
2
100
AcDbEntity
  8
0
100
AcDbLine
 10
255.3437397443763
 20
98.30331918690454
 30
0.0
 11
346.1437397443756
 21
98.30331918690456
 31
0.0
  0
LINE
  5
8DB6
330
2
100
AcDbEntity
  8
0
100
AcDbLine
 10
222.9437397443758
 20
126.8033191869024
 30
0.0
 11
253.3437397443763
 21
126.8033191869024
 31
0.0
  0
LINE
  5
8DB7
330
2
100
AcDbEntity
  8
0
100
AcDbLine
 10
255.3437397443763
 20
126.8033191869024
 30
0.0
 11
286.1437397443761
 21
126.8033191869024
 31
0.0
  0
LINE
  5
8DB8
330
2
100
AcDbEntity
  8
0
100
AcDbLine
 10
36.89719144851688
 20
269.7679281192822
 30
0.0
 11
86.89719144851688
 21
269.7679281192822
 31
0.0
  0
LWPOLYLINE
  5
8DB9
330
2
100
AcDbEntity
  8
0
  6
ByBlock
100
AcDbPolyline
 90
        4
 70
     1
 43
0.0
 10
346.1437397443756
 20
108.5033191869077
 10
346.1437397443756
 20
123.5033191869077
 10
339.6437397443765
 20
123.5033191869077
 10
339.6437397443765
 20
108.5033191869062
1001
AcDbBlockRepETag
1070
     1
1071
        2
1005
6C0A
  0
DIMENSION
  5
8DBA
330
2
100
AcDbEntity
  8
ADM
100
AcDbDimension
280
     0
  2
*D8
 10
84.89719144851482
 20
12.34362558948328
 30
0.0
 11
62.39719144851483
 21
14.84362558948328
 31
0.0
 70
    32
 71
     5
 42
45.0
 73
     0
 74
     0
 75
     0
  3
S1$0
100
AcDbAlignedDimension
 13
39.89719144851483
 23
19.76792811928214
 33
0.0
 14
84.89719144851482
 24
19.76792811928214
 34
0.0
100
AcDbRotatedDimension
1001
ACAD
1000
DSTYLE
1002
{
1070
   279
1070
     0
1002
}
  0
DIMENSION
  5
8DBB
330
2
100
AcDbEntity
  8
ADM
100
AcDbDimension
280
     0
  2
*D9
 10
86.89719144851688
 20
5.058868499882692
 30
0.0
 11
61.89719144851688
 21
5.058868499882692
 31
0.0
 70
   160
 71
     5
 42
50.0
 73
     0
 74
     0
 75
     0
  3
S1$0
100
AcDbAlignedDimension
 13
36.89719144851688
 23
19.76792811928213
 33
0.0
 14
86.89719144851688
 24
19.76792811928214
 34
0.0
100
AcDbRotatedDimension
1001
ACAD
1000
DSTYLE
1002
{
1070
   279
1070
     0
1002
}
  0
DIMENSION
  5
8DBC
330
2
100
AcDbEntity
  8
ADM
100
AcDbDimension
280
     0
  2
*D10
 10
9.044333516993447
 20
19.76792811928215
 30
0.0
 11
6.544333516993452
 21
144.7679281192822
 31
0.0
 70
    32
  1
H
 71
     5
 42
250.0
 73
     0
 74
     0
 75
     0
  3
S1$0
100
AcDbAlignedDimension
 13
36.89719144851688
 23
269.7679281192822
 33
0.0
 14
36.89719144851688
 24
19.76792811928214
 34
0.0
 50
90.0
100
AcDbRotatedDimension
  0
DIMENSION
  5
8DBD
330
2
100
AcDbEntity
  8
ADM
100
AcDbDimension
280
     0
  2
*D11
 10
19.89901260470333
 20
269.7679281192822
 30
0.0
 11
17.39901260470328
 21
253.2679281192822
 31
0.0
 70
    32
 71
     5
 42
32.99999999999994
 73
     0
 74
     0
 75
     0
  3
S1$0
100
AcDbAlignedDimension
 13
51.39719144851688
 23
236.7679281192823
 33
0.0
 14
36.89719144851688
 24
269.7679281192822
 34
0.0
 50
90.0
100
AcDbRotatedDimension
  0
DIMENSION
  5
8DBE
330
2
100
AcDbEntity
  8
ADM
100
AcDbDimension
280
     0
  2
*D12
 10
19.88181945428596
 20
19.76792811928215
 30
0.0
 11
17.38181945428596
 21
36.26792811928216
 31
0.0
 70
    32
 71
     5
 42
33.00000000000001
 73
     0
 74
     0
 75
     0
  3
S1$0
100
AcDbAlignedDimension
 13
51.39719144851688
 23
52.76792811928214
 33
0.0
 14
36.89719144851688
 24
19.76792811928214
 34
0.0
 50
90.0
100
AcDbRotatedDimension
  0
DIMENSION
  5
8DBF
330
2
100
AcDbEntity
  8
ADM
100
AcDbDimension
280
     0
  2
*D13
 10
19.89901260470333
 20
236.7679281192823
 30
0.0
 11
17.39901260470328
 21
144.7679281192822
 31
0.0
 70
    32
  1
H-66
 71
     5
 42
184.0000000000001
 73
     0
 74
     0
 75
     0
  3
S1$0
100
AcDbAlignedDimension
 13
51.39719144851688
 23
52.76792811928214
 33
0.0
 14
51.39719144851688
 24
236.7679281192823
 34
0.0
 50
90.0
100
AcDbRotatedDimension
  0
DIMENSION
  5
8DC0
330
2
100
AcDbEntity
  8
ADM
100
AcDbDimension
280
     0
  2
*D14
 10
370.3437397443784
 20
32.02234674075112
 30
0.0
 11
255.3437397443762
 21
34.52234674075112
 31
0.0
 70
    32
  1
W
 71
     5
 42
230.0000000000043
 73
     0
 74
     0
 75
     0
  3
S1$0
100
AcDbAlignedDimension
 13
140.343739744374
 23
96.30331918690206
 33
0.0
 14
370.3437397443784
 24
96.30331918690206
 34
0.0
100
AcDbRotatedDimension
1001
ACAD
1000
DSTYLE
1002
{
1070
   279
1070
     0
1002
}
  0
DIMENSION
  5
8DC1
330
2
100
AcDbEntity
  8
ADM
100
AcDbDimension
280
     0
  2
*D15
 10
140.343739744374
 20
40.02234674075111
 30
0.0
 11
148.8437397443749
 21
40.02234674075111
 31
0.0
 70
   160
 71
     5
 42
17.00000000000204
 73
     0
 74
     0
 75
     0
  3
S1$0
100
AcDbAlignedDimension
 13
157.343739744376
 23
96.80331918690237
 33
0.0
 14
140.343739744374
 24
96.3033191869024
 34
0.0
100
AcDbRotatedDimension
1001
ACAD
1000
DSTYLE
1002
{
1070
   279
1070
     0
1002
}
  0
DIMENSION
  5
8DC2
330
2
100
AcDbEntity
  8
ADM
100
AcDbDimension
280
     0
  2
*D16
 10
370.3437397443784
 20
40.02234674075111
 30
0.0
 11
361.8437397443774
 21
42.52234674075111
 31
0.0
 70
    32
 71
     5
 42
17.00000000000204
 73
     0
 74
     0
 75
     0
  3
S1$0
100
AcDbAlignedDimension
 13
353.3437397443763
 23
96.80331918690237
 33
0.0
 14
370.3437397443784
 24
96.30331918690206
 34
0.0
100
AcDbRotatedDimension
  0
DIMENSION
  5
8DC6
330
2
100
AcDbEntity
  8
ADM
100
AcDbDimension
280
     0
  2
*D7
 10
108.6386157073375
 20
19.76792811928214
 30
0.0
 11
106.1386157073375
 21
26.26792811928216
 31
0.0
 70
    32
 71
     5
 42
13.0
 73
     0
 74
     0
 75
     0
  3
S1$0
100
AcDbAlignedDimension
 13
86.89719144851688
 23
32.76792811928215
 33
0.0
 14
86.89719144851688
 24
19.76792811928214
 34
0.0
 50
90.0
100
AcDbRotatedDimension
  0
LWPOLYLINE
  5
8DCB
330
2
100
AcDbEntity
  8
0
100
AcDbPolyline
 90
        4
 70
     1
 43
0.0
 10
351.3437397443761
 20
97.30331918690243
 10
353.3437397443761
 20
97.30331918690243
 10
353.3437397443761
 20
123.5033191869024
 10
351.3437397443761
 20
123.5033191869024
  0
LINE
  5
8DCE
330
2
100
AcDbEntity
  8
0
100
AcDbLine
 10
59.39719144851688
 20
40.76792811928211
 30
0.0
 11
80.0971914485167
 21
40.76792811928211
 31
0.0
  0
LINE
  5
8DCF
330
2
100
AcDbEntity
  8
0
100
AcDbLine
 10
83.09719144851669
 20
43.76792811928211
 30
0.0
 11
83.09719144851669
 21
45.76792811928211
 31
0.0
  0
LINE
  5
8DD0
330
2
100
AcDbEntity
  8
0
100
AcDbLine
 10
83.09719144851669
 20
45.76792811928211
 30
0.0
 11
80.69719144851797
 21
45.76792811928211
 31
0.0
  0
LINE
  5
8DD1
330
2
100
AcDbEntity
  8
0
100
AcDbLine
 10
56.39719144851688
 20
43.76792811928211
 30
0.0
 11
56.39719144851688
 21
43.76792811928211
 31
0.0
  0
ARC
  5
8DD2
330
2
100
AcDbEntity
  8
0
100
AcDbCircle
 10
80.0971914485167
 20
43.76792811928211
 30
0.0
 40
3.0
100
AcDbArc
 50
270.0
 51
0.0
  0
LINE
  5
8DD3
330
2
100
AcDbEntity
  8
0
100
AcDbLine
 10
59.39719144851688
 20
40.76792811928211
 30
0.0
 11
80.0971914485167
 21
40.76792811928211
 31
0.0
  0
LINE
  5
8DD4
330
2
100
AcDbEntity
  8
0
100
AcDbLine
 10
83.09719144851669
 20
43.76792811928211
 30
0.0
 11
83.09719144851669
 21
45.76792811928211
 31
0.0
  0
LINE
  5
8DD5
330
2
100
AcDbEntity
  8
0
100
AcDbLine
 10
83.09719144851669
 20
45.76792811928211
 30
0.0
 11
80.69719144851797
 21
45.76792811928211
 31
0.0
  0
LINE
  5
8DD6
330
2
100
AcDbEntity
  8
0
100
AcDbLine
 10
56.39719144851688
 20
43.76792811928211
 30
0.0
 11
56.39719144851688
 21
43.76792811928211
 31
0.0
  0
ARC
  5
8DD7
330
2
100
AcDbEntity
  8
0
100
AcDbCircle
 10
80.0971914485167
 20
43.76792811928211
 30
0.0
 40
3.0
100
AcDbArc
 50
270.0
 51
0.0
  0
LINE
  5
8DD8
330
2
100
AcDbEntity
  8
0
100
AcDbLine
 10
59.39713347255883
 20
251.7679281192824
 30
0.0
 11
80.09713347255866
 21
251.7679281192824
 31
0.0
  0
LINE
  5
8DD9
330
2
100
AcDbEntity
  8
0
100
AcDbLine
 10
83.09713347255865
 20
248.7679281192824
 30
0.0
 11
83.09713347255865
 21
246.7679281192824
 31
0.0
  0
LINE
  5
8DDA
330
2
100
AcDbEntity
  8
0
100
AcDbLine
 10
83.09713347255865
 20
246.7679281192824
 30
0.0
 11
80.69713347256016
 21
246.7679281192824
 31
0.0
  0
ARC
  5
8DDB
330
2
100
AcDbEntity
  8
0
100
AcDbCircle
 10
80.09713347255866
 20
248.7679281192824
 30
0.0
 40
3.0
100
AcDbArc
 50
0.0
 51
90.0
  0
LINE
  5
8DDC
330
2
100
AcDbEntity
  8
0
100
AcDbLine
 10
59.39713347255883
 20
251.7679281192824
 30
0.0
 11
80.09713347255866
 21
251.7679281192824
 31
0.0
  0
LINE
  5
8DDD
330
2
100
AcDbEntity
  8
0
100
AcDbLine
 10
83.09713347255865
 20
248.7679281192824
 30
0.0
 11
83.09713347255865
 21
246.7679281192824
 31
0.0
  0
LINE
  5
8DDE
330
2
100
AcDbEntity
  8
0
100
AcDbLine
 10
83.09713347255865
 20
246.7679281192824
 30
0.0
 11
80.69713347256016
 21
246.7679281192824
 31
0.0
  0
ARC
  5
8DDF
330
2
100
AcDbEntity
  8
0
100
AcDbCircle
 10
80.09713347255866
 20
248.7679281192824
 30
0.0
 40
3.0
100
AcDbArc
 50
0.0
 51
90.0
  0
DIMENSION
  5
8E0C
330
2
100
AcDbEntity
  8
ADM
100
AcDbDimension
280
     0
  2
*D17
 10
163.3437397443761
 20
40.02234674075111
 30
0.0
 11
160.3437397443751
 21
42.52234674075111
 31
0.0
 70
    32
 71
     5
 42
6.000000000001818
 73
     0
 74
     0
 75
     0
  3
S1$0
100
AcDbAlignedDimension
 13
157.3437397443742
 23
96.80331918690246
 33
0.0
 14
163.3437397443761
 24
103.2633191869021
 34
0.0
100
AcDbRotatedDimension
  0
DIMENSION
  5
8E0D
330
2
100
AcDbEntity
  8
ADM
100
AcDbDimension
280
     0
  2
*D18
 10
223.3437397443756
 20
40.02234674075111
 30
0.0
 11
193.3437397443749
 21
42.52234674075111
 31
0.0
 70
    32
 71
     5
 42
60.00000000000136
 73
     0
 74
     0
 75
     0
  3
S1$0
100
AcDbAlignedDimension
 13
163.3437397443742
 23
103.2633191869069
 33
0.0
 14
223.3437397443756
 24
101.5633191869019
 34
0.0
100
AcDbRotatedDimension
  0
DIMENSION
  5
8E0E
330
2
100
AcDbEntity
  8
ADM
100
AcDbDimension
280
     0
  2
*D19
 10
346.1437397443754
 20
40.02234674075111
 30
0.0
 11
316.1437397443758
 21
42.52234674075111
 31
0.0
 70
    32
 71
     5
 42
59.99999999999909
 73
     0
 74
     0
 75
     0
  3
S1$0
100
AcDbAlignedDimension
 13
286.1437397443763
 23
101.5633191869093
 33
0.0
 14
346.1437397443754
 24
103.2633191869021
 34
0.0
100
AcDbRotatedDimension
  0
DIMENSION
  5
8E0F
330
2
100
AcDbEntity
  8
ADM
100
AcDbDimension
280
     0
  2
*D20
 10
353.3437397443768
 20
40.02234674075111
 30
0.0
 11
349.7437397443761
 21
42.52234674075111
 31
0.0
 70
    32
 71
     5
 42
7.200000000001409
 73
     0
 74
     0
 75
     0
  3
S1$0
100
AcDbAlignedDimension
 13
346.1437397443754
 23
103.2633191869021
 33
0.0
 14
353.3437397443768
 24
96.80331918690248
 34
0.0
100
AcDbRotatedDimension
  0
DIMENSION
  5
8E10
330
2
100
AcDbEntity
  8
ADM
100
AcDbDimension
280
     0
  2
*D21
 10
108.6386157073375
 20
269.7679281192822
 30
0.0
 11
106.1386157073375
 21
263.2679281192823
 31
0.0
 70
    32
 71
     5
 42
12.99999999999977
 73
     0
 74
     0
 75
     0
  3
S1$0
100
AcDbAlignedDimension
 13
84.39719144851688
 23
256.7679281192824
 33
0.0
 14
86.89719144851688
 24
269.7679281192822
 34
0.0
 50
270.0
100
AcDbRotatedDimension
  0
DIMENSION
  5
8E11
330
2
100
AcDbEntity
  8
ADM
100
AcDbDimension
280
     0
  2
*D22
 10
108.6386157073375
 20
40.76792811928211
 30
0.0
 11
106.1386157073375
 21
36.76792811928206
 31
0.0
 70
    32
 71
     5
 42
8.000000000000142
 73
     0
 74
     0
 75
     0
  3
S1$0
100
AcDbAlignedDimension
 13
84.39719144851688
 23
32.76792811928198
 33
0.0
 14
80.0971914485167
 24
40.76792811928211
 34
0.0
 50
90.0
100
AcDbRotatedDimension
  0
DIMENSION
  5
8E12
330
2
100
AcDbEntity
  8
ADM
100
AcDbDimension
280
     0
  2
*D23
 10
108.6386157073375
 20
40.76792811928211
 30
0.0
 11
106.1386157073375
 21
78.76792811928218
 31
0.0
 70
    32
 71
     5
 42
76.00000000000008
 73
     0
 74
     0
 75
     0
  3
S1$0
100
AcDbAlignedDimension
 13
80.03719144851812
 23
116.7679281192822
 33
0.0
 14
80.0971914485167
 24
40.76792811928211
 34
0.0
 50
90.0
100
AcDbRotatedDimension
  0
DIMENSION
  5
8E13
330
2
100
AcDbEntity
  8
ADM
100
AcDbDimension
280
     0
  2
*D24
 10
108.6386157073373
 20
251.7679281192824
 30
0.0
 11
106.1386157073372
 21
213.7679281192824
 31
0.0
 70
    32
 71
     5
 42
76.00000000000012
 73
     0
 74
     0
 75
     0
  3
S1$0
100
AcDbAlignedDimension
 13
80.03713347256008
 23
175.7679281192822
 33
0.0
 14
80.09713347255866
 24
251.7679281192824
 34
0.0
 50
90.0
100
AcDbRotatedDimension
  0
DIMENSION
  5
8E14
330
2
100
AcDbEntity
  8
ADM
100
AcDbDimension
280
     0
  2
*D25
 10
108.6386157073373
 20
256.7679281192824
 30
0.0
 11
106.1386157073372
 21
254.2679281192824
 31
0.0
 70
    32
 71
     5
 42
5.000000000000028
 73
     0
 74
     0
 75
     0
  3
S1$0
100
AcDbAlignedDimension
 13
80.09713347255866
 23
251.7679281192824
 33
0.0
 14
84.39719144851688
 24
256.7679281192824
 34
0.0
 50
90.0
100
AcDbRotatedDimension
  0
DIMENSION
  5
8E15
330
2
100
AcDbEntity
  8
ADM
100
AcDbDimension
280
     0
  2
*D26
 10
248.0968041334968
 20
126.8033191869024
 30
0.0
 11
245.5968041334968
 21
149.3033344456916
 31
0.0
 70
    32
 71
     5
 42
45.00003051757841
 73
     0
 74
     0
 75
     0
  3
S1$0
100
AcDbAlignedDimension
 13
212.0245703532769
 23
171.8033497044808
 33
0.0
 14
222.9437397443758
 24
126.8033191869024
 34
0.0
 50
90.0
100
AcDbRotatedDimension
  0
DIMENSION
  5
8E16
330
2
100
AcDbEntity
  8
ADM
100
AcDbDimension
280
     0
  2
*D27
 10
248.0968041334968
 20
101.303319186902
 30
0.0
 11
245.5968041334968
 21
114.0533191869022
 31
0.0
 70
    32
 71
     5
 42
25.50000000000038
 73
     0
 74
     0
 75
     0
  3
S1$0
100
AcDbAlignedDimension
 13
237.0188311380534
 23
126.8033191869024
 33
0.0
 14
223.0437397443757
 24
101.303319186902
 34
0.0
 50
90.0
100
AcDbRotatedDimension
  0
DIMENSION
  5
8E17
330
2
100
AcDbEntity
  8
ADM
100
AcDbDimension
280
     0
  2
*D28
 10
248.0968041334968
 20
56.30328866932401
 30
0.0
 11
245.5968041334968
 21
78.80330392811305
 31
0.0
 70
    32
 71
     5
 42
45.000030517578
 73
     0
 74
     0
 75
     0
  3
S1$0
100
AcDbAlignedDimension
 13
223.0437397443757
 23
101.303319186902
 33
0.0
 14
212.0245703532769
 24
56.30328866932401
 34
0.0
 50
90.0
100
AcDbRotatedDimension
  0
DIMENSION
  5
8E18
330
2
100
AcDbEntity
  8
ADM
100
AcDbDimension
280
     0
  2
*D2
 10
125.2515178781282
 20
146.3033191869023
 30
0.0
 11
122.7515178781282
 21
121.3033191869023
 31
0.0
 70
    32
 71
     5
 42
49.99999999999997
 73
     0
 74
     0
 75
     0
  3
S1$0
100
AcDbAlignedDimension
 13
141.3437397443717
 23
96.30331918690231
 33
0.0
 14
141.343739744374
 24
146.3033191869023
 34
0.0
 50
90.0
100
AcDbRotatedDimension
  0
DIMENSION
  5
8E19
330
2
100
AcDbEntity
  8
ADM
100
AcDbDimension
280
     0
  2
*D3
 10
177.3437397443722
 20
171.2078068931375
 30
0.0
 11
158.8437397443723
 21
173.7078068931375
 31
0.0
 70
    32
 71
     5
 42
36.99999999999977
 73
     0
 74
     0
 75
     0
  3
S1$0
100
AcDbAlignedDimension
 13
140.3437397443724
 23
142.3033191869018
 33
0.0
 14
177.3437397443722
 24
145.8033191869024
 34
0.0
100
AcDbRotatedDimension
  0
DIMENSION
  5
8E1A
330
2
100
AcDbEntity
  8
ADM
100
AcDbDimension
280
     0
  2
*D4
 10
370.3437397443802
 20
171.2078068931375
 30
0.0
 11
351.8437397443801
 21
173.7078068931375
 31
0.0
 70
    32
 71
     5
 42
37.00000000000023
 73
     0
 74
     0
 75
     0
  3
S1$0
100
AcDbAlignedDimension
 13
333.34373974438
 23
145.8033191869024
 33
0.0
 14
370.3437397443802
 24
142.3033191869018
 34
0.0
100
AcDbRotatedDimension
  0
DIMENSION
  5
8E1B
330
2
100
AcDbEntity
  8
ADM
100
AcDbDimension
280
     0
  2
*D5
 10
86.89719144851688
 20
12.34362558948328
 30
0.0
 11
91.39007690293784
 21
11.44025124340055
 31
0.0
 70
   160
 71
     5
 42
2.000000000002046
 73
     0
 74
     0
 75
     0
  3
S1$0
100
AcDbAlignedDimension
 13
84.89719144851482
 23
18.76792811928214
 33
0.0
 14
86.89719144851688
 24
19.76792811928214
 34
0.0
100
AcDbRotatedDimension
  0
DIMENSION
  5
8E1C
330
2
100
AcDbEntity
  8
ADM
100
AcDbDimension
280
     0
  2
*D6
 10
36.89719144851688
 20
12.34362558948328
 30
0.0
 11
32.67818403232468
 21
12.05945222528476
 31
0.0
 70
   160
 71
     5
 42
2.999999999998181
 73
     0
 74
     0
 75
     0
  3
S1$0
100
AcDbAlignedDimension
 13
39.89719144851506
 23
20.76792811928211
 33
0.0
 14
36.89719144851688
 24
19.76792811928214
 34
0.0
100
AcDbRotatedDimension
  0
LINE
  5
92B8
330
2
100
AcDbEntity
  8
0
100
AcDbLine
 10
221.8437397443754
 20
109.8033191869025
 30
0.0
 11
221.8437397443754
 21
102.303319186902
 31
0.0
  0
LINE
  5
92B9
330
2
100
AcDbEntity
  8
0
100
AcDbLine
 10
223.8437397443752
 20
111.2033191869026
 30
0.0
 11
223.8437397443756
 21
100.8033191869025
 31
0.0
  0
LINE
  5
92BA
330
2
100
AcDbEntity
  8
0
100
AcDbLine
 10
223.8437397443752
 20
111.2033191869026
 30
0.0
 11
223.8437397443756
 21
100.8033191869025
 31
0.0
  0
LINE
  5
92BB
330
2
100
AcDbEntity
  8
0
100
AcDbLine
 10
221.8437397443777
 20
109.8033191869032
 30
0.0
 11
221.8437397443777
 21
102.3033191869027
 31
0.0
  0
LINE
  5
92BC
330
2
100
AcDbEntity
  8
0
100
AcDbLine
 10
227.3437397443752
 20
102.4033191869026
 30
0.0
 11
253.3437397443761
 21
102.4033191869026
 31
0.0
  0
LINE
  5
92BD
330
2
100
AcDbEntity
  8
0
100
AcDbLine
 10
224.82658245685
 20
100.0033191869025
 30
0.0
 11
243.0937397443754
 21
100.0033191869025
 31
0.0
  0
LINE
  5
92BE
330
2
100
AcDbEntity
  8
0
100
AcDbLine
 10
221.8437397443754
 20
102.5033191869025
 30
0.0
 11
223.8437397443754
 21
102.5033191869025
 31
0.0
  0
LINE
  5
92BF
330
2
100
AcDbEntity
  8
0
100
AcDbLine
 10
221.9437397443755
 20
99.80331918690263
 30
0.0
 11
224.5437397443755
 21
99.80331918690263
 31
0.0
  0
LINE
  5
92C0
330
2
100
AcDbEntity
  8
0
100
AcDbLine
 10
223.8437397443756
 20
100.8033191869025
 30
0.0
 11
221.4437397443755
 21
100.8033191869026
 31
0.0
  0
LINE
  5
92C1
330
2
100
AcDbEntity
  8
0
100
AcDbLine
 10
221.9437397443755
 20
99.80331918690263
 30
0.0
 11
224.5437397443755
 21
99.80331918690263
 31
0.0
  0
LINE
  5
92C2
330
2
100
AcDbEntity
  8
0
100
AcDbLine
 10
223.8437397443756
 20
100.8033191869025
 30
0.0
 11
221.4437397443755
 21
100.8033191869026
 31
0.0
  0
ARC
  5
92C3
330
2
100
AcDbEntity
  8
0
100
AcDbCircle
 10
221.9437397443755
 20
100.3033191869026
 30
0.0
 40
0.5
100
AcDbArc
 50
180.0
 51
270.0
  0
LINE
  5
92C4
330
2
100
AcDbEntity
  8
0
100
AcDbLine
 10
221.4437397443755
 20
100.8033191869026
 30
0.0
 11
221.4437397443755
 21
100.3033191869026
 31
0.0
  0
ARC
  5
92C5
330
2
100
AcDbEntity
  8
0
100
AcDbCircle
 10
221.9437397443755
 20
100.3033191869026
 30
0.0
 40
0.5
100
AcDbArc
 50
180.0
 51
270.0
  0
LINE
  5
92C6
330
2
100
AcDbEntity
  8
0
100
AcDbLine
 10
221.4437397443755
 20
100.8033191869026
 30
0.0
 11
221.4437397443755
 21
100.3033191869026
 31
0.0
  0
ARC
  5
92C7
330
2
100
AcDbEntity
  8
0
100
AcDbCircle
 10
224.5437397443755
 20
100.1033191869026
 30
0.0
 40
0.3
100
AcDbArc
 50
270.0
 51
340.5287793655059
  0
ARC
  5
92C8
330
2
100
AcDbEntity
  8
0
100
AcDbCircle
 10
243.0937397443754
 20
100.2533191869025
 30
0.0
 40
0.2500000000000284
100
AcDbArc
 50
270.0
 51
0.0000000000065138
  0
LINE
  5
92C9
330
2
100
AcDbEntity
  8
0
100
AcDbLine
 10
243.3437397443754
 20
100.2533191869025
 30
0.0
 11
243.3437397443754
 21
101.8033191869026
 31
0.0
  0
ARC
  5
92CA
330
2
100
AcDbEntity
  8
0
100
AcDbCircle
 10
243.0937397443754
 20
100.2533191869025
 30
0.0
 40
0.2500000000000284
100
AcDbArc
 50
270.0
 51
0.0000000000065138
  0
LINE
  5
92CB
330
2
100
AcDbEntity
  8
0
100
AcDbLine
 10
242.3437397443754
 20
100.0033191869025
 30
0.0
 11
243.0937397443754
 21
100.0033191869025
 31
0.0
  0
LINE
  5
92CC
330
2
100
AcDbEntity
  8
0
100
AcDbLine
 10
243.3437397443754
 20
100.2533191869025
 30
0.0
 11
243.3437397443754
 21
102.4033191869026
 31
0.0
  0
LINE
  5
92CD
330
2
100
AcDbEntity
  8
0
100
AcDbLine
 10
221.8437397443754
 20
109.8033191869025
 30
0.0
 11
207.1437397443753
 21
110.2033191869028
 31
0.0
  0
LINE
  5
92CE
330
2
100
AcDbEntity
  8
0
100
AcDbLine
 10
221.8437397443754
 20
124.2033191869026
 30
0.0
 11
207.1437397443753
 21
123.8033191869023
 31
0.0
  0
LINE
  5
92CF
330
2
100
AcDbEntity
  8
0
100
AcDbLine
 10
221.8437397443754
 20
109.8033191869025
 30
0.0
 11
207.1437397443753
 21
110.2033191869028
 31
0.0
  0
LINE
  5
92D0
330
2
100
AcDbEntity
  8
0
100
AcDbLine
 10
221.8437397443754
 20
124.2033191869026
 30
0.0
 11
207.1437397443753
 21
123.8033191869023
 31
0.0
  0
LINE
  5
92D1
330
2
100
AcDbEntity
  8
0
100
AcDbLine
 10
207.1437397443753
 20
110.2033191869025
 30
0.0
 11
207.1437397443753
 21
123.8033191869022
 31
0.0
  0
LINE
  5
92D2
330
2
100
AcDbEntity
  8
0
100
AcDbLine
 10
207.1437397443753
 20
110.2033191869024
 30
0.0
 11
207.1437397443756
 21
123.8033191869023
 31
0.0
  0
LINE
  5
92D5
330
2
100
AcDbEntity
  8
0
100
AcDbLine
 10
243.0937397443752
 20
122.8033191869027
 30
0.0
 11
209.3437397443752
 21
122.8033191869025
 31
0.0
  0
LINE
  5
92D6
330
2
100
AcDbEntity
  8
0
100
AcDbLine
 10
243.0937397443752
 20
122.8033191869027
 30
0.0
 11
208.4437397443756
 21
122.8033191869025
 31
0.0
  0
LINE
  5
92D7
330
2
100
AcDbEntity
  8
0
100
AcDbLine
 10
227.3437397443752
 20
105.4033191869026
 30
0.0
 11
253.3437397443761
 21
105.4033191869026
 31
0.0
  0
LINE
  5
92D8
330
2
100
AcDbEntity
  8
0
100
AcDbLine
 10
227.3437397443752
 20
120.4033191869026
 30
0.0
 11
246.0422759874171
 21
120.4033191869026
 31
0.0
  0
LINE
  5
92D9
330
2
100
AcDbEntity
  8
0
100
AcDbLine
 10
227.3437397443752
 20
117.4033191869026
 30
0.0
 11
242.3284405202291
 21
117.4033191869026
 31
0.0
  0
LINE
  5
92DA
330
2
100
AcDbEntity
  8
0
100
AcDbLine
 10
227.3437397443752
 20
120.4033191869026
 30
0.0
 11
246.0422759874171
 21
120.4033191869026
 31
0.0
  0
LINE
  5
92DB
330
2
100
AcDbEntity
  8
0
100
AcDbLine
 10
227.3437397443752
 20
120.4033191869026
 30
0.0
 11
253.3437397443761
 21
120.4033191869026
 31
0.0
  0
LINE
  5
92DC
330
2
100
AcDbEntity
  8
0
100
AcDbLine
 10
209.3437397443754
 20
111.2033191869025
 30
0.0
 11
223.8437397443752
 21
111.2033191869026
 31
0.0
  0
LINE
  5
92DD
330
2
100
AcDbEntity
  8
0
100
AcDbLine
 10
208.4437397443756
 20
111.2033191869024
 30
0.0
 11
223.8437397443752
 21
111.2033191869026
 31
0.0
  0
LINE
  5
92DE
330
2
100
AcDbEntity
  8
0
100
AcDbLine
 10
211.8437397443752
 20
121.0033191869025
 30
0.0
 11
211.8437397443754
 21
113.0033191869025
 31
0.0
  0
LINE
  5
92DF
330
2
100
AcDbEntity
  8
0
100
AcDbLine
 10
208.4437397443756
 20
122.8033191869025
 30
0.0
 11
208.4437397443756
 21
111.2033191869024
 31
0.0
  0
LINE
  5
92E3
330
2
100
AcDbEntity
  8
0
100
AcDbLine
 10
211.8437397443752
 20
121.0033191869025
 30
0.0
 11
211.8437397443754
 21
113.0033191869025
 31
0.0
  0
LINE
  5
92E4
330
2
100
AcDbEntity
  8
0
100
AcDbLine
 10
211.8437397443754
 20
113.0033191869025
 30
0.0
 11
209.3437397443752
 21
113.0033191869025
 31
0.0
  0
LINE
  5
92E5
330
2
100
AcDbEntity
  8
0
100
AcDbLine
 10
211.8437397443754
 20
113.0033191869025
 30
0.0
 11
209.3437397443752
 21
113.0033191869025
 31
0.0
  0
LINE
  5
92E6
330
2
100
AcDbEntity
  8
0
100
AcDbLine
 10
208.8437397443754
 20
112.5033191869025
 30
0.0
 11
208.8437397443752
 21
111.7033191869025
 31
0.0
  0
LINE
  5
92E7
330
2
100
AcDbEntity
  8
0
100
AcDbLine
 10
208.8437397443754
 20
112.5033191869025
 30
0.0
 11
208.8437397443752
 21
111.7033191869025
 31
0.0
  0
ARC
  5
92E8
330
2
100
AcDbEntity
  8
0
100
AcDbCircle
 10
209.3437397443752
 20
111.7033191869026
 30
0.0
 40
0.5000000000000711
100
AcDbArc
 50
180.0000000000065
 51
270.0
  0
ARC
  5
92E9
330
2
100
AcDbEntity
  8
0
100
AcDbCircle
 10
209.3437397443752
 20
112.5033191869025
 30
0.0
 40
0.4999999999999432
100
AcDbArc
 50
90.0
 51
180.0000000000065
  0
ARC
  5
92EA
330
2
100
AcDbEntity
  8
0
100
AcDbCircle
 10
209.3437397443752
 20
111.7033191869026
 30
0.0
 40
0.5000000000000711
100
AcDbArc
 50
180.0000000000065
 51
270.0
  0
ARC
  5
92EB
330
2
100
AcDbEntity
  8
0
100
AcDbCircle
 10
209.3437397443752
 20
112.5033191869025
 30
0.0
 40
0.4999999999999432
100
AcDbArc
 50
90.0
 51
180.0000000000065
  0
LINE
  5
92EC
330
2
100
AcDbEntity
  8
0
100
AcDbLine
 10
209.3437397443752
 20
121.0033191869024
 30
0.0
 11
211.8437397443752
 21
121.0033191869025
 31
0.0
  0
LINE
  5
92ED
330
2
100
AcDbEntity
  8
0
100
AcDbLine
 10
209.3437397443752
 20
121.0033191869024
 30
0.0
 11
211.8437397443752
 21
121.0033191869025
 31
0.0
  0
LINE
  5
92EE
330
2
100
AcDbEntity
  8
0
100
AcDbLine
 10
208.8437397443752
 20
122.3033191869025
 30
0.0
 11
208.8437397443752
 21
121.5033191869024
 31
0.0
  0
LINE
  5
92EF
330
2
100
AcDbEntity
  8
0
100
AcDbLine
 10
208.8437397443752
 20
122.3033191869025
 30
0.0
 11
208.8437397443752
 21
121.5033191869024
 31
0.0
  0
ARC
  5
92F0
330
2
100
AcDbEntity
  8
0
100
AcDbCircle
 10
209.3437397443752
 20
121.5033191869024
 30
0.0
 40
0.4999999999999965
100
AcDbArc
 50
180.0
 51
270.0
  0
ARC
  5
92F1
330
2
100
AcDbEntity
  8
0
100
AcDbCircle
 10
209.3437397443752
 20
122.3033191869025
 30
0.0
 40
0.4999999999999929
100
AcDbArc
 50
90.0
 51
179.9999999999935
  0
ARC
  5
92F2
330
2
100
AcDbEntity
  8
0
100
AcDbCircle
 10
209.3437397443752
 20
121.5033191869024
 30
0.0
 40
0.4999999999999965
100
AcDbArc
 50
180.0
 51
270.0
  0
ARC
  5
92F3
330
2
100
AcDbEntity
  8
0
100
AcDbCircle
 10
209.3437397443752
 20
122.3033191869025
 30
0.0
 40
0.4999999999999929
100
AcDbArc
 50
90.0
 51
179.9999999999935
  0
LINE
  5
92F4
330
2
100
AcDbEntity
  8
0
100
AcDbLine
 10
221.8437397443754
 20
122.8033191869025
 30
0.0
 11
221.8437397443754
 21
124.2033191869026
 31
0.0
  0
LINE
  5
92F5
330
2
100
AcDbEntity
  8
0
100
AcDbLine
 10
237.8437397443752
 20
117.4033191869026
 30
0.0
 11
237.8437397443754
 21
105.4033191869026
 31
0.0
  0
LINE
  5
92F6
330
2
100
AcDbEntity
  8
0
100
AcDbLine
 10
237.8437397443752
 20
117.4033191869026
 30
0.0
 11
227.3437397443754
 21
105.4033191869026
 31
0.0
  0
ARC
  5
92F7
330
2
100
AcDbEntity
  8
0
100
AcDbCircle
 10
243.0937397443752
 20
122.5533191869027
 30
0.0
 40
0.2499999999999787
100
AcDbArc
 50
0.0000000000065138
 51
90.0
  0
LINE
  5
92F8
330
2
100
AcDbEntity
  8
0
100
AcDbLine
 10
243.3437397443752
 20
120.4033191869026
 30
0.0
 11
243.3437397443752
 21
122.5533191869027
 31
0.0
  0
ARC
  5
92F9
330
2
100
AcDbEntity
  8
0
100
AcDbCircle
 10
243.0937397443752
 20
122.5533191869027
 30
0.0
 40
0.2499999999999787
100
AcDbArc
 50
0.0000000000065138
 51
90.0
  0
LINE
  5
92FA
330
2
100
AcDbEntity
  8
0
100
AcDbLine
 10
243.3437397443752
 20
121.0033191869027
 30
0.0
 11
243.3437397443752
 21
122.5533191869027
 31
0.0
  0
LINE
  5
92FB
330
2
100
AcDbEntity
  8
0
100
AcDbLine
 10
227.3437397443752
 20
120.4033191869026
 30
0.0
 11
227.3437397443756
 21
102.4033191869026
 31
0.0
  0
LINE
  5
9974
330
2
100
AcDbEntity
  8
0
100
AcDbLine
 10
285.6437397443767
 20
111.2033191869026
 30
0.0
 11
285.6437397443762
 21
100.8033191869025
 31
0.0
  0
LINE
  5
9975
330
2
100
AcDbEntity
  8
0
100
AcDbLine
 10
285.6437397443767
 20
111.2033191869026
 30
0.0
 11
285.6437397443762
 21
100.8033191869025
 31
0.0
  0
LINE
  5
9976
330
2
100
AcDbEntity
  8
0
100
AcDbLine
 10
282.1437397443767
 20
102.4033191869026
 30
0.0
 11
255.3437397443763
 21
102.4033191869026
 31
0.0
  0
LINE
  5
9977
330
2
100
AcDbEntity
  8
0
100
AcDbLine
 10
284.6608970319019
 20
100.0033191869025
 30
0.0
 11
266.3937397443765
 21
100.0033191869025
 31
0.0
  0
LINE
  5
9978
330
2
100
AcDbEntity
  8
0
100
AcDbLine
 10
287.6437397443765
 20
102.5033191869025
 30
0.0
 11
285.6437397443765
 21
102.5033191869025
 31
0.0
  0
LINE
  5
9979
330
2
100
AcDbEntity
  8
0
100
AcDbLine
 10
287.5437397443763
 20
99.80331918690263
 30
0.0
 11
284.9437397443765
 21
99.80331918690263
 31
0.0
  0
LINE
  5
997A
330
2
100
AcDbEntity
  8
0
100
AcDbLine
 10
285.6437397443762
 20
100.8033191869025
 30
0.0
 11
288.0437397443763
 21
100.8033191869026
 31
0.0
  0
LINE
  5
997B
330
2
100
AcDbEntity
  8
0
100
AcDbLine
 10
287.5437397443763
 20
99.80331918690263
 30
0.0
 11
284.9437397443765
 21
99.80331918690263
 31
0.0
  0
LINE
  5
997C
330
2
100
AcDbEntity
  8
0
100
AcDbLine
 10
285.6437397443762
 20
100.8033191869025
 30
0.0
 11
288.0437397443763
 21
100.8033191869026
 31
0.0
  0
ARC
  5
997D
330
2
100
AcDbEntity
  8
0
100
AcDbCircle
 10
287.5437397443763
 20
100.3033191869026
 30
0.0
 40
0.5
100
AcDbArc
 50
270.0
 51
0.000000000000007
  0
LINE
  5
997E
330
2
100
AcDbEntity
  8
0
100
AcDbLine
 10
288.0437397443763
 20
100.8033191869026
 30
0.0
 11
288.0437397443763
 21
100.3033191869026
 31
0.0
  0
ARC
  5
997F
330
2
100
AcDbEntity
  8
0
100
AcDbCircle
 10
287.5437397443763
 20
100.3033191869026
 30
0.0
 40
0.5
100
AcDbArc
 50
270.0
 51
0.000000000000007
  0
LINE
  5
9980
330
2
100
AcDbEntity
  8
0
100
AcDbLine
 10
288.0437397443763
 20
100.8033191869026
 30
0.0
 11
288.0437397443763
 21
100.3033191869026
 31
0.0
  0
ARC
  5
9981
330
2
100
AcDbEntity
  8
0
100
AcDbCircle
 10
284.9437397443765
 20
100.1033191869026
 30
0.0
 40
0.3
100
AcDbArc
 50
199.4712206344909
 51
270.0
  0
ARC
  5
9982
330
2
100
AcDbEntity
  8
0
100
AcDbCircle
 10
266.3937397443765
 20
100.2533191869025
 30
0.0
 40
0.2500000000000284
100
AcDbArc
 50
179.9999999999935
 51
270.0
  0
LINE
  5
9983
330
2
100
AcDbEntity
  8
0
100
AcDbLine
 10
266.1437397443765
 20
100.2533191869025
 30
0.0
 11
266.1437397443765
 21
101.8033191869026
 31
0.0
  0
ARC
  5
9984
330
2
100
AcDbEntity
  8
0
100
AcDbCircle
 10
266.3937397443765
 20
100.2533191869025
 30
0.0
 40
0.2500000000000284
100
AcDbArc
 50
179.9999999999935
 51
270.0
  0
LINE
  5
9985
330
2
100
AcDbEntity
  8
0
100
AcDbLine
 10
267.1437397443765
 20
100.0033191869025
 30
0.0
 11
266.3937397443765
 21
100.0033191869025
 31
0.0
  0
LINE
  5
9986
330
2
100
AcDbEntity
  8
0
100
AcDbLine
 10
266.1437397443765
 20
100.2533191869025
 30
0.0
 11
266.1437397443765
 21
102.4033191869026
 31
0.0
  0
LINE
  5
9987
330
2
100
AcDbEntity
  8
0
100
AcDbLine
 10
287.6437397443765
 20
109.8033191869025
 30
0.0
 11
302.3437397443765
 21
110.2033191869028
 31
0.0
  0
LINE
  5
9988
330
2
100
AcDbEntity
  8
0
100
AcDbLine
 10
287.6437397443765
 20
124.2033191869026
 30
0.0
 11
302.3437397443765
 21
123.8033191869023
 31
0.0
  0
LINE
  5
9989
330
2
100
AcDbEntity
  8
0
100
AcDbLine
 10
287.6437397443765
 20
109.8033191869025
 30
0.0
 11
302.3437397443765
 21
110.2033191869028
 31
0.0
  0
LINE
  5
998A
330
2
100
AcDbEntity
  8
0
100
AcDbLine
 10
287.6437397443765
 20
124.2033191869026
 30
0.0
 11
302.3437397443765
 21
123.8033191869023
 31
0.0
  0
LINE
  5
998B
330
2
100
AcDbEntity
  8
0
100
AcDbLine
 10
302.3437397443765
 20
110.2033191869025
 30
0.0
 11
302.3437397443765
 21
123.8033191869022
 31
0.0
  0
LINE
  5
998C
330
2
100
AcDbEntity
  8
0
100
AcDbLine
 10
302.3437397443765
 20
110.2033191869024
 30
0.0
 11
302.3437397443763
 21
123.8033191869023
 31
0.0
  0
LINE
  5
998D
330
2
100
AcDbEntity
  8
0
100
AcDbLine
 10
266.3937397443767
 20
122.8033191869027
 30
0.0
 11
300.1437397443767
 21
122.8033191869025
 31
0.0
  0
LINE
  5
998E
330
2
100
AcDbEntity
  8
0
100
AcDbLine
 10
266.3937397443767
 20
122.8033191869027
 30
0.0
 11
301.0437397443764
 21
122.8033191869025
 31
0.0
  0
LINE
  5
998F
330
2
100
AcDbEntity
  8
0
100
AcDbLine
 10
282.1437397443767
 20
105.4033191869026
 30
0.0
 11
255.3437397443763
 21
105.4033191869026
 31
0.0
  0
LINE
  5
9990
330
2
100
AcDbEntity
  8
0
100
AcDbLine
 10
282.1437397443767
 20
120.4033191869026
 30
0.0
 11
263.4452035013349
 21
120.4033191869026
 31
0.0
  0
LINE
  5
9991
330
2
100
AcDbEntity
  8
0
100
AcDbLine
 10
282.1437397443767
 20
117.4033191869026
 30
0.0
 11
255.3437397443763
 21
117.4033191869026
 31
0.0
  0
LINE
  5
9992
330
2
100
AcDbEntity
  8
0
100
AcDbLine
 10
282.1437397443767
 20
120.4033191869026
 30
0.0
 11
263.4452035013349
 21
120.4033191869026
 31
0.0
  0
LINE
  5
9993
330
2
100
AcDbEntity
  8
0
100
AcDbLine
 10
282.1437397443767
 20
120.4033191869026
 30
0.0
 11
255.3437397443763
 21
120.4033191869026
 31
0.0
  0
LINE
  5
9994
330
2
100
AcDbEntity
  8
0
100
AcDbLine
 10
300.1437397443765
 20
111.2033191869025
 30
0.0
 11
285.6437397443767
 21
111.2033191869026
 31
0.0
  0
LINE
  5
9995
330
2
100
AcDbEntity
  8
0
100
AcDbLine
 10
301.0437397443764
 20
111.2033191869024
 30
0.0
 11
285.6437397443767
 21
111.2033191869026
 31
0.0
  0
LINE
  5
9996
330
2
100
AcDbEntity
  8
0
100
AcDbLine
 10
297.6437397443767
 20
121.0033191869025
 30
0.0
 11
297.6437397443765
 21
113.0033191869025
 31
0.0
  0
LINE
  5
9997
330
2
100
AcDbEntity
  8
0
100
AcDbLine
 10
301.0437397443764
 20
122.8033191869025
 30
0.0
 11
301.0437397443764
 21
111.2033191869024
 31
0.0
  0
LINE
  5
9998
330
2
100
AcDbEntity
  8
0
100
AcDbLine
 10
297.6437397443767
 20
121.0033191869025
 30
0.0
 11
297.6437397443765
 21
113.0033191869025
 31
0.0
  0
LINE
  5
9999
330
2
100
AcDbEntity
  8
0
100
AcDbLine
 10
297.6437397443765
 20
113.0033191869025
 30
0.0
 11
300.1437397443767
 21
113.0033191869025
 31
0.0
  0
LINE
  5
999A
330
2
100
AcDbEntity
  8
0
100
AcDbLine
 10
297.6437397443765
 20
113.0033191869025
 30
0.0
 11
300.1437397443767
 21
113.0033191869025
 31
0.0
  0
LINE
  5
999B
330
2
100
AcDbEntity
  8
0
100
AcDbLine
 10
300.6437397443765
 20
112.5033191869025
 30
0.0
 11
300.6437397443767
 21
111.7033191869025
 31
0.0
  0
LINE
  5
999C
330
2
100
AcDbEntity
  8
0
100
AcDbLine
 10
300.6437397443765
 20
112.5033191869025
 30
0.0
 11
300.6437397443767
 21
111.7033191869025
 31
0.0
  0
ARC
  5
999D
330
2
100
AcDbEntity
  8
0
100
AcDbCircle
 10
300.1437397443767
 20
111.7033191869026
 30
0.0
 40
0.5000000000000711
100
AcDbArc
 50
270.0
 51
359.9999999999935
  0
ARC
  5
999E
330
2
100
AcDbEntity
  8
0
100
AcDbCircle
 10
300.1437397443767
 20
112.5033191869025
 30
0.0
 40
0.4999999999999432
100
AcDbArc
 50
359.9999999999935
 51
90.0
  0
ARC
  5
999F
330
2
100
AcDbEntity
  8
0
100
AcDbCircle
 10
300.1437397443767
 20
111.7033191869026
 30
0.0
 40
0.5000000000000711
100
AcDbArc
 50
270.0
 51
359.9999999999935
  0
ARC
  5
99A0
330
2
100
AcDbEntity
  8
0
100
AcDbCircle
 10
300.1437397443767
 20
112.5033191869025
 30
0.0
 40
0.4999999999999432
100
AcDbArc
 50
359.9999999999935
 51
90.0
  0
LINE
  5
99A1
330
2
100
AcDbEntity
  8
0
100
AcDbLine
 10
300.1437397443767
 20
121.0033191869024
 30
0.0
 11
297.6437397443767
 21
121.0033191869025
 31
0.0
  0
LINE
  5
99A2
330
2
100
AcDbEntity
  8
0
100
AcDbLine
 10
300.1437397443767
 20
121.0033191869024
 30
0.0
 11
297.6437397443767
 21
121.0033191869025
 31
0.0
  0
LINE
  5
99A3
330
2
100
AcDbEntity
  8
0
100
AcDbLine
 10
300.6437397443767
 20
122.3033191869025
 30
0.0
 11
300.6437397443767
 21
121.5033191869024
 31
0.0
  0
LINE
  5
99A4
330
2
100
AcDbEntity
  8
0
100
AcDbLine
 10
300.6437397443767
 20
122.3033191869025
 30
0.0
 11
300.6437397443767
 21
121.5033191869024
 31
0.0
  0
ARC
  5
99A5
330
2
100
AcDbEntity
  8
0
100
AcDbCircle
 10
300.1437397443767
 20
121.5033191869024
 30
0.0
 40
0.4999999999999965
100
AcDbArc
 50
270.0
 51
0.000000000000007
  0
ARC
  5
99A6
330
2
100
AcDbEntity
  8
0
100
AcDbCircle
 10
300.1437397443767
 20
122.3033191869025
 30
0.0
 40
0.4999999999999929
100
AcDbArc
 50
0.0000000000065208
 51
90.0
  0
ARC
  5
99A7
330
2
100
AcDbEntity
  8
0
100
AcDbCircle
 10
300.1437397443767
 20
121.5033191869024
 30
0.0
 40
0.4999999999999965
100
AcDbArc
 50
270.0
 51
0.000000000000007
  0
ARC
  5
99A8
330
2
100
AcDbEntity
  8
0
100
AcDbCircle
 10
300.1437397443767
 20
122.3033191869025
 30
0.0
 40
0.4999999999999929
100
AcDbArc
 50
0.0000000000065208
 51
90.0
  0
LINE
  5
99A9
330
2
100
AcDbEntity
  8
0
100
AcDbLine
 10
287.6437397443765
 20
122.8033191869025
 30
0.0
 11
287.6437397443765
 21
124.2033191869026
 31
0.0
  0
LINE
  5
99AA
330
2
100
AcDbEntity
  8
0
100
AcDbLine
 10
271.6437397443767
 20
117.4033191869026
 30
0.0
 11
271.6437397443765
 21
105.4033191869026
 31
0.0
  0
LINE
  5
99AB
330
2
100
AcDbEntity
  8
0
100
AcDbLine
 10
271.6437397443767
 20
117.4033191869026
 30
0.0
 11
282.1437397443765
 21
105.4033191869026
 31
0.0
  0
ARC
  5
99AC
330
2
100
AcDbEntity
  8
0
100
AcDbCircle
 10
266.3937397443767
 20
122.5533191869027
 30
0.0
 40
0.2499999999999787
100
AcDbArc
 50
90.0
 51
179.9999999999935
  0
LINE
  5
99AD
330
2
100
AcDbEntity
  8
0
100
AcDbLine
 10
266.1437397443767
 20
120.4033191869026
 30
0.0
 11
266.1437397443767
 21
122.5533191869027
 31
0.0
  0
ARC
  5
99AE
330
2
100
AcDbEntity
  8
0
100
AcDbCircle
 10
266.3937397443767
 20
122.5533191869027
 30
0.0
 40
0.2499999999999787
100
AcDbArc
 50
90.0
 51
179.9999999999935
  0
LINE
  5
99AF
330
2
100
AcDbEntity
  8
0
100
AcDbLine
 10
266.1437397443767
 20
121.0033191869027
 30
0.0
 11
266.1437397443767
 21
122.5533191869027
 31
0.0
  0
LINE
  5
99B0
330
2
100
AcDbEntity
  8
0
100
AcDbLine
 10
282.1437397443767
 20
120.4033191869026
 30
0.0
 11
282.1437397443763
 21
102.4033191869026
 31
0.0
  0
LINE
  5
99CF
330
2
100
AcDbEntity
  8
0
100
AcDbLine
 10
248.4730147101477
 20
117.4033191869026
 30
0.0
 11
253.3437397443761
 21
117.4033191869026
 31
0.0
  0
LINE
  5
9AD7
330
2
100
AcDbEntity
  8
0
100
AcDbLine
 10
65.79713326996648
 20
124.467928119282
 30
0.0
 11
65.79713326996648
 21
143.7679281192822
 31
0.0
  0
LINE
  5
9AD8
330
2
100
AcDbEntity
  8
0
100
AcDbLine
 10
77.79713326996625
 20
124.467928119282
 30
0.0
 11
77.79713326996603
 21
143.7679281192822
 31
0.0
  0
LINE
  5
9AD9
330
2
100
AcDbEntity
  8
0
100
AcDbLine
 10
80.79713326996625
 20
124.467928119282
 30
0.0
 11
80.79713326996602
 21
143.7679281192822
 31
0.0
  0
LINE
  5
9ADA
330
2
100
AcDbEntity
  8
0
100
AcDbLine
 10
62.79713326996625
 20
124.467928119282
 30
0.0
 11
62.79713326996603
 21
143.7679281192822
 31
0.0
  0
LINE
  5
9ADB
330
2
100
AcDbEntity
  8
0
100
AcDbLine
 10
59.44719144851706
 20
100.7679281192549
 30
0.0
 11
72.96181729885711
 21
100.7679281192549
 31
0.0
  0
LINE
  5
9ADC
330
2
100
AcDbEntity
  8
0
100
AcDbLine
 10
59.44713326996634
 20
100.7679281192553
 30
0.0
 11
72.96181729885711
 21
100.7679281192553
 31
0.0
  0
LINE
  5
9ADD
330
2
100
AcDbEntity
  8
0
100
AcDbLine
 10
62.19713326996611
 20
106.3679281192821
 30
0.0
 11
70.19713326996612
 21
106.3679281192823
 31
0.0
  0
ARC
  5
9ADE
330
2
100
AcDbEntity
  8
0
100
AcDbCircle
 10
61.69713326996634
 20
103.8679281192822
 30
0.0
 40
0.4999999999999965
100
AcDbArc
 50
270.0
 51
0.0
  0
LINE
  5
9ADF
330
2
100
AcDbEntity
  8
0
100
AcDbLine
 10
62.79713326996625
 20
137.8679281192823
 30
0.0
 11
60.64713326996593
 21
137.8679281192821
 31
0.0
  0
LINE
  5
9AE0
330
2
100
AcDbEntity
  8
0
100
AcDbLine
 10
66.19713326996611
 20
103.3676576383088
 30
0.0
 11
60.39713326996639
 21
103.3680236913373
 31
0.0
  0
LINE
  5
9AE1
330
2
100
AcDbEntity
  8
0
100
AcDbLine
 10
58.9971914485161
 20
116.7679281192547
 30
0.0
 11
59.43256559817564
 21
100.7679281192819
 31
0.0
  0
LINE
  5
9AE2
330
2
100
AcDbEntity
  8
0
100
AcDbLine
 10
62.19713326996634
 20
103.8679281192822
 30
0.0
 11
62.19713326996611
 21
106.3679281192821
 31
0.0
  0
LINE
  5
9AE3
330
2
100
AcDbEntity
  8
0
100
AcDbLine
 10
60.39713326996616
 20
137.6179281192821
 30
0.0
 11
60.39713326996616
 21
103.3680236913375
 31
0.0
  0
LINE
  5
9AE4
330
2
100
AcDbEntity
  8
0
100
AcDbLine
 10
60.89713326996616
 20
103.3679281192822
 30
0.0
 11
61.69713326996634
 21
103.3679281192822
 31
0.0
  0
ARC
  5
9AE5
330
2
100
AcDbEntity
  8
0
100
AcDbCircle
 10
60.89713326996616
 20
103.8679281192822
 30
0.0
 40
0.4999999999999929
100
AcDbArc
 50
180.0
 51
270.0
  0
LINE
  5
9AE6
330
2
100
AcDbEntity
  8
0
100
AcDbLine
 10
60.39713326996616
 20
116.7679281192548
 30
0.0
 11
58.99713326996629
 21
116.7679281192548
 31
0.0
  0
ARC
  5
9AE7
330
2
100
AcDbEntity
  8
0
100
AcDbCircle
 10
60.64713326996593
 20
137.6179281192821
 30
0.0
 40
0.2499999999999787
100
AcDbArc
 50
90.0
 51
180.0000000000065
  0
LINE
  5
9AE8
330
2
100
AcDbEntity
  8
0
100
AcDbLine
 10
73.39719144851756
 20
116.7679281192547
 30
0.0
 11
72.96181729885802
 21
100.7679281192819
 31
0.0
  0
LINE
  5
9AE9
330
2
100
AcDbEntity
  8
0
100
AcDbLine
 10
71.99713326996629
 20
103.3676576383092
 30
0.0
 11
71.99713326996607
 21
118.3679281192822
 31
0.0
  0
LINE
  5
9AEA
330
2
100
AcDbEntity
  8
0
100
AcDbLine
 10
70.19713326996612
 20
106.3679281192823
 30
0.0
 11
70.19713326996612
 21
103.8679281192822
 31
0.0
  0
ARC
  5
9AEB
330
2
100
AcDbEntity
  8
0
100
AcDbCircle
 10
70.69713326996612
 20
103.8679281192823
 30
0.0
 40
0.4999999999999432
100
AcDbArc
 50
180.0000000000065
 51
270.0
  0
LINE
  5
9AEC
330
2
100
AcDbEntity
  8
0
100
AcDbLine
 10
71.99713326996629
 20
103.3679281192823
 30
0.0
 11
63.04713347256143
 21
103.3679281192823
 31
0.0
  0
LINE
  5
9AED
330
2
100
AcDbEntity
  8
0
100
AcDbLine
 10
66.19719144851638
 20
103.3676576383087
 30
0.0
 11
62.99724697836381
 21
103.3676576383087
 31
0.0
  0
ARC
  5
9AEE
330
2
100
AcDbEntity
  8
0
100
AcDbCircle
 10
71.49713326996607
 20
103.8679281192823
 30
0.0
 40
0.5000000000000711
100
AcDbArc
 50
270.0
 51
0.0000000000097707
  0
LINE
  5
9AEF
330
2
100
AcDbEntity
  8
0
100
AcDbLine
 10
70.69713326996612
 20
103.3679281192823
 30
0.0
 11
71.49713326996629
 21
103.3679281192822
 31
0.0
  0
LINE
  5
9AF0
330
2
100
AcDbEntity
  8
0
100
AcDbLine
 10
65.79713326996648
 20
124.467928119282
 30
0.0
 11
77.79713326996625
 21
134.967928119282
 31
0.0
  0
LINE
  5
9AF1
330
2
100
AcDbEntity
  8
0
100
AcDbLine
 10
83.19713326996611
 20
119.3507708317569
 30
0.0
 11
83.19713326996611
 21
137.6179281192823
 31
0.0
  0
LINE
  5
9AF2
330
2
100
AcDbEntity
  8
0
100
AcDbLine
 10
71.99713326996607
 20
118.3679281192822
 30
0.0
 11
82.39713326996616
 21
118.3679281192824
 31
0.0
  0
LINE
  5
9AF3
330
2
100
AcDbEntity
  8
0
100
AcDbLine
 10
80.79713326996625
 20
124.467928119282
 30
0.0
 11
62.79713326996625
 21
124.467928119282
 31
0.0
  0
LINE
  5
9AF4
330
2
100
AcDbEntity
  8
0
100
AcDbLine
 10
71.99713326996607
 20
116.7677387852364
 30
0.0
 11
73.39713326996729
 21
116.7679281192548
 31
0.0
  0
LINE
  5
9AF5
330
2
100
AcDbEntity
  8
0
100
AcDbLine
 10
83.39713326996616
 20
116.4679281192823
 30
0.0
 11
83.39713326996616
 21
119.0679281192824
 31
0.0
  0
LINE
  5
9AF6
330
2
100
AcDbEntity
  8
0
100
AcDbLine
 10
82.39713326996616
 20
118.3679281192824
 30
0.0
 11
82.39713326996616
 21
115.9679281192824
 31
0.0
  0
LINE
  5
9AF7
330
2
100
AcDbEntity
  8
0
100
AcDbLine
 10
82.39713326996616
 20
115.9679281192824
 30
0.0
 11
82.89713326996617
 21
115.9679281192823
 31
0.0
  0
ARC
  5
9AF8
330
2
100
AcDbEntity
  8
0
100
AcDbCircle
 10
82.89713326996617
 20
116.4679281192823
 30
0.0
 40
0.5
100
AcDbArc
 50
270.0
 51
0.0
  0
ARC
  5
9AF9
330
2
100
AcDbEntity
  8
0
100
AcDbCircle
 10
83.0971332699662
 20
119.0679281192824
 30
0.0
 40
0.3
100
AcDbArc
 50
0.0
 51
70.52877936551316
  0
LINE
  5
9AFA
330
2
100
AcDbEntity
  8
0
100
AcDbLine
 10
77.79713326996625
 20
134.967928119282
 30
0.0
 11
65.79713326996648
 21
134.9679281192821
 31
0.0
  0
LINE
  5
9AFB
330
2
100
AcDbEntity
  8
0
100
AcDbLine
 10
82.94713326996612
 20
137.8679281192823
 30
0.0
 11
80.79713326996625
 21
137.8679281192823
 31
0.0
  0
ARC
  5
9AFC
330
2
100
AcDbEntity
  8
0
100
AcDbCircle
 10
82.94713326996612
 20
137.6179281192823
 30
0.0
 40
0.2500000000000284
100
AcDbArc
 50
0.0000000000065138
 51
90.0
  0
LINE
  5
9B5F
330
2
100
AcDbEntity
  8
0
100
AcDbLine
 10
59.44713347255924
 20
191.7679281193095
 30
0.0
 11
72.9617593228993
 21
191.7679281193095
 31
0.0
  0
LINE
  5
9B60
330
2
100
AcDbEntity
  8
0
100
AcDbLine
 10
59.44707529400853
 20
191.7679281193091
 30
0.0
 11
72.9617593228993
 21
191.7679281193091
 31
0.0
  0
LINE
  5
9B61
330
2
100
AcDbEntity
  8
0
100
AcDbLine
 10
62.1970752940083
 20
186.1679281192823
 30
0.0
 11
70.1970752940083
 21
186.1679281192821
 31
0.0
  0
ARC
  5
9B62
330
2
100
AcDbEntity
  8
0
100
AcDbCircle
 10
61.69707529400852
 20
188.6679281192822
 30
0.0
 40
0.4999999999999965
100
AcDbArc
 50
0.0
 51
90.0
  0
LINE
  5
9B63
330
2
100
AcDbEntity
  8
0
100
AcDbLine
 10
62.79707529400844
 20
154.6679281192821
 30
0.0
 11
60.64707529400812
 21
154.6679281192823
 31
0.0
  0
LINE
  5
9B64
330
2
100
AcDbEntity
  8
0
100
AcDbLine
 10
66.1970752940083
 20
189.1681986002556
 30
0.0
 11
60.39707529400857
 21
189.1678325472271
 31
0.0
  0
LINE
  5
9B65
330
2
100
AcDbEntity
  8
0
100
AcDbLine
 10
58.99713347255829
 20
175.7679281193097
 30
0.0
 11
59.43250762221783
 21
191.7679281192825
 31
0.0
  0
LINE
  5
9B66
330
2
100
AcDbEntity
  8
0
100
AcDbLine
 10
62.19707529400853
 20
188.6679281192822
 30
0.0
 11
62.1970752940083
 21
186.1679281192823
 31
0.0
  0
LINE
  5
9B67
330
2
100
AcDbEntity
  8
0
100
AcDbLine
 10
60.39707529400835
 20
154.9179281192823
 30
0.0
 11
60.39707529400835
 21
189.1678325472269
 31
0.0
  0
LINE
  5
9B68
330
2
100
AcDbEntity
  8
0
100
AcDbLine
 10
60.89707529400834
 20
189.1679281192822
 30
0.0
 11
61.69707529400852
 21
189.1679281192822
 31
0.0
  0
ARC
  5
9B69
330
2
100
AcDbEntity
  8
0
100
AcDbCircle
 10
60.89707529400834
 20
188.6679281192822
 30
0.0
 40
0.4999999999999929
100
AcDbArc
 50
90.0
 51
180.0
  0
LINE
  5
9B6A
330
2
100
AcDbEntity
  8
0
100
AcDbLine
 10
60.39707529400835
 20
175.7679281193096
 30
0.0
 11
58.99707529400848
 21
175.7679281193096
 31
0.0
  0
ARC
  5
9B6B
330
2
100
AcDbEntity
  8
0
100
AcDbCircle
 10
60.64707529400812
 20
154.9179281192823
 30
0.0
 40
0.2499999999999787
100
AcDbArc
 50
179.9999999999935
 51
269.999999999987
  0
LINE
  5
9B6C
330
2
100
AcDbEntity
  8
0
100
AcDbLine
 10
73.39713347255974
 20
175.7679281193097
 30
0.0
 11
72.96175932290021
 21
191.7679281192825
 31
0.0
  0
LINE
  5
9B6D
330
2
100
AcDbEntity
  8
0
100
AcDbLine
 10
71.99707529400848
 20
189.1681986002552
 30
0.0
 11
71.99707529400825
 21
174.1679281192822
 31
0.0
  0
LINE
  5
9B6E
330
2
100
AcDbEntity
  8
0
100
AcDbLine
 10
70.1970752940083
 20
186.1679281192821
 30
0.0
 11
70.1970752940083
 21
188.6679281192822
 31
0.0
  0
ARC
  5
9B6F
330
2
100
AcDbEntity
  8
0
100
AcDbCircle
 10
70.6970752940083
 20
188.6679281192821
 30
0.0
 40
0.4999999999999432
100
AcDbArc
 50
89.99999999998697
 51
179.9999999999935
  0
LINE
  5
9B70
330
2
100
AcDbEntity
  8
0
100
AcDbLine
 10
71.99707529400848
 20
189.1679281192821
 30
0.0
 11
63.04707549660361
 21
189.1679281192821
 31
0.0
  0
LINE
  5
9B71
330
2
100
AcDbEntity
  8
0
100
AcDbLine
 10
66.19713347255856
 20
189.1681986002557
 30
0.0
 11
62.997189002406
 21
189.1681986002557
 31
0.0
  0
ARC
  5
9B72
330
2
100
AcDbEntity
  8
0
100
AcDbCircle
 10
71.49707529400825
 20
188.6679281192821
 30
0.0
 40
0.5000000000000711
100
AcDbArc
 50
359.9999999999902
 51
89.99999999998697
  0
LINE
  5
9B73
330
2
100
AcDbEntity
  8
0
100
AcDbLine
 10
70.6970752940083
 20
189.1679281192821
 30
0.0
 11
71.49707529400848
 21
189.1679281192822
 31
0.0
  0
LINE
  5
9B74
330
2
100
AcDbEntity
  8
0
100
AcDbLine
 10
65.79707529400867
 20
168.0679281192824
 30
0.0
 11
77.79707529400844
 21
157.5679281192824
 31
0.0
  0
LINE
  5
9B75
330
2
100
AcDbEntity
  8
0
100
AcDbLine
 10
83.1970752940083
 20
173.1850854068075
 30
0.0
 11
83.1970752940083
 21
154.9179281192821
 31
0.0
  0
LINE
  5
9B76
330
2
100
AcDbEntity
  8
0
100
AcDbLine
 10
71.99707529400825
 20
174.1679281192822
 30
0.0
 11
82.39707529400835
 21
174.167928119282
 31
0.0
  0
LINE
  5
9B77
330
2
100
AcDbEntity
  8
0
100
AcDbLine
 10
80.79713326996602
 20
168.0679281192824
 30
0.0
 11
62.79707529400844
 21
168.0679281192824
 31
0.0
  0
LINE
  5
9B78
330
2
100
AcDbEntity
  8
0
100
AcDbLine
 10
71.99707529400825
 20
175.768117453328
 30
0.0
 11
73.39707529400948
 21
175.7679281193096
 31
0.0
  0
LINE
  5
9B79
330
2
100
AcDbEntity
  8
0
100
AcDbLine
 10
83.39707529400834
 20
176.0679281192821
 30
0.0
 11
83.39707529400834
 21
173.4679281192821
 31
0.0
  0
LINE
  5
9B7A
330
2
100
AcDbEntity
  8
0
100
AcDbLine
 10
82.39707529400835
 20
174.167928119282
 30
0.0
 11
82.39707529400835
 21
176.567928119282
 31
0.0
  0
LINE
  5
9B7B
330
2
100
AcDbEntity
  8
0
100
AcDbLine
 10
82.39707529400835
 20
176.567928119282
 30
0.0
 11
82.89707529400834
 21
176.5679281192821
 31
0.0
  0
ARC
  5
9B7C
330
2
100
AcDbEntity
  8
0
100
AcDbCircle
 10
82.89707529400834
 20
176.0679281192821
 30
0.0
 40
0.5
100
AcDbArc
 50
0.0
 51
90.0
  0
ARC
  5
9B7D
330
2
100
AcDbEntity
  8
0
100
AcDbCircle
 10
83.09707529400839
 20
173.4679281192821
 30
0.0
 40
0.3
100
AcDbArc
 50
289.4712206344869
 51
0.0
  0
LINE
  5
9B7E
330
2
100
AcDbEntity
  8
0
100
AcDbLine
 10
77.79707529400844
 20
157.5679281192824
 30
0.0
 11
65.79707529400867
 21
157.5679281192823
 31
0.0
  0
LINE
  5
9B7F
330
2
100
AcDbEntity
  8
0
100
AcDbLine
 10
82.94707529400829
 20
154.6679281192821
 30
0.0
 11
80.79707529400844
 21
154.6679281192821
 31
0.0
  0
ARC
  5
9B80
330
2
100
AcDbEntity
  8
0
100
AcDbCircle
 10
82.94707529400829
 20
154.9179281192821
 30
0.0
 40
0.2500000000000284
100
AcDbArc
 50
269.999999999987
 51
359.9999999999935
  0
LINE
  5
9D6D
330
2
100
AcDbEntity
  8
0
100
AcDbLine
 10
80.79713326996602
 20
145.7679281192822
 30
0.0
 11
80.79713326996602
 21
168.0679281192824
 31
0.0
  0
LINE
  5
9D6E
330
2
100
AcDbEntity
  8
0
100
AcDbLine
 10
77.79713326996603
 20
145.7679281192822
 30
0.0
 11
77.79713326996625
 21
168.0679281192824
 31
0.0
  0
LINE
  5
9D6F
330
2
100
AcDbEntity
  8
0
100
AcDbLine
 10
65.79713326996648
 20
145.7679281192822
 30
0.0
 11
65.79713326996648
 21
168.0679281192824
 31
0.0
  0
LINE
  5
9D70
330
2
100
AcDbEntity
  8
0
100
AcDbLine
 10
62.79713326996603
 20
145.7679281192822
 30
0.0
 11
62.79713326996625
 21
168.0679281192824
 31
0.0
  0
TEXT
  5
B13A
330
2
100
AcDbEntity
  8
ADM
100
AcDbText
 10
371.7446571513362
 20
1.154120148162746
 30
0.0
 40
3.0
  1
TR03
 41
0.8
 72
     1
 11
376.0303714370504
 21
1.154120148162746
 31
0.0
100
AcDbText
  0
LINE
  5
D4D5
330
2
100
AcDbEntity
  8
ACL
100
AcDbLine
 10
340.7437397443755
 20
89.50331918690238
 30
0.0
 11
356.7437397443755
 21
89.50331918690238
 31
0.0
  0
LINE
  5
D4D6
330
2
100
AcDbEntity
  8
ACL
100
AcDbLine
 10
348.7437397443755
 20
81.50331918690239
 30
0.0
 11
348.7437397443755
 21
97.50331918690239
 31
0.0
  0
LINE
  5
D4EF
330
2
100
AcDbEntity
  8
ACL
100
AcDbLine
 10
62.19713347255901
 20
194.26792811928
 30
0.0
 11
70.19713347255901
 21
194.26792811928
 31
0.0
  0
LINE
  5
D4F0
330
2
100
AcDbEntity
  8
ACL
100
AcDbLine
 10
66.19713347255902
 20
190.26792811928
 30
0.0
 11
66.19713347255902
 21
198.26792811928
 31
0.0
  0
LINE
  5
D4F1
330
2
100
AcDbEntity
  8
ACL
100
AcDbLine
 10
62.19713347255901
 20
242.7679281192822
 30
0.0
 11
70.19713347255901
 21
242.7679281192822
 31
0.0
  0
LINE
  5
D4F2
330
2
100
AcDbEntity
  8
ACL
100
AcDbLine
 10
66.19713347255902
 20
238.7679281192822
 30
0.0
 11
66.19713347255902
 21
246.7679281192822
 31
0.0
  0
LINE
  5
D4F3
330
2
100
AcDbEntity
  8
ACL
100
AcDbLine
 10
62.19719144851683
 20
49.76792811928226
 30
0.0
 11
70.19719144851683
 21
49.76792811928226
 31
0.0
  0
LINE
  5
D4F4
330
2
100
AcDbEntity
  8
ACL
100
AcDbLine
 10
66.19719144851683
 20
45.76792811928226
 30
0.0
 11
66.19719144851683
 21
53.76792811928226
 31
0.0
  0
LINE
  5
D4F5
330
2
100
AcDbEntity
  8
ACL
100
AcDbLine
 10
62.19719144851683
 20
98.26792811928449
 30
0.0
 11
70.19719144851683
 21
98.26792811928449
 31
0.0
  0
LINE
  5
D4F6
330
2
100
AcDbEntity
  8
ACL
100
AcDbLine
 10
66.19719144851683
 20
94.26792811928448
 30
0.0
 11
66.19719144851683
 21
102.2679281192844
 31
0.0
  0
LINE
  5
D6B3
330
2
100
AcDbEntity
  8
0
100
AcDbLine
 10
347.7437397443753
 20
98.30331918690454
 30
0.0
 11
349.7437397443757
 21
98.30331918690456
 31
0.0
  0
LINE
  5
D6CB
330
2
100
AcDbEntity
  8
0
100
AcDbLine
 10
255.3437397443761
 20
143.3033191869045
 30
0.0
 11
333.3437397443781
 21
143.3033191869045
 31
0.0
  0
LINE
  5
D819
330
2
100
AcDbEntity
  8
0
 48
0.1
100
AcDbLine
 10
84.89719144851688
 20
257.2679281192824
 30
0.0
 11
84.89719144851688
 21
268.2679281192824
 31
0.0
  0
ARC
  5
D81A
330
2
100
AcDbEntity
  8
0
 48
0.1
100
AcDbCircle
 10
84.39719144851691
 20
257.2679281192824
 30
0.0
 40
0.5
100
AcDbArc
 50
269.9999999999951
 51
0.0000000000032569
  0
LINE
  5
D81B
330
2
100
AcDbEntity
  8
0
100
AcDbLine
 10
42.39719144851631
 20
241.2679281192823
 30
0.0
 11
42.39719144851631
 21
241.2679281192823
 31
0.0
  0
LINE
  5
D81C
330
2
100
AcDbEntity
  8
0
 48
2.0
100
AcDbLine
 10
55.06333272674578
 20
236.8403757997098
 30
0.0
 11
49.73089479868327
 21
236.8403757997098
 31
0.0
  0
ARC
  5
D81D
330
2
100
AcDbEntity
  8
0
 48
2.0
100
AcDbCircle
 10
55.06333272674578
 20
238.8403757997098
 30
0.0
 40
2.0
100
AcDbArc
 50
270.0
 51
337.4009727453426
  0
LINE
  5
D81E
330
2
100
AcDbEntity
  8
0
 48
2.0
100
AcDbLine
 10
59.37031730800504
 20
243.9831937371817
 30
0.0
 11
56.90976620953711
 21
238.0718165023052
 31
0.0
  0
ARC
  5
D81F
330
2
100
AcDbEntity
  8
0
 48
2.0
100
AcDbCircle
 10
59.04719144851651
 20
244.1176916142275
 30
0.0
 40
0.3500000000000013
100
AcDbArc
 50
337.4009727453426
 51
157.4009727453427
  0
LINE
  5
D820
330
2
100
AcDbEntity
  8
0
 48
2.0
100
AcDbLine
 10
56.26351449056016
 20
238.3408122563969
 30
0.0
 11
58.7240655890281
 21
244.2521894912733
 31
0.0
  0
ARC
  5
D821
330
2
100
AcDbEntity
  8
0
 48
2.0
100
AcDbCircle
 10
55.06333272674578
 20
238.8403757997098
 30
0.0
 40
1.299999999999997
100
AcDbArc
 50
270.0
 51
337.4009727453426
  0
LINE
  5
D822
330
2
100
AcDbEntity
  8
0
 48
2.0
100
AcDbLine
 10
53.49719144851644
 20
237.5403757997099
 30
0.0
 11
55.06333272674578
 21
237.5403757997099
 31
0.0
  0
ARC
  5
D823
330
2
100
AcDbEntity
  8
0
 48
2.0
100
AcDbCircle
 10
53.49719144851644
 20
238.5403757997099
 30
0.0
 40
1.0
100
AcDbArc
 50
180.0
 51
270.0
  0
LINE
  5
D824
330
2
100
AcDbEntity
  8
0
 48
2.0
100
AcDbLine
 10
52.49719144851645
 20
244.6403757997098
 30
0.0
 11
52.49719144851645
 21
238.5403757997099
 31
0.0
  0
LINE
  5
D825
330
2
100
AcDbEntity
  8
0
 48
2.0
100
AcDbLine
 10
53.14719144851654
 20
244.6403757997098
 30
0.0
 11
52.49719144851645
 21
244.6403757997098
 31
0.0
  0
ARC
  5
D826
330
2
100
AcDbEntity
  8
0
 48
2.0
100
AcDbCircle
 10
53.14719144851654
 20
244.9903757997098
 30
0.0
 40
0.3499999999999979
100
AcDbArc
 50
270.0
 51
0.0
  0
ARC
  5
D827
330
2
100
AcDbEntity
  8
0
 48
2.0
100
AcDbCircle
 10
53.14719144851654
 20
244.9903757997098
 30
0.0
 40
0.3500000000000014
100
AcDbArc
 50
0.0
 51
90.0
  0
LINE
  5
D828
330
2
100
AcDbEntity
  8
0
 48
2.0
100
AcDbLine
 10
51.39191494058161
 20
245.3403757997098
 30
0.0
 11
53.14719144851654
 21
245.3403757997098
 31
0.0
  0
LINE
  5
D829
330
2
100
AcDbEntity
  8
0
100
AcDbLine
 10
53.49719144851644
 20
244.9903757997098
 30
0.0
 11
53.49719144851644
 21
244.9903757997098
 31
0.0
  0
LINE
  5
D82A
330
2
100
AcDbEntity
  8
0
100
AcDbLine
 10
60.79719144851527
 20
260.8679281192822
 30
0.0
 11
60.79719144851527
 21
260.0679281192803
 31
0.0
  0
LINE
  5
D82B
330
2
100
AcDbEntity
  8
0
100
AcDbLine
 10
46.59719144851692
 20
239.4789856047651
 30
0.0
 11
43.6407230569556
 21
239.607527708746
 31
0.0
  0
LINE
  5
D82C
330
2
100
AcDbEntity
  8
0
100
AcDbLine
 10
46.59719144851692
 20
245.2679281192823
 30
0.0
 11
46.59719144851692
 21
239.4789856047651
 31
0.0
  0
ARC
  5
D82D
330
2
100
AcDbEntity
  8
0
100
AcDbCircle
 10
47.09719144851692
 20
245.2679281192823
 30
0.0
 40
0.5
100
AcDbArc
 50
90.0
 51
180.0
  0
LINE
  5
D82E
330
2
100
AcDbEntity
  8
0
100
AcDbLine
 10
50.89719144851699
 20
245.7679281192823
 30
0.0
 11
47.09719144851692
 21
245.7679281192823
 31
0.0
  0
ARC
  5
D82F
330
2
100
AcDbEntity
  8
0
100
AcDbCircle
 10
50.89719144851699
 20
245.2679281192823
 30
0.0
 40
0.5
100
AcDbArc
 50
8.331219816438192
 51
90.0
  0
LINE
  5
D830
330
2
100
AcDbEntity
  8
0
100
AcDbLine
 10
43.53212999626486
 20
237.1098873128584
 30
0.0
 11
49.73089479868349
 21
236.8403757997098
 31
0.0
  0
ARC
  5
D831
330
2
100
AcDbEntity
  8
0
100
AcDbCircle
 10
43.69719144851479
 20
240.9063007146076
 30
0.0
 40
3.800000000000011
100
AcDbArc
 50
180.0
 51
267.5104470780003
  0
LINE
  5
D832
330
2
100
AcDbEntity
  8
0
100
AcDbLine
 10
39.89719144851483
 20
268.7679281192822
 30
0.0
 11
39.89719144851472
 21
240.9063007146077
 31
0.0
  0
LINE
  5
D833
330
2
100
AcDbEntity
  8
0
100
AcDbLine
 10
43.39719144851494
 20
268.7679281192822
 30
0.0
 11
40.51689354677444
 21
268.7679281192822
 31
0.0
  0
ARC
  5
D834
330
2
100
AcDbEntity
  8
0
100
AcDbCircle
 10
43.39719144851494
 20
269.2679281192823
 30
0.0
 40
0.5
100
AcDbArc
 50
270.0
 51
0.0
  0
LINE
  5
D835
330
2
100
AcDbEntity
  8
0
100
AcDbLine
 10
43.89719144851494
 20
269.7679281192823
 30
0.0
 11
43.89719144851494
 21
269.2679281192823
 31
0.0
  0
LINE
  5
D836
330
2
100
AcDbEntity
  8
0
100
AcDbLine
 10
44.89719144851494
 20
269.7679281192823
 30
0.0
 11
43.89719144851494
 21
269.7679281192823
 31
0.0
  0
LINE
  5
D837
330
2
100
AcDbEntity
  8
0
100
AcDbLine
 10
44.89719144851494
 20
268.2679281192825
 30
0.0
 11
44.89719144851494
 21
269.7679281192823
 31
0.0
  0
ARC
  5
D838
330
2
100
AcDbEntity
  8
0
100
AcDbCircle
 10
43.89719144851494
 20
268.2679281192825
 30
0.0
 40
1.000000000000014
100
AcDbArc
 50
270.0
 51
0.0
  0
LINE
  5
D839
330
2
100
AcDbEntity
  8
0
100
AcDbLine
 10
41.6971914485149
 20
267.2679281192825
 30
0.0
 11
43.89719144851494
 21
267.2679281192825
 31
0.0
  0
LINE
  5
D83A
330
2
100
AcDbEntity
  8
0
100
AcDbLine
 10
41.6971914485149
 20
258.5679281192797
 30
0.0
 11
41.6971914485149
 21
267.2679281192825
 31
0.0
  0
LINE
  5
D83B
330
2
100
AcDbEntity
  8
0
100
AcDbLine
 10
59.29719144851526
 20
258.5679281192803
 30
0.0
 11
41.6971914485149
 21
258.5679281192797
 31
0.0
  0
ARC
  5
D83C
330
2
100
AcDbEntity
  8
0
100
AcDbCircle
 10
59.29719144851515
 20
260.0679281192803
 30
0.0
 40
1.500000000000014
100
AcDbArc
 50
270.0000000000065
 51
0.0
  0
LINE
  5
D83D
330
2
100
AcDbEntity
  8
0
100
AcDbLine
 10
42.39719144851483
 20
240.9063007146076
 30
0.0
 11
42.39719144851483
 21
241.7679281192823
 31
0.0
  0
ARC
  5
D83E
330
2
100
AcDbEntity
  8
0
100
AcDbCircle
 10
43.69719144851479
 20
240.9063007146076
 30
0.0
 40
1.299999999999998
100
AcDbArc
 50
180.0
 51
267.5104470780003
  0
LINE
  5
D83F
330
2
100
AcDbEntity
  8
0
100
AcDbLine
 10
68.99719144851508
 20
260.0679281192811
 30
0.0
 11
68.99719144851508
 21
267.7679281192823
 31
0.0
  0
LINE
  5
D840
330
2
100
AcDbEntity
  8
0
100
AcDbLine
 10
68.99719144851508
 20
267.7679281192823
 30
0.0
 11
70.49719144851508
 21
267.7679281192823
 31
0.0
  0
ARC
  5
D841
330
2
100
AcDbEntity
  8
0
100
AcDbCircle
 10
70.49719144851508
 20
268.7679281192822
 30
0.0
 40
1.0
100
AcDbArc
 50
270.0
 51
0.0
  0
LINE
  5
D842
330
2
100
AcDbEntity
  8
0
100
AcDbLine
 10
71.49719144851508
 20
268.7679281192822
 30
0.0
 11
71.49719144851508
 21
269.7679281192823
 31
0.0
  0
LINE
  5
D843
330
2
100
AcDbEntity
  8
0
100
AcDbLine
 10
71.49719144851508
 20
269.7679281192823
 30
0.0
 11
66.99719144851508
 21
269.7679281192823
 31
0.0
  0
ARC
  5
D844
330
2
100
AcDbEntity
  8
0
100
AcDbCircle
 10
66.99719144851508
 20
269.2679281192823
 30
0.0
 40
0.5
100
AcDbArc
 50
90.0
 51
180.0
  0
LINE
  5
D845
330
2
100
AcDbEntity
  8
0
100
AcDbLine
 10
66.49719144851508
 20
269.2679281192823
 30
0.0
 11
66.49719144851508
 21
258.5679281192797
 31
0.0
  0
LINE
  5
D846
330
2
100
AcDbEntity
  8
0
100
AcDbLine
 10
66.49719144851508
 20
258.5679281192797
 30
0.0
 11
63.29719144851515
 21
258.5679281192795
 31
0.0
  0
LINE
  5
D847
330
2
100
AcDbEntity
  8
0
100
AcDbLine
 10
63.29719144851515
 20
258.5679281192795
 30
0.0
 11
63.29719144851515
 21
269.2679281192823
 31
0.0
  0
ARC
  5
D848
330
2
100
AcDbEntity
  8
0
100
AcDbCircle
 10
62.79719144851515
 20
269.2679281192823
 30
0.0
 40
0.5
100
AcDbArc
 50
0.0
 51
90.0
  0
LINE
  5
D849
330
2
100
AcDbEntity
  8
0
100
AcDbLine
 10
62.79719144851515
 20
269.7679281192823
 30
0.0
 11
58.29719144851515
 21
269.7679281192822
 31
0.0
  0
LINE
  5
D84A
330
2
100
AcDbEntity
  8
0
100
AcDbLine
 10
58.29719144851515
 20
269.7679281192822
 30
0.0
 11
58.29719144851527
 21
268.7679281192822
 31
0.0
  0
ARC
  5
D84B
330
2
100
AcDbEntity
  8
0
100
AcDbCircle
 10
59.29719144851526
 20
268.7679281192822
 30
0.0
 40
0.9999999999999964
100
AcDbArc
 50
180.0
 51
270.0
  0
LINE
  5
D84C
330
2
100
AcDbEntity
  8
0
100
AcDbLine
 10
59.29719144851526
 20
267.7679281192823
 30
0.0
 11
60.79719144851527
 21
267.7679281192823
 31
0.0
  0
LINE
  5
D84D
330
2
100
AcDbEntity
  8
0
100
AcDbLine
 10
60.79719144851527
 20
267.7679281192823
 30
0.0
 11
60.79719144851527
 21
260.0679281192803
 31
0.0
  0
LINE
  5
D84E
330
2
100
AcDbEntity
  8
0
100
AcDbLine
 10
42.39719144851483
 20
241.7679281192823
 30
0.0
 11
42.39719144851483
 21
256.7679281192823
 31
0.0
  0
LINE
  5
D84F
330
2
100
AcDbEntity
  8
0
100
AcDbLine
 10
42.39719144851483
 20
256.7679281192823
 30
0.0
 11
84.39719144851691
 21
256.7679281192823
 31
0.0
  0
LINE
  5
D850
330
2
100
AcDbEntity
  8
0
100
AcDbLine
 10
84.89719144851472
 20
268.2679281192823
 30
0.0
 11
84.89719144851482
 21
268.7679281192822
 31
0.0
  0
LINE
  5
D851
330
2
100
AcDbEntity
  8
0
100
AcDbLine
 10
84.27748935025523
 20
268.7679281192822
 30
0.0
 11
81.39719144851472
 21
268.7679281192822
 31
0.0
  0
ARC
  5
D852
330
2
100
AcDbEntity
  8
0
100
AcDbCircle
 10
81.39719144851472
 20
269.2679281192823
 30
0.0
 40
0.5
100
AcDbArc
 50
180.0
 51
270.0
  0
LINE
  5
D853
330
2
100
AcDbEntity
  8
0
100
AcDbLine
 10
80.89719144851471
 20
269.2679281192823
 30
0.0
 11
80.89719144851471
 21
269.7679281192823
 31
0.0
  0
LINE
  5
D854
330
2
100
AcDbEntity
  8
0
100
AcDbLine
 10
80.89719144851471
 20
269.7679281192823
 30
0.0
 11
79.89719144851472
 21
269.7679281192823
 31
0.0
  0
LINE
  5
D855
330
2
100
AcDbEntity
  8
0
100
AcDbLine
 10
79.89719144851472
 20
269.7679281192823
 30
0.0
 11
79.89719144851472
 21
268.2679281192825
 31
0.0
  0
ARC
  5
D856
330
2
100
AcDbEntity
  8
0
100
AcDbCircle
 10
80.89719144851471
 20
268.2679281192825
 30
0.0
 40
1.0
100
AcDbArc
 50
180.0
 51
270.0
  0
LINE
  5
D857
330
2
100
AcDbEntity
  8
0
100
AcDbLine
 10
80.89719144851471
 20
267.2679281192825
 30
0.0
 11
83.09719144851476
 21
267.2679281192825
 31
0.0
  0
LINE
  5
D858
330
2
100
AcDbEntity
  8
0
100
AcDbLine
 10
83.09719144851476
 20
267.2679281192825
 30
0.0
 11
83.09719144851488
 21
258.5679281192823
 31
0.0
  0
LINE
  5
D859
330
2
100
AcDbEntity
  8
0
100
AcDbLine
 10
83.09719144851488
 20
258.5679281192823
 30
0.0
 11
70.49719144851531
 21
258.5679281192811
 31
0.0
  0
ARC
  5
D85A
330
2
100
AcDbEntity
  8
0
100
AcDbCircle
 10
70.49719144851508
 20
260.0679281192811
 30
0.0
 40
1.5
100
AcDbArc
 50
180.0
 51
270.0000000000065
  0
LINE
  5
D85B
330
2
100
AcDbEntity
  8
0
100
AcDbLine
 10
68.99719144851508
 20
260.0679281192811
 30
0.0
 11
68.99719144851508
 21
260.8679281192822
 31
0.0
  0
LINE
  5
D85C
330
2
100
AcDbEntity
  8
0
100
AcDbLine
 10
42.39719144851335
 20
241.2679281192821
 30
0.0
 11
42.39719144851335
 21
241.2679281192821
 31
0.0
  0
LINE
  5
D85D
330
2
100
AcDbEntity
  8
0
100
AcDbLine
 10
43.9971914485144
 20
240.2679281192821
 30
0.0
 11
43.9971914485144
 21
240.2679281192821
 31
0.0
  0
LINE
  5
D85E
330
2
100
AcDbEntity
  8
0
100
AcDbLine
 10
43.64719144851164
 20
240.2679281192821
 30
0.0
 11
43.64719144851176
 21
240.2679281192821
 31
0.0
  0
LINE
  5
D85F
330
2
100
AcDbEntity
  8
0
100
AcDbLine
 10
43.59719144851545
 20
242.2679281192821
 30
0.0
 11
43.59719144851545
 21
255.2679281192821
 31
0.0
  0
ARC
  5
D860
330
2
100
AcDbEntity
  8
0
100
AcDbCircle
 10
45.09719144851544
 20
255.2679281192821
 30
0.0
 40
1.5
100
AcDbArc
 50
90.0
 51
180.0
  0
LINE
  5
D861
330
2
100
AcDbEntity
  8
0
100
AcDbLine
 10
85.89793191510887
 20
269.7679281192823
 30
0.0
 11
86.39534137779532
 21
256.8448511962052
 31
0.0
  0
LINE
  5
D869
330
2
100
AcDbEntity
  8
0
100
AcDbLine
 10
46.59719144851544
 20
254.7679281192825
 30
0.0
 11
46.59719144851544
 21
241.2679281192821
 31
0.0
  0
ARC
  5
D86A
330
2
100
AcDbEntity
  8
0
100
AcDbCircle
 10
45.59719144851544
 20
241.2679281192821
 30
0.0
 40
1.0
100
AcDbArc
 50
270.0
 51
0.0
  0
LINE
  5
D86B
330
2
100
AcDbEntity
  8
0
100
AcDbLine
 10
45.59719144851544
 20
240.2679281192821
 30
0.0
 11
44.99719144851439
 21
240.2679281192821
 31
0.0
  0
LINE
  5
D86C
330
2
100
AcDbEntity
  8
0
100
AcDbLine
 10
44.99719144851439
 20
240.2679281192821
 30
0.0
 11
44.99719144851439
 21
240.2679281192821
 31
0.0
  0
ARC
  5
D86D
330
2
100
AcDbEntity
  8
0
100
AcDbCircle
 10
44.4971914485144
 20
240.2679281192821
 30
0.0
 40
0.4999999999999858
100
AcDbArc
 50
270.0
 51
0.0000000000032569
  0
LINE
  5
D86E
330
2
100
AcDbEntity
  8
0
100
AcDbLine
 10
44.4971914485144
 20
239.7679281192821
 30
0.0
 11
44.4971914485144
 21
239.7679281192821
 31
0.0
  0
ARC
  5
D86F
330
2
100
AcDbEntity
  8
0
100
AcDbCircle
 10
44.4971914485144
 20
240.2679281192821
 30
0.0
 40
0.5
100
AcDbArc
 50
180.0
 51
270.0
  0
LINE
  5
D870
330
2
100
AcDbEntity
  8
0
100
AcDbLine
 10
43.9971914485144
 20
240.2679281192821
 30
0.0
 11
43.39719144851335
 21
240.2679281192821
 31
0.0
  0
ARC
  5
D871
330
2
100
AcDbEntity
  8
0
100
AcDbCircle
 10
43.39719144851335
 20
241.2679281192821
 30
0.0
 40
1.0
100
AcDbArc
 50
180.0
 51
270.0
  0
ARC
  5
D872
330
2
100
AcDbEntity
  8
0
100
AcDbCircle
 10
43.39719144851335
 20
241.2679281192821
 30
0.0
 40
1.0
100
AcDbArc
 50
90.0
 51
180.0
  0
LINE
  5
D873
330
2
100
AcDbEntity
  8
0
100
AcDbLine
 10
43.39719144851335
 20
242.2679281192821
 30
0.0
 11
43.59719144851545
 21
242.2679281192821
 31
0.0
  0
ARC
  5
D874
330
2
100
AcDbEntity
  8
0
100
AcDbCircle
 10
82.39919224915537
 20
268.2079281192823
 30
0.0
 40
2.560000000000033
100
AcDbArc
 50
12.63562509302109
 51
95.12799088309291
  0
ARC
  5
D875
330
2
100
AcDbEntity
  8
0
100
AcDbCircle
 10
82.39919224915537
 20
268.2079281192823
 30
0.0
 40
1.960000000000014
100
AcDbArc
 50
16.60154959901984
 51
95.12799088309291
  0
ARC
  5
D876
330
2
100
AcDbEntity
  8
0
100
AcDbCircle
 10
82.19719144851479
 20
270.4588825116547
 30
0.0
 40
0.3000000000000198
100
AcDbArc
 50
95.12799088309938
 51
275.1279908830994
  0
ARC
  5
D877
330
2
100
AcDbEntity
  8
0
100
AcDbCircle
 10
42.3951906478743
 20
268.2079281192823
 30
0.0
 40
2.560000000000034
100
AcDbArc
 50
84.8720091169071
 51
167.3643749069789
  0
ARC
  5
D878
330
2
100
AcDbEntity
  8
0
100
AcDbCircle
 10
42.3951906478743
 20
268.2079281192823
 30
0.0
 40
1.960000000000014
100
AcDbArc
 50
84.8720091169071
 51
163.3984504009801
  0
ARC
  5
D879
330
2
100
AcDbEntity
  8
0
100
AcDbCircle
 10
42.59719144851476
 20
270.4588825116547
 30
0.0
 40
0.3000000000000198
100
AcDbArc
 50
264.8720091169006
 51
84.87200911690059
  0
LINE
  5
D87A
330
2
100
AcDbEntity
  8
0
100
AcDbLine
 10
84.42897056217384
 20
269.7679281192823
 30
0.0
 11
85.89793191510876
 21
269.7679281192823
 31
0.0
  0
LINE
  5
D87B
330
2
100
AcDbEntity
  8
0
100
AcDbLine
 10
69.44674883441336
 20
244.5679281192823
 30
0.0
 11
70.39719144851682
 21
244.5679281192823
 31
0.0
  0
ARC
  5
D87C
330
2
100
AcDbEntity
  8
0
100
AcDbCircle
 10
70.39719144851682
 20
245.5679281192823
 30
0.0
 40
1.0
100
AcDbArc
 50
270.0
 51
0.0
  0
LINE
  5
D87D
330
2
100
AcDbEntity
  8
0
100
AcDbLine
 10
71.39719144851682
 20
245.5679281192823
 30
0.0
 11
71.39719144851682
 21
250.5679281192811
 31
0.0
  0
LINE
  5
D87E
330
2
100
AcDbEntity
  8
0
100
AcDbLine
 10
71.39719144851682
 20
250.5679281192811
 30
0.0
 11
73.79713347255682
 21
250.5679281192807
 31
0.0
  0
LINE
  5
D87F
330
2
100
AcDbEntity
  8
0
100
AcDbLine
 10
73.79713347255767
 20
250.5679281192807
 30
0.0
 11
73.79713347255989
 21
197.7679281192897
 31
0.0
  0
ARC
  5
D880
330
2
100
AcDbEntity
  8
0
100
AcDbCircle
 10
73.29713347255983
 20
197.7679281192897
 30
0.0
 40
0.5000000000000285
100
AcDbArc
 50
270.0000000000749
 51
0.0000000000065138
  0
LINE
  5
D881
330
2
100
AcDbEntity
  8
0
100
AcDbLine
 10
73.29713347256046
 20
197.2679281192881
 30
0.0
 11
59.09713347256109
 21
197.2679281192702
 31
0.0
  0
ARC
  5
D882
330
2
100
AcDbEntity
  8
0
100
AcDbCircle
 10
59.0971334725604
 20
197.7679281192701
 30
0.0
 40
0.4999999999999716
100
AcDbArc
 50
179.9999999999935
 51
270.0000000000749
  0
LINE
  5
D883
330
2
100
AcDbEntity
  8
0
100
AcDbLine
 10
58.59713347255358
 20
197.7679281192702
 30
0.0
 11
58.59713347256132
 21
237.4679281192824
 31
0.0
  0
ARC
  5
D884
330
2
100
AcDbEntity
  8
0
100
AcDbCircle
 10
58.09713347256132
 20
237.4679281192824
 30
0.0
 40
0.5
100
AcDbArc
 50
359.9999999999968
 51
90.0
  0
LINE
  5
D885
330
2
100
AcDbEntity
  8
0
100
AcDbLine
 10
58.09713347256132
 20
237.9679281192824
 30
0.0
 11
57.59713347255905
 21
237.9679281192824
 31
0.0
  0
LINE
  5
D886
330
2
100
AcDbEntity
  8
0
100
AcDbLine
 10
57.59713347255905
 20
237.9679281192824
 30
0.0
 11
57.59713347255905
 21
248.767928119283
 31
0.0
  0
ARC
  5
D887
330
2
100
AcDbEntity
  8
0
100
AcDbCircle
 10
59.397133472559
 20
248.767928119283
 30
0.0
 40
1.800000000000004
100
AcDbArc
 50
89.99999999999023
 51
180.0
  0
LINE
  5
D888
330
2
100
AcDbEntity
  8
0
100
AcDbLine
 10
59.39713347255935
 20
250.567928119283
 30
0.0
 11
60.99707549660121
 21
250.5679281192827
 31
0.0
  0
LINE
  5
D889
330
2
100
AcDbEntity
  8
0
100
AcDbLine
 10
60.99707549660121
 20
250.5679281192827
 30
0.0
 11
60.99707549660121
 21
245.5679281192823
 31
0.0
  0
ARC
  5
D88A
330
2
100
AcDbEntity
  8
0
100
AcDbCircle
 10
61.99707549660121
 20
245.5679281192823
 30
0.0
 40
1.0
100
AcDbArc
 50
180.0
 51
270.0
  0
LINE
  5
D88B
330
2
100
AcDbEntity
  8
0
100
AcDbLine
 10
61.99707549660121
 20
244.5679281192823
 30
0.0
 11
62.94751811070466
 21
244.5679281192823
 31
0.0
  0
LINE
  5
D88C
330
2
100
AcDbEntity
  8
0
100
AcDbLine
 10
70.19707549660125
 20
245.7679281192822
 30
0.0
 11
62.1970754966012
 21
245.7679281192822
 31
0.0
  0
LINE
  5
D88D
330
2
100
AcDbEntity
  8
0
100
AcDbLine
 10
62.19707549660114
 20
245.7679281192822
 30
0.0
 11
62.19707549660114
 21
250.7679281192823
 31
0.0
  0
ARC
  5
D88E
330
2
100
AcDbEntity
  8
0
100
AcDbCircle
 10
61.19707549660114
 20
250.7679281192823
 30
0.0
 40
0.9999999999999857
100
AcDbArc
 50
0.0
 51
90.00000000000325
  0
LINE
  5
D88F
330
2
100
AcDbEntity
  8
0
100
AcDbLine
 10
61.19707549660114
 20
251.7679281192823
 30
0.0
 11
59.39713347255912
 21
251.7679281192823
 31
0.0
  0
ARC
  5
D890
330
2
100
AcDbEntity
  8
0
100
AcDbCircle
 10
59.39713347255912
 20
248.7679281192823
 30
0.0
 40
3.0
100
AcDbArc
 50
90.0
 51
180.0
  0
LINE
  5
D891
330
2
100
AcDbEntity
  8
0
100
AcDbLine
 10
56.39713347255912
 20
248.7679281192823
 30
0.0
 11
56.39713347255912
 21
236.7679281192823
 31
0.0
  0
LINE
  5
D892
330
2
100
AcDbEntity
  8
0
100
AcDbLine
 10
56.39713347255912
 20
236.7679281192823
 30
0.0
 11
57.39713347256127
 21
236.7679281192823
 31
0.0
  0
LINE
  5
D893
330
2
100
AcDbEntity
  8
0
100
AcDbLine
 10
57.39713347256127
 20
236.7679281192823
 30
0.0
 11
57.39713347255888
 21
176.0679281192824
 31
0.0
  0
ARC
  5
D894
330
2
100
AcDbEntity
  8
0
100
AcDbCircle
 10
57.69713347255895
 20
176.0679281192824
 30
0.0
 40
0.3000000000000114
100
AcDbArc
 50
180.0
 51
270.0
  0
LINE
  5
D895
330
2
100
AcDbEntity
  8
0
100
AcDbLine
 10
57.69713347255895
 20
175.7679281192823
 30
0.0
 11
58.69713347255906
 21
175.7679281192823
 31
0.0
  0
ARC
  5
D896
330
2
100
AcDbEntity
  8
0
100
AcDbCircle
 10
58.69713347255906
 20
176.0679281192824
 30
0.0
 40
0.3000000000000256
100
AcDbArc
 50
270.0000000000065
 51
0.0000000000097707
  0
LINE
  5
D897
330
2
100
AcDbEntity
  8
0
100
AcDbLine
 10
58.99713347255902
 20
176.0679281192824
 30
0.0
 11
58.99713347255794
 21
191.7679281192823
 31
0.0
  0
LINE
  5
D898
330
2
100
AcDbEntity
  8
0
100
AcDbLine
 10
58.49713347255902
 20
192.5679281192822
 30
0.0
 11
58.49713347255902
 21
195.5679281192703
 31
0.0
  0
ARC
  5
D899
330
2
100
AcDbEntity
  8
0
100
AcDbCircle
 10
58.99713347255902
 20
195.5679281192703
 30
0.0
 40
0.5
100
AcDbArc
 50
90.00000000007814
 51
180.0
  0
LINE
  5
D89A
330
2
100
AcDbEntity
  8
0
100
AcDbLine
 10
58.99713347255834
 20
196.0679281192703
 30
0.0
 11
62.27794988410465
 21
196.0679281192748
 31
0.0
  0
LINE
  5
D89B
330
2
100
AcDbEntity
  8
0
100
AcDbLine
 10
70.11631706101081
 20
196.0679281192851
 30
0.0
 11
73.4971334725596
 21
196.0679281192897
 31
0.0
  0
ARC
  5
D89C
330
2
100
AcDbEntity
  8
0
100
AcDbCircle
 10
73.49713347256027
 20
195.5679281192897
 30
0.0
 40
0.5
100
AcDbArc
 50
359.9999999999968
 51
90.00000000007814
  0
LINE
  5
D89D
330
2
100
AcDbEntity
  8
0
100
AcDbLine
 10
73.99713347256028
 20
195.5679281192897
 30
0.0
 11
73.99713347256028
 21
192.5679281192822
 31
0.0
  0
LINE
  5
D89E
330
2
100
AcDbEntity
  8
0
100
AcDbLine
 10
74.99713347256204
 20
250.7679281192822
 30
0.0
 11
74.9971334725621
 21
251.2679281192823
 31
0.0
  0
ARC
  5
D89F
330
2
100
AcDbEntity
  8
0
100
AcDbCircle
 10
74.4971334725621
 20
251.2679281192824
 30
0.0
 40
0.5
100
AcDbArc
 50
359.9999999999968
 51
90.0
  0
LINE
  5
D8A0
330
2
100
AcDbEntity
  8
0
100
AcDbLine
 10
74.4971334725621
 20
251.7679281192824
 30
0.0
 11
71.19719144851678
 21
251.7679281192823
 31
0.0
  0
ARC
  5
D8A1
330
2
100
AcDbEntity
  8
0
100
AcDbCircle
 10
71.19719144851683
 20
250.7679281192823
 30
0.0
 40
1.000000000000014
100
AcDbArc
 50
90.00000000000325
 51
180.0
  0
LINE
  5
D8A2
330
2
100
AcDbEntity
  8
0
100
AcDbLine
 10
70.19719144851677
 20
250.7679281192823
 30
0.0
 11
70.19719144851677
 21
245.7679281192822
 31
0.0
  0
ARC
  5
D8A3
330
2
100
AcDbEntity
  8
0
100
AcDbCircle
 10
66.19713347255907
 20
194.26792811928
 30
0.0
 40
3.0
100
AcDbArc
 50
168.4630409671852
 51
213.5573097619229
  0
ARC
  5
D8A4
330
2
100
AcDbEntity
  8
0
100
AcDbCircle
 10
66.19713347255907
 20
194.26792811928
 30
0.0
 40
3.0
100
AcDbArc
 50
326.4426902380793
 51
11.53695903281478
  0
LINE
  5
D8A5
330
2
100
AcDbEntity
  8
0
100
AcDbLine
 10
63.69713347255906
 20
192.5679281192824
 30
0.0
 11
63.69713347255906
 21
192.6096157241023
 31
0.0
  0
LINE
  5
D8A6
330
2
100
AcDbEntity
  8
0
100
AcDbLine
 10
68.69713347255907
 20
192.5679281192822
 30
0.0
 11
68.69713347255907
 21
192.6096157241023
 31
0.0
  0
ARC
  5
D8A7
330
2
100
AcDbEntity
  8
0
100
AcDbCircle
 10
70.11631706101212
 20
195.06792811928
 30
0.0
 40
1.0
100
AcDbArc
 50
90.0
 51
191.5369590328148
  0
ARC
  5
D8A8
330
2
100
AcDbEntity
  8
0
100
AcDbCircle
 10
62.27794988410601
 20
195.06792811928
 30
0.0
 40
1.0
100
AcDbArc
 50
348.4630409671853
 51
90.0
  0
ARC
  5
D8A9
330
2
100
AcDbEntity
  8
0
100
AcDbCircle
 10
66.19713347255902
 20
242.7679281192822
 30
0.0
 40
3.0
100
AcDbArc
 50
158.1962520106179
 51
221.8103148957796
  0
ARC
  5
D8AA
330
2
100
AcDbEntity
  8
0
100
AcDbCircle
 10
66.19713347255902
 20
242.7679281192822
 30
0.0
 40
3.0
100
AcDbArc
 50
318.1896851042204
 51
21.80374798938212
  0
ARC
  5
D8AB
330
2
100
AcDbEntity
  8
0
100
AcDbCircle
 10
69.44674883441336
 20
244.0679281192823
 30
0.0
 40
0.5
100
AcDbArc
 50
90.0
 51
201.8037479893821
  0
ARC
  5
D8AC
330
2
100
AcDbEntity
  8
0
100
AcDbCircle
 10
62.94751811070466
 20
244.0679281192823
 30
0.0
 40
0.5
100
AcDbArc
 50
338.1962520106179
 51
90.0
  0
LINE
  5
D8AD
330
2
100
AcDbEntity
  8
0
370
    -2
100
AcDbLine
 10
80.69713347256021
 20
248.9679281192823
 30
0.0
 11
80.69713347256019
 21
176.4279281192824
 31
0.0
  0
ARC
  5
D8AE
330
2
100
AcDbEntity
  8
0
370
    -2
100
AcDbCircle
 10
80.03713347256022
 20
176.4279281192824
 30
0.0
 40
0.6600000000001529
100
AcDbArc
 50
270.0
 51
0.0
  0
LINE
  5
D8AF
330
2
100
AcDbEntity
  8
0
370
    -2
100
AcDbLine
 10
74.99713347256204
 20
250.7679281192822
 30
0.0
 11
79.69713347256021
 21
250.7679281192825
 31
0.0
  0
ARC
  5
D8B0
330
2
100
AcDbEntity
  8
0
370
    -2
100
AcDbCircle
 10
79.69713347256021
 20
249.7679281192824
 30
0.0
 40
1.000000000000028
100
AcDbArc
 50
0.0000000000032569
 51
90.0
  0
LINE
  5
D8B1
330
2
100
AcDbEntity
  8
0
370
    -2
100
AcDbLine
 10
80.69713347256021
 20
249.7679281192824
 30
0.0
 11
80.69713347256021
 21
248.9679281192823
 31
0.0
  0
LINE
  5
D8B2
330
2
100
AcDbEntity
  8
0
370
    -2
100
AcDbLine
 10
80.03713347256015
 20
175.7679281192816
 30
0.0
 11
73.39713347255944
 21
175.7679281192823
 31
0.0
  0
LINE
  5
D8B3
330
2
100
AcDbEntity
  8
0
370
    -2
100
AcDbLine
 10
73.39713347255933
 20
175.7679281192822
 30
0.0
 11
73.39713347255934
 21
191.7679281192823
 31
0.0
  0
LINE
  5
D8B4
330
2
100
AcDbEntity
  8
0
100
AcDbLine
 10
58.99713347255902
 20
191.7679281192823
 30
0.0
 11
60.29713347255897
 21
191.7679281192823
 31
0.0
  0
ARC
  5
D8B5
330
2
100
AcDbEntity
  8
0
100
AcDbCircle
 10
60.29713347255897
 20
192.1679281192823
 30
0.0
 40
0.4000000000000199
100
AcDbArc
 50
270.0
 51
90.0
  0
LINE
  5
D8B6
330
2
100
AcDbEntity
  8
0
100
AcDbLine
 10
60.29713347255897
 20
192.5679281192822
 30
0.0
 11
58.49713347255902
 21
192.5679281192822
 31
0.0
  0
LINE
  5
D8B7
330
2
100
AcDbEntity
  8
0
100
AcDbLine
 10
73.99713347256028
 20
192.5679281192822
 30
0.0
 11
72.09713347255899
 21
192.5679281192822
 31
0.0
  0
ARC
  5
D8B8
330
2
100
AcDbEntity
  8
0
100
AcDbCircle
 10
72.09713347255899
 20
192.1679281192823
 30
0.0
 40
0.3999999999999915
100
AcDbArc
 50
90.0
 51
270.0
  0
LINE
  5
D8B9
330
2
100
AcDbEntity
  8
0
100
AcDbLine
 10
72.09713347255899
 20
191.7679281192823
 30
0.0
 11
73.39713347255901
 21
191.7679281192823
 31
0.0
  0
ARC
  5
D8BA
330
2
100
AcDbEntity
  8
0
100
AcDbCircle
 10
68.39713347255912
 20
192.06792811928
 30
0.0
 40
0.3
100
AcDbArc
 50
270.0
 51
359.9999999999968
  0
ARC
  5
D8BB
330
2
100
AcDbEntity
  8
0
100
AcDbCircle
 10
64.69713347255913
 20
192.26792811928
 30
0.0
 40
0.5
100
AcDbArc
 50
270.0
 51
0.0
  0
LINE
  5
D8BC
330
2
100
AcDbEntity
  8
0
100
AcDbLine
 10
67.19713347255913
 20
192.26792811928
 30
0.0
 11
67.19713347255908
 21
192.6828413708654
 31
0.0
  0
LINE
  5
D8BD
330
2
100
AcDbEntity
  8
0
100
AcDbLine
 10
63.99713347255907
 20
191.76792811928
 30
0.0
 11
64.69713347255913
 21
191.76792811928
 31
0.0
  0
ARC
  5
D8BE
330
2
100
AcDbEntity
  8
0
100
AcDbCircle
 10
63.99713347255907
 20
192.06792811928
 30
0.0
 40
0.3
100
AcDbArc
 50
179.9999999999967
 51
270.0
  0
LINE
  5
D8BF
330
2
100
AcDbEntity
  8
0
100
AcDbLine
 10
67.69713347255913
 20
191.76792811928
 30
0.0
 11
68.39713347255912
 21
191.76792811928
 31
0.0
  0
ARC
  5
D8C0
330
2
100
AcDbEntity
  8
0
100
AcDbCircle
 10
67.69713347255913
 20
192.26792811928
 30
0.0
 40
0.5
100
AcDbArc
 50
180.0
 51
270.0
  0
LINE
  5
D8C1
330
2
100
AcDbEntity
  8
0
100
AcDbLine
 10
63.69713347255906
 20
192.06792811928
 30
0.0
 11
63.69713347255912
 21
192.6096157241022
 31
0.0
  0
LINE
  5
D8C2
330
2
100
AcDbEntity
  8
0
100
AcDbLine
 10
68.69713347255907
 20
192.0679281192799
 30
0.0
 11
68.69713347255913
 21
192.6096157241023
 31
0.0
  0
LINE
  5
D8C3
330
2
100
AcDbEntity
  8
0
100
AcDbLine
 10
63.96106549505919
 20
240.7679281192822
 30
0.0
 11
64.82541832715549
 21
240.7679281192822
 31
0.0
  0
LINE
  5
D8C4
330
2
100
AcDbEntity
  8
0
100
AcDbLine
 10
67.56884861796248
 20
240.7679281192822
 30
0.0
 11
68.43320145005879
 21
240.7679281192822
 31
0.0
  0
ARC
  5
D8C5
330
2
100
AcDbEntity
  8
0
100
AcDbCircle
 10
64.82541832715549
 20
241.1438084446328
 30
0.0
 40
0.3758803253505718
100
AcDbArc
 50
270.0
 51
49.81590005117721
  0
ARC
  5
D8C6
330
2
100
AcDbEntity
  8
0
100
AcDbCircle
 10
67.56884861796248
 20
241.1438084446328
 30
0.0
 40
0.3758803253505718
100
AcDbArc
 50
130.1840999488228
 51
270.0
  0
LINE
  5
D8C7
330
2
100
AcDbEntity
  8
0
100
AcDbLine
 10
69.44680681037119
 20
47.96792811928219
 30
0.0
 11
70.39724942447463
 21
47.96792811928219
 31
0.0
  0
ARC
  5
D8C8
330
2
100
AcDbEntity
  8
0
100
AcDbCircle
 10
70.39724942447463
 20
46.96792811928219
 30
0.0
 40
1.0
100
AcDbArc
 50
0.0
 51
90.0
  0
LINE
  5
D8C9
330
2
100
AcDbEntity
  8
0
100
AcDbLine
 10
71.39724942447464
 20
46.96792811928219
 30
0.0
 11
71.39724942447464
 21
41.96792811928339
 31
0.0
  0
LINE
  5
D8CA
330
2
100
AcDbEntity
  8
0
100
AcDbLine
 10
71.39724942447464
 20
41.96792811928339
 30
0.0
 11
73.79719144851463
 21
41.96792811928378
 31
0.0
  0
LINE
  5
D8CB
330
2
100
AcDbEntity
  8
0
100
AcDbLine
 10
73.79719144851549
 20
41.96792811928378
 30
0.0
 11
73.79719144851771
 21
94.76792811927476
 31
0.0
  0
ARC
  5
D8CC
330
2
100
AcDbEntity
  8
0
100
AcDbCircle
 10
73.29719144851765
 20
94.76792811927476
 30
0.0
 40
0.5000000000000285
100
AcDbArc
 50
359.9999999999935
 51
89.99999999992509
  0
LINE
  5
D8CD
330
2
100
AcDbEntity
  8
0
100
AcDbLine
 10
73.29719144851828
 20
95.26792811927634
 30
0.0
 11
59.09719144851891
 21
95.26792811929425
 31
0.0
  0
ARC
  5
D8CE
330
2
100
AcDbEntity
  8
0
100
AcDbCircle
 10
59.09719144851823
 20
94.76792811929431
 30
0.0
 40
0.4999999999999716
100
AcDbArc
 50
89.99999999992509
 51
180.0000000000065
  0
LINE
  5
D8CF
330
2
100
AcDbEntity
  8
0
100
AcDbLine
 10
58.5971914485114
 20
94.76792811929419
 30
0.0
 11
58.59719144851914
 21
55.0679281192821
 31
0.0
  0
ARC
  5
D8D0
330
2
100
AcDbEntity
  8
0
100
AcDbCircle
 10
58.09719144851914
 20
55.0679281192821
 30
0.0
 40
0.5
100
AcDbArc
 50
270.0
 51
0.0000000000032569
  0
LINE
  5
D8D1
330
2
100
AcDbEntity
  8
0
100
AcDbLine
 10
58.09719144851914
 20
54.5679281192821
 30
0.0
 11
57.59719144851686
 21
54.5679281192821
 31
0.0
  0
LINE
  5
D8D2
330
2
100
AcDbEntity
  8
0
100
AcDbLine
 10
57.59719144851686
 20
54.5679281192821
 30
0.0
 11
57.59719144851686
 21
43.76792811928146
 31
0.0
  0
ARC
  5
D8D3
330
2
100
AcDbEntity
  8
0
100
AcDbCircle
 10
59.39719144851682
 20
43.76792811928146
 30
0.0
 40
1.800000000000004
100
AcDbArc
 50
180.0
 51
270.0000000000098
  0
LINE
  5
D8D4
330
2
100
AcDbEntity
  8
0
100
AcDbLine
 10
59.39719144851716
 20
41.9679281192815
 30
0.0
 11
60.99713347255903
 21
41.96792811928179
 31
0.0
  0
LINE
  5
D8D5
330
2
100
AcDbEntity
  8
0
100
AcDbLine
 10
60.99713347255903
 20
41.96792811928179
 30
0.0
 11
60.99713347255903
 21
46.96792811928219
 31
0.0
  0
ARC
  5
D8D6
330
2
100
AcDbEntity
  8
0
100
AcDbCircle
 10
61.99713347255903
 20
46.96792811928219
 30
0.0
 40
1.0
100
AcDbArc
 50
90.0
 51
180.0
  0
LINE
  5
D8D7
330
2
100
AcDbEntity
  8
0
100
AcDbLine
 10
61.99713347255903
 20
47.96792811928219
 30
0.0
 11
62.94757608666248
 21
47.96792811928219
 31
0.0
  0
LINE
  5
D8D8
330
2
100
AcDbEntity
  8
0
100
AcDbLine
 10
70.19713347255907
 20
46.7679281192822
 30
0.0
 11
62.19713347255901
 21
46.7679281192822
 31
0.0
  0
LINE
  5
D8D9
330
2
100
AcDbEntity
  8
0
100
AcDbLine
 10
62.19713347255896
 20
46.7679281192822
 30
0.0
 11
62.19713347255896
 21
41.76792811928215
 31
0.0
  0
ARC
  5
D8DA
330
2
100
AcDbEntity
  8
0
100
AcDbCircle
 10
61.19713347255895
 20
41.76792811928215
 30
0.0
 40
0.9999999999999857
100
AcDbArc
 50
269.9999999999968
 51
0.0
  0
LINE
  5
D8DB
330
2
100
AcDbEntity
  8
0
100
AcDbLine
 10
61.19713347255895
 20
40.7679281192822
 30
0.0
 11
59.39719144851693
 21
40.7679281192822
 31
0.0
  0
ARC
  5
D8DC
330
2
100
AcDbEntity
  8
0
100
AcDbCircle
 10
59.39719144851693
 20
43.7679281192822
 30
0.0
 40
3.0
100
AcDbArc
 50
180.0
 51
270.0
  0
LINE
  5
D8DD
330
2
100
AcDbEntity
  8
0
100
AcDbLine
 10
56.39719144851693
 20
43.7679281192822
 30
0.0
 11
56.39719144851693
 21
55.76792811928214
 31
0.0
  0
LINE
  5
D8DE
330
2
100
AcDbEntity
  8
0
100
AcDbLine
 10
56.39719144851693
 20
55.76792811928214
 30
0.0
 11
57.3971914485191
 21
55.76792811928214
 31
0.0
  0
LINE
  5
D8DF
330
2
100
AcDbEntity
  8
0
100
AcDbLine
 10
57.3971914485191
 20
55.76792811928214
 30
0.0
 11
57.39719144851671
 21
116.4679281192821
 31
0.0
  0
ARC
  5
D8E0
330
2
100
AcDbEntity
  8
0
100
AcDbCircle
 10
57.69719144851677
 20
116.4679281192821
 30
0.0
 40
0.3000000000000114
100
AcDbArc
 50
90.0
 51
180.0
  0
LINE
  5
D8E1
330
2
100
AcDbEntity
  8
0
100
AcDbLine
 10
57.69719144851677
 20
116.7679281192821
 30
0.0
 11
58.69719144851689
 21
116.7679281192821
 31
0.0
  0
ARC
  5
D8E2
330
2
100
AcDbEntity
  8
0
100
AcDbCircle
 10
58.69719144851689
 20
116.4679281192821
 30
0.0
 40
0.3000000000000256
100
AcDbArc
 50
359.9999999999902
 51
89.99999999999349
  0
LINE
  5
D8E3
330
2
100
AcDbEntity
  8
0
100
AcDbLine
 10
58.99719144851684
 20
116.4679281192821
 30
0.0
 11
58.99719144851577
 21
100.7679281192822
 31
0.0
  0
LINE
  5
D8E4
330
2
100
AcDbEntity
  8
0
100
AcDbLine
 10
58.49719144851684
 20
99.96792811928219
 30
0.0
 11
58.49719144851684
 21
96.96792811929412
 31
0.0
  0
ARC
  5
D8E5
330
2
100
AcDbEntity
  8
0
100
AcDbCircle
 10
58.99719144851684
 20
96.96792811929412
 30
0.0
 40
0.5
100
AcDbArc
 50
180.0
 51
269.9999999999219
  0
LINE
  5
D8E6
330
2
100
AcDbEntity
  8
0
100
AcDbLine
 10
58.99719144851616
 20
96.46792811929413
 30
0.0
 11
62.27800786006247
 21
96.46792811928969
 31
0.0
  0
LINE
  5
D8E7
330
2
100
AcDbEntity
  8
0
100
AcDbLine
 10
70.11637503696864
 20
96.46792811927936
 30
0.0
 11
73.49719144851741
 21
96.46792811927475
 31
0.0
  0
ARC
  5
D8E8
330
2
100
AcDbEntity
  8
0
100
AcDbCircle
 10
73.49719144851809
 20
96.96792811927474
 30
0.0
 40
0.5
100
AcDbArc
 50
269.9999999999219
 51
0.0000000000032569
  0
LINE
  5
D8E9
330
2
100
AcDbEntity
  8
0
100
AcDbLine
 10
73.99719144851809
 20
96.96792811927474
 30
0.0
 11
73.99719144851809
 21
99.96792811928219
 31
0.0
  0
LINE
  5
D8EA
330
2
100
AcDbEntity
  8
0
100
AcDbLine
 10
74.99719144851986
 20
41.76792811928225
 30
0.0
 11
74.99719144851991
 21
41.26792811928214
 31
0.0
  0
ARC
  5
D8EB
330
2
100
AcDbEntity
  8
0
100
AcDbCircle
 10
74.49719144851991
 20
41.26792811928209
 30
0.0
 40
0.5
100
AcDbArc
 50
270.0
 51
0.0000000000032569
  0
LINE
  5
D8EC
330
2
100
AcDbEntity
  8
0
100
AcDbLine
 10
74.49719144851991
 20
40.76792811928209
 30
0.0
 11
71.19724942447459
 21
40.76792811928214
 31
0.0
  0
ARC
  5
D8ED
330
2
100
AcDbEntity
  8
0
100
AcDbCircle
 10
71.19724942447465
 20
41.76792811928215
 30
0.0
 40
1.000000000000014
100
AcDbArc
 50
180.0
 51
269.9999999999968
  0
LINE
  5
D8EE
330
2
100
AcDbEntity
  8
0
100
AcDbLine
 10
70.19724942447459
 20
41.76792811928215
 30
0.0
 11
70.19724942447459
 21
46.7679281192822
 31
0.0
  0
ARC
  5
D8EF
330
2
100
AcDbEntity
  8
0
100
AcDbCircle
 10
66.19719144851689
 20
98.26792811928449
 30
0.0
 40
3.0
100
AcDbArc
 50
146.442690238077
 51
191.5369590328148
  0
ARC
  5
D8F0
330
2
100
AcDbEntity
  8
0
100
AcDbCircle
 10
66.19719144851689
 20
98.26792811928449
 30
0.0
 40
3.0
100
AcDbArc
 50
348.4630409671853
 51
33.55730976192
  0
LINE
  5
D8F1
330
2
100
AcDbEntity
  8
0
100
AcDbLine
 10
63.69719144851689
 20
99.96792811928209
 30
0.0
 11
63.69719144851689
 21
99.92624051446217
 31
0.0
  0
LINE
  5
D8F2
330
2
100
AcDbEntity
  8
0
100
AcDbLine
 10
68.69719144851689
 20
99.96792811928219
 30
0.0
 11
68.69719144851689
 21
99.92624051446217
 31
0.0
  0
ARC
  5
D8F3
330
2
100
AcDbEntity
  8
0
100
AcDbCircle
 10
70.11637503696994
 20
97.46792811928447
 30
0.0
 40
1.0
100
AcDbArc
 50
168.4630409671852
 51
270.0
  0
ARC
  5
D8F4
330
2
100
AcDbEntity
  8
0
100
AcDbCircle
 10
62.27800786006383
 20
97.46792811928447
 30
0.0
 40
1.0
100
AcDbArc
 50
270.0
 51
11.53695903281478
  0
ARC
  5
D8F5
330
2
100
AcDbEntity
  8
0
100
AcDbCircle
 10
66.19719144851683
 20
49.76792811928226
 30
0.0
 40
3.0
100
AcDbArc
 50
138.1896851042206
 51
201.8037479893818
  0
ARC
  5
D8F6
330
2
100
AcDbEntity
  8
0
100
AcDbCircle
 10
66.19719144851683
 20
49.76792811928226
 30
0.0
 40
3.0
100
AcDbArc
 50
338.1962520106183
 51
41.81031489577932
  0
ARC
  5
D8F7
330
2
100
AcDbEntity
  8
0
100
AcDbCircle
 10
69.44680681037119
 20
48.46792811928219
 30
0.0
 40
0.5
100
AcDbArc
 50
158.1962520106182
 51
270.0
  0
ARC
  5
D8F8
330
2
100
AcDbEntity
  8
0
100
AcDbCircle
 10
62.94757608666248
 20
48.46792811928219
 30
0.0
 40
0.5
100
AcDbArc
 50
270.0
 51
21.80374798938174
  0
LINE
  5
D8F9
330
2
100
AcDbEntity
  8
0
370
    -2
100
AcDbLine
 10
80.69719144851802
 20
43.56792811928215
 30
0.0
 11
80.69719144851802
 21
116.107928119282
 31
0.0
  0
ARC
  5
D8FA
330
2
100
AcDbEntity
  8
0
370
    -2
100
AcDbCircle
 10
80.03719144851805
 20
116.107928119282
 30
0.0
 40
0.6600000000001529
100
AcDbArc
 50
0.0
 51
90.0
  0
LINE
  5
D8FB
330
2
100
AcDbEntity
  8
0
370
    -2
100
AcDbLine
 10
74.99719144851986
 20
41.76792811928225
 30
0.0
 11
79.69719144851802
 21
41.76792811928203
 31
0.0
  0
ARC
  5
D8FC
330
2
100
AcDbEntity
  8
0
370
    -2
100
AcDbCircle
 10
79.69719144851802
 20
42.76792811928209
 30
0.0
 40
1.000000000000028
100
AcDbArc
 50
270.0
 51
359.9999999999968
  0
LINE
  5
D8FD
330
2
100
AcDbEntity
  8
0
370
    -2
100
AcDbLine
 10
80.69719144851802
 20
42.76792811928203
 30
0.0
 11
80.69719144851802
 21
43.56792811928221
 31
0.0
  0
LINE
  5
D8FE
330
2
100
AcDbEntity
  8
0
370
    -2
100
AcDbLine
 10
80.03719144851798
 20
116.7679281192829
 30
0.0
 11
73.39719144851727
 21
116.7679281192821
 31
0.0
  0
LINE
  5
D8FF
330
2
100
AcDbEntity
  8
0
370
    -2
100
AcDbLine
 10
73.39719144851716
 20
116.7679281192822
 30
0.0
 11
73.39719144851716
 21
100.7679281192822
 31
0.0
  0
LINE
  5
D900
330
2
100
AcDbEntity
  8
0
100
AcDbLine
 10
58.99719144851684
 20
100.7679281192822
 30
0.0
 11
60.2971914485168
 21
100.7679281192822
 31
0.0
  0
ARC
  5
D901
330
2
100
AcDbEntity
  8
0
100
AcDbCircle
 10
60.2971914485168
 20
100.3679281192821
 30
0.0
 40
0.4000000000000199
100
AcDbArc
 50
270.0
 51
90.0
  0
LINE
  5
D902
330
2
100
AcDbEntity
  8
0
100
AcDbLine
 10
60.2971914485168
 20
99.96792811928219
 30
0.0
 11
58.49719144851684
 21
99.96792811928219
 31
0.0
  0
LINE
  5
D903
330
2
100
AcDbEntity
  8
0
100
AcDbLine
 10
73.99719144851809
 20
99.96792811928219
 30
0.0
 11
72.09719144851681
 21
99.96792811928219
 31
0.0
  0
ARC
  5
D904
330
2
100
AcDbEntity
  8
0
100
AcDbCircle
 10
72.09719144851681
 20
100.3679281192821
 30
0.0
 40
0.3999999999999915
100
AcDbArc
 50
90.0
 51
270.0
  0
LINE
  5
D905
330
2
100
AcDbEntity
  8
0
100
AcDbLine
 10
72.09719144851681
 20
100.7679281192821
 30
0.0
 11
73.39719144851682
 21
100.7679281192822
 31
0.0
  0
ARC
  5
D906
330
2
100
AcDbEntity
  8
0
100
AcDbCircle
 10
68.39719144851693
 20
100.4679281192844
 30
0.0
 40
0.3
100
AcDbArc
 50
0.0000000000032569
 51
90.0
  0
ARC
  5
D907
330
2
100
AcDbEntity
  8
0
100
AcDbCircle
 10
64.69719144851694
 20
100.2679281192845
 30
0.0
 40
0.5
100
AcDbArc
 50
0.0
 51
90.0
  0
LINE
  5
D908
330
2
100
AcDbEntity
  8
0
100
AcDbLine
 10
67.19719144851694
 20
100.2679281192845
 30
0.0
 11
67.19719144851689
 21
99.85301486769907
 31
0.0
  0
LINE
  5
D909
330
2
100
AcDbEntity
  8
0
100
AcDbLine
 10
63.9971914485169
 20
100.7679281192844
 30
0.0
 11
64.69719144851694
 21
100.7679281192844
 31
0.0
  0
ARC
  5
D90A
330
2
100
AcDbEntity
  8
0
100
AcDbCircle
 10
63.9971914485169
 20
100.4679281192844
 30
0.0
 40
0.3
100
AcDbArc
 50
90.0
 51
180.0000000000032
  0
LINE
  5
D90B
330
2
100
AcDbEntity
  8
0
100
AcDbLine
 10
67.69719144851695
 20
100.7679281192844
 30
0.0
 11
68.39719144851693
 21
100.7679281192844
 31
0.0
  0
ARC
  5
D90C
330
2
100
AcDbEntity
  8
0
100
AcDbCircle
 10
67.69719144851695
 20
100.2679281192845
 30
0.0
 40
0.5
100
AcDbArc
 50
90.0
 51
180.0
  0
LINE
  5
D90D
330
2
100
AcDbEntity
  8
0
100
AcDbLine
 10
63.69719144851689
 20
100.4679281192844
 30
0.0
 11
63.69719144851694
 21
99.92624051446222
 31
0.0
  0
LINE
  5
D90E
330
2
100
AcDbEntity
  8
0
100
AcDbLine
 10
68.69719144851689
 20
100.4679281192845
 30
0.0
 11
68.69719144851694
 21
99.92624051446217
 31
0.0
  0
LINE
  5
D90F
330
2
100
AcDbEntity
  8
0
100
AcDbLine
 10
63.961123471017
 20
51.76792811928226
 30
0.0
 11
64.8254763031133
 21
51.76792811928226
 31
0.0
  0
LINE
  5
D910
330
2
100
AcDbEntity
  8
0
100
AcDbLine
 10
67.56890659392031
 20
51.76792811928226
 30
0.0
 11
68.4332594260166
 21
51.76792811928226
 31
0.0
  0
ARC
  5
D911
330
2
100
AcDbEntity
  8
0
100
AcDbCircle
 10
64.8254763031133
 20
51.39204779393168
 30
0.0
 40
0.3758803253505718
100
AcDbArc
 50
310.1840999488225
 51
90.0
  0
ARC
  5
D912
330
2
100
AcDbEntity
  8
0
100
AcDbCircle
 10
67.56890659392031
 20
51.39204779393168
 30
0.0
 40
0.3758803253505718
100
AcDbArc
 50
90.0
 51
229.8159000511774
  0
LINE
  5
D913
330
2
100
AcDbEntity
  8
0
 48
0.1
100
AcDbLine
 10
84.89719144851688
 20
32.26792811928198
 30
0.0
 11
84.89719144851688
 21
21.26792811928204
 31
0.0
  0
ARC
  5
D914
330
2
100
AcDbEntity
  8
0
 48
0.1
100
AcDbCircle
 10
84.39719144851691
 20
32.26792811928201
 30
0.0
 40
0.5
100
AcDbArc
 50
359.9999999999968
 51
90.00000000000488
  0
LINE
  5
D915
330
2
100
AcDbEntity
  8
0
100
AcDbLine
 10
42.39719144851631
 20
48.26792811928209
 30
0.0
 11
42.39719144851631
 21
48.26792811928209
 31
0.0
  0
LINE
  5
D916
330
2
100
AcDbEntity
  8
0
 48
2.0
100
AcDbLine
 10
55.06333272674578
 20
52.69548043885457
 30
0.0
 11
49.73089479868327
 21
52.6954804388546
 31
0.0
  0
ARC
  5
D917
330
2
100
AcDbEntity
  8
0
 48
2.0
100
AcDbCircle
 10
55.06333272674578
 20
50.69548043885458
 30
0.0
 40
2.0
100
AcDbArc
 50
22.59902725465735
 51
90.0
  0
LINE
  5
D918
330
2
100
AcDbEntity
  8
0
 48
2.0
100
AcDbLine
 10
59.37031730800504
 20
45.55266250138269
 30
0.0
 11
56.90976620953711
 21
51.46403973625915
 31
0.0
  0
ARC
  5
D919
330
2
100
AcDbEntity
  8
0
 48
2.0
100
AcDbCircle
 10
59.04719144851651
 20
45.41816462433688
 30
0.0
 40
0.3500000000000013
100
AcDbArc
 50
202.5990272546573
 51
22.59902725465735
  0
LINE
  5
D91A
330
2
100
AcDbEntity
  8
0
 48
2.0
100
AcDbLine
 10
56.26351449056016
 20
51.19504398216752
 30
0.0
 11
58.7240655890281
 21
45.28366674729112
 31
0.0
  0
ARC
  5
D91B
330
2
100
AcDbEntity
  8
0
 48
2.0
100
AcDbCircle
 10
55.06333272674578
 20
50.69548043885458
 30
0.0
 40
1.299999999999997
100
AcDbArc
 50
22.59902725465735
 51
90.0
  0
LINE
  5
D91C
330
2
100
AcDbEntity
  8
0
 48
2.0
100
AcDbLine
 10
53.49719144851644
 20
51.99548043885454
 30
0.0
 11
55.06333272674578
 21
51.99548043885453
 31
0.0
  0
ARC
  5
D91D
330
2
100
AcDbEntity
  8
0
 48
2.0
100
AcDbCircle
 10
53.49719144851644
 20
50.99548043885454
 30
0.0
 40
1.0
100
AcDbArc
 50
90.0
 51
180.0
  0
LINE
  5
D91E
330
2
100
AcDbEntity
  8
0
 48
2.0
100
AcDbLine
 10
52.49719144851645
 20
44.89548043885458
 30
0.0
 11
52.49719144851645
 21
50.99548043885454
 31
0.0
  0
LINE
  5
D91F
330
2
100
AcDbEntity
  8
0
 48
2.0
100
AcDbLine
 10
53.14719144851654
 20
44.89548043885458
 30
0.0
 11
52.49719144851645
 21
44.89548043885458
 31
0.0
  0
ARC
  5
D920
330
2
100
AcDbEntity
  8
0
 48
2.0
100
AcDbCircle
 10
53.14719144851654
 20
44.54548043885461
 30
0.0
 40
0.3499999999999979
100
AcDbArc
 50
0.0
 51
90.0
  0
ARC
  5
D921
330
2
100
AcDbEntity
  8
0
 48
2.0
100
AcDbCircle
 10
53.14719144851654
 20
44.54548043885461
 30
0.0
 40
0.3500000000000014
100
AcDbArc
 50
270.0
 51
0.0
  0
LINE
  5
D922
330
2
100
AcDbEntity
  8
0
 48
2.0
100
AcDbLine
 10
51.39191494058161
 20
44.19548043885458
 30
0.0
 11
53.14719144851654
 21
44.19548043885458
 31
0.0
  0
LINE
  5
D923
330
2
100
AcDbEntity
  8
0
100
AcDbLine
 10
53.49719144851644
 20
44.54548043885461
 30
0.0
 11
53.49719144851644
 21
44.54548043885461
 31
0.0
  0
LINE
  5
D924
330
2
100
AcDbEntity
  8
0
100
AcDbLine
 10
60.79719144851527
 20
28.66792811928215
 30
0.0
 11
60.79719144851527
 21
29.46792811928408
 31
0.0
  0
LINE
  5
D925
330
2
100
AcDbEntity
  8
0
100
AcDbLine
 10
46.59719144851692
 20
50.05687063379935
 30
0.0
 11
43.6407230569556
 21
49.92832852981841
 31
0.0
  0
LINE
  5
D926
330
2
100
AcDbEntity
  8
0
100
AcDbLine
 10
46.59719144851692
 20
44.26792811928211
 30
0.0
 11
46.59719144851692
 21
50.05687063379935
 31
0.0
  0
ARC
  5
D927
330
2
100
AcDbEntity
  8
0
100
AcDbCircle
 10
47.09719144851692
 20
44.26792811928211
 30
0.0
 40
0.5
100
AcDbArc
 50
180.0
 51
270.0
  0
LINE
  5
D928
330
2
100
AcDbEntity
  8
0
100
AcDbLine
 10
50.89719144851699
 20
43.76792811928211
 30
0.0
 11
47.09719144851692
 21
43.76792811928211
 31
0.0
  0
ARC
  5
D929
330
2
100
AcDbEntity
  8
0
100
AcDbCircle
 10
50.89719144851699
 20
44.26792811928211
 30
0.0
 40
0.5
100
AcDbArc
 50
270.0
 51
351.6687801835618
  0
LINE
  5
D92A
330
2
100
AcDbEntity
  8
0
100
AcDbLine
 10
43.53212999626487
 20
52.425968925706
 30
0.0
 11
49.73089479868349
 21
52.69548043885461
 31
0.0
  0
ARC
  5
D92B
330
2
100
AcDbEntity
  8
0
100
AcDbCircle
 10
43.69719144851479
 20
48.62955552395678
 30
0.0
 40
3.800000000000011
100
AcDbArc
 50
92.48955292199978
 51
180.0
  0
LINE
  5
D92C
330
2
100
AcDbEntity
  8
0
100
AcDbLine
 10
39.89719144851483
 20
20.76792811928218
 30
0.0
 11
39.89719144851472
 21
48.62955552395677
 31
0.0
  0
LINE
  5
D92D
330
2
100
AcDbEntity
  8
0
100
AcDbLine
 10
43.39719144851494
 20
20.76792811928215
 30
0.0
 11
40.51689354677444
 21
20.76792811928218
 31
0.0
  0
ARC
  5
D92E
330
2
100
AcDbEntity
  8
0
100
AcDbCircle
 10
43.39719144851494
 20
20.26792811928215
 30
0.0
 40
0.5
100
AcDbArc
 50
0.0
 51
90.0
  0
LINE
  5
D92F
330
2
100
AcDbEntity
  8
0
100
AcDbLine
 10
43.89719144851494
 20
19.76792811928214
 30
0.0
 11
43.89719144851494
 21
20.26792811928215
 31
0.0
  0
LINE
  5
D930
330
2
100
AcDbEntity
  8
0
100
AcDbLine
 10
44.89719144851494
 20
19.76792811928214
 30
0.0
 11
43.89719144851494
 21
19.76792811928214
 31
0.0
  0
LINE
  5
D931
330
2
100
AcDbEntity
  8
0
100
AcDbLine
 10
44.89719144851494
 20
21.26792811928194
 30
0.0
 11
44.89719144851494
 21
19.76792811928214
 31
0.0
  0
ARC
  5
D932
330
2
100
AcDbEntity
  8
0
100
AcDbCircle
 10
43.89719144851494
 20
21.26792811928192
 30
0.0
 40
1.000000000000014
100
AcDbArc
 50
0.0000000000008142
 51
90.0
  0
LINE
  5
D933
330
2
100
AcDbEntity
  8
0
100
AcDbLine
 10
41.6971914485149
 20
22.26792811928195
 30
0.0
 11
43.89719144851494
 21
22.26792811928193
 31
0.0
  0
LINE
  5
D934
330
2
100
AcDbEntity
  8
0
100
AcDbLine
 10
41.6971914485149
 20
30.96792811928471
 30
0.0
 11
41.6971914485149
 21
22.26792811928195
 31
0.0
  0
LINE
  5
D935
330
2
100
AcDbEntity
  8
0
100
AcDbLine
 10
59.29719144851526
 20
30.96792811928408
 30
0.0
 11
41.6971914485149
 21
30.96792811928471
 31
0.0
  0
ARC
  5
D936
330
2
100
AcDbEntity
  8
0
100
AcDbCircle
 10
59.29719144851515
 20
29.46792811928408
 30
0.0
 40
1.500000000000014
100
AcDbArc
 50
0.0
 51
89.99999999999349
  0
LINE
  5
D937
330
2
100
AcDbEntity
  8
0
100
AcDbLine
 10
42.39719144851483
 20
48.62955552395682
 30
0.0
 11
42.39719144851483
 21
47.76792811928209
 31
0.0
  0
ARC
  5
D938
330
2
100
AcDbEntity
  8
0
100
AcDbCircle
 10
43.69719144851479
 20
48.62955552395684
 30
0.0
 40
1.299999999999998
100
AcDbArc
 50
92.48955292199978
 51
180.0000000000008
  0
LINE
  5
D939
330
2
100
AcDbEntity
  8
0
100
AcDbLine
 10
68.99719144851508
 20
29.46792811928326
 30
0.0
 11
68.99719144851508
 21
21.76792811928215
 31
0.0
  0
LINE
  5
D93A
330
2
100
AcDbEntity
  8
0
100
AcDbLine
 10
68.99719144851508
 20
21.76792811928215
 30
0.0
 11
70.49719144851508
 21
21.76792811928213
 31
0.0
  0
ARC
  5
D93B
330
2
100
AcDbEntity
  8
0
100
AcDbCircle
 10
70.49719144851508
 20
20.76792811928213
 30
0.0
 40
1.0
100
AcDbArc
 50
0.0
 51
90.0
  0
LINE
  5
D93C
330
2
100
AcDbEntity
  8
0
100
AcDbLine
 10
71.49719144851508
 20
20.76792811928213
 30
0.0
 11
71.49719144851508
 21
19.76792811928209
 31
0.0
  0
LINE
  5
D93D
330
2
100
AcDbEntity
  8
0
100
AcDbLine
 10
71.49719144851508
 20
19.76792811928209
 30
0.0
 11
66.99719144851508
 21
19.76792811928214
 31
0.0
  0
ARC
  5
D93E
330
2
100
AcDbEntity
  8
0
100
AcDbCircle
 10
66.99719144851508
 20
20.26792811928215
 30
0.0
 40
0.5
100
AcDbArc
 50
180.0
 51
270.0
  0
LINE
  5
D93F
330
2
100
AcDbEntity
  8
0
100
AcDbLine
 10
66.49719144851508
 20
20.26792811928215
 30
0.0
 11
66.49719144851508
 21
30.96792811928471
 31
0.0
  0
LINE
  5
D940
330
2
100
AcDbEntity
  8
0
100
AcDbLine
 10
66.49719144851508
 20
30.96792811928471
 30
0.0
 11
63.29719144851515
 21
30.96792811928493
 31
0.0
  0
LINE
  5
D941
330
2
100
AcDbEntity
  8
0
100
AcDbLine
 10
63.29719144851515
 20
30.96792811928493
 30
0.0
 11
63.29719144851515
 21
20.26792811928215
 31
0.0
  0
ARC
  5
D942
330
2
100
AcDbEntity
  8
0
100
AcDbCircle
 10
62.79719144851515
 20
20.26792811928215
 30
0.0
 40
0.5
100
AcDbArc
 50
270.0
 51
0.0
  0
LINE
  5
D943
330
2
100
AcDbEntity
  8
0
100
AcDbLine
 10
62.79719144851515
 20
19.76792811928214
 30
0.0
 11
58.29719144851515
 21
19.7679281192822
 31
0.0
  0
LINE
  5
D944
330
2
100
AcDbEntity
  8
0
100
AcDbLine
 10
58.29719144851515
 20
19.7679281192822
 30
0.0
 11
58.29719144851527
 21
20.76792811928218
 31
0.0
  0
ARC
  5
D945
330
2
100
AcDbEntity
  8
0
100
AcDbCircle
 10
59.29719144851526
 20
20.76792811928215
 30
0.0
 40
0.9999999999999964
100
AcDbArc
 50
89.99999999999959
 51
179.9999999999986
  0
LINE
  5
D946
330
2
100
AcDbEntity
  8
0
100
AcDbLine
 10
59.29719144851526
 20
21.76792811928215
 30
0.0
 11
60.79719144851527
 21
21.76792811928215
 31
0.0
  0
LINE
  5
D947
330
2
100
AcDbEntity
  8
0
100
AcDbLine
 10
60.79719144851527
 20
21.76792811928215
 30
0.0
 11
60.79719144851527
 21
29.46792811928408
 31
0.0
  0
LINE
  5
D948
330
2
100
AcDbEntity
  8
0
100
AcDbLine
 10
42.39719144851483
 20
47.76792811928209
 30
0.0
 11
42.39719144851483
 21
32.76792811928209
 31
0.0
  0
LINE
  5
D949
330
2
100
AcDbEntity
  8
0
100
AcDbLine
 10
42.39719144851483
 20
32.76792811928209
 30
0.0
 11
84.39719144851691
 21
32.76792811928209
 31
0.0
  0
LINE
  5
D94A
330
2
100
AcDbEntity
  8
0
100
AcDbLine
 10
84.89719144851472
 20
21.26792811928216
 30
0.0
 11
84.89719144851482
 21
20.76792811928215
 31
0.0
  0
LINE
  5
D94B
330
2
100
AcDbEntity
  8
0
100
AcDbLine
 10
84.27748935025523
 20
20.76792811928215
 30
0.0
 11
81.39719144851472
 21
20.76792811928215
 31
0.0
  0
ARC
  5
D94C
330
2
100
AcDbEntity
  8
0
100
AcDbCircle
 10
81.39719144851472
 20
20.26792811928215
 30
0.0
 40
0.5
100
AcDbArc
 50
90.0
 51
180.0
  0
LINE
  5
D94D
330
2
100
AcDbEntity
  8
0
100
AcDbLine
 10
80.89719144851471
 20
20.26792811928215
 30
0.0
 11
80.89719144851471
 21
19.76792811928214
 31
0.0
  0
LINE
  5
D94E
330
2
100
AcDbEntity
  8
0
100
AcDbLine
 10
80.89719144851471
 20
19.76792811928214
 30
0.0
 11
79.89719144851472
 21
19.76792811928214
 31
0.0
  0
LINE
  5
D94F
330
2
100
AcDbEntity
  8
0
100
AcDbLine
 10
79.89719144851472
 20
19.76792811928214
 30
0.0
 11
79.89719144851472
 21
21.26792811928192
 31
0.0
  0
ARC
  5
D950
330
2
100
AcDbEntity
  8
0
100
AcDbCircle
 10
80.89719144851471
 20
21.26792811928192
 30
0.0
 40
1.0
100
AcDbArc
 50
90.0
 51
180.0
  0
LINE
  5
D951
330
2
100
AcDbEntity
  8
0
100
AcDbLine
 10
80.89719144851471
 20
22.26792811928192
 30
0.0
 11
83.09719144851476
 21
22.26792811928192
 31
0.0
  0
LINE
  5
D952
330
2
100
AcDbEntity
  8
0
100
AcDbLine
 10
83.09719144851476
 20
22.26792811928192
 30
0.0
 11
83.09719144851488
 21
30.96792811928215
 31
0.0
  0
LINE
  5
D953
330
2
100
AcDbEntity
  8
0
100
AcDbLine
 10
83.09719144851488
 20
30.96792811928215
 30
0.0
 11
70.49719144851531
 21
30.96792811928326
 31
0.0
  0
ARC
  5
D954
330
2
100
AcDbEntity
  8
0
100
AcDbCircle
 10
70.49719144851508
 20
29.46792811928326
 30
0.0
 40
1.5
100
AcDbArc
 50
89.99999999999349
 51
180.0
  0
LINE
  5
D955
330
2
100
AcDbEntity
  8
0
100
AcDbLine
 10
68.99719144851508
 20
29.46792811928326
 30
0.0
 11
68.99719144851508
 21
28.66792811928225
 31
0.0
  0
LINE
  5
D956
330
2
100
AcDbEntity
  8
0
100
AcDbLine
 10
42.39719144851335
 20
48.26792811928228
 30
0.0
 11
42.39719144851335
 21
48.26792811928228
 31
0.0
  0
LINE
  5
D957
330
2
100
AcDbEntity
  8
0
100
AcDbLine
 10
43.9971914485144
 20
49.26792811928229
 30
0.0
 11
43.9971914485144
 21
49.26792811928229
 31
0.0
  0
LINE
  5
D958
330
2
100
AcDbEntity
  8
0
100
AcDbLine
 10
43.64719144851164
 20
49.26792811928229
 30
0.0
 11
43.64719144851176
 21
49.26792811928232
 31
0.0
  0
LINE
  5
D959
330
2
100
AcDbEntity
  8
0
100
AcDbLine
 10
43.59719144851545
 20
47.26792811928229
 30
0.0
 11
43.59719144851545
 21
34.26792811928226
 31
0.0
  0
ARC
  5
D95A
330
2
100
AcDbEntity
  8
0
100
AcDbCircle
 10
45.09719144851544
 20
34.26792811928226
 30
0.0
 40
1.5
100
AcDbArc
 50
180.0
 51
270.0
  0
LINE
  5
D95B
330
2
100
AcDbEntity
  8
0
100
AcDbLine
 10
85.89793191510887
 20
19.76792811928207
 30
0.0
 11
86.40063419115824
 21
32.82851636725269
 31
0.0
  0
ARC
  5
D95C
330
2
100
AcDbEntity
  8
0
100
AcDbCircle
 10
84.40211402857869
 20
32.90543944417578
 30
0.0
 40
1.999999999999979
100
AcDbArc
 50
357.7957724960274
 51
86.07588082338125
  0
LINE
  5
D95D
330
2
100
AcDbEntity
  8
0
100
AcDbLine
 10
84.53898456627371
 20
34.90075056174894
 30
0.0
 11
72.58074098319116
 21
35.72103929501412
 31
0.0
  0
ARC
  5
D95E
330
2
100
AcDbEntity
  8
0
100
AcDbCircle
 10
71.21203560624144
 20
15.76792811928233
 30
0.0
 40
20.0000000000001
100
AcDbArc
 50
86.07588082338777
 51
90.0
  0
LINE
  5
D95F
330
2
100
AcDbEntity
  8
0
100
AcDbLine
 10
71.21203560624156
 20
35.76792811928243
 30
0.0
 11
58.80386435737603
 21
35.7679281192824
 31
0.0
  0
ARC
  5
D960
330
2
100
AcDbEntity
  8
0
100
AcDbCircle
 10
58.80386435737603
 20
30.7679281192824
 30
0.0
 40
5.0
100
AcDbArc
 50
90.0
 51
110.5560452195883
  0
LINE
  5
D961
330
2
100
AcDbEntity
  8
0
100
AcDbLine
 10
57.04824714943402
 20
35.44957400712758
 30
0.0
 11
53.89719144851347
 21
34.26792811928232
 31
0.0
  0
LINE
  5
D962
330
2
100
AcDbEntity
  8
0
100
AcDbLine
 10
53.89719144851347
 20
34.26792811928232
 30
0.0
 11
46.59719144851544
 21
34.26792811928226
 31
0.0
  0
LINE
  5
D963
330
2
100
AcDbEntity
  8
0
100
AcDbLine
 10
46.59719144851544
 20
34.26792811928226
 30
0.0
 11
46.59719144851544
 21
48.26792811928228
 31
0.0
  0
ARC
  5
D964
330
2
100
AcDbEntity
  8
0
100
AcDbCircle
 10
45.59719144851544
 20
48.26792811928228
 30
0.0
 40
1.0
100
AcDbArc
 50
0.0
 51
90.0
  0
LINE
  5
D965
330
2
100
AcDbEntity
  8
0
100
AcDbLine
 10
45.59719144851544
 20
49.26792811928229
 30
0.0
 11
44.99719144851439
 21
49.26792811928229
 31
0.0
  0
LINE
  5
D966
330
2
100
AcDbEntity
  8
0
100
AcDbLine
 10
44.99719144851439
 20
49.26792811928229
 30
0.0
 11
44.99719144851439
 21
49.26792811928229
 31
0.0
  0
ARC
  5
D967
330
2
100
AcDbEntity
  8
0
100
AcDbCircle
 10
44.4971914485144
 20
49.2679281192823
 30
0.0
 40
0.4999999999999858
100
AcDbArc
 50
359.9999999999984
 51
90.0
  0
LINE
  5
D968
330
2
100
AcDbEntity
  8
0
100
AcDbLine
 10
44.4971914485144
 20
49.76792811928229
 30
0.0
 11
44.4971914485144
 21
49.76792811928229
 31
0.0
  0
ARC
  5
D969
330
2
100
AcDbEntity
  8
0
100
AcDbCircle
 10
44.4971914485144
 20
49.26792811928229
 30
0.0
 40
0.5
100
AcDbArc
 50
90.0
 51
180.0
  0
LINE
  5
D96A
330
2
100
AcDbEntity
  8
0
100
AcDbLine
 10
43.9971914485144
 20
49.26792811928229
 30
0.0
 11
43.39719144851335
 21
49.26792811928229
 31
0.0
  0
ARC
  5
D96B
330
2
100
AcDbEntity
  8
0
100
AcDbCircle
 10
43.39719144851335
 20
48.26792811928228
 30
0.0
 40
1.0
100
AcDbArc
 50
90.0
 51
180.0
  0
ARC
  5
D96C
330
2
100
AcDbEntity
  8
0
100
AcDbCircle
 10
43.39719144851335
 20
48.26792811928228
 30
0.0
 40
1.0
100
AcDbArc
 50
180.0
 51
270.0
  0
LINE
  5
D96D
330
2
100
AcDbEntity
  8
0
100
AcDbLine
 10
43.39719144851335
 20
47.26792811928229
 30
0.0
 11
43.59719144851545
 21
47.26792811928229
 31
0.0
  0
ARC
  5
D96E
330
2
100
AcDbEntity
  8
0
100
AcDbCircle
 10
82.39919224915537
 20
21.32792811928212
 30
0.0
 40
2.560000000000033
100
AcDbArc
 50
264.8720091169072
 51
347.3643749069787
  0
ARC
  5
D96F
330
2
100
AcDbEntity
  8
0
100
AcDbCircle
 10
82.39919224915537
 20
21.32792811928212
 30
0.0
 40
1.960000000000014
100
AcDbArc
 50
264.8720091169072
 51
343.3984504009792
  0
ARC
  5
D970
330
2
100
AcDbEntity
  8
0
100
AcDbCircle
 10
82.19719144851479
 20
19.0769737269097
 30
0.0
 40
0.3000000000000198
100
AcDbArc
 50
84.87200911690068
 51
264.8720091169006
  0
ARC
  5
D971
330
2
100
AcDbEntity
  8
0
100
AcDbCircle
 10
42.3951906478743
 20
21.32792811928212
 30
0.0
 40
2.560000000000034
100
AcDbArc
 50
192.6356250930212
 51
275.1279908830928
  0
ARC
  5
D972
330
2
100
AcDbEntity
  8
0
100
AcDbCircle
 10
42.3951906478743
 20
21.32792811928212
 30
0.0
 40
1.960000000000014
100
AcDbArc
 50
196.6015495990206
 51
275.1279908830928
  0
ARC
  5
D973
330
2
100
AcDbEntity
  8
0
100
AcDbCircle
 10
42.59719144851476
 20
19.0769737269097
 30
0.0
 40
0.3000000000000198
100
AcDbArc
 50
275.1279908830993
 51
95.12799088309932
  0
LINE
  5
D974
330
2
100
AcDbEntity
  8
0
100
AcDbLine
 10
84.42897056217384
 20
19.76792811928214
 30
0.0
 11
85.89793191510876
 21
19.76792811928214
 31
0.0
  0
LINE
  5
D975
330
2
100
AcDbEntity
  8
0
100
AcDbLine
 10
174.8437397443722
 20
143.3033191869029
 30
0.0
 11
157.3437397443749
 21
143.3033191869031
 31
0.0
  0
LINE
  5
D976
330
2
100
AcDbEntity
  8
0
100
AcDbLine
 10
142.843739744372
 20
141.3033191869023
 30
0.0
 11
145.1746685090248
 21
141.0045364997967
 31
0.0
  0
LINE
  5
D977
330
2
100
AcDbEntity
  8
0
100
AcDbLine
 10
142.843739744372
 20
141.9033191869022
 30
0.0
 11
145.2305719753787
 21
141.2987268440565
 31
0.0
  0
ARC
  5
D978
330
2
100
AcDbEntity
  8
0
100
AcDbCircle
 10
145.193739744372
 20
141.1533191869023
 30
0.0
 40
0.15
100
AcDbArc
 50
262.6955544393867
 51
75.78576665395913
  0
LINE
  5
D979
330
2
100
AcDbEntity
  8
0
100
AcDbLine
 10
141.8437397443722
 20
146.3033191869023
 30
0.0
 11
141.3437397443722
 21
146.3033191869023
 31
0.0
  0
LINE
  5
D97A
330
2
100
AcDbEntity
  8
0
100
AcDbLine
 10
174.8437397443723
 20
143.3033191869029
 30
0.0
 11
174.8437397443723
 21
136.6033191869027
 31
0.0
  0
LINE
  5
D97B
330
2
100
AcDbEntity
  8
0
100
AcDbLine
 10
174.8437397443723
 20
136.6033191869027
 30
0.0
 11
168.8437397443723
 21
136.6033191869024
 31
0.0
  0
ARC
  5
D97C
330
2
100
AcDbEntity
  8
0
100
AcDbCircle
 10
168.8437397443723
 20
136.1033191869024
 30
0.0
 40
0.5
100
AcDbArc
 50
90.0
 51
180.0
  0
LINE
  5
D97D
330
2
100
AcDbEntity
  8
0
100
AcDbLine
 10
168.3437397443723
 20
136.1033191869024
 30
0.0
 11
168.3437397443723
 21
132.3033191869024
 31
0.0
  0
ARC
  5
D97E
330
2
100
AcDbEntity
  8
0
100
AcDbCircle
 10
168.8437397443723
 20
132.3033191869024
 30
0.0
 40
0.5
100
AcDbArc
 50
180.0
 51
270.0
  0
ARC
  5
D97F
330
2
100
AcDbEntity
  8
0
100
AcDbCircle
 10
176.8437397443723
 20
145.8033191869024
 30
0.0
 40
0.5
100
AcDbArc
 50
0.0
 51
90.0
  0
LINE
  5
D980
330
2
100
AcDbEntity
  8
0
100
AcDbLine
 10
176.8437397443723
 20
146.3033191869024
 30
0.0
 11
141.3437397443722
 21
146.3033191869023
 31
0.0
  0
LINE
  5
D981
330
2
100
AcDbEntity
  8
0
100
AcDbLine
 10
141.3437397443723
 20
145.6836170886428
 30
0.0
 11
141.3437397443722
 21
142.8033191869022
 31
0.0
  0
LINE
  5
D982
330
2
100
AcDbEntity
  8
0
100
AcDbLine
 10
140.8437397443722
 20
142.3033191869023
 30
0.0
 11
140.3437397443722
 21
142.3033191869023
 31
0.0
  0
LINE
  5
D983
330
2
100
AcDbEntity
  8
0
100
AcDbLine
 10
140.3437397443722
 20
142.3033191869023
 30
0.0
 11
140.3437397443722
 21
141.8033191869023
 31
0.0
  0
LINE
  5
D984
330
2
100
AcDbEntity
  8
0
100
AcDbLine
 10
140.8437397443722
 20
141.3033191869023
 30
0.0
 11
142.843739744372
 21
141.3033191869023
 31
0.0
  0
LINE
  5
D985
330
2
100
AcDbEntity
  8
0
100
AcDbLine
 10
142.843739744372
 20
141.9033191869022
 30
0.0
 11
142.843739744372
 21
144.7033191869023
 31
0.0
  0
LINE
  5
D986
330
2
100
AcDbEntity
  8
0
100
AcDbLine
 10
142.843739744372
 20
144.7033191869023
 30
0.0
 11
155.7437397443749
 21
144.7033191869024
 31
0.0
  0
LINE
  5
D987
330
2
100
AcDbEntity
  8
0
100
AcDbLine
 10
140.3437397443722
 20
101.3033191869024
 30
0.0
 11
140.3437397443722
 21
100.3033191869024
 31
0.0
  0
LINE
  5
D988
330
2
100
AcDbEntity
  8
0
100
AcDbLine
 10
140.3437397443722
 20
100.3033191869024
 30
0.0
 11
140.8437397443722
 21
100.3033191869024
 31
0.0
  0
ARC
  5
D989
330
2
100
AcDbEntity
  8
0
100
AcDbCircle
 10
140.8437397443722
 20
99.80331918690241
 30
0.0
 40
0.5
100
AcDbArc
 50
0.0
 51
90.0
  0
LINE
  5
D98A
330
2
100
AcDbEntity
  8
0
100
AcDbLine
 10
141.3437397443735
 20
99.80331918690199
 30
0.0
 11
141.3437397443722
 21
96.92302128516185
 31
0.0
  0
LINE
  5
D98B
330
2
100
AcDbEntity
  8
0
100
AcDbLine
 10
141.3437397443702
 20
140.3040670918552
 30
0.0
 11
141.3437397443702
 21
140.3033191869022
 31
0.0
  0
LINE
  5
D98C
330
2
100
AcDbEntity
  8
0
100
AcDbLine
 10
141.3437397443702
 20
140.3033191869022
 30
0.0
 11
144.3437397443702
 21
141.3033191869022
 31
0.0
  0
LINE
  5
D98D
330
2
100
AcDbEntity
  8
0
100
AcDbLine
 10
144.3437397443702
 20
141.3033191869022
 30
0.0
 11
154.3748153659469
 21
140.4234002727284
 31
0.0
  0
LINE
  5
D98E
330
2
100
AcDbEntity
  8
0
100
AcDbLine
 10
140.3437397443722
 20
101.3033191869014
 30
0.0
 11
149.9437397443719
 21
101.3033191869014
 31
0.0
  0
LINE
  5
D98F
330
2
100
AcDbEntity
  8
0
100
AcDbLine
 10
149.9437397443719
 20
101.3033191869014
 30
0.0
 11
149.9437397443719
 21
104.103319186901
 31
0.0
  0
LINE
  5
D990
330
2
100
AcDbEntity
  8
0
100
AcDbLine
 10
149.9437397443719
 20
104.103319186901
 30
0.0
 11
140.8437397443681
 21
104.103319186901
 31
0.0
  0
ARC
  5
D991
330
2
100
AcDbEntity
  8
0
100
AcDbCircle
 10
140.8437397443681
 20
104.603319186901
 30
0.0
 40
0.4999999999999716
100
AcDbArc
 50
179.9999999999935
 51
270.0000000000065
  0
LINE
  5
D992
330
2
100
AcDbEntity
  8
0
100
AcDbLine
 10
140.3437397443681
 20
104.6033191869011
 30
0.0
 11
140.3437397443683
 21
106.603319186901
 31
0.0
  0
LINE
  5
D993
330
2
100
AcDbEntity
  8
0
100
AcDbLine
 10
140.3437397443683
 20
106.603319186901
 30
0.0
 11
140.8437397443681
 21
106.603319186901
 31
0.0
  0
ARC
  5
D994
330
2
100
AcDbEntity
  8
0
100
AcDbCircle
 10
140.8437397443681
 20
106.1033191869011
 30
0.0
 40
0.5
100
AcDbArc
 50
0.0
 51
90.0
  0
LINE
  5
D995
330
2
100
AcDbEntity
  8
0
100
AcDbLine
 10
141.3437397443681
 20
106.1033191869011
 30
0.0
 11
141.3437397443681
 21
105.603319186901
 31
0.0
  0
LINE
  5
D996
330
2
100
AcDbEntity
  8
0
100
AcDbLine
 10
141.3437397443681
 20
105.603319186901
 30
0.0
 11
151.4437397443719
 21
105.603319186901
 31
0.0
  0
LINE
  5
D997
330
2
100
AcDbEntity
  8
0
100
AcDbLine
 10
151.4437397443719
 20
105.603319186901
 30
0.0
 11
151.4437397443719
 21
101.3033191869029
 31
0.0
  0
LINE
  5
D998
330
2
100
AcDbEntity
  8
0
100
AcDbLine
 10
151.4437397443719
 20
101.3033191869029
 30
0.0
 11
154.2437397443716
 21
101.3033191869029
 31
0.0
  0
LINE
  5
D999
330
2
100
AcDbEntity
  8
0
100
AcDbLine
 10
154.2437397443716
 20
101.3033191869029
 30
0.0
 11
154.2437397443732
 21
129.4033191869021
 31
0.0
  0
LINE
  5
D99A
330
2
100
AcDbEntity
  8
0
100
AcDbLine
 10
154.2437397443732
 20
129.4033191869021
 30
0.0
 11
151.4437397443719
 21
129.4033191869021
 31
0.0
  0
LINE
  5
D99B
330
2
100
AcDbEntity
  8
0
100
AcDbLine
 10
151.4437397443719
 20
129.4033191869021
 30
0.0
 11
151.4437397443719
 21
125.0033191869021
 31
0.0
  0
LINE
  5
D99C
330
2
100
AcDbEntity
  8
0
100
AcDbLine
 10
151.4437397443719
 20
125.0033191869021
 30
0.0
 11
140.8437397443701
 21
125.0033191869021
 31
0.0
  0
ARC
  5
D99D
330
2
100
AcDbEntity
  8
0
100
AcDbCircle
 10
140.8437397443701
 20
125.5033191869021
 30
0.0
 40
0.5000000000000142
100
AcDbArc
 50
179.9999999999984
 51
270.0
  0
LINE
  5
D99E
330
2
100
AcDbEntity
  8
0
100
AcDbLine
 10
140.3437397443702
 20
125.5033191869021
 30
0.0
 11
140.3437397443704
 21
127.5033191869021
 31
0.0
  0
LINE
  5
D99F
330
2
100
AcDbEntity
  8
0
100
AcDbLine
 10
140.3437397443704
 20
127.5033191869021
 30
0.0
 11
140.8437397443701
 21
127.5033191869021
 31
0.0
  0
ARC
  5
D9A0
330
2
100
AcDbEntity
  8
0
100
AcDbCircle
 10
140.8437397443701
 20
127.0033191869021
 30
0.0
 40
0.5
100
AcDbArc
 50
0.0
 51
90.0
  0
LINE
  5
D9A1
330
2
100
AcDbEntity
  8
0
100
AcDbLine
 10
141.3437397443702
 20
127.0033191869021
 30
0.0
 11
141.3437397443702
 21
126.5033191869021
 31
0.0
  0
LINE
  5
D9A2
330
2
100
AcDbEntity
  8
0
100
AcDbLine
 10
141.3437397443702
 20
126.5033191869021
 30
0.0
 11
149.9437397443719
 21
126.5033191869021
 31
0.0
  0
LINE
  5
D9A3
330
2
100
AcDbEntity
  8
0
100
AcDbLine
 10
149.9437397443719
 20
126.5033191869021
 30
0.0
 11
149.9437397443716
 21
130.4033191869021
 31
0.0
  0
ARC
  5
D9A4
330
2
100
AcDbEntity
  8
0
100
AcDbCircle
 10
150.4437397443716
 20
130.4033191869021
 30
0.0
 40
0.5
100
AcDbArc
 50
90.0
 51
180.0
  0
LINE
  5
D9A5
330
2
100
AcDbEntity
  8
0
100
AcDbLine
 10
150.4437397443716
 20
130.9033191869021
 30
0.0
 11
154.2437397443721
 21
130.9033191869021
 31
0.0
  0
LINE
  5
D9A6
330
2
100
AcDbEntity
  8
0
100
AcDbLine
 10
154.2437397443744
 20
130.9033191869021
 30
0.0
 11
154.2437397443747
 21
138.9291381868046
 31
0.0
  0
LINE
  5
D9A7
330
2
100
AcDbEntity
  8
0
100
AcDbLine
 10
154.2437397443747
 20
138.9291381868046
 30
0.0
 11
144.5227645905901
 21
139.781855305558
 31
0.0
  0
LINE
  5
D9A8
330
2
100
AcDbEntity
  8
0
100
AcDbLine
 10
144.5227645905901
 20
139.781855305558
 30
0.0
 11
141.0018536273787
 21
138.6082183178209
 31
0.0
  0
LINE
  5
D9A9
330
2
100
AcDbEntity
  8
0
100
AcDbLine
 10
140.3437397443704
 20
139.0825599668461
 30
0.0
 11
140.34373974437
 21
140.8033191869022
 31
0.0
  0
LINE
  5
D9AA
330
2
100
AcDbEntity
  8
0
100
AcDbLine
 10
140.34373974437
 20
140.8033191869022
 30
0.0
 11
140.8437397443701
 21
140.8033191869023
 31
0.0
  0
LINE
  5
D9AB
330
2
100
AcDbEntity
  8
0
100
AcDbLine
 10
141.3437397443703
 20
140.3033191869023
 30
0.0
 11
141.3437397443702
 21
140.3033191869022
 31
0.0
  0
LINE
  5
D9AC
330
2
100
AcDbEntity
  8
0
100
AcDbLine
 10
141.8437397443722
 20
146.3033191869019
 30
0.0
 11
141.3437397443722
 21
146.3033191869019
 31
0.0
  0
LINE
  5
D9AD
330
2
100
AcDbEntity
  8
0
100
AcDbLine
 10
141.3437397443702
 20
140.3040670918548
 30
0.0
 11
141.3437397443702
 21
140.3033191869018
 31
0.0
  0
ARC
  5
D9AE
330
2
100
AcDbEntity
  8
0
100
AcDbCircle
 10
154.2437397443747
 20
138.9291381868045
 30
0.0
 40
1.500000000000009
100
AcDbArc
 50
0.0000000000032569
 51
84.98688624496372
  0
LINE
  5
D9AF
330
2
100
AcDbEntity
  8
0
100
AcDbLine
 10
155.7437397443744
 20
144.7033191869024
 30
0.0
 11
155.7437397443747
 21
138.9291381868045
 31
0.0
  0
ARC
  5
D9B0
330
2
100
AcDbEntity
  8
0
100
AcDbCircle
 10
140.8437397443704
 20
139.0825599668457
 30
0.0
 40
0.4999999999999673
100
AcDbArc
 50
180.0000000000081
 51
288.434948822921
  0
ARC
  5
D9B1
330
2
100
AcDbEntity
  8
0
100
AcDbCircle
 10
140.8437397443704
 20
140.3033191869019
 30
0.0
 40
0.5000000000000142
100
AcDbArc
 50
0.0000000000032569
 51
90.00000000001953
  0
LINE
  5
D9B2
330
2
100
AcDbEntity
  8
0
100
AcDbLine
 10
141.3437397443704
 20
140.3033191869019
 30
0.0
 11
141.3437397443702
 21
140.3033191869018
 31
0.0
  0
ARC
  5
D9B3
330
2
100
AcDbEntity
  8
0
100
AcDbCircle
 10
140.8437397443723
 20
142.8033191869019
 30
0.0
 40
0.5
100
AcDbArc
 50
270.0000000000065
 51
0.0000000000016284
  0
ARC
  5
D9B4
330
2
100
AcDbEntity
  8
0
100
AcDbCircle
 10
140.8437397443724
 20
141.8033191869018
 30
0.0
 40
0.5
100
AcDbArc
 50
180.0000000000032
 51
270.0000000000065
  0
LINE
  5
D9B5
330
2
100
AcDbEntity
  8
0
100
AcDbLine
 10
157.3437397443745
 20
96.80331918690246
 30
0.0
 11
157.3437397443749
 21
143.3033191869032
 31
0.0
  0
LINE
  5
D9B6
330
2
100
AcDbEntity
  8
0
100
AcDbLine
 10
141.3437397443731
 20
96.30331918690202
 30
0.0
 11
156.8437397443756
 21
96.30331918690245
 31
0.0
  0
ARC
  5
D9B7
330
2
100
AcDbEntity
  8
0
100
AcDbCircle
 10
156.8437397443756
 20
96.80331918690246
 30
0.0
 40
0.5
100
AcDbArc
 50
270.0000000000065
 51
0.0000000000016284
  0
LINE
  5
D9B8
330
2
100
AcDbEntity
  8
0
 48
2.0
100
AcDbLine
 10
177.3437397443727
 20
128.1371779086734
 30
0.0
 11
177.3437397443727
 21
145.8033191869024
 31
0.0
  0
ARC
  5
D9B9
330
2
100
AcDbEntity
  8
0
 48
2.0
100
AcDbCircle
 10
175.3437397443726
 20
128.1371779086734
 30
0.0
 40
2.0
100
AcDbArc
 50
292.5990272546574
 51
0.0
  0
LINE
  5
D9BA
330
2
100
AcDbEntity
  8
0
 48
2.0
100
AcDbLine
 10
170.2009218069008
 20
123.8301933274142
 30
0.0
 11
176.1122990417773
 21
126.2907444258821
 31
0.0
  0
ARC
  5
D9BB
330
2
100
AcDbEntity
  8
0
 48
2.0
100
AcDbCircle
 10
170.066423929855
 20
124.1533191869027
 30
0.0
 40
0.3500000000000013
100
AcDbArc
 50
112.5990272546573
 51
292.5990272546574
  0
LINE
  5
D9BC
330
2
100
AcDbEntity
  8
0
 48
2.0
100
AcDbLine
 10
175.8433032876855
 20
126.9369961448591
 30
0.0
 11
169.9319260528092
 21
124.4764450463911
 31
0.0
  0
ARC
  5
D9BD
330
2
100
AcDbEntity
  8
0
 48
2.0
100
AcDbCircle
 10
175.3437397443726
 20
128.1371779086734
 30
0.0
 40
1.299999999999997
100
AcDbArc
 50
292.5990272546574
 51
0.0
  0
LINE
  5
D9BE
330
2
100
AcDbEntity
  8
0
 48
2.0
100
AcDbLine
 10
176.6437397443726
 20
129.7033191869027
 30
0.0
 11
176.6437397443726
 21
128.1371779086734
 31
0.0
  0
ARC
  5
D9BF
330
2
100
AcDbEntity
  8
0
 48
2.0
100
AcDbCircle
 10
175.6437397443726
 20
129.7033191869027
 30
0.0
 40
1.0
100
AcDbArc
 50
0.0
 51
90.0
  0
LINE
  5
D9C0
330
2
100
AcDbEntity
  8
0
 48
2.0
100
AcDbLine
 10
169.5437397443727
 20
130.7033191869027
 30
0.0
 11
175.6437397443726
 21
130.7033191869027
 31
0.0
  0
LINE
  5
D9C1
330
2
100
AcDbEntity
  8
0
 48
2.0
100
AcDbLine
 10
169.5437397443727
 20
130.0533191869027
 30
0.0
 11
169.5437397443727
 21
130.7033191869027
 31
0.0
  0
LINE
  5
D9C2
330
2
100
AcDbEntity
  8
0
 48
2.0
100
AcDbLine
 10
168.8437397443727
 20
131.8033191869028
 30
0.0
 11
168.8437397443727
 21
130.0533191869027
 31
0.0
  0
LINE
  5
D9C3
330
2
100
AcDbEntity
  8
0
 48
2.0
100
AcDbLine
 10
169.1937397443727
 20
129.7033191869027
 30
0.0
 11
169.1937397443727
 21
129.7033191869027
 31
0.0
  0
ARC
  5
D9C4
330
2
100
AcDbEntity
  8
0
100
AcDbCircle
 10
139.652785352
 20
143.6033191869018
 30
0.0
 40
0.3000000000000107
100
AcDbArc
 50
185.1279908831091
 51
5.127990883107502
  0
ARC
  5
D9C5
330
2
100
AcDbEntity
  8
0
100
AcDbCircle
 10
141.9037397443725
 20
143.8053199875425
 30
0.0
 40
1.960000000000029
100
AcDbArc
 50
106.6015495990229
 51
185.127990883096
  0
ARC
  5
D9C6
330
2
100
AcDbEntity
  8
0
100
AcDbCircle
 10
141.9037397443724
 20
143.8053199875425
 30
0.0
 40
2.560000000000035
100
AcDbArc
 50
102.6356250930213
 51
185.1279908830992
  0
ARC
  5
D9C7
330
2
100
AcDbEntity
  8
0
100
AcDbCircle
 10
139.6527853520014
 20
99.00331918690184
 30
0.0
 40
0.3000000000000647
100
AcDbArc
 50
354.8720091168974
 51
174.8720091168974
  0
ARC
  5
D9C8
330
2
100
AcDbEntity
  8
0
100
AcDbCircle
 10
141.9037397443738
 20
98.80131838626128
 30
0.0
 40
1.960000000000074
100
AcDbArc
 50
174.8720091169072
 51
253.3984504009771
  0
ARC
  5
D9C9
330
2
100
AcDbEntity
  8
0
100
AcDbCircle
 10
141.9037397443737
 20
98.80131838626127
 30
0.0
 40
2.559999999999996
100
AcDbArc
 50
174.872009116904
 51
257.3643749069788
  0
ARC
  5
D9CA
330
2
100
AcDbEntity
  8
0
 48
2.0
100
AcDbCircle
 10
169.1937397443727
 20
130.0533191869027
 30
0.0
 40
0.35
100
AcDbArc
 50
180.0
 51
0.0
  0
LINE
  5
D9CB
330
2
100
AcDbEntity
  8
0
100
AcDbLine
 10
222.9437397443758
 20
126.8033191869024
 30
0.0
 11
171.3437397443756
 21
126.8033191869024
 31
0.0
  0
ARC
  5
D9CC
330
2
100
AcDbEntity
  8
0
100
AcDbCircle
 10
171.3437397443756
 20
123.8033191869024
 30
0.0
 40
3.0
100
AcDbArc
 50
90.0
 51
180.0
  0
LINE
  5
D9CD
330
2
100
AcDbEntity
  8
0
100
AcDbLine
 10
168.3437397443756
 20
123.8033191869024
 30
0.0
 11
168.3437397443754
 21
123.8033191869038
 31
0.0
  0
LINE
  5
D9CE
330
2
100
AcDbEntity
  8
0
100
AcDbLine
 10
168.3437397443754
 20
123.8033191869038
 30
0.0
 11
169.8437397443754
 21
123.8033191869039
 31
0.0
  0
LINE
  5
D9CF
330
2
100
AcDbEntity
  8
0
100
AcDbLine
 10
206.8437397443754
 20
124.2033191869023
 30
0.0
 11
221.8437397443752
 21
124.2033191869023
 31
0.0
  0
LINE
  5
D9D0
330
2
100
AcDbEntity
  8
0
100
AcDbLine
 10
169.8437397443754
 20
123.8033191869039
 30
0.0
 11
169.8437397443754
 21
108.5033191869062
 31
0.0
  0
LINE
  5
D9D1
330
2
100
AcDbEntity
  8
0
100
AcDbLine
 10
167.3437397443754
 20
108.0033191869062
 30
0.0
 11
167.3437397443754
 21
107.5094831605316
 31
0.0
  0
LINE
  5
D9D2
330
2
100
AcDbEntity
  8
0
100
AcDbLine
 10
165.6603682940251
 20
105.5033191869062
 30
0.0
 11
163.8437397443754
 21
105.5033191869062
 31
0.0
  0
LINE
  5
D9D3
330
2
100
AcDbEntity
  8
0
100
AcDbLine
 10
169.8437397443754
 20
108.5033191869062
 30
0.0
 11
167.8437397443754
 21
108.5033191869062
 31
0.0
  0
ARC
  5
D9D4
330
2
100
AcDbEntity
  8
0
100
AcDbCircle
 10
167.8437397443754
 20
108.0033191869062
 30
0.0
 40
0.5
100
AcDbArc
 50
90.0
 51
180.0
  0
LINE
  5
D9D5
330
2
100
AcDbEntity
  8
0
100
AcDbLine
 10
165.6603682940251
 20
105.5033191869062
 30
0.0
 11
167.3437397443754
 21
107.5094831605316
 31
0.0
  0
ARC
  5
D9D6
330
2
100
AcDbEntity
  8
0
100
AcDbCircle
 10
163.8437397443754
 20
105.0033191869062
 30
0.0
 40
0.5
100
AcDbArc
 50
90.0
 51
179.9999999999772
  0
LINE
  5
D9D7
330
2
100
AcDbEntity
  8
0
100
AcDbLine
 10
206.8437397443754
 20
109.8033191869018
 30
0.0
 11
221.8437397443754
 21
109.8033191869025
 31
0.0
  0
LINE
  5
D9D8
330
2
100
AcDbEntity
  8
0
100
AcDbLine
 10
221.8437397443754
 20
109.8033191869025
 30
0.0
 11
221.8437397443754
 21
102.303319186902
 31
0.0
  0
LINE
  5
D9D9
330
2
100
AcDbEntity
  8
0
100
AcDbLine
 10
221.8437397443754
 20
102.303319186902
 30
0.0
 11
223.0437397443755
 21
102.303319186902
 31
0.0
  0
ARC
  5
D9DA
330
2
100
AcDbEntity
  8
0
100
AcDbCircle
 10
223.0437397443757
 20
102.0033191869021
 30
0.0
 40
0.2999999999998692
100
AcDbArc
 50
0.0
 51
90.00000000002605
  0
LINE
  5
D9DB
330
2
100
AcDbEntity
  8
0
100
AcDbLine
 10
223.3437397443754
 20
102.0033191869021
 30
0.0
 11
223.3437397443756
 21
101.5633191869019
 31
0.0
  0
ARC
  5
D9DC
330
2
100
AcDbEntity
  8
0
100
AcDbCircle
 10
223.0756780090151
 20
101.5695442661642
 30
0.0
 40
0.2681340067509704
100
AcDbArc
 50
263.1590819105916
 51
358.6696845294767
  0
ARC
  5
D9DD
330
2
100
AcDbEntity
  8
0
100
AcDbCircle
 10
165.3037397443743
 20
103.2633191869021
 30
0.0
 40
1.959999999999999
100
AcDbArc
 50
179.9999999998599
 51
270.0
  0
LINE
  5
D9DE
330
2
100
AcDbEntity
  8
0
100
AcDbLine
 10
223.0437397443759
 20
101.303319186902
 30
0.0
 11
165.3037397443743
 21
101.303319186902
 31
0.0
  0
LINE
  5
D9DF
330
2
100
AcDbEntity
  8
0
100
AcDbLine
 10
163.3437397443761
 20
105.0033191869062
 30
0.0
 11
163.3437397443761
 21
103.2633191869021
 31
0.0
  0
LINE
  5
D9E0
330
2
100
AcDbEntity
  8
0
100
AcDbLine
 10
206.8437397443754
 20
109.8033191869025
 30
0.0
 11
206.8437397443754
 21
111.1033191869023
 31
0.0
  0
ARC
  5
D9E1
330
2
100
AcDbEntity
  8
0
100
AcDbCircle
 10
206.4437397443753
 20
111.1033191869023
 30
0.0
 40
0.3999999999999915
100
AcDbArc
 50
0.0
 51
180.0
  0
LINE
  5
D9E2
330
2
100
AcDbEntity
  8
0
100
AcDbLine
 10
206.0437397443755
 20
111.1033191869023
 30
0.0
 11
206.0437397443755
 21
109.8033191869025
 31
0.0
  0
LINE
  5
D9E3
330
2
100
AcDbEntity
  8
0
100
AcDbLine
 10
206.0437397443755
 20
124.2033191869023
 30
0.0
 11
206.0437397443752
 21
122.9033191869024
 31
0.0
  0
ARC
  5
D9E4
330
2
100
AcDbEntity
  8
0
100
AcDbCircle
 10
206.4437397443753
 20
122.9033191869024
 30
0.0
 40
0.3999999999999915
100
AcDbArc
 50
180.0
 51
0.0
  0
LINE
  5
D9E5
330
2
100
AcDbEntity
  8
0
100
AcDbLine
 10
206.8437397443754
 20
122.9033191869024
 30
0.0
 11
206.8437397443754
 21
124.2033191869023
 31
0.0
  0
LINE
  5
D9E6
330
2
100
AcDbEntity
  8
0
100
AcDbLine
 10
221.8437397443752
 20
124.2033191869023
 30
0.0
 11
221.8437397443754
 21
126.0033191869023
 31
0.0
  0
LINE
  5
D9E7
330
2
100
AcDbEntity
  8
0
100
AcDbLine
 10
221.8437397443754
 20
126.0033191869023
 30
0.0
 11
222.9437397443753
 21
126.0033191869023
 31
0.0
  0
ARC
  5
D9E8
330
2
100
AcDbEntity
  8
0
100
AcDbCircle
 10
222.9437397443758
 20
126.4033191869023
 30
0.0
 40
0.4000000000000341
100
AcDbArc
 50
269.9999999999349
 51
90.00000000002605
  0
LINE
  5
D9E9
330
2
100
AcDbEntity
  8
0
100
AcDbLine
 10
206.0437397443755
 20
109.8033191869025
 30
0.0
 11
204.2437397443753
 21
109.8033191869025
 31
0.0
  0
LINE
  5
D9EA
330
2
100
AcDbEntity
  8
0
100
AcDbLine
 10
204.2437397443753
 20
109.8033191869025
 30
0.0
 11
204.2437397443753
 21
124.2033191869023
 31
0.0
  0
LINE
  5
D9EB
330
2
100
AcDbEntity
  8
0
100
AcDbLine
 10
204.2437397443753
 20
124.2033191869023
 30
0.0
 11
206.0437397443755
 21
124.2033191869023
 31
0.0
  0
LINE
  5
D9EC
330
2
100
AcDbEntity
  8
0
100
AcDbLine
 10
201.3443259829764
 20
139.3033191869027
 30
0.0
 11
182.3443259829749
 21
139.3033191869025
 31
0.0
1001
AcDbBlockRepETag
1070
     1
1071
        0
1005
D9EC
  0
LINE
  5
D9ED
330
2
100
AcDbEntity
  8
0
100
AcDbLine
 10
200.3443259829758
 20
130.8033191869032
 30
0.0
 11
183.3443259829764
 21
130.803319186902
 31
0.0
1001
AcDbBlockRepETag
1070
     1
1071
        3
1005
D9ED
  0
LINE
  5
D9EE
330
2
100
AcDbEntity
  8
0
100
AcDbLine
 10
201.3443259829743
 20
126.8033191869024
 30
0.0
 11
182.3443259829764
 21
126.8033191869031
 31
0.0
1001
AcDbBlockRepETag
1070
     1
1071
        4
1005
D9EE
  0
LINE
  5
D9EF
330
2
100
AcDbEntity
  8
0
100
AcDbLine
 10
201.3443259829743
 20
126.8033191869024
 30
0.0
 11
201.3443259829764
 21
139.3033191869027
 31
0.0
1001
AcDbBlockRepETag
1070
     1
1071
        5
1005
D9EF
  0
ARC
  5
D9F0
330
2
100
AcDbEntity
  8
0
100
AcDbCircle
 10
200.3443259829751
 20
129.8033191869029
 30
0.0
 40
0.9999999999999971
100
AcDbArc
 50
359.9999913485721
 51
90.00000068323647
1001
AcDbBlockRepETag
1070
     1
1071
        6
1005
D9F0
  0
LINE
  5
D9F1
330
2
100
AcDbEntity
  8
0
100
AcDbLine
 10
182.3443259829764
 20
126.8033191869031
 30
0.0
 11
182.3443259829749
 21
139.3033191869025
 31
0.0
1001
AcDbBlockRepETag
1070
     1
1071
        7
1005
D9F1
  0
ARC
  5
D9F2
330
2
100
AcDbEntity
  8
0
100
AcDbCircle
 10
183.3443259829757
 20
129.8033191869027
 30
0.0
 40
1.000000000000001
100
AcDbArc
 50
89.99999749555085
 51
180.0000086514018
1001
AcDbBlockRepETag
1070
     1
1071
        8
1005
D9F2
  0
ARC
  5
D9F3
330
2
100
AcDbEntity
  8
0
100
AcDbCircle
 10
183.3443259829755
 20
146.1420948216684
 30
0.0
 40
1.000000000000001
100
AcDbArc
 50
113.0513190386011
 51
179.999991348572
1001
AcDbBlockRepETag
1070
     1
1071
        9
1005
D9F3
  0
LINE
  5
D9F4
330
2
100
AcDbEntity
  8
0
100
AcDbLine
 10
182.3443259829764
 20
126.8033191869031
 30
0.0
 11
182.3443259829764
 21
146.142094821669
 31
0.0
1001
AcDbBlockRepETag
1070
     1
1071
       10
1005
D9F4
  0
LINE
  5
D9F5
330
2
100
AcDbEntity
  8
0
100
AcDbLine
 10
201.3443107241863
 20
139.3033497044805
 30
0.0
 11
215.5403022402976
 21
156.4364368626831
 31
0.0
1001
AcDbBlockRepETag
1070
     1
1071
       11
1005
D9F5
  0
LINE
  5
D9F6
330
2
100
AcDbEntity
  8
0
100
AcDbLine
 10
205.8443336123677
 20
156.8033497044809
 30
0.0
 11
182.9527930850279
 21
147.062291354872
 31
0.0
1001
AcDbBlockRepETag
1070
     1
1071
       12
1005
D9F6
  0
ARC
  5
D9F7
330
2
100
AcDbEntity
  8
ALH
 48
0.5
100
AcDbCircle
 10
214.6245460147154
 20
157.8033191869035
 30
0.0
 40
1.000000000000001
100
AcDbArc
 50
269.9999956742926
 51
11.3099376706666
1001
AcDbBlockRepETag
1070
     1
1071
       13
1005
D9F7
  0
ARC
  5
D9F8
330
2
100
AcDbEntity
  8
0
100
AcDbCircle
 10
214.7702979678371
 20
157.0744373509653
 30
0.0
 40
0.9999999999999936
100
AcDbArc
 50
320.3558248774408
 51
11.3099376706666
1001
AcDbBlockRepETag
1070
     1
1071
       14
1005
D9F8
  0
LINE
  5
D9F9
330
2
100
AcDbEntity
  8
ALH
100
AcDbLine
 10
207.0641822451821
 20
156.8033191869029
 30
0.0
 11
214.6245460147129
 21
156.8033191869021
 31
0.0
1001
AcDbBlockRepETag
1070
     1
1071
       15
1005
D9F9
  0
ARC
  5
D9FA
330
2
100
AcDbEntity
  8
ALH
 48
0.5
100
AcDbCircle
 10
207.0641822451819
 20
157.8033191869023
 30
0.0
 40
0.9999999999999948
100
AcDbArc
 50
168.6900622156557
 51
269.9999956742926
1001
AcDbBlockRepETag
1070
     1
1071
       16
1005
D9FA
  0
LINE
  5
D9FB
330
2
100
AcDbEntity
  8
0
100
AcDbLine
 10
213.0051154727232
 20
170.9994861790903
 30
0.0
 11
215.7508887881499
 21
157.2706043431523
 31
0.0
1001
AcDbBlockRepETag
1070
     1
1071
       17
1005
D9FB
  0
LINE
  5
D9FC
330
2
100
AcDbEntity
  8
0
100
AcDbLine
 10
205.8443336123706
 20
156.8033191869027
 30
0.0
 11
208.6835517520181
 21
170.9994251439337
 31
0.0
1001
AcDbBlockRepETag
1070
     1
1071
       18
1005
D9FC
  0
ARC
  5
D9FD
330
2
100
AcDbEntity
  8
0
100
AcDbCircle
 10
212.0245704287753
 20
170.8033497044808
 30
0.0
 40
0.9999999999999996
100
AcDbArc
 50
11.3099276527653
 51
90.00000432573349
1001
AcDbBlockRepETag
1070
     1
1071
       19
1005
D9FD
  0
ARC
  5
D9FE
330
2
100
AcDbEntity
  8
0
100
AcDbCircle
 10
209.6641578311202
 20
170.8033497044799
 30
0.0
 40
1.000000000000001
100
AcDbArc
 50
90.00000432573349
 51
168.6900724609206
1001
AcDbBlockRepETag
1070
     1
1071
       20
1005
D9FE
  0
LINE
  5
D9FF
330
2
100
AcDbEntity
  8
0
100
AcDbLine
 10
209.6641578311185
 20
171.8033497044803
 30
0.0
 11
212.0245704287778
 21
171.8033497044806
 31
0.0
1001
AcDbBlockRepETag
1070
     1
1071
       21
1005
D9FF
  0
LINE
  5
DA00
330
2
100
AcDbEntity
  8
0
100
AcDbLine
 10
201.3443259829764
 20
88.80331918690208
 30
0.0
 11
182.3443259829749
 21
88.80331918690231
 31
0.0
1001
AcDbBlockRepETag
1070
     1
1071
        0
1005
DA00
  0
LINE
  5
DA01
330
2
100
AcDbEntity
  8
0
100
AcDbLine
 10
200.3443259829758
 20
97.30331918690158
 30
0.0
 11
183.3443259829764
 21
97.30331918690277
 31
0.0
1001
AcDbBlockRepETag
1070
     1
1071
        3
1005
DA01
  0
LINE
  5
DA02
330
2
100
AcDbEntity
  8
0
100
AcDbLine
 10
201.3443259829743
 20
101.3033191869024
 30
0.0
 11
182.3443259829764
 21
101.3033191869017
 31
0.0
1001
AcDbBlockRepETag
1070
     1
1071
        4
1005
DA02
  0
LINE
  5
DA03
330
2
100
AcDbEntity
  8
0
100
AcDbLine
 10
201.3443259829743
 20
101.3033191869024
 30
0.0
 11
201.3443259829764
 21
88.80331918690208
 31
0.0
1001
AcDbBlockRepETag
1070
     1
1071
        5
1005
DA03
  0
ARC
  5
DA04
330
2
100
AcDbEntity
  8
0
100
AcDbCircle
 10
200.3443259829751
 20
98.30331918690191
 30
0.0
 40
0.9999999999999971
100
AcDbArc
 50
269.9999993167635
 51
0.0000086514279086
1001
AcDbBlockRepETag
1070
     1
1071
        6
1005
DA04
  0
LINE
  5
DA05
330
2
100
AcDbEntity
  8
0
100
AcDbLine
 10
182.3443259829764
 20
101.3033191869017
 30
0.0
 11
182.3443259829749
 21
88.80331918690231
 31
0.0
1001
AcDbBlockRepETag
1070
     1
1071
        7
1005
DA05
  0
ARC
  5
DA06
330
2
100
AcDbEntity
  8
0
100
AcDbCircle
 10
183.3443259829757
 20
98.30331918690214
 30
0.0
 40
1.000000000000001
100
AcDbArc
 50
179.9999913485981
 51
270.0000025044492
1001
AcDbBlockRepETag
1070
     1
1071
        8
1005
DA06
  0
ARC
  5
DA07
330
2
100
AcDbEntity
  8
0
100
AcDbCircle
 10
183.3443259829755
 20
81.96454355213646
 30
0.0
 40
1.000000000000001
100
AcDbArc
 50
180.0000086514279
 51
246.9486809613988
1001
AcDbBlockRepETag
1070
     1
1071
        9
1005
DA07
  0
LINE
  5
DA08
330
2
100
AcDbEntity
  8
0
100
AcDbLine
 10
182.3443259829764
 20
101.3033191869017
 30
0.0
 11
182.3443259829764
 21
81.96454355213578
 31
0.0
1001
AcDbBlockRepETag
1070
     1
1071
       10
1005
DA08
  0
LINE
  5
DA09
330
2
100
AcDbEntity
  8
0
100
AcDbLine
 10
201.3443107241863
 20
88.8032886693243
 30
0.0
 11
215.5403022402976
 21
71.67020151112175
 31
0.0
1001
AcDbBlockRepETag
1070
     1
1071
       11
1005
DA09
  0
LINE
  5
DA0A
330
2
100
AcDbEntity
  8
0
100
AcDbLine
 10
205.8443336123677
 20
71.30328866932384
 30
0.0
 11
182.9527930850279
 21
81.04434701893282
 31
0.0
1001
AcDbBlockRepETag
1070
     1
1071
       12
1005
DA0A
  0
ARC
  5
DA0B
330
2
100
AcDbEntity
  8
ALH
 48
0.5
100
AcDbCircle
 10
214.6245460147154
 20
70.30331918690134
 30
0.0
 40
1.000000000000001
100
AcDbArc
 50
348.6900623293334
 51
90.00000432570741
1001
AcDbBlockRepETag
1070
     1
1071
       13
1005
DA0B
  0
ARC
  5
DA0C
330
2
100
AcDbEntity
  8
0
100
AcDbCircle
 10
214.7702979678371
 20
71.03220102283953
 30
0.0
 40
0.9999999999999936
100
AcDbArc
 50
348.6900623293334
 51
39.6441751225592
1001
AcDbBlockRepETag
1070
     1
1071
       14
1005
DA0C
  0
LINE
  5
DA0D
330
2
100
AcDbEntity
  8
ALH
100
AcDbLine
 10
207.0641822451821
 20
71.30331918690192
 30
0.0
 11
214.6245460147129
 21
71.30331918690266
 31
0.0
1001
AcDbBlockRepETag
1070
     1
1071
       15
1005
DA0D
  0
ARC
  5
DA0E
330
2
100
AcDbEntity
  8
ALH
 48
0.5
100
AcDbCircle
 10
207.0641822451819
 20
70.30331918690248
 30
0.0
 40
0.9999999999999948
100
AcDbArc
 50
90.00000432570741
 51
191.3099377843442
1001
AcDbBlockRepETag
1070
     1
1071
       16
1005
DA0E
  0
LINE
  5
DA0F
330
2
100
AcDbEntity
  8
0
100
AcDbLine
 10
213.0051154727232
 20
57.10715219471447
 30
0.0
 11
215.7508887881499
 21
70.83603403065254
 31
0.0
1001
AcDbBlockRepETag
1070
     1
1071
       17
1005
DA0F
  0
LINE
  5
DA10
330
2
100
AcDbEntity
  8
0
100
AcDbLine
 10
205.8443336123706
 20
71.30331918690209
 30
0.0
 11
208.6835517520181
 21
57.10721322987106
 31
0.0
1001
AcDbBlockRepETag
1070
     1
1071
       18
1005
DA10
  0
ARC
  5
DA11
330
2
100
AcDbEntity
  8
0
100
AcDbCircle
 10
212.0245704287753
 20
57.30328866932402
 30
0.0
 40
0.9999999999999996
100
AcDbArc
 50
269.9999956742665
 51
348.6900723472347
1001
AcDbBlockRepETag
1070
     1
1071
       19
1005
DA11
  0
ARC
  5
DA12
330
2
100
AcDbEntity
  8
0
100
AcDbCircle
 10
209.6641578311202
 20
57.30328866932487
 30
0.0
 40
1.000000000000001
100
AcDbArc
 50
191.3099275390793
 51
269.9999956742665
1001
AcDbBlockRepETag
1070
     1
1071
       20
1005
DA12
  0
LINE
  5
DA13
330
2
100
AcDbEntity
  8
0
100
AcDbLine
 10
209.6641578311185
 20
56.30328866932453
 30
0.0
 11
212.0245704287778
 21
56.30328866932419
 31
0.0
1001
AcDbBlockRepETag
1070
     1
1071
       21
1005
DA13
  0
LINE
  5
DA14
330
2
100
AcDbEntity
  8
0
100
AcDbLine
 10
286.5437397443761
 20
126.8033191869024
 30
0.0
 11
338.1437397443763
 21
126.8033191869024
 31
0.0
  0
ARC
  5
DA15
330
2
100
AcDbEntity
  8
0
100
AcDbCircle
 10
338.1437397443763
 20
123.8033191869024
 30
0.0
 40
3.0
100
AcDbArc
 50
0.0
 51
90.0
  0
LINE
  5
DA16
330
2
100
AcDbEntity
  8
0
100
AcDbLine
 10
341.1437397443763
 20
123.8033191869024
 30
0.0
 11
341.1437397443765
 21
123.8033191869038
 31
0.0
  0
LINE
  5
DA17
330
2
100
AcDbEntity
  8
0
100
AcDbLine
 10
341.1437397443765
 20
123.8033191869038
 30
0.0
 11
339.6437397443765
 21
123.8033191869039
 31
0.0
  0
LINE
  5
DA18
330
2
100
AcDbEntity
  8
0
100
AcDbLine
 10
302.6437397443765
 20
124.2033191869023
 30
0.0
 11
287.6437397443767
 21
124.2033191869023
 31
0.0
  0
LINE
  5
DA19
330
2
100
AcDbEntity
  8
0
100
AcDbLine
 10
339.6437397443765
 20
123.8033191869039
 30
0.0
 11
339.6437397443765
 21
108.5033191869062
 31
0.0
  0
LINE
  5
DA1A
330
2
100
AcDbEntity
  8
0
100
AcDbLine
 10
342.1437397443765
 20
108.0033191869062
 30
0.0
 11
342.1437397443765
 21
107.5094831605316
 31
0.0
  0
LINE
  5
DA1B
330
2
100
AcDbEntity
  8
0
100
AcDbLine
 10
343.8271111947267
 20
105.5033191869062
 30
0.0
 11
345.6437397443765
 21
105.5033191869062
 31
0.0
  0
LINE
  5
DA1C
330
2
100
AcDbEntity
  8
0
100
AcDbLine
 10
339.6437397443765
 20
108.5033191869062
 30
0.0
 11
341.6437397443765
 21
108.5033191869062
 31
0.0
  0
ARC
  5
DA1D
330
2
100
AcDbEntity
  8
0
100
AcDbCircle
 10
341.6437397443765
 20
108.0033191869062
 30
0.0
 40
0.5
100
AcDbArc
 50
0.0
 51
90.0
  0
LINE
  5
DA1E
330
2
100
AcDbEntity
  8
0
100
AcDbLine
 10
343.8271111947267
 20
105.5033191869062
 30
0.0
 11
342.1437397443765
 21
107.5094831605316
 31
0.0
  0
ARC
  5
DA1F
330
2
100
AcDbEntity
  8
0
100
AcDbCircle
 10
345.6437397443765
 20
105.0033191869062
 30
0.0
 40
0.5
100
AcDbArc
 50
0.0000000000227982
 51
90.0
  0
LINE
  5
DA20
330
2
100
AcDbEntity
  8
0
100
AcDbLine
 10
302.6437397443765
 20
109.8033191869018
 30
0.0
 11
287.6437397443765
 21
109.8033191869025
 31
0.0
  0
LINE
  5
DA21
330
2
100
AcDbEntity
  8
0
100
AcDbLine
 10
287.6437397443765
 20
109.8033191869025
 30
0.0
 11
287.6437397443765
 21
102.303319186902
 31
0.0
  0
LINE
  5
DA22
330
2
100
AcDbEntity
  8
0
100
AcDbLine
 10
287.6437397443765
 20
102.303319186902
 30
0.0
 11
286.4437397443765
 21
102.303319186902
 31
0.0
  0
ARC
  5
DA23
330
2
100
AcDbEntity
  8
0
100
AcDbCircle
 10
286.4437397443762
 20
102.0033191869021
 30
0.0
 40
0.2999999999998692
100
AcDbArc
 50
89.99999999997395
 51
180.0
  0
LINE
  5
DA24
330
2
100
AcDbEntity
  8
0
100
AcDbLine
 10
286.1437397443765
 20
102.0033191869021
 30
0.0
 11
286.1437397443763
 21
101.5633191869019
 31
0.0
  0
ARC
  5
DA25
330
2
100
AcDbEntity
  8
0
100
AcDbCircle
 10
286.4118014797368
 20
101.5695442661642
 30
0.0
 40
0.2681340067509704
100
AcDbArc
 50
181.3303154705232
 51
276.8409180894084
  0
ARC
  5
DA26
330
2
100
AcDbEntity
  8
0
100
AcDbCircle
 10
344.1837397443776
 20
103.2633191869021
 30
0.0
 40
1.959999999999999
100
AcDbArc
 50
270.0
 51
0.0000000001400462
  0
LINE
  5
DA27
330
2
100
AcDbEntity
  8
0
100
AcDbLine
 10
286.4437397443761
 20
101.303319186902
 30
0.0
 11
344.1837397443776
 21
101.303319186902
 31
0.0
  0
LINE
  5
DA28
330
2
100
AcDbEntity
  8
0
100
AcDbLine
 10
346.1437397443758
 20
105.0033191869062
 30
0.0
 11
346.1437397443758
 21
103.2633191869021
 31
0.0
  0
LINE
  5
DA29
330
2
100
AcDbEntity
  8
0
100
AcDbLine
 10
302.6437397443765
 20
109.8033191869025
 30
0.0
 11
302.6437397443765
 21
111.1033191869023
 31
0.0
  0
ARC
  5
DA2A
330
2
100
AcDbEntity
  8
0
100
AcDbCircle
 10
303.0437397443766
 20
111.1033191869023
 30
0.0
 40
0.3999999999999915
100
AcDbArc
 50
0.0
 51
180.0
  0
LINE
  5
DA2B
330
2
100
AcDbEntity
  8
0
100
AcDbLine
 10
303.4437397443765
 20
111.1033191869023
 30
0.0
 11
303.4437397443765
 21
109.8033191869025
 31
0.0
  0
LINE
  5
DA2C
330
2
100
AcDbEntity
  8
0
100
AcDbLine
 10
303.4437397443765
 20
124.2033191869023
 30
0.0
 11
303.4437397443767
 21
122.9033191869024
 31
0.0
  0
ARC
  5
DA2D
330
2
100
AcDbEntity
  8
0
100
AcDbCircle
 10
303.0437397443766
 20
122.9033191869024
 30
0.0
 40
0.3999999999999915
100
AcDbArc
 50
180.0
 51
0.0
  0
LINE
  5
DA2E
330
2
100
AcDbEntity
  8
0
100
AcDbLine
 10
302.6437397443765
 20
122.9033191869024
 30
0.0
 11
302.6437397443765
 21
124.2033191869023
 31
0.0
  0
LINE
  5
DA2F
330
2
100
AcDbEntity
  8
0
100
AcDbLine
 10
287.6437397443767
 20
124.2033191869023
 30
0.0
 11
287.6437397443765
 21
126.0033191869023
 31
0.0
  0
LINE
  5
DA30
330
2
100
AcDbEntity
  8
0
100
AcDbLine
 10
287.6437397443765
 20
126.0033191869023
 30
0.0
 11
286.5437397443766
 21
126.0033191869023
 31
0.0
  0
ARC
  5
DA31
330
2
100
AcDbEntity
  8
0
100
AcDbCircle
 10
286.5437397443761
 20
126.4033191869023
 30
0.0
 40
0.4000000000000341
100
AcDbArc
 50
89.99999999997395
 51
270.0000000000652
  0
LINE
  5
DA32
330
2
100
AcDbEntity
  8
0
100
AcDbLine
 10
303.4437397443765
 20
109.8033191869025
 30
0.0
 11
305.2437397443766
 21
109.8033191869025
 31
0.0
  0
LINE
  5
DA33
330
2
100
AcDbEntity
  8
0
100
AcDbLine
 10
305.2437397443766
 20
109.8033191869025
 30
0.0
 11
305.2437397443766
 21
124.2033191869023
 31
0.0
  0
LINE
  5
DA34
330
2
100
AcDbEntity
  8
0
100
AcDbLine
 10
305.2437397443766
 20
124.2033191869023
 30
0.0
 11
303.4437397443765
 21
124.2033191869023
 31
0.0
  0
LINE
  5
DA35
330
2
100
AcDbEntity
  8
0
100
AcDbLine
 10
335.8437397443802
 20
143.3033191869029
 30
0.0
 11
353.3437397443774
 21
143.3033191869031
 31
0.0
  0
LINE
  5
DA36
330
2
100
AcDbEntity
  8
0
100
AcDbLine
 10
367.8437397443804
 20
141.3033191869023
 30
0.0
 11
365.5128109797275
 21
141.0045364997967
 31
0.0
  0
LINE
  5
DA37
330
2
100
AcDbEntity
  8
0
100
AcDbLine
 10
367.8437397443804
 20
141.9033191869022
 30
0.0
 11
365.4569075133737
 21
141.2987268440565
 31
0.0
  0
ARC
  5
DA38
330
2
100
AcDbEntity
  8
0
100
AcDbCircle
 10
365.4937397443804
 20
141.1533191869023
 30
0.0
 40
0.15
100
AcDbArc
 50
104.2142333460408
 51
277.3044455606132
  0
LINE
  5
DA39
330
2
100
AcDbEntity
  8
0
100
AcDbLine
 10
368.8437397443802
 20
146.3033191869023
 30
0.0
 11
369.3437397443802
 21
146.3033191869023
 31
0.0
  0
LINE
  5
DA3A
330
2
100
AcDbEntity
  8
0
100
AcDbLine
 10
335.8437397443801
 20
143.3033191869029
 30
0.0
 11
335.8437397443801
 21
136.6033191869027
 31
0.0
  0
LINE
  5
DA3B
330
2
100
AcDbEntity
  8
0
100
AcDbLine
 10
335.8437397443801
 20
136.6033191869027
 30
0.0
 11
341.84373974438
 21
136.6033191869024
 31
0.0
  0
ARC
  5
DA3C
330
2
100
AcDbEntity
  8
0
100
AcDbCircle
 10
341.84373974438
 20
136.1033191869024
 30
0.0
 40
0.5
100
AcDbArc
 50
0.0
 51
90.0
  0
LINE
  5
DA3D
330
2
100
AcDbEntity
  8
0
100
AcDbLine
 10
342.3437397443801
 20
136.1033191869024
 30
0.0
 11
342.3437397443801
 21
132.3033191869024
 31
0.0
  0
ARC
  5
DA3E
330
2
100
AcDbEntity
  8
0
100
AcDbCircle
 10
341.84373974438
 20
132.3033191869024
 30
0.0
 40
0.5
100
AcDbArc
 50
270.0
 51
0.0
  0
ARC
  5
DA3F
330
2
100
AcDbEntity
  8
0
100
AcDbCircle
 10
333.8437397443801
 20
145.8033191869024
 30
0.0
 40
0.5
100
AcDbArc
 50
90.0
 51
180.0
  0
LINE
  5
DA40
330
2
100
AcDbEntity
  8
0
100
AcDbLine
 10
333.8437397443801
 20
146.3033191869024
 30
0.0
 11
369.3437397443802
 21
146.3033191869023
 31
0.0
  0
LINE
  5
DA41
330
2
100
AcDbEntity
  8
0
100
AcDbLine
 10
369.3437397443801
 20
145.6836170886428
 30
0.0
 11
369.3437397443802
 21
142.8033191869022
 31
0.0
  0
LINE
  5
DA42
330
2
100
AcDbEntity
  8
0
100
AcDbLine
 10
369.8437397443802
 20
142.3033191869023
 30
0.0
 11
370.3437397443802
 21
142.3033191869023
 31
0.0
  0
LINE
  5
DA43
330
2
100
AcDbEntity
  8
0
100
AcDbLine
 10
370.3437397443802
 20
142.3033191869023
 30
0.0
 11
370.3437397443802
 21
141.8033191869023
 31
0.0
  0
LINE
  5
DA44
330
2
100
AcDbEntity
  8
0
100
AcDbLine
 10
369.8437397443802
 20
141.3033191869023
 30
0.0
 11
367.8437397443804
 21
141.3033191869023
 31
0.0
  0
LINE
  5
DA45
330
2
100
AcDbEntity
  8
0
100
AcDbLine
 10
367.8437397443804
 20
141.9033191869022
 30
0.0
 11
367.8437397443804
 21
144.7033191869023
 31
0.0
  0
LINE
  5
DA46
330
2
100
AcDbEntity
  8
0
100
AcDbLine
 10
367.8437397443804
 20
144.7033191869023
 30
0.0
 11
354.9437397443775
 21
144.7033191869024
 31
0.0
  0
LINE
  5
DA47
330
2
100
AcDbEntity
  8
0
100
AcDbLine
 10
370.3437397443802
 20
101.3033191869024
 30
0.0
 11
370.3437397443802
 21
100.3033191869024
 31
0.0
  0
LINE
  5
DA48
330
2
100
AcDbEntity
  8
0
100
AcDbLine
 10
370.3437397443802
 20
100.3033191869024
 30
0.0
 11
369.8437397443802
 21
100.3033191869024
 31
0.0
  0
ARC
  5
DA49
330
2
100
AcDbEntity
  8
0
100
AcDbCircle
 10
369.8437397443802
 20
99.80331918690241
 30
0.0
 40
0.5
100
AcDbArc
 50
90.0
 51
180.0
  0
LINE
  5
DA4A
330
2
100
AcDbEntity
  8
0
100
AcDbLine
 10
369.3437397443788
 20
99.80331918690199
 30
0.0
 11
369.3437397443802
 21
96.92302128516185
 31
0.0
  0
LINE
  5
DA4B
330
2
100
AcDbEntity
  8
0
100
AcDbLine
 10
369.3437397443822
 20
140.3040670918552
 30
0.0
 11
369.3437397443822
 21
140.3033191869022
 31
0.0
  0
LINE
  5
DA4C
330
2
100
AcDbEntity
  8
0
100
AcDbLine
 10
369.3437397443822
 20
140.3033191869022
 30
0.0
 11
366.3437397443822
 21
141.3033191869022
 31
0.0
  0
LINE
  5
DA4D
330
2
100
AcDbEntity
  8
0
100
AcDbLine
 10
366.3437397443822
 20
141.3033191869022
 30
0.0
 11
356.3126641228055
 21
140.4234002727284
 31
0.0
  0
LINE
  5
DA4E
330
2
100
AcDbEntity
  8
0
100
AcDbLine
 10
370.3437397443802
 20
101.3033191869014
 30
0.0
 11
360.7437397443805
 21
101.3033191869014
 31
0.0
  0
LINE
  5
DA4F
330
2
100
AcDbEntity
  8
0
100
AcDbLine
 10
360.7437397443805
 20
101.3033191869014
 30
0.0
 11
360.7437397443805
 21
104.103319186901
 31
0.0
  0
LINE
  5
DA50
330
2
100
AcDbEntity
  8
0
100
AcDbLine
 10
360.7437397443805
 20
104.103319186901
 30
0.0
 11
369.8437397443843
 21
104.103319186901
 31
0.0
  0
ARC
  5
DA51
330
2
100
AcDbEntity
  8
0
100
AcDbCircle
 10
369.8437397443843
 20
104.603319186901
 30
0.0
 40
0.4999999999999716
100
AcDbArc
 50
269.9999999999935
 51
0.0000000000065138
  0
LINE
  5
DA52
330
2
100
AcDbEntity
  8
0
100
AcDbLine
 10
370.3437397443843
 20
104.6033191869011
 30
0.0
 11
370.3437397443841
 21
106.603319186901
 31
0.0
  0
LINE
  5
DA53
330
2
100
AcDbEntity
  8
0
100
AcDbLine
 10
370.3437397443841
 20
106.603319186901
 30
0.0
 11
369.8437397443843
 21
106.603319186901
 31
0.0
  0
ARC
  5
DA54
330
2
100
AcDbEntity
  8
0
100
AcDbCircle
 10
369.8437397443843
 20
106.1033191869011
 30
0.0
 40
0.5
100
AcDbArc
 50
90.0
 51
180.0
  0
LINE
  5
DA55
330
2
100
AcDbEntity
  8
0
100
AcDbLine
 10
369.3437397443843
 20
106.1033191869011
 30
0.0
 11
369.3437397443843
 21
105.603319186901
 31
0.0
  0
LINE
  5
DA56
330
2
100
AcDbEntity
  8
0
100
AcDbLine
 10
369.3437397443843
 20
105.603319186901
 30
0.0
 11
359.2437397443805
 21
105.603319186901
 31
0.0
  0
LINE
  5
DA57
330
2
100
AcDbEntity
  8
0
100
AcDbLine
 10
359.2437397443805
 20
105.603319186901
 30
0.0
 11
359.2437397443805
 21
101.3033191869029
 31
0.0
  0
LINE
  5
DA58
330
2
100
AcDbEntity
  8
0
100
AcDbLine
 10
359.2437397443805
 20
101.3033191869029
 30
0.0
 11
356.4437397443807
 21
101.3033191869029
 31
0.0
  0
LINE
  5
DA59
330
2
100
AcDbEntity
  8
0
100
AcDbLine
 10
356.4437397443807
 20
101.3033191869029
 30
0.0
 11
356.4437397443792
 21
129.4033191869021
 31
0.0
  0
LINE
  5
DA5A
330
2
100
AcDbEntity
  8
0
100
AcDbLine
 10
356.4437397443792
 20
129.4033191869021
 30
0.0
 11
359.2437397443805
 21
129.4033191869021
 31
0.0
  0
LINE
  5
DA5B
330
2
100
AcDbEntity
  8
0
100
AcDbLine
 10
359.2437397443805
 20
129.4033191869021
 30
0.0
 11
359.2437397443805
 21
125.0033191869021
 31
0.0
  0
LINE
  5
DA5C
330
2
100
AcDbEntity
  8
0
100
AcDbLine
 10
359.2437397443805
 20
125.0033191869021
 30
0.0
 11
369.8437397443822
 21
125.0033191869021
 31
0.0
  0
ARC
  5
DA5D
330
2
100
AcDbEntity
  8
0
100
AcDbCircle
 10
369.8437397443822
 20
125.5033191869021
 30
0.0
 40
0.5000000000000142
100
AcDbArc
 50
270.0
 51
0.0000000000016284
  0
LINE
  5
DA5E
330
2
100
AcDbEntity
  8
0
100
AcDbLine
 10
370.3437397443822
 20
125.5033191869021
 30
0.0
 11
370.343739744382
 21
127.5033191869021
 31
0.0
  0
LINE
  5
DA5F
330
2
100
AcDbEntity
  8
0
100
AcDbLine
 10
370.343739744382
 20
127.5033191869021
 30
0.0
 11
369.8437397443822
 21
127.5033191869021
 31
0.0
  0
ARC
  5
DA60
330
2
100
AcDbEntity
  8
0
100
AcDbCircle
 10
369.8437397443822
 20
127.0033191869021
 30
0.0
 40
0.5
100
AcDbArc
 50
90.0
 51
180.0
  0
LINE
  5
DA61
330
2
100
AcDbEntity
  8
0
100
AcDbLine
 10
369.3437397443822
 20
127.0033191869021
 30
0.0
 11
369.3437397443822
 21
126.5033191869021
 31
0.0
  0
LINE
  5
DA62
330
2
100
AcDbEntity
  8
0
100
AcDbLine
 10
369.3437397443822
 20
126.5033191869021
 30
0.0
 11
360.7437397443805
 21
126.5033191869021
 31
0.0
  0
LINE
  5
DA63
330
2
100
AcDbEntity
  8
0
100
AcDbLine
 10
360.7437397443805
 20
126.5033191869021
 30
0.0
 11
360.7437397443807
 21
130.4033191869021
 31
0.0
  0
ARC
  5
DA64
330
2
100
AcDbEntity
  8
0
100
AcDbCircle
 10
360.2437397443807
 20
130.4033191869021
 30
0.0
 40
0.5
100
AcDbArc
 50
0.0
 51
90.0
  0
LINE
  5
DA65
330
2
100
AcDbEntity
  8
0
100
AcDbLine
 10
360.2437397443807
 20
130.9033191869021
 30
0.0
 11
356.4437397443803
 21
130.9033191869021
 31
0.0
  0
LINE
  5
DA66
330
2
100
AcDbEntity
  8
0
100
AcDbLine
 10
356.4437397443779
 20
130.9033191869021
 30
0.0
 11
356.4437397443777
 21
138.9291381868046
 31
0.0
  0
LINE
  5
DA67
330
2
100
AcDbEntity
  8
0
100
AcDbLine
 10
356.4437397443777
 20
138.9291381868046
 30
0.0
 11
366.1647148981623
 21
139.781855305558
 31
0.0
  0
LINE
  5
DA68
330
2
100
AcDbEntity
  8
0
100
AcDbLine
 10
366.1647148981623
 20
139.781855305558
 30
0.0
 11
369.6856258613737
 21
138.6082183178209
 31
0.0
  0
LINE
  5
DA69
330
2
100
AcDbEntity
  8
0
100
AcDbLine
 10
370.343739744382
 20
139.0825599668461
 30
0.0
 11
370.3437397443823
 21
140.8033191869022
 31
0.0
  0
LINE
  5
DA6A
330
2
100
AcDbEntity
  8
0
100
AcDbLine
 10
370.3437397443823
 20
140.8033191869022
 30
0.0
 11
369.8437397443822
 21
140.8033191869023
 31
0.0
  0
LINE
  5
DA6B
330
2
100
AcDbEntity
  8
0
100
AcDbLine
 10
369.3437397443821
 20
140.3033191869023
 30
0.0
 11
369.3437397443822
 21
140.3033191869022
 31
0.0
  0
LINE
  5
DA6C
330
2
100
AcDbEntity
  8
0
100
AcDbLine
 10
368.8437397443802
 20
146.3033191869019
 30
0.0
 11
369.3437397443802
 21
146.3033191869019
 31
0.0
  0
LINE
  5
DA6D
330
2
100
AcDbEntity
  8
0
100
AcDbLine
 10
369.3437397443822
 20
140.3040670918548
 30
0.0
 11
369.3437397443822
 21
140.3033191869018
 31
0.0
  0
ARC
  5
DA6E
330
2
100
AcDbEntity
  8
0
100
AcDbCircle
 10
356.4437397443777
 20
138.9291381868045
 30
0.0
 40
1.500000000000009
100
AcDbArc
 50
95.01311375503631
 51
179.9999999999967
  0
LINE
  5
DA6F
330
2
100
AcDbEntity
  8
0
100
AcDbLine
 10
354.9437397443779
 20
144.7033191869024
 30
0.0
 11
354.9437397443777
 21
138.9291381868045
 31
0.0
  0
ARC
  5
DA70
330
2
100
AcDbEntity
  8
0
100
AcDbCircle
 10
369.843739744382
 20
139.0825599668457
 30
0.0
 40
0.4999999999999673
100
AcDbArc
 50
251.565051177079
 51
359.9999999999919
  0
ARC
  5
DA71
330
2
100
AcDbEntity
  8
0
100
AcDbCircle
 10
369.843739744382
 20
140.3033191869019
 30
0.0
 40
0.5000000000000142
100
AcDbArc
 50
89.99999999998046
 51
179.9999999999967
  0
LINE
  5
DA72
330
2
100
AcDbEntity
  8
0
100
AcDbLine
 10
369.343739744382
 20
140.3033191869019
 30
0.0
 11
369.3437397443822
 21
140.3033191869018
 31
0.0
  0
ARC
  5
DA73
330
2
100
AcDbEntity
  8
0
100
AcDbCircle
 10
369.8437397443801
 20
142.8033191869019
 30
0.0
 40
0.5
100
AcDbArc
 50
179.9999999999984
 51
269.9999999999935
  0
ARC
  5
DA74
330
2
100
AcDbEntity
  8
0
100
AcDbCircle
 10
369.8437397443799
 20
141.8033191869018
 30
0.0
 40
0.5
100
AcDbArc
 50
269.9999999999935
 51
359.9999999999968
  0
LINE
  5
DA75
330
2
100
AcDbEntity
  8
0
100
AcDbLine
 10
353.3437397443779
 20
96.80331918690246
 30
0.0
 11
353.3437397443774
 21
143.3033191869032
 31
0.0
  0
LINE
  5
DA76
330
2
100
AcDbEntity
  8
0
100
AcDbLine
 10
369.3437397443793
 20
96.30331918690202
 30
0.0
 11
353.8437397443768
 21
96.30331918690245
 31
0.0
  0
ARC
  5
DA77
330
2
100
AcDbEntity
  8
0
100
AcDbCircle
 10
353.8437397443768
 20
96.80331918690246
 30
0.0
 40
0.5
100
AcDbArc
 50
179.9999999999984
 51
269.9999999999935
  0
LINE
  5
DA78
330
2
100
AcDbEntity
  8
0
 48
2.0
100
AcDbLine
 10
333.3437397443797
 20
128.1371779086734
 30
0.0
 11
333.3437397443797
 21
145.8033191869024
 31
0.0
  0
ARC
  5
DA79
330
2
100
AcDbEntity
  8
0
 48
2.0
100
AcDbCircle
 10
335.3437397443797
 20
128.1371779086734
 30
0.0
 40
2.0
100
AcDbArc
 50
180.0
 51
247.4009727453426
  0
LINE
  5
DA7A
330
2
100
AcDbEntity
  8
0
 48
2.0
100
AcDbLine
 10
340.4865576818516
 20
123.8301933274142
 30
0.0
 11
334.5751804469751
 21
126.2907444258821
 31
0.0
  0
ARC
  5
DA7B
330
2
100
AcDbEntity
  8
0
 48
2.0
100
AcDbCircle
 10
340.6210555588974
 20
124.1533191869027
 30
0.0
 40
0.3500000000000013
100
AcDbArc
 50
247.4009727453426
 51
67.40097274534267
  0
LINE
  5
DA7C
330
2
100
AcDbEntity
  8
0
 48
2.0
100
AcDbLine
 10
334.8441762010669
 20
126.9369961448591
 30
0.0
 11
340.7555534359432
 21
124.4764450463911
 31
0.0
  0
ARC
  5
DA7D
330
2
100
AcDbEntity
  8
0
 48
2.0
100
AcDbCircle
 10
335.3437397443797
 20
128.1371779086734
 30
0.0
 40
1.299999999999997
100
AcDbArc
 50
180.0
 51
247.4009727453426
  0
LINE
  5
DA7E
330
2
100
AcDbEntity
  8
0
 48
2.0
100
AcDbLine
 10
334.0437397443797
 20
129.7033191869027
 30
0.0
 11
334.0437397443797
 21
128.1371779086734
 31
0.0
  0
ARC
  5
DA7F
330
2
100
AcDbEntity
  8
0
 48
2.0
100
AcDbCircle
 10
335.0437397443798
 20
129.7033191869027
 30
0.0
 40
1.0
100
AcDbArc
 50
90.0
 51
180.0
  0
LINE
  5
DA80
330
2
100
AcDbEntity
  8
0
 48
2.0
100
AcDbLine
 10
341.1437397443797
 20
130.7033191869027
 30
0.0
 11
335.0437397443798
 21
130.7033191869027
 31
0.0
  0
LINE
  5
DA81
330
2
100
AcDbEntity
  8
0
 48
2.0
100
AcDbLine
 10
341.1437397443797
 20
130.0533191869027
 30
0.0
 11
341.1437397443797
 21
130.7033191869027
 31
0.0
  0
LINE
  5
DA82
330
2
100
AcDbEntity
  8
0
 48
2.0
100
AcDbLine
 10
341.8437397443797
 20
131.8033191869028
 30
0.0
 11
341.8437397443797
 21
130.0533191869027
 31
0.0
  0
LINE
  5
DA83
330
2
100
AcDbEntity
  8
0
 48
2.0
100
AcDbLine
 10
341.4937397443797
 20
129.7033191869027
 30
0.0
 11
341.4937397443797
 21
129.7033191869027
 31
0.0
  0
ARC
  5
DA84
330
2
100
AcDbEntity
  8
0
100
AcDbCircle
 10
371.0346941367524
 20
143.6033191869018
 30
0.0
 40
0.3000000000000107
100
AcDbArc
 50
174.8720091168925
 51
354.8720091168909
  0
ARC
  5
DA85
330
2
100
AcDbEntity
  8
0
100
AcDbCircle
 10
368.7837397443799
 20
143.8053199875425
 30
0.0
 40
1.960000000000029
100
AcDbArc
 50
354.8720091169038
 51
73.39845040097704
  0
ARC
  5
DA86
330
2
100
AcDbEntity
  8
0
100
AcDbCircle
 10
368.78373974438
 20
143.8053199875425
 30
0.0
 40
2.560000000000035
100
AcDbArc
 50
354.8720091169006
 51
77.36437490697873
  0
ARC
  5
DA87
330
2
100
AcDbEntity
  8
0
100
AcDbCircle
 10
371.034694136751
 20
99.00331918690184
 30
0.0
 40
0.3000000000000647
100
AcDbArc
 50
5.127990883102636
 51
185.1279908831026
  0
ARC
  5
DA88
330
2
100
AcDbEntity
  8
0
100
AcDbCircle
 10
368.7837397443785
 20
98.80131838626128
 30
0.0
 40
1.960000000000074
100
AcDbArc
 50
286.601549599023
 51
5.127990883092905
  0
ARC
  5
DA89
330
2
100
AcDbEntity
  8
0
100
AcDbCircle
 10
368.7837397443786
 20
98.80131838626127
 30
0.0
 40
2.559999999999996
100
AcDbArc
 50
282.6356250930213
 51
5.127990883096149
  0
ARC
  5
DA8A
330
2
100
AcDbEntity
  8
0
 48
2.0
100
AcDbCircle
 10
341.4937397443797
 20
130.0533191869027
 30
0.0
 40
0.35
100
AcDbArc
 50
180.0
 51
0.0
  0
LINE
  5
DA8B
330
2
100
AcDbEntity
  8
0
  6
ByBlock
 62
     0
 48
5.0
100
AcDbLine
 10
347.7437397443755
 20
123.5033191869024
 30
0.0
 11
347.7437397443755
 21
95.31795589094505
 31
0.0
1001
AcDbBlockRepETag
1070
     1
1071
        0
1005
DA8B
  0
LINE
  5
DA8C
330
2
100
AcDbEntity
  8
0
  6
ByBlock
 62
     0
 48
5.0
100
AcDbLine
 10
349.7437397443755
 20
123.5033191869024
 30
0.0
 11
349.7437397443755
 21
95.31795589094505
 31
0.0
1001
AcDbBlockRepETag
1070
     1
1071
        1
1005
DA8C
  0
LINE
  5
DA8D
330
2
100
AcDbEntity
  8
0
  6
ByBlock
 62
     0
 48
5.0
100
AcDbLine
 10
351.3437397443754
 20
94.79954425764852
 30
0.0
 11
351.3437397443754
 21
123.5033191869024
 31
0.0
1001
AcDbBlockRepETag
1070
     1
1071
        2
1005
DA8D
  0
LINE
  5
DA8E
330
2
100
AcDbEntity
  8
0
  6
ByBlock
 62
     0
 48
5.0
100
AcDbLine
 10
346.1437397443755
 20
94.79954425764852
 30
0.0
 11
346.1437397443755
 21
123.5033191869024
 31
0.0
1001
AcDbBlockRepETag
1070
     1
1071
        3
1005
DA8E
  0
ARC
  5
DA8F
330
2
100
AcDbEntity
  8
0
  6
ByBlock
 62
     0
 48
5.0
100
AcDbCircle
 10
348.7437397443755
 20
89.5033191869024
 30
0.0
 40
5.9
100
AcDbArc
 50
116.1471460412665
 51
63.8528539587338
1001
AcDbBlockRepETag
1070
     1
1071
        4
1005
DA8F
  0
ARC
  5
DA90
330
2
100
AcDbEntity
  8
0
  6
ByBlock
 62
     0
 48
5.0
100
AcDbCircle
 10
348.7437397443755
 20
89.5033191869024
 30
0.0
 40
5.9
100
AcDbArc
 50
80.24174340461851
 51
99.7582565953815
1001
AcDbBlockRepETag
1070
     1
1071
        4
1005
DA8F
  0
LINE
  5
DA91
330
2
100
AcDbEntity
  8
0
  6
ByBlock
 62
     0
 48
5.0
100
AcDbLine
 10
346.1437397443755
 20
123.5033191869024
 30
0.0
 11
347.7437397443755
 21
123.5033191869024
 31
0.0
1001
AcDbBlockRepETag
1070
     1
1071
        6
1005
DA91
  0
LINE
  5
DA92
330
2
100
AcDbEntity
  8
0
  6
ByBlock
 62
     0
 48
5.0
100
AcDbLine
 10
351.3437397443754
 20
123.5033191869024
 30
0.0
 11
349.7437397443755
 21
123.5033191869024
 31
0.0
1001
AcDbBlockRepETag
1070
     1
1071
        7
1005
DA92
  0
LINE
  5
DBC0
330
2
100
AcDbEntity
  8
0
100
AcDbLine
 10
84.39682121521583
 20
254.7679281192821
 30
0.0
 11
46.59719144851718
 21
254.7679281192824
 31
0.0
  0
ARC
  5
DBC1
330
2
100
AcDbEntity
  8
0
100
AcDbCircle
 10
84.39682121521585
 20
256.7679281192821
 30
0.0
 40
2.0
100
AcDbArc
 50
269.9999999999996
 51
2.204227503972018
  0
ENDSEC
  0
SECTION
  2
OBJECTS
  0
DICTIONARY
  5
9
330
0
100
AcDbDictionary
281
     1
  3
ACAD_CIP_PREVIOUS_PRODUCT_INFO
350
6543
  3
ACAD_COLOR
350
FE
  3
ACAD_DETAILVIEWSTYLE
350
653C
  3
ACAD_GROUP
350
23
  3
ACAD_LAYOUT
350
D
  3
ACAD_MATERIAL
350
FD
  3
ACAD_MLEADERSTYLE
350
6537
  3
ACAD_MLINESTYLE
350
24
  3
ACAD_PLOTSETTINGS
350
25
  3
ACAD_PLOTSTYLENAME
350
8
  3
ACAD_SCALELIST
350
6525
  3
ACAD_SECTIONVIEWSTYLE
350
6539
  3
ACAD_TABLESTYLE
350
C85
  3
ACAD_VISUALSTYLE
350
C74
  3
AcadDim
350
2EE6
  3
ACDB_RECOMPOSE_DATA
350
DBE0
  3
AcDbVariableDictionary
350
21E
  0
DICTIONARY
  5
E64
330
1D
100
AcDbDictionary
280
     1
281
     1
  0
DICTIONARY
  5
115
330
14
100
AcDbDictionary
280
     1
281
     1
  3
ACAD_LAYERFILTERS
360
1762
  3
ACAD_LAYERSTATES
360
116
  3
ACLYDICTIONARY
360
1761
  0
DICTIONARY
  5
6544
330
6
100
AcDbDictionary
280
     1
281
     1
  3
ADSK_XREC_LAYER_RECONCILED
360
6545
  0
DICTIONARY
  5
6546
330
26
100
AcDbDictionary
280
     1
281
     1
  3
ADSK_XREC_LAYER_RECONCILED
360
6547
  0
DICTIONARY
  5
654E
330
111
100
AcDbDictionary
280
     1
281
     1
  3
ADSK_XREC_LAYER_RECONCILED
360
654F
  0
DICTIONARY
  5
6554
330
E15
100
AcDbDictionary
280
     1
281
     1
  3
ADSK_XREC_LAYER_RECONCILED
360
6555
  0
DICTIONARY
  5
655E
330
14E0
100
AcDbDictionary
280
     1
281
     1
  3
ADSK_XREC_LAYER_RECONCILED
360
655F
  0
DICTIONARY
  5
3
330
2
100
AcDbDictionary
280
     1
281
     1
  3
ACAD_LAYOUTSELFREF
360
648E
  3
ACAD_SORTENTS
360
D1D
  0
DICTIONARY
  5
F
330
E
100
AcDbDictionary
280
     1
281
     1
  3
ACAD_LAYOUTSELFREF
360
6497
  0
XRECORD
  5
6543
102
{ACAD_REACTORS
330
9
102
}
330
9
100
AcDbXrecord
280
     1
300
ACDLT
300
2013
300
ACDLT_F_S
  0
DICTIONARY
  5
FE
102
{ACAD_REACTORS
330
9
102
}
330
9
100
AcDbDictionary
281
     1
  0
DICTIONARY
  5
653C
102
{ACAD_REACTORS
330
9
102
}
330
9
100
AcDbDictionary
281
     1
  3
Imperial24
350
653D
  0
DICTIONARY
  5
23
102
{ACAD_REACTORS
330
9
102
}
330
9
100
AcDbDictionary
281
     1
  0
DICTIONARY
  5
D
102
{ACAD_REACTORS
330
9
102
}
330
9
100
AcDbDictionary
281
     1
  3
Model
350
C
  3
ﾚｲｱｳﾄ1
350
13
  0
DICTIONARY
  5
FD
102
{ACAD_REACTORS
330
9
102
}
330
9
100
AcDbDictionary
281
     1
  3
ByBlock
350
C72
  3
ByLayer
350
C71
  3
Global
350
C73
  0
DICTIONARY
  5
6537
102
{ACAD_REACTORS
330
9
102
}
330
9
100
AcDbDictionary
281
     1
  3
Standard
350
6538
  0
DICTIONARY
  5
24
102
{ACAD_REACTORS
330
9
102
}
330
9
100
AcDbDictionary
281
     1
  3
STANDARD
350
27
  0
DICTIONARY
  5
25
102
{ACAD_REACTORS
330
9
102
}
330
9
100
AcDbDictionary
281
     1
  0
ACDBDICTIONARYWDFLT
  5
8
102
{ACAD_REACTORS
330
9
102
}
330
9
100
AcDbDictionary
281
     1
  3
Normal
350
7
100
AcDbDictionaryWithDefault
340
7
  0
DICTIONARY
  5
6525
102
{ACAD_REACTORS
330
9
102
}
330
9
100
AcDbDictionary
281
     1
  3
A0
350
6526
  3
A1
350
6527
  3
A2
350
6528
  3
A3
350
6529
  3
A4
350
652A
  3
A5
350
652B
  3
A6
350
652C
  3
A7
350
652D
  3
A8
350
652E
  3
A9
350
652F
  3
B0
350
6530
  3
B1
350
6531
  3
B2
350
6532
  3
B3
350
6533
  3
B4
350
6534
  3
B5
350
6535
  3
B6
350
6536
  0
DICTIONARY
  5
6539
102
{ACAD_REACTORS
330
9
102
}
330
9
100
AcDbDictionary
281
     1
  3
Imperial24
350
653B
  0
DICTIONARY
  5
C85
102
{ACAD_REACTORS
330
9
102
}
330
9
100
AcDbDictionary
281
     1
  3
Standard
350
C86
  0
DICTIONARY
  5
C74
102
{ACAD_REACTORS
330
9
102
}
330
9
100
AcDbDictionary
281
     1
  3
2dWireframe
350
C7A
  3
3D Hidden
350
C7C
  3
3dWireframe
350
C7B
  3
Basic
350
C79
  3
Brighten
350
C80
  3
ColorChange
350
C84
  3
Conceptual
350
C7D
  3
Dim
350
C7F
  3
EdgeColorOff
350
6524
  3
Facepattern
350
C83
  3
Flat
350
C75
  3
FlatWithEdges
350
C76
  3
Gouraud
350
C77
  3
GouraudWithEdges
350
C78
  3
Hidden
350
651C
  3
JitterOff
350
6522
  3
Linepattern
350
C82
  3
OverhangOff
350
6523
  3
Realistic
350
C7E
  3
Shaded
350
6521
  3
Shaded with edges
350
6520
  3
Shades of Gray
350
651D
  3
Sketchy
350
651E
  3
Thicken
350
C81
  3
Wireframe
350
651B
  3
X-Ray
350
651F
  0
XRECORD
  5
2EE6
102
{ACAD_REACTORS
330
9
102
}
330
9
100
AcDbXrecord
280
     1
 90
   990106
  3

 60
     0
 61
     0
 62
     4
 63
     4
 64
     1
 65
     0
 66
     0
 67
     3
 68
     1
 69
     0
 70
     0
 71
     0
 72
     0
 40
0.0
170
     2
340
0
  0
XRECORD
  5
DBE0
102
{ACAD_REACTORS
330
9
102
}
330
9
100
AcDbXrecord
280
     1
 90
        1
330
C86
  0
DICTIONARY
  5
21E
102
{ACAD_REACTORS
330
9
102
}
330
9
100
AcDbDictionary
281
     1
  3
CANNOSCALE
350
656B
  3
CMLEADERSTYLE
350
6567
  3
CTABLESTYLE
350
E8E
  3
CVIEWDETAILSTYLE
350
6568
  3
CVIEWSECTIONSTYLE
350
6569
  3
DIMASSOC
350
21F
  3
INDEXCTL
350
E90
  3
LAYEREVAL
350
656D
  3
LAYERNOTIFY
350
656E
  3
LIGHTINGUNITS
350
656C
  3
MSLTSCALE
350
656A
  3
PROJECTNAME
350
220
  3
SORTENTS
350
E8F
  0
DICTIONARY
  5
1762
102
{ACAD_REACTORS
330
115
102
}
330
115
100
AcDbDictionary
281
     1
  0
DICTIONARY
  5
116
102
{ACAD_REACTORS
330
115
102
}
330
115
100
AcDbDictionary
281
     1
  0
DICTIONARY
  5
1761
102
{ACAD_REACTORS
330
115
102
}
330
115
100
AcDbDictionary
281
     1
1001
ACAD
1000
<All
  0
XRECORD
  5
6545
102
{ACAD_REACTORS
330
6544
102
}
330
6544
100
AcDbXrecord
280
     1
290
     1
  0
XRECORD
  5
6547
102
{ACAD_REACTORS
330
6546
102
}
330
6546
100
AcDbXrecord
280
     1
290
     1
  0
XRECORD
  5
654F
102
{ACAD_REACTORS
330
654E
102
}
330
654E
100
AcDbXrecord
280
     1
290
     1
  0
XRECORD
  5
6555
102
{ACAD_REACTORS
330
6554
102
}
330
6554
100
AcDbXrecord
280
     1
290
     1
  0
XRECORD
  5
655F
102
{ACAD_REACTORS
330
655E
102
}
330
655E
100
AcDbXrecord
280
     1
290
     1
  0
XRECORD
  5
648E
102
{ACAD_REACTORS
330
3
102
}
330
3
100
AcDbXrecord
280
     1
340
2
  0
SORTENTSTABLE
  5
D1D
102
{ACAD_REACTORS
330
3
102
}
330
3
100
AcDbSortentsTable
330
2
331
92D7
  5
D8A3
331
92F6
  5
D8C0
331
9985
  5
D8D7
331
99A4
  5
D8F6
331
9AEA
  5
D91A
331
9B61
  5
D92F
331
9B80
  5
D94E
331
D4F6
  5
D959
331
92D8
  5
D8A4
331
92F7
  5
D8C1
331
9986
  5
D8D8
331
99A5
  5
D8F7
331
9AEB
  5
D91B
331
9B62
  5
D930
331
92D9
  5
D8A5
331
92F8
  5
D8C2
331
9987
  5
D8D9
331
99A6
  5
D8F8
331
9AEC
  5
D91C
331
9B63
  5
D931
331
92DA
  5
D8A7
331
92F9
  5
D8C3
331
9988
  5
D8DA
331
99A7
  5
D8F9
331
9AED
  5
D91D
331
9B64
  5
D932
331
B13A
  5
D94F
331
9989
  5
D8DB
331
99CF
  5
D8A6
331
9AEE
  5
D91E
331
9B65
  5
D933
331
92DB
  5
D8A8
331
92FA
  5
D8C4
331
9AEF
  5
D91F
331
9B66
  5
D934
331
92DC
  5
D8A9
331
92FB
  5
D8C5
331
998A
  5
D8DC
331
9B67
  5
D935
331
92DD
  5
D8AA
331
998B
  5
D8DD
331
9AF0
  5
D920
331
92DE
  5
D8AB
331
998C
  5
D8DE
331
9AF1
  5
D921
331
9B68
  5
D936
331
92DF
  5
D8AC
331
998D
  5
D8DF
331
9AF2
  5
D922
331
9B69
  5
D937
331
998E
  5
D8E0
331
9AF3
  5
D923
331
9B6A
  5
D938
331
998F
  5
D8E1
331
9AF4
  5
D924
331
9B6B
  5
D939
331
9AF5
  5
D925
331
9B6C
  5
D93A
331
9AD7
  5
D903
331
9AF6
  5
D926
331
9B6D
  5
D93B
331
D820
  5
D961
331
9AF7
  5
D927
331
9B6E
  5
D93C
331
D6B3
  5
8DBA
331
D821
  5
D962
331
D838
  5
D979
331
9B6F
  5
D93D
331
D4D5
  5
D950
331
D822
  5
D963
331
D839
  5
D97A
331
D858
  5
D999
331
D4D6
  5
D951
331
D823
  5
D964
331
D83A
  5
D97B
331
D859
  5
D99A
331
D878
  5
D9B9
331
D824
  5
D965
331
D83B
  5
D97C
331
D85A
  5
D99B
331
D879
  5
D9BA
331
D898
  5
D9D9
331
D825
  5
D966
331
D83C
  5
D97D
331
D85B
  5
D99C
331
D87A
  5
D9BB
331
D899
  5
D9DA
331
D8B0
  5
D9F1
331
D85C
  5
D99D
331
D87B
  5
D9BC
331
D89A
  5
D9DB
331
D8B1
  5
D9F2
331
D8D0
  5
9B7B
331
D826
  5
D967
331
D83D
  5
D97E
331
D89B
  5
D9DC
331
D8B2
  5
D9F3
331
D8D1
  5
9B7C
331
D8F0
  5
D81F
331
D827
  5
D968
331
D83E
  5
D97F
331
D85D
  5
D99E
331
D87C
  5
D9BD
331
D8D2
  5
9B7D
331
D8F1
  5
D820
331
D910
  5
D83F
331
D828
  5
D969
331
D83F
  5
D980
331
D85E
  5
D99F
331
D87D
  5
D9BE
331
D89C
  5
D9DD
331
D8B3
  5
D9F4
331
D911
  5
D840
331
D928
  5
92C6
331
D829
  5
D96A
331
D840
  5
D981
331
D85F
  5
D9A0
331
D87E
  5
D9BF
331
D89D
  5
D9DE
331
D8B4
  5
D9F5
331
D8D3
  5
9B7E
331
D8F2
  5
D821
331
D929
  5
92C7
331
D948
  5
92EB
331
D82A
  5
D96B
331
D841
  5
D982
331
D860
  5
D9A1
331
D87F
  5
D9C0
331
D89E
  5
D9DF
331
D8B5
  5
D9F6
331
D8D4
  5
9B7F
331
D8F3
  5
D822
331
D912
  5
D841
331
D92A
  5
92C8
331
D949
  5
92EC
331
D968
  5
9984
331
D82B
  5
D96C
331
D842
  5
D983
331
D861
  5
D9A2
331
D880
  5
D9C1
331
D89F
  5
D9E0
331
D8B6
  5
D9F7
331
D8D5
  5
9B80
331
D8F4
  5
D823
331
D913
  5
8E16
331
D969
  5
9985
331
D988
  5
DA1B
331
D82C
  5
D96D
331
D843
  5
D984
331
D881
  5
D9C2
331
D8A0
  5
D9E1
331
D8B7
  5
D9F8
331
D8D6
  5
9D6A
331
D8F5
  5
D824
331
D914
  5
8E17
331
D92B
  5
92C9
331
D94A
  5
92ED
331
D9A0
  5
DA33
331
D82D
  5
D96E
331
D844
  5
D985
331
D882
  5
D9C3
331
D8A1
  5
D9E2
331
D8B8
  5
D9F9
331
D8D7
  5
9D6B
331
D8F6
  5
D825
331
D915
  5
8E18
331
D92C
  5
92CA
331
D94B
  5
92EE
331
D96A
  5
9986
331
D989
  5
DA1C
331
D883
  5
D9C4
331
D8A2
  5
D9E3
331
D8B9
  5
D9FA
331
D8D8
  5
9D6C
331
D8F7
  5
D826
331
D916
  5
8E19
331
D92D
  5
92CB
331
D94C
  5
92EF
331
D96B
  5
9987
331
D98A
  5
DA1D
331
D9A1
  5
DA34
331
D82E
  5
D96F
331
D845
  5
D986
331
D9C0
  5
DA53
331
D8A3
  5
D9E4
331
D8BA
  5
D9FB
331
D8D9
  5
9D6D
331
D8F8
  5
D827
331
D917
  5
8E1A
331
D92E
  5
92CC
331
D94D
  5
92F0
331
D96C
  5
9988
331
D98B
  5
DA1E
331
D9A2
  5
DA35
331
D9C1
  5
DA54
331
D9E0
  5
DA73
331
D82F
  5
D970
331
D846
  5
D987
331
D884
  5
D9C5
331
D8DA
  5
A0D3
331
D8F9
  5
D828
331
D918
  5
8E1B
331
D92F
  5
92CD
331
D94E
  5
92F1
331
D96D
  5
998A
331
D98C
  5
DA1F
331
D9A3
  5
DA36
331
D9C2
  5
DA55
331
D9E1
  5
DA74
331
DA00
  5
8DCA
331
D830
  5
D971
331
D847
  5
D988
331
D885
  5
D9C6
331
D8A4
  5
D9E5
331
D8BB
  5
D9FC
331
D919
  5
8E1C
331
D930
  5
92CE
331
D94F
  5
92F2
331
D96E
  5
998B
331
D98D
  5
DA20
331
D9A4
  5
DA37
331
D9C3
  5
DA56
331
D9E2
  5
DA75
331
DA01
  5
8DCB
331
DA18
  5
D858
331
D831
  5
D972
331
D848
  5
D989
331
D886
  5
D9C7
331
D8A5
  5
D9E6
331
D8BC
  5
D9FD
331
D8DB
  5
A0D4
331
D8FA
  5
D829
331
D931
  5
92CF
331
D950
  5
92F3
331
D96F
  5
998C
331
D98E
  5
DA21
331
D9A5
  5
DA38
331
D9C4
  5
DA57
331
D9E3
  5
DA76
331
DA02
  5
8DCE
331
DA19
  5
D859
331
DA38
  5
9995
331
D832
  5
D973
331
D849
  5
D98A
331
D887
  5
D9C8
331
D8A6
  5
D9E7
331
D8BD
  5
D9FE
331
D8DC
  5
A0D5
331
D8FB
  5
D82A
331
D91A
  5
92B8
331
8DA8
  5
8DAB
331
D932
  5
92D0
331
D951
  5
92F4
331
D970
  5
998D
331
D98F
  5
DA22
331
D9A6
  5
DA39
331
D9C5
  5
DA58
331
D9E4
  5
DA77
331
DA03
  5
8DCF
331
DA1A
  5
D85A
331
DA39
  5
9996
331
DA58
  5
9ADA
331
D833
  5
D974
331
D84A
  5
D98B
331
D869
  5
D9AA
331
D888
  5
D9C9
331
D8A7
  5
D9E8
331
D8BE
  5
D9FF
331
D8DD
  5
A0D6
331
D8FC
  5
D82B
331
D91B
  5
92B9
331
8DA9
  5
8DAC
331
D971
  5
998E
331
D990
  5
DA23
331
D9A7
  5
DA3A
331
D9C6
  5
DA59
331
D9E5
  5
DA78
331
DA04
  5
8DD0
331
DA1B
  5
D85B
331
DA3A
  5
9997
331
DA59
  5
9ADB
331
DA78
  5
9AFA
331
D834
  5
D975
331
D84B
  5
D98C
331
D86A
  5
D9AB
331
D889
  5
D9CA
331
D8A8
  5
D9E9
331
D8BF
  5
DA00
331
D8DE
  5
A0D7
331
D8FD
  5
D82C
331
D91C
  5
92BA
331
D933
  5
92D1
331
D952
  5
92F5
331
8DAA
  5
8DAD
331
D9A8
  5
DA3B
331
D9C7
  5
DA5A
331
D9E6
  5
DA79
331
DA05
  5
8DD3
331
DA1C
  5
D85C
331
DA3B
  5
9998
331
DA5A
  5
9ADC
331
DA79
  5
9AFC
331
DA90
  5
8E12
331
D84C
  5
D98D
331
D86B
  5
D9AC
331
D88A
  5
D9CB
331
D8A9
  5
D9EA
331
D8C0
  5
DA01
331
D8DF
  5
BD92
331
D8FE
  5
D82D
331
D91D
  5
92BB
331
D934
  5
92D2
331
D953
  5
92F6
331
D972
  5
998F
331
D991
  5
DA24
331
D835
  5
D976
331
8DAB
  5
8DAE
331
D9E7
  5
DA7A
331
DA06
  5
8DD4
331
DA1D
  5
D85D
331
DA3C
  5
9999
331
DA5B
  5
9ADD
331
DA7A
  5
9B33
331
DA91
  5
8E13
331
D88B
  5
D9CC
331
D8AA
  5
D9EB
331
D8C1
  5
DA02
331
D8E0
  5
D4EA
331
D8FF
  5
D82E
331
D91E
  5
92BC
331
D935
  5
92D5
331
D954
  5
92F7
331
D973
  5
9990
331
D992
  5
DA25
331
D9A9
  5
DA3C
331
D9C8
  5
DA5B
331
D836
  5
D977
331
D84D
  5
D98E
331
D86C
  5
D9AD
331
8DAC
  5
8DAF
331
8DCB
  5
9B70
331
DA1E
  5
D85E
331
DA3D
  5
999A
331
DA5C
  5
9ADE
331
DA7B
  5
9B34
331
DA92
  5
8E14
331
D8C2
  5
DA03
331
D8E1
  5
D4EB
331
D900
  5
D82F
331
D91F
  5
92BD
331
D936
  5
92D6
331
D955
  5
92F8
331
D974
  5
9991
331
D993
  5
DA26
331
D9AA
  5
DA3D
331
D9C9
  5
DA5C
331
D9E8
  5
DA7B
331
DA07
  5
8DD5
331
D837
  5
D978
331
D84E
  5
D98F
331
D86D
  5
D9AE
331
D88C
  5
D9CD
331
D8AB
  5
D9EC
331
8DAD
  5
8DB0
331
DA5D
  5
9ADF
331
DA7C
  5
9B35
331
D901
  5
D830
331
D920
  5
92BE
331
D937
  5
92D7
331
D956
  5
92F9
331
D975
  5
DA08
331
D994
  5
DA27
331
D9AB
  5
DA3E
331
D9CA
  5
DA5D
331
D9E9
  5
DA7C
331
DA08
  5
8DD6
331
DA1F
  5
D85F
331
DA3E
  5
999B
331
D819
  5
D95A
331
D84F
  5
D990
331
D86E
  5
D9AF
331
D88D
  5
D9CE
331
D8AC
  5
D9ED
331
D8C3
  5
DA04
331
D8E2
  5
D6B8
331
8DAE
  5
8DB1
331
8E0C
  5
D875
331
D938
  5
92D8
331
D957
  5
92FA
331
D976
  5
DA09
331
D995
  5
DA28
331
D9AC
  5
DA3F
331
D9CB
  5
DA5E
331
D9EA
  5
DA7D
331
DA09
  5
8DD7
331
DA20
  5
D860
331
DA3F
  5
999C
331
DA5E
  5
9AE0
331
DA7D
  5
9B36
331
D81A
  5
D95B
331
D850
  5
D991
331
D86F
  5
D9B0
331
D88E
  5
D9CF
331
D8AD
  5
D9EE
331
D8C4
  5
DA05
331
D8E3
  5
D6B9
331
D902
  5
D831
331
D921
  5
92BF
331
8DAF
  5
8DB7
331
8DCE
  5
D842
331
8E0D
  5
D876
331
D939
  5
92D9
331
D958
  5
92FB
331
D977
  5
DA0A
331
D996
  5
DA29
331
D9AD
  5
DA40
331
D9CC
  5
DA5F
331
D9EB
  5
DA7E
331
DA0A
  5
8DD8
331
DA21
  5
D861
331
DA40
  5
999D
331
DA5F
  5
9AE1
331
DA7E
  5
9B63
331
D81B
  5
D95C
331
D851
  5
D992
331
D870
  5
D9B1
331
D88F
  5
D9D0
331
D8AE
  5
D9EF
331
D8C5
  5
DA06
331
D8E4
  5
D6C0
331
D903
  5
D832
331
D922
  5
92C0
331
8DB0
  5
8DB8
331
8DCF
  5
D843
331
8E0E
  5
D877
331
D93A
  5
92DA
331
D959
  5
9913
331
D978
  5
DA0B
331
D997
  5
DA2A
331
D9AE
  5
DA41
331
D9CD
  5
DA60
331
D9EC
  5
DA7F
331
DA0B
  5
8DD9
331
DA22
  5
D862
331
DA41
  5
999E
331
DA60
  5
9AE2
331
DA7F
  5
9B64
331
D81C
  5
D95D
331
D852
  5
D993
331
D871
  5
D9B2
331
D890
  5
D9D1
331
D8AF
  5
D9F0
331
D8C6
  5
DA07
331
D8E5
  5
D6C3
331
D904
  5
D833
331
D923
  5
92C1
331
8DB1
  5
8DB9
331
8DD0
  5
D844
331
8E0F
  5
D878
331
D979
  5
DA0C
331
D998
  5
DA2B
331
D9AF
  5
DA42
331
D9CE
  5
DA61
331
D9ED
  5
DA80
331
DA0C
  5
8DDA
331
DA23
  5
D863
331
DA42
  5
999F
331
DA61
  5
9AE3
331
DA80
  5
9B65
331
D81D
  5
D95E
331
D853
  5
D994
331
D872
  5
D9B3
331
D891
  5
D9D2
331
D8C7
  5
9B72
331
D8E6
  5
D6C6
331
D905
  5
D834
331
D924
  5
92C2
331
D93B
  5
92DB
331
D95A
  5
9976
331
8DD1
  5
D845
331
8E10
  5
D879
331
92C0
  5
D88E
331
D9B0
  5
DA43
331
D9CF
  5
DA62
331
D9EE
  5
DA81
331
DA0D
  5
8DDB
331
DA24
  5
D864
331
DA43
  5
99A0
331
DA62
  5
9AE4
331
DA81
  5
9B66
331
DBC0
  5
DBC0
331
D854
  5
D995
331
D873
  5
D9B4
331
D892
  5
D9D3
331
D8C8
  5
9B73
331
D8E7
  5
D6C9
331
D906
  5
D835
331
D925
  5
92C3
331
D93C
  5
92DC
331
D95B
  5
9977
331
D97A
  5
DA0D
331
D81E
  5
D95F
331
D999
  5
DA2C
331
92C1
  5
D88F
331
8DD2
  5
D846
331
8E11
  5
D87A
331
D9EF
  5
DA82
331
DA0E
  5
8DDC
331
DA25
  5
D865
331
DA44
  5
99A1
331
DA63
  5
9AE5
331
DA82
  5
9B67
331
DBC1
  5
DBC1
331
D893
  5
D9D4
331
D8C9
  5
9B74
331
D8E8
  5
D6CC
331
D907
  5
D836
331
D926
  5
92C4
331
D93D
  5
92DD
331
D95C
  5
9978
331
D97B
  5
DA0E
331
D99A
  5
DA2D
331
D9B1
  5
DA44
331
D9D0
  5
DA63
331
D81F
  5
D960
331
D855
  5
D996
331
D874
  5
D9B5
331
92C2
  5
D890
331
8DD3
  5
D847
331
8E12
  5
D87B
331
DA26
  5
D866
331
DA45
  5
99A2
331
DA64
  5
9AE6
331
DA83
  5
9B68
331
D8CA
  5
9B75
331
D8E9
  5
D6CF
331
D908
  5
D837
331
D927
  5
92C5
331
D93E
  5
92DE
331
D95D
  5
9979
331
D97C
  5
DA0F
331
D99B
  5
DA2E
331
D9B2
  5
DA45
331
D9D1
  5
DA64
331
D9F0
  5
DA83
331
D856
  5
D997
331
D875
  5
D9B6
331
D894
  5
D9D5
331
DA0F
  5
8DDD
331
9990
  5
D8E2
331
8DD4
  5
D848
331
8E13
  5
D87C
331
92C3
  5
D891
331
DA65
  5
9AE7
331
DA84
  5
9B69
331
D909
  5
D838
331
D93F
  5
92DF
331
D95E
  5
997A
331
D97D
  5
DA10
331
D99C
  5
DA2F
331
D9B3
  5
DA46
331
D9D2
  5
DA65
331
D9F1
  5
DA84
331
DA10
  5
8DDE
331
DA27
  5
D867
331
DA46
  5
99A3
331
D857
  5
D998
331
D876
  5
D9B7
331
D895
  5
D9D6
331
D8CB
  5
9B76
331
D8EA
  5
D819
331
99A8
  5
D8FA
331
8DB6
  5
8DBB
331
8DD5
  5
D849
331
8E14
  5
D87D
331
92C4
  5
D892
331
92E3
  5
D8AD
331
9991
  5
D8E3
331
D940
  5
92E3
331
D95F
  5
997B
331
D97E
  5
DA11
331
D99D
  5
DA30
331
D9B4
  5
DA47
331
D9D3
  5
DA66
331
D9F2
  5
DA85
331
DA11
  5
8DDF
331
DA28
  5
D868
331
DA47
  5
99A4
331
DA66
  5
9AE8
331
D877
  5
D9B8
331
D896
  5
D9D7
331
D8CC
  5
9B77
331
D8EB
  5
D81A
331
D90A
  5
D839
331
DA85
  5
9B6A
331
8DB7
  5
8DBC
331
8DD6
  5
D84A
331
8E15
  5
D87E
331
92C5
  5
D893
331
92E4
  5
D8AE
331
9992
  5
D8E4
331
99A9
  5
D8FB
331
9AD8
  5
D905
331
D941
  5
92E4
331
D960
  5
997C
331
D97F
  5
DA12
331
D99E
  5
DA31
331
D9B5
  5
DA48
331
D9D4
  5
DA67
331
D9F3
  5
DA86
331
DA12
  5
8DF8
331
DA29
  5
D869
331
DA48
  5
99A5
331
DA67
  5
9AE9
331
D897
  5
D9D8
331
D8CD
  5
9B78
331
D8EC
  5
D81B
331
D90B
  5
D83A
331
DA86
  5
9B6B
331
8DB8
  5
8DBD
331
8DD7
  5
D84B
331
8E16
  5
D87F
331
92C6
  5
D894
331
92E5
  5
D8AF
331
9974
  5
D8C6
331
9993
  5
D8E5
331
99AA
  5
D8FC
331
9AD9
  5
D907
331
9AF8
  5
D928
331
D942
  5
92E5
331
D961
  5
997D
331
D980
  5
DA13
331
D99F
  5
DA32
331
D9B6
  5
DA49
331
D9D5
  5
DA68
331
D9F4
  5
DA87
331
DA13
  5
8DF9
331
DA2A
  5
D86A
331
DA49
  5
99A6
331
DA68
  5
9AEA
331
D8CE
  5
9B79
331
D8ED
  5
D81C
331
D90C
  5
D83B
331
DA87
  5
9B6C
331
8D9A
  5
8D9D
331
8DB9
  5
8DBE
331
8DD8
  5
D84C
331
8E17
  5
D880
331
92C7
  5
D895
331
92E6
  5
D8B0
331
9975
  5
D8C7
331
9994
  5
D8E6
331
99AB
  5
D8FD
331
9ADA
  5
D909
331
9AF9
  5
D929
331
9B70
  5
D93E
331
D981
  5
DA14
331
D9B7
  5
DA4A
331
D9D6
  5
DA69
331
D9F5
  5
DA88
331
DA14
  5
D854
331
DA2B
  5
D86B
331
DA4A
  5
99A7
331
DA69
  5
9AEB
331
DA88
  5
9B6D
331
D8CF
  5
9B7A
331
D8EE
  5
D81D
331
D90D
  5
D83C
331
D943
  5
92E6
331
D962
  5
997E
331
8DD9
  5
D84D
331
8E18
  5
D881
331
92C8
  5
D896
331
92E7
  5
D8B1
331
9976
  5
D8C8
331
9995
  5
D8E7
331
99AC
  5
D8FE
331
9ADB
  5
D90B
331
9AFA
  5
D92A
331
9B71
  5
D93F
331
8D9B
  5
8D9E
331
8DBA
  5
8DBF
331
D9B8
  5
DA4B
331
D9D7
  5
DA6A
331
D9F6
  5
DA89
331
DA15
  5
D855
331
DA2C
  5
D86C
331
DA4B
  5
99A8
331
DA6A
  5
9AEC
331
DA89
  5
9B6E
331
D8EF
  5
D81E
331
D90E
  5
D83D
331
D944
  5
92E7
331
D963
  5
997F
331
D982
  5
DA15
331
92C9
  5
D897
331
92E8
  5
D8B2
331
9977
  5
D8C9
331
9996
  5
D8E8
331
99AD
  5
D8FF
331
9ADC
  5
D90C
331
9AFB
  5
D92B
331
9B72
  5
D940
331
8D9C
  5
8D9F
331
8DBB
  5
8DC0
331
8DDA
  5
D84E
331
8E19
  5
D882
331
D9F7
  5
DA8A
331
DA16
  5
D856
331
DA2D
  5
D86D
331
DA4C
  5
99A9
331
DA6B
  5
9AED
331
DA8A
  5
9B6F
331
D90F
  5
D83E
331
D945
  5
92E8
331
D964
  5
9980
331
D983
  5
DA16
331
D9B9
  5
DA4C
331
D9D8
  5
DA6B
331
92CA
  5
D898
331
92E9
  5
D8B3
331
9978
  5
D8CA
331
9997
  5
D8E9
331
99AE
  5
D900
331
9ADD
  5
D90D
331
9AFC
  5
D92C
331
9B73
  5
D941
331
8D9D
  5
8DA0
331
8DBC
  5
8DC1
331
8DDB
  5
D84F
331
8E1A
  5
D883
331
DA2E
  5
D86E
331
DA4D
  5
99AA
331
DA6C
  5
9AEE
331
DA8B
  5
8E0D
331
D946
  5
92E9
331
D965
  5
9981
331
D984
  5
DA17
331
D9BA
  5
DA4D
331
D9D9
  5
DA6C
331
D9F8
  5
DA8B
331
DA17
  5
D857
331
9979
  5
D8CB
331
9998
  5
D8EA
331
99AF
  5
D901
331
9ADE
  5
D90E
331
9B74
  5
D942
331
8D9E
  5
8DA1
331
8DBD
  5
8DC2
331
8DDC
  5
D850
331
8E1B
  5
D884
331
92CB
  5
D899
331
92EA
  5
D8B4
331
DA6D
  5
9AEF
331
DA8C
  5
8E0E
331
D947
  5
92EA
331
D966
  5
9982
331
D985
  5
DA18
331
D9BB
  5
DA4E
331
D9DA
  5
DA6D
331
D9F9
  5
DA8C
331
DA2F
  5
D86F
331
DA4E
  5
99AB
331
99B0
  5
D902
331
9ADF
  5
D90F
331
9B75
  5
D943
331
8D9F
  5
8DA2
331
8DBE
  5
8DC3
331
8DDD
  5
D851
331
8E1C
  5
D885
331
92CC
  5
D89A
331
92EB
  5
D8B5
331
997A
  5
D8CC
331
9999
  5
D8EB
331
D967
  5
9983
331
D986
  5
DA19
331
D9BC
  5
DA4F
331
D9DB
  5
DA6E
331
D9FA
  5
DA8D
331
DA30
  5
D870
331
DA4F
  5
99AC
331
DA6E
  5
9AF0
331
DA8D
  5
8E0F
331
9B76
  5
D944
331
9D6D
  5
D908
331
D6CB
  5
8DB6
331
8DA0
  5
8DA3
331
8DBF
  5
8DC4
331
8DDE
  5
D852
331
92CD
  5
D89B
331
92EC
  5
D8B6
331
997B
  5
D8CD
331
999A
  5
D8EC
331
9AE0
  5
D910
331
D987
  5
DA1A
331
D9BD
  5
DA50
331
D9DC
  5
DA6F
331
D9FB
  5
DA8E
331
DA31
  5
D871
331
DA50
  5
99AD
331
DA6F
  5
9AF1
331
DA8E
  5
8E10
331
9D6E
  5
D906
331
8DA1
  5
8DA5
331
8DC0
  5
8DC5
331
8DDF
  5
D853
331
92CE
  5
D89C
331
92ED
  5
D8B7
331
997C
  5
D8CE
331
999B
  5
D8ED
331
9AE1
  5
D911
331
9B77
  5
D945
331
D9BE
  5
DA51
331
D9DD
  5
DA70
331
D9FC
  5
DA8F
331
DA32
  5
D872
331
DA51
  5
99AE
331
DA70
  5
9AF2
331
DA8F
  5
8E11
331
8DA2
  5
8DA8
331
8DC1
  5
8DC6
331
92B8
  5
D886
331
92CF
  5
D89D
331
92EE
  5
D8B8
331
997D
  5
D8CF
331
999C
  5
D8EE
331
9AE2
  5
D912
331
9B78
  5
D946
331
9D6F
  5
D904
331
D9BF
  5
DA52
331
D9DE
  5
DA71
331
D9FD
  5
DA90
331
DA33
  5
D873
331
DA52
  5
99AF
331
DA71
  5
9AF3
331
92B9
  5
D887
331
92D0
  5
D89E
331
92EF
  5
D8B9
331
997E
  5
D8D0
331
999D
  5
D8EF
331
9AE3
  5
D913
331
9B79
  5
D947
331
9D70
  5
D90A
331
D4EF
  5
D952
331
8DA3
  5
8DA9
331
8DC2
  5
8DC7
331
D9DF
  5
DA72
331
D9FE
  5
DA91
331
DA34
  5
D874
331
DA53
  5
99B0
331
DA72
  5
9AF4
331
92BA
  5
D888
331
92D1
  5
D89F
331
92F0
  5
D8BA
331
997F
  5
D8D1
331
999E
  5
D8F0
331
9AE4
  5
D914
331
9B7A
  5
D948
331
D4F0
  5
D953
331
D9FF
  5
DA92
331
DA35
  5
9992
331
DA54
  5
99B1
331
DA73
  5
9AF5
331
92D2
  5
D8A0
331
92F1
  5
D8BB
331
9980
  5
D8D2
331
999F
  5
D8F1
331
9AE5
  5
D915
331
9B7B
  5
D949
331
D4F1
  5
D954
331
8DA5
  5
8DAA
331
92BB
  5
D889
331
DA36
  5
9993
331
DA55
  5
9AD7
331
DA74
  5
9AF6
331
9981
  5
D8D3
331
99A0
  5
D8F2
331
9AE6
  5
D916
331
9B7C
  5
D94A
331
D4F2
  5
D955
331
92BC
  5
D88A
331
92F2
  5
D8BC
331
DA75
  5
9AF7
331
DA37
  5
9994
331
DA56
  5
9AD8
331
9AE7
  5
D917
331
9B7D
  5
D94B
331
D4F3
  5
D956
331
8DC6
  5
8E15
331
92BD
  5
D88B
331
92F3
  5
D8BD
331
9982
  5
D8D4
331
99A1
  5
D8F3
331
DA57
  5
9AD9
331
DA76
  5
9AF8
331
9B5F
  5
D92D
331
9B7E
  5
D94C
331
D4F4
  5
D957
331
92BE
  5
D88C
331
92D5
  5
D8A1
331
92F4
  5
D8BE
331
9983
  5
D8D5
331
99A2
  5
D8F4
331
9AE8
  5
D918
331
DA77
  5
9AF9
331
D4F5
  5
D958
331
92BF
  5
D88D
331
92D6
  5
D8A2
331
92F5
  5
D8BF
331
9984
  5
D8D6
331
99A3
  5
D8F5
331
9AE9
  5
D919
331
9B60
  5
D92E
331
9B7F
  5
D94D
  0
XRECORD
  5
6497
102
{ACAD_REACTORS
330
F
102
}
330
F
100
AcDbXrecord
280
     1
340
E
  0
ACDBDETAILVIEWSTYLE
  5
653D
102
{ACAD_REACTORS
330
653C
102
}
330
653C
100
AcDbModelDocViewStyle
 70
     0
  3
Imperial24
290
     1
100
AcDbDetailViewStyle
 70
     0
 71
     0
 90
        3
 71
     1
340
16
 62
   256
 40
0.24
340
0
 62
   256
 40
0.24
300

 40
0.36
280
     3
 71
     2
340
A
 90
       25
 62
   256
 71
     3
340
16
 62
   256
 40
0.24
 90
        1
 40
0.75
 90
        1
300
%<\AcVar ViewType \f "%tc1">% %<\AcVar ViewDetailId>%\PSCALE %<\AcVar ViewScale \f "%sn">%
 71
     4
340
A
 90
       25
 62
   256
340
A
 90
       25
 62
   256
280
     0
  0
LAYOUT
  5
C
102
{ACAD_REACTORS
330
D
102
}
330
D
100
AcDbPlotSettings
  1

  2
Canon LBP-830
  4
A3
  6

 40
5.873749732971191
 41
5.873747825622558
 42
5.873748779296875
 43
5.873748779296875
 44
296.9259948730469
 45
419.9466552734374
 46
0.0
 47
0.0
 48
3.04025694931704
 49
-23.99575925119666
140
137.2216949342541
141
75.89725909520268
142
1.0
143
1.0
 70
 11952
 72
     1
 73
     1
 74
     1
  7
CanonLBP-830 light.ctb
 75
    16
147
1.0
 76
     0
 77
     2
 78
   300
148
0.0265742595820484
149
0.0168511432175365
100
AcDbLayout
  1
Model
 70
     1
 71
     0
 10
0.0
 20
0.0
 11
12.0
 21
9.0
 12
0.0
 22
0.0
 32
0.0
 14
0.0
 24
0.0
 34
0.0
 15
0.0
 25
0.0
 35
0.0
146
0.0
 13
0.0
 23
0.0
 33
0.0
 16
1.0
 26
0.0
 36
0.0
 17
0.0
 27
1.0
 37
0.0
 76
     0
330
2
331
C33
  0
LAYOUT
  5
13
102
{ACAD_REACTORS
330
D
102
}
330
D
100
AcDbPlotSettings
  1

  2
Canon LBP-830 LIPS4
  4

  6

 40
0.0
 41
0.0
 42
0.0
 43
0.0
 44
0.0
 45
0.0
 46
0.0
 47
0.0
 48
0.0
 49
0.0
140
0.0
141
0.0
142
1.0
143
1.0
 70
   688
 72
     0
 73
     0
 74
     5
  7
CanonLBP-830 light.ctb
 75
    16
147
1.0
 76
     0
 77
     2
 78
   300
148
0.0
149
0.0
100
AcDbLayout
  1
ﾚｲｱｳﾄ1
 70
     1
 71
     1
 10
0.0
 20
0.0
 11
12.0
 21
9.0
 12
0.0
 22
0.0
 32
0.0
 14
1.000000000000000E+20
 24
1.000000000000000E+20
 34
1.000000000000000E+20
 15
-1.000000000000000E+20
 25
-1.000000000000000E+20
 35
-1.000000000000000E+20
146
0.0
 13
0.0
 23
0.0
 33
0.0
 16
1.0
 26
0.0
 36
0.0
 17
0.0
 27
1.0
 37
0.0
 76
     0
330
E
  0
MATERIAL
  5
C72
102
{ACAD_REACTORS
330
FD
102
}
330
FD
100
AcDbMaterial
  1
ByBlock
 73
     1
 78
     1
172
     1
176
     1
270
     1
274
     1
 94
       63
  0
MATERIAL
  5
C71
102
{ACAD_REACTORS
330
FD
102
}
330
FD
100
AcDbMaterial
  1
ByLayer
 73
     1
 78
     1
172
     1
176
     1
270
     1
274
     1
 94
       63
  0
MATERIAL
  5
C73
102
{ACAD_REACTORS
330
FD
102
}
330
FD
100
AcDbMaterial
  1
Global
 73
     1
 78
     1
172
     1
176
     1
270
     1
274
     1
 94
       63
  0
MLEADERSTYLE
  5
6538
102
{ACAD_REACTORS
330
6537
102
}
330
6537
100
AcDbMLeaderStyle
179
     2
170
     2
171
     1
172
     0
 90
        2
 40
0.0
 41
0.0
173
     1
 91
-1056964608
340
19
 92
       -2
290
     1
 42
0.09
291
     1
 43
0.36
  3
Standard
 44
0.18
300

342
16
174
     1
178
     6
175
     1
176
     0
 93
-1056964608
 45
0.18
292
     0
297
     0
 46
0.18
 94
-1056964608
 47
1.0
 49
1.0
140
1.0
293
     1
141
0.0
294
     1
177
     0
142
1.0
295
     1
296
     0
143
0.125
271
     0
272
     9
273
     9
298
     1
  0
MLINESTYLE
  5
27
102
{ACAD_REACTORS
330
24
102
}
330
24
100
AcDbMlineStyle
  2
STANDARD
 70
     0
  3

 62
     0
 51
90.0
 52
90.0
 71
     2
 49
0.5
 62
   256
  6
BYLAYER
 49
-0.5
 62
   256
  6
BYLAYER
  0
ACDBPLACEHOLDER
  5
7
102
{ACAD_REACTORS
330
8
102
}
330
8
  0
SCALE
  5
6526
102
{ACAD_REACTORS
330
6525
102
}
330
6525
100
AcDbScale
 70
     0
300
1:1
140
1.0
141
1.0
290
     1
  0
SCALE
  5
6527
102
{ACAD_REACTORS
330
6525
102
}
330
6525
100
AcDbScale
 70
     0
300
1/128" = 1'-0"
140
0.0078125
141
12.0
290
     0
  0
SCALE
  5
6528
102
{ACAD_REACTORS
330
6525
102
}
330
6525
100
AcDbScale
 70
     0
300
1/64" = 1'-0"
140
0.015625
141
12.0
290
     0
  0
SCALE
  5
6529
102
{ACAD_REACTORS
330
6525
102
}
330
6525
100
AcDbScale
 70
     0
300
1/32" = 1'-0"
140
0.03125
141
12.0
290
     0
  0
SCALE
  5
652A
102
{ACAD_REACTORS
330
6525
102
}
330
6525
100
AcDbScale
 70
     0
300
1/16" = 1'-0"
140
0.0625
141
12.0
290
     0
  0
SCALE
  5
652B
102
{ACAD_REACTORS
330
6525
102
}
330
6525
100
AcDbScale
 70
     0
300
3/32" = 1'-0"
140
0.09375
141
12.0
290
     0
  0
SCALE
  5
652C
102
{ACAD_REACTORS
330
6525
102
}
330
6525
100
AcDbScale
 70
     0
300
1/8" = 1'-0"
140
0.125
141
12.0
290
     0
  0
SCALE
  5
652D
102
{ACAD_REACTORS
330
6525
102
}
330
6525
100
AcDbScale
 70
     0
300
3/16" = 1'-0"
140
0.1875
141
12.0
290
     0
  0
SCALE
  5
652E
102
{ACAD_REACTORS
330
6525
102
}
330
6525
100
AcDbScale
 70
     0
300
1/4" = 1'-0"
140
0.25
141
12.0
290
     0
  0
SCALE
  5
652F
102
{ACAD_REACTORS
330
6525
102
}
330
6525
100
AcDbScale
 70
     0
300
3/8" = 1'-0"
140
0.375
141
12.0
290
     0
  0
SCALE
  5
6530
102
{ACAD_REACTORS
330
6525
102
}
330
6525
100
AcDbScale
 70
     0
300
1/2" = 1'-0"
140
0.5
141
12.0
290
     0
  0
SCALE
  5
6531
102
{ACAD_REACTORS
330
6525
102
}
330
6525
100
AcDbScale
 70
     0
300
3/4" = 1'-0"
140
0.75
141
12.0
290
     0
  0
SCALE
  5
6532
102
{ACAD_REACTORS
330
6525
102
}
330
6525
100
AcDbScale
 70
     0
300
1" = 1'-0"
140
1.0
141
12.0
290
     0
  0
SCALE
  5
6533
102
{ACAD_REACTORS
330
6525
102
}
330
6525
100
AcDbScale
 70
     0
300
1-1/2" = 1'-0"
140
1.5
141
12.0
290
     0
  0
SCALE
  5
6534
102
{ACAD_REACTORS
330
6525
102
}
330
6525
100
AcDbScale
 70
     0
300
3" = 1'-0"
140
3.0
141
12.0
290
     0
  0
SCALE
  5
6535
102
{ACAD_REACTORS
330
6525
102
}
330
6525
100
AcDbScale
 70
     0
300
6" = 1'-0"
140
6.0
141
12.0
290
     0
  0
SCALE
  5
6536
102
{ACAD_REACTORS
330
6525
102
}
330
6525
100
AcDbScale
 70
     0
300
1'-0" = 1'-0"
140
12.0
141
12.0
290
     0
  0
ACDBSECTIONVIEWSTYLE
  5
653B
102
{ACAD_REACTORS
330
6539
102
}
330
6539
100
AcDbModelDocViewStyle
 70
     0
  3
Imperial24
290
     1
100
AcDbSectionViewStyle
 70
     0
 71
     0
 90
       78
 71
     1
340
16
 62
   256
 40
0.24
340
0
340
0
 62
   256
 40
0.24
300
I, O, Q, S, X, Z
 40
0.48
 90
        3
 40
0.18
 90
        1
 71
     2
340
653A
 90
       25
 62
   256
340
A
 90
       50
 62
   256
 40
0.24
 40
0.0
 40
0.24
 71
     3
340
16
 62
   256
 40
0.24
 90
        1
 40
0.75
 90
        1
300
%<\AcVar ViewType \f "%tc1">% %<\AcVar ViewSectionStartId>%-%<\AcVar ViewSectionEndId>%\PSCALE %<\AcVar ViewScale \f "%sn">%
 71
     4
 62
   256
 62
   257
300
ANSI31
 40
1.0
 90
        0
290
     0
290
     0
 90
        6
 40
0.0
 40
1.570796326794896
 40
0.2617993877991494
 40
1.308996938995747
 40
-0.2617993877991494
 40
1.832595714594046
  0
TABLESTYLE
  5
C86
102
{ACAD_XDICTIONARY
360
DBDE
102
}
102
{ACAD_REACTORS
330
C85
102
}
330
C85
100
AcDbTableStyle
280
     0
  3
Standard
 70
     0
 71
     0
 40
0.06
 41
0.06
280
     0
281
     0
  7
STANDARD
140
0.18
170
     2
 62
     0
 63
     7
283
     0
 90
      512
 91
        0
  1

274
    -2
284
     1
 64
     0
275
    -2
285
     1
 65
     0
276
    -2
286
     1
 66
     0
277
    -2
287
     1
 67
     0
278
    -2
288
     1
 68
     0
279
    -2
289
     1
 69
     0
  7
STANDARD
140
0.25
170
     5
 62
     0
 63
     7
283
     0
 90
      512
 91
        0
  1

274
    -2
284
     1
 64
     0
275
    -2
285
     1
 65
     0
276
    -2
286
     1
 66
     0
277
    -2
287
     1
 67
     0
278
    -2
288
     1
 68
     0
279
    -2
289
     1
 69
     0
  7
STANDARD
140
0.18
170
     5
 62
     0
 63
     7
283
     0
 90
      512
 91
        0
  1

274
    -2
284
     1
 64
     0
275
    -2
285
     1
 65
     0
276
    -2
286
     1
 66
     0
277
    -2
287
     1
 67
     0
278
    -2
288
     1
 68
     0
279
    -2
289
     1
 69
     0
  0
VISUALSTYLE
  5
C7A
102
{ACAD_REACTORS
330
C74
102
}
330
C74
100
AcDbVisualStyle
  2
2dWireframe
 70
     4
177
     3
291
     0
 70
    58
 90
        0
176
     1
 90
        2
176
     1
 90
        0
176
     1
 90
        0
176
     1
 40
0.6
176
     1
 40
30.0
176
     1
 62
     7
176
     1
 90
        1
176
     1
 90
        4
176
     1
 62
     7
176
     1
 62
   257
176
     1
 90
        1
176
     1
 90
        1
176
     1
 40
1.0
176
     1
 90
        0
176
     1
 62
   257
176
     1
 40
1.0
176
     1
 90
        1
176
     1
 90
        6
176
     1
 90
        2
176
     1
 62
     7
176
     1
 90
        5
176
     1
 90
        0
176
     1
 90
        0
176
     1
290
     0
176
     1
 90
        1
176
     1
 40
0.0
176
     1
 90
        0
176
     1
290
     1
176
     1
290
     1
176
     1
290
     0
176
     1
290
     0
176
     1
290
     0
176
     1
290
     0
176
     1
290
     0
176
     1
290
     0
176
     1
290
     0
176
     1
 90
       50
176
     1
 40
0.0
176
     1
 40
1.0
176
     1
 90
        0
176
     1
 62
    18
420
        0
176
     1
 90
       50
176
     1
 90
        3
176
     1
 62
     5
420
      255
176
     1
290
     0
176
     1
 90
       50
176
     1
 90
       50
176
     1
 90
       50
176
     1
290
     0
176
     1
 90
       50
176
     1
 62
   256
176
     0
 40
1.0
176
     0
 90
        2
176
     1
  1
strokes_ogs.tif
176
     1
290
     0
176
     1
 40
1.0
176
     1
 40
1.0
176
     1
  0
VISUALSTYLE
  5
C7C
102
{ACAD_REACTORS
330
C74
102
}
330
C74
100
AcDbVisualStyle
  2
3D Hidden
 70
     6
177
     3
291
     0
 70
    58
 90
        1
176
     1
 90
        2
176
     1
 90
        2
176
     1
 90
        0
176
     1
 40
0.6
176
     1
 40
30.0
176
     1
 62
     7
176
     1
 90
        2
176
     1
 90
        2
176
     1
 62
     7
176
     1
 62
   257
176
     1
 90
        2
176
     1
 90
        1
176
     1
 40
40.0
176
     1
 90
        0
176
     1
 62
   257
176
     1
 40
1.0
176
     1
 90
        1
176
     1
 90
        6
176
     1
 90
        2
176
     1
 62
     7
176
     1
 90
        3
176
     1
 90
        0
176
     1
 90
        0
176
     1
290
     0
176
     1
 90
        1
176
     1
 40
0.0
176
     1
 90
        0
176
     1
290
     0
176
     1
290
     1
176
     1
290
     1
176
     1
290
     0
176
     1
290
     0
176
     1
290
     0
176
     1
290
     0
176
     1
290
     0
176
     1
290
     0
176
     1
 90
       50
176
     1
 40
0.0
176
     1
 40
1.0
176
     1
 90
        0
176
     1
 62
    18
420
        0
176
     1
 90
       50
176
     1
 90
        3
176
     1
 62
     5
420
      255
176
     1
290
     0
176
     1
 90
       50
176
     1
 90
       50
176
     1
 90
       50
176
     1
290
     0
176
     1
 90
       50
176
     1
 62
   256
176
     0
 40
1.0
176
     0
 90
        2
176
     1
  1
strokes_ogs.tif
176
     1
290
     0
176
     1
 40
1.0
176
     1
 40
1.0
176
     1
  0
VISUALSTYLE
  5
C7B
102
{ACAD_REACTORS
330
C74
102
}
330
C74
100
AcDbVisualStyle
  2
3dWireframe
 70
     5
177
     3
291
     0
 70
    58
 90
        0
176
     1
 90
        2
176
     1
 90
        0
176
     1
 90
        0
176
     1
 40
0.6
176
     1
 40
30.0
176
     1
 62
     7
176
     1
 90
        1
176
     1
 90
        4
176
     1
 62
     7
176
     1
 62
   257
176
     1
 90
        1
176
     1
 90
        1
176
     1
 40
1.0
176
     1
 90
        0
176
     1
 62
   257
176
     1
 40
1.0
176
     1
 90
        1
176
     1
 90
        6
176
     1
 90
        2
176
     1
 62
     7
176
     1
 90
        5
176
     1
 90
        0
176
     1
 90
        0
176
     1
290
     0
176
     1
 90
        1
176
     1
 40
0.0
176
     1
 90
        0
176
     1
290
     0
176
     1
290
     1
176
     1
290
     1
176
     1
290
     0
176
     1
290
     0
176
     1
290
     0
176
     1
290
     0
176
     1
290
     0
176
     1
290
     0
176
     1
 90
       50
176
     1
 40
0.0
176
     1
 40
1.0
176
     1
 90
        0
176
     1
 62
    18
420
        0
176
     1
 90
       50
176
     1
 90
        3
176
     1
 62
     5
420
      255
176
     1
290
     0
176
     1
 90
       50
176
     1
 90
       50
176
     1
 90
       50
176
     1
290
     0
176
     1
 90
       50
176
     1
 62
   256
176
     0
 40
1.0
176
     0
 90
        2
176
     1
  1
strokes_ogs.tif
176
     1
290
     0
176
     1
 40
1.0
176
     1
 40
1.0
176
     1
  0
VISUALSTYLE
  5
C79
102
{ACAD_REACTORS
330
C74
102
}
330
C74
100
AcDbVisualStyle
  2
Basic
 70
     7
177
     3
291
     1
 70
    58
 90
        1
176
     1
 90
        0
176
     1
 90
        1
176
     1
 90
        0
176
     1
 40
0.6
176
     1
 40
30.0
176
     1
 62
     7
176
     1
 90
        0
176
     1
 90
        4
176
     1
 62
     7
176
     1
 62
   257
176
     1
 90
        1
176
     1
 90
        1
176
     1
 40
1.0
176
     1
 90
        8
176
     1
 62
     7
176
     1
 40
1.0
176
     1
 90
        1
176
     1
 90
        6
176
     1
 90
        2
176
     1
 62
     7
176
     1
 90
        5
176
     1
 90
        0
176
     1
 90
        0
176
     1
290
     0
176
     1
 90
        1
176
     1
 40
0.0
176
     1
 90
        0
176
     1
290
     0
176
     1
290
     1
176
     1
290
     1
176
     1
290
     0
176
     1
290
     0
176
     1
290
     0
176
     1
290
     0
176
     1
290
     0
176
     1
290
     0
176
     1
 90
       50
176
     1
 40
0.0
176
     1
 40
1.0
176
     1
 90
        0
176
     1
 62
    18
420
        0
176
     1
 90
       50
176
     1
 90
        3
176
     1
 62
     5
420
      255
176
     1
290
     0
176
     1
 90
       50
176
     1
 90
       50
176
     1
 90
       50
176
     1
290
     0
176
     1
 90
       50
176
     1
 62
   256
176
     0
 40
1.0
176
     0
 90
        2
176
     1
  1
strokes_ogs.tif
176
     1
290
     0
176
     1
 40
1.0
176
     1
 40
1.0
176
     1
  0
VISUALSTYLE
  5
C80
102
{ACAD_REACTORS
330
C74
102
}
330
C74
100
AcDbVisualStyle
  2
Brighten
 70
    12
177
     3
291
     1
 70
    58
 90
        2
176
     1
 90
        2
176
     1
 90
        0
176
     1
 90
        0
176
     1
 40
0.6
176
     1
 40
30.0
176
     1
 62
     7
176
     1
 90
        1
176
     1
 90
        4
176
     1
 62
     7
176
     1
 62
   257
176
     1
 90
        1
176
     1
 90
        1
176
     1
 40
1.0
176
     1
 90
        8
176
     1
 62
     7
176
     1
 40
1.0
176
     1
 90
        1
176
     1
 90
        6
176
     1
 90
        2
176
     1
 62
     7
176
     1
 90
        5
176
     1
 90
        0
176
     1
 90
        0
176
     1
290
     0
176
     1
 90
        1
176
     1
 40
50.0
176
     1
 90
        0
176
     1
290
     0
176
     1
290
     1
176
     1
290
     1
176
     1
290
     0
176
     1
290
     0
176
     1
290
     0
176
     1
290
     0
176
     1
290
     0
176
     1
290
     0
176
     1
 90
       50
176
     1
 40
0.0
176
     1
 40
1.0
176
     1
 90
        0
176
     1
 62
    18
420
        0
176
     1
 90
       50
176
     1
 90
        3
176
     1
 62
     5
420
      255
176
     1
290
     0
176
     1
 90
       50
176
     1
 90
       50
176
     1
 90
       50
176
     1
290
     0
176
     1
 90
       50
176
     1
 62
   256
176
     0
 40
1.0
176
     0
 90
        2
176
     1
  1
strokes_ogs.tif
176
     1
290
     0
176
     1
 40
1.0
176
     1
 40
1.0
176
     1
  0
VISUALSTYLE
  5
C84
102
{ACAD_REACTORS
330
C74
102
}
330
C74
100
AcDbVisualStyle
  2
ColorChange
 70
    16
177
     3
291
     1
 70
    58
 90
        2
176
     1
 90
        2
176
     1
 90
        3
176
     1
 90
        0
176
     1
 40
0.6
176
     1
 40
30.0
176
     1
 62
     8
176
     1
 90
        1
176
     1
 90
        4
176
     1
 62
     7
176
     1
 62
   257
176
     1
 90
        1
176
     1
 90
        1
176
     1
 40
1.0
176
     1
 90
        8
176
     1
 62
     8
176
     1
 40
1.0
176
     1
 90
        1
176
     1
 90
        6
176
     1
 90
        2
176
     1
 62
     7
176
     1
 90
        5
176
     1
 90
        0
176
     1
 90
        0
176
     1
290
     0
176
     1
 90
        1
176
     1
 40
0.0
176
     1
 90
        0
176
     1
290
     0
176
     1
290
     1
176
     1
290
     1
176
     1
290
     0
176
     1
290
     0
176
     1
290
     0
176
     1
290
     0
176
     1
290
     0
176
     1
290
     0
176
     1
 90
       50
176
     1
 40
0.0
176
     1
 40
1.0
176
     1
 90
        0
176
     1
 62
    18
420
        0
176
     1
 90
       50
176
     1
 90
        3
176
     1
 62
     5
420
      255
176
     1
290
     0
176
     1
 90
       50
176
     1
 90
       50
176
     1
 90
       50
176
     1
290
     0
176
     1
 90
       50
176
     1
 62
   256
176
     0
 40
1.0
176
     0
 90
        2
176
     1
  1
strokes_ogs.tif
176
     1
290
     0
176
     1
 40
1.0
176
     1
 40
1.0
176
     1
  0
VISUALSTYLE
  5
C7D
102
{ACAD_REACTORS
330
C74
102
}
330
C74
100
AcDbVisualStyle
  2
Conceptual
 70
     9
177
     3
291
     0
 70
    58
 90
        3
176
     1
 90
        2
176
     1
 90
        0
176
     1
 90
        0
176
     1
 40
0.6
176
     1
 40
30.0
176
     1
 62
     7
176
     1
 90
        2
176
     1
 90
        2
176
     1
 62
     7
176
     1
 62
   257
176
     1
 90
        1
176
     1
 90
        1
176
     1
 40
40.0
176
     1
 90
        8
176
     1
 62
     7
176
     1
 40
1.0
176
     1
 90
        1
176
     1
 90
        6
176
     1
 90
        2
176
     1
 62
     7
176
     1
 90
        3
176
     1
 90
        0
176
     1
 90
        0
176
     1
290
     0
176
     1
 90
        1
176
     1
 40
0.0
176
     1
 90
        0
176
     1
290
     0
176
     1
290
     1
176
     1
290
     1
176
     1
290
     0
176
     1
290
     0
176
     1
290
     0
176
     1
290
     0
176
     1
290
     0
176
     1
290
     0
176
     1
 90
       50
176
     1
 40
0.0
176
     1
 40
1.0
176
     1
 90
        0
176
     1
 62
    18
420
        0
176
     1
 90
       50
176
     1
 90
        3
176
     1
 62
     5
420
      255
176
     1
290
     0
176
     1
 90
       50
176
     1
 90
       50
176
     1
 90
       50
176
     1
290
     0
176
     1
 90
       50
176
     1
 62
   256
176
     0
 40
1.0
176
     0
 90
        2
176
     1
  1
strokes_ogs.tif
176
     1
290
     0
176
     1
 40
1.0
176
     1
 40
1.0
176
     1
  0
VISUALSTYLE
  5
C7F
102
{ACAD_REACTORS
330
C74
102
}
330
C74
100
AcDbVisualStyle
  2
Dim
 70
    11
177
     3
291
     1
 70
    58
 90
        2
176
     1
 90
        2
176
     1
 90
        0
176
     1
 90
        0
176
     1
 40
0.6
176
     1
 40
30.0
176
     1
 62
     7
176
     1
 90
        1
176
     1
 90
        4
176
     1
 62
     7
176
     1
 62
   257
176
     1
 90
        1
176
     1
 90
        1
176
     1
 40
1.0
176
     1
 90
        8
176
     1
 62
     7
176
     1
 40
1.0
176
     1
 90
        1
176
     1
 90
        6
176
     1
 90
        2
176
     1
 62
     7
176
     1
 90
        5
176
     1
 90
        0
176
     1
 90
        0
176
     1
290
     0
176
     1
 90
        1
176
     1
 40
-50.0
176
     1
 90
        0
176
     1
290
     0
176
     1
290
     1
176
     1
290
     1
176
     1
290
     0
176
     1
290
     0
176
     1
290
     0
176
     1
290
     0
176
     1
290
     0
176
     1
290
     0
176
     1
 90
       50
176
     1
 40
0.0
176
     1
 40
1.0
176
     1
 90
        0
176
     1
 62
    18
420
        0
176
     1
 90
       50
176
     1
 90
        3
176
     1
 62
     5
420
      255
176
     1
290
     0
176
     1
 90
       50
176
     1
 90
       50
176
     1
 90
       50
176
     1
290
     0
176
     1
 90
       50
176
     1
 62
   256
176
     0
 40
1.0
176
     0
 90
        2
176
     1
  1
strokes_ogs.tif
176
     1
290
     0
176
     1
 40
1.0
176
     1
 40
1.0
176
     1
  0
VISUALSTYLE
  5
6524
102
{ACAD_REACTORS
330
C74
102
}
330
C74
100
AcDbVisualStyle
  2
EdgeColorOff
 70
    22
177
     3
291
     1
 70
    58
 90
        2
176
     0
 90
        2
176
     0
 90
        0
176
     0
 90
        0
176
     0
 40
0.6
176
     0
 40
30.0
176
     0
 62
     7
420
 16777215
176
     0
 90
        1
176
     0
 90
        4
176
     0
 62
     7
176
     0
 62
   257
176
     0
 90
        1
176
     0
 90
        1
176
     0
 40
1.0
176
     0
 90
        8
176
     2
 62
     7
176
     0
 40
1.0
176
     0
 90
        1
176
     0
 90
        6
176
     0
 90
        2
176
     0
 62
     7
176
     0
 90
        5
176
     0
 90
        0
176
     0
 90
        0
176
     0
290
     0
176
     0
 90
        1
176
     0
 40
0.0
176
     0
 90
        0
176
     0
290
     0
176
     0
290
     1
176
     0
290
     1
176
     0
290
     0
176
     0
290
     0
176
     0
290
     0
176
     0
290
     0
176
     0
290
     0
176
     0
290
     0
176
     0
 90
       50
176
     0
 40
0.0
176
     0
 40
1.0
176
     0
 90
        0
176
     0
 62
    18
420
        0
176
     0
 90
       50
176
     0
 90
        3
176
     0
 62
     5
420
      255
176
     0
290
     0
176
     0
 90
       50
176
     0
 90
       50
176
     0
 90
       50
176
     0
290
     0
176
     0
 90
       50
176
     0
 62
   256
176
     0
 40
1.0
176
     0
 90
        2
176
     0
  1
strokes_ogs.tif
176
     0
290
     0
176
     0
 40
1.0
176
     0
 40
1.0
176
     0
  0
VISUALSTYLE
  5
C83
102
{ACAD_REACTORS
330
C74
102
}
330
C74
100
AcDbVisualStyle
  2
Facepattern
 70
    15
177
     3
291
     1
 70
    58
 90
        2
176
     1
 90
        2
176
     1
 90
        0
176
     1
 90
        0
176
     1
 40
0.6
176
     1
 40
30.0
176
     1
 62
     7
176
     1
 90
        1
176
     1
 90
        4
176
     1
 62
     7
176
     1
 62
   257
176
     1
 90
        1
176
     1
 90
        1
176
     1
 40
1.0
176
     1
 90
        8
176
     1
 62
     7
176
     1
 40
1.0
176
     1
 90
        1
176
     1
 90
        6
176
     1
 90
        2
176
     1
 62
     7
176
     1
 90
        5
176
     1
 90
        0
176
     1
 90
        0
176
     1
290
     0
176
     1
 90
        1
176
     1
 40
0.0
176
     1
 90
        0
176
     1
290
     0
176
     1
290
     1
176
     1
290
     1
176
     1
290
     0
176
     1
290
     0
176
     1
290
     0
176
     1
290
     0
176
     1
290
     0
176
     1
290
     0
176
     1
 90
       50
176
     1
 40
0.0
176
     1
 40
1.0
176
     1
 90
        0
176
     1
 62
    18
420
        0
176
     1
 90
       50
176
     1
 90
        3
176
     1
 62
     5
420
      255
176
     1
290
     0
176
     1
 90
       50
176
     1
 90
       50
176
     1
 90
       50
176
     1
290
     0
176
     1
 90
       50
176
     1
 62
   256
176
     0
 40
1.0
176
     0
 90
        2
176
     1
  1
strokes_ogs.tif
176
     1
290
     0
176
     1
 40
1.0
176
     1
 40
1.0
176
     1
  0
VISUALSTYLE
  5
C75
102
{ACAD_REACTORS
330
C74
102
}
330
C74
100
AcDbVisualStyle
  2
Flat
 70
     0
177
     3
291
     1
 70
    58
 90
        2
176
     1
 90
        1
176
     1
 90
        1
176
     1
 90
        2
176
     1
 40
0.6
176
     1
 40
30.0
176
     1
 62
     7
176
     1
 90
        0
176
     1
 90
        4
176
     1
 62
     7
176
     1
 62
   257
176
     1
 90
        1
176
     1
 90
        1
176
     1
 40
1.0
176
     1
 90
        8
176
     1
 62
     7
176
     1
 40
1.0
176
     1
 90
        1
176
     1
 90
        6
176
     1
 90
        2
176
     1
 62
     7
176
     1
 90
        5
176
     1
 90
        0
176
     1
 90
        0
176
     1
290
     0
176
     1
 90
       13
176
     1
 40
0.0
176
     1
 90
        0
176
     1
290
     0
176
     1
290
     1
176
     1
290
     1
176
     1
290
     0
176
     1
290
     0
176
     1
290
     0
176
     1
290
     0
176
     1
290
     0
176
     1
290
     0
176
     1
 90
       50
176
     1
 40
0.0
176
     1
 40
1.0
176
     1
 90
        0
176
     1
 62
    18
420
        0
176
     1
 90
       50
176
     1
 90
        3
176
     1
 62
     5
420
      255
176
     1
290
     0
176
     1
 90
       50
176
     1
 90
       50
176
     1
 90
       50
176
     1
290
     0
176
     1
 90
       50
176
     1
 62
   256
176
     0
 40
1.0
176
     0
 90
        2
176
     1
  1
strokes_ogs.tif
176
     1
290
     0
176
     1
 40
1.0
176
     1
 40
1.0
176
     1
  0
VISUALSTYLE
  5
C76
102
{ACAD_REACTORS
330
C74
102
}
330
C74
100
AcDbVisualStyle
  2
FlatWithEdges
 70
     1
177
     3
291
     1
 70
    58
 90
        2
176
     1
 90
        1
176
     1
 90
        1
176
     1
 90
        2
176
     1
 40
0.6
176
     1
 40
30.0
176
     1
 62
     7
176
     1
 90
        1
176
     1
 90
        4
176
     1
 62
     7
176
     1
 62
   257
176
     1
 90
        1
176
     1
 90
        1
176
     1
 40
1.0
176
     1
 90
        0
176
     1
 62
   257
176
     1
 40
1.0
176
     1
 90
        1
176
     1
 90
        6
176
     1
 90
        2
176
     1
 62
     7
176
     1
 90
        5
176
     1
 90
        0
176
     1
 90
        0
176
     1
290
     0
176
     1
 90
       13
176
     1
 40
0.0
176
     1
 90
        0
176
     1
290
     0
176
     1
290
     1
176
     1
290
     1
176
     1
290
     0
176
     1
290
     0
176
     1
290
     0
176
     1
290
     0
176
     1
290
     0
176
     1
290
     0
176
     1
 90
       50
176
     1
 40
0.0
176
     1
 40
1.0
176
     1
 90
        0
176
     1
 62
    18
420
        0
176
     1
 90
       50
176
     1
 90
        3
176
     1
 62
     5
420
      255
176
     1
290
     0
176
     1
 90
       50
176
     1
 90
       50
176
     1
 90
       50
176
     1
290
     0
176
     1
 90
       50
176
     1
 62
   256
176
     0
 40
1.0
176
     0
 90
        2
176
     1
  1
strokes_ogs.tif
176
     1
290
     0
176
     1
 40
1.0
176
     1
 40
1.0
176
     1
  0
VISUALSTYLE
  5
C77
102
{ACAD_REACTORS
330
C74
102
}
330
C74
100
AcDbVisualStyle
  2
Gouraud
 70
     2
177
     3
291
     1
 70
    58
 90
        2
176
     1
 90
        2
176
     1
 90
        1
176
     1
 90
        2
176
     1
 40
0.6
176
     1
 40
30.0
176
     1
 62
     7
176
     1
 90
        0
176
     1
 90
        4
176
     1
 62
     7
176
     1
 62
   257
176
     1
 90
        1
176
     1
 90
        1
176
     1
 40
1.0
176
     1
 90
        0
176
     1
 62
     7
176
     1
 40
1.0
176
     1
 90
        1
176
     1
 90
        6
176
     1
 90
        2
176
     1
 62
     7
176
     1
 90
        5
176
     1
 90
        0
176
     1
 90
        0
176
     1
290
     0
176
     1
 90
       13
176
     1
 40
0.0
176
     1
 90
        0
176
     1
290
     0
176
     1
290
     1
176
     1
290
     1
176
     1
290
     0
176
     1
290
     0
176
     1
290
     0
176
     1
290
     0
176
     1
290
     0
176
     1
290
     0
176
     1
 90
       50
176
     1
 40
0.0
176
     1
 40
1.0
176
     1
 90
        0
176
     1
 62
    18
420
        0
176
     1
 90
       50
176
     1
 90
        3
176
     1
 62
     5
420
      255
176
     1
290
     0
176
     1
 90
       50
176
     1
 90
       50
176
     1
 90
       50
176
     1
290
     0
176
     1
 90
       50
176
     1
 62
   256
176
     0
 40
1.0
176
     0
 90
        2
176
     1
  1
strokes_ogs.tif
176
     1
290
     0
176
     1
 40
1.0
176
     1
 40
1.0
176
     1
  0
VISUALSTYLE
  5
C78
102
{ACAD_REACTORS
330
C74
102
}
330
C74
100
AcDbVisualStyle
  2
GouraudWithEdges
 70
     3
177
     3
291
     1
 70
    58
 90
        2
176
     1
 90
        2
176
     1
 90
        1
176
     1
 90
        2
176
     1
 40
0.6
176
     1
 40
30.0
176
     1
 62
     7
176
     1
 90
        1
176
     1
 90
        4
176
     1
 62
     7
176
     1
 62
   257
176
     1
 90
        1
176
     1
 90
        1
176
     1
 40
1.0
176
     1
 90
        0
176
     1
 62
   257
176
     1
 40
1.0
176
     1
 90
        1
176
     1
 90
        6
176
     1
 90
        2
176
     1
 62
     7
176
     1
 90
        5
176
     1
 90
        0
176
     1
 90
        0
176
     1
290
     0
176
     1
 90
       13
176
     1
 40
0.0
176
     1
 90
        0
176
     1
290
     0
176
     1
290
     1
176
     1
290
     1
176
     1
290
     0
176
     1
290
     0
176
     1
290
     0
176
     1
290
     0
176
     1
290
     0
176
     1
290
     0
176
     1
 90
       50
176
     1
 40
0.0
176
     1
 40
1.0
176
     1
 90
        0
176
     1
 62
    18
420
        0
176
     1
 90
       50
176
     1
 90
        3
176
     1
 62
     5
420
      255
176
     1
290
     0
176
     1
 90
       50
176
     1
 90
       50
176
     1
 90
       50
176
     1
290
     0
176
     1
 90
       50
176
     1
 62
   256
176
     0
 40
1.0
176
     0
 90
        2
176
     1
  1
strokes_ogs.tif
176
     1
290
     0
176
     1
 40
1.0
176
     1
 40
1.0
176
     1
  0
VISUALSTYLE
  5
651C
102
{ACAD_REACTORS
330
C74
102
}
330
C74
100
AcDbVisualStyle
  2
Hidden
 70
     6
177
     3
291
     0
 70
    58
 90
        1
176
     1
 90
        2
176
     1
 90
        2
176
     1
 90
        0
176
     1
 40
0.6
176
     1
 40
30.0
176
     1
 62
     7
420
 16777215
176
     1
 90
        2
176
     1
 90
        2
176
     1
 62
     7
176
     1
 62
   257
176
     1
 90
        2
176
     1
 90
        1
176
     1
 40
40.0
176
     1
 90
        0
176
     1
 62
   257
176
     1
 40
1.0
176
     1
 90
        1
176
     1
 90
        6
176
     1
 90
        2
176
     1
 62
     7
176
     1
 90
        3
176
     1
 90
        0
176
     1
 90
        0
176
     1
290
     0
176
     1
 90
        1
176
     1
 40
0.0
176
     1
 90
        0
176
     1
290
     0
176
     1
290
     1
176
     1
290
     1
176
     1
290
     0
176
     1
290
     0
176
     1
290
     0
176
     1
290
     0
176
     1
290
     0
176
     1
290
     0
176
     1
 90
       50
176
     1
 40
0.0
176
     1
 40
1.0
176
     1
 90
        0
176
     1
 62
    18
420
        0
176
     1
 90
       50
176
     1
 90
        3
176
     1
 62
     5
420
      255
176
     1
290
     0
176
     1
 90
       50
176
     1
 90
       50
176
     1
 90
       50
176
     1
290
     0
176
     1
 90
       50
176
     1
 62
   256
176
     0
 40
1.0
176
     0
 90
        2
176
     1
  1
strokes_ogs.tif
176
     1
290
     0
176
     1
 40
1.0
176
     1
 40
1.0
176
     1
  0
VISUALSTYLE
  5
6522
102
{ACAD_REACTORS
330
C74
102
}
330
C74
100
AcDbVisualStyle
  2
JitterOff
 70
    20
177
     3
291
     1
 70
    58
 90
        2
176
     0
 90
        2
176
     0
 90
        0
176
     0
 90
        0
176
     0
 40
0.6
176
     0
 40
30.0
176
     0
 62
     7
420
 16777215
176
     0
 90
        1
176
     0
 90
        4
176
     0
 62
     7
176
     0
 62
   257
176
     0
 90
        1
176
     0
 90
        1
176
     0
 40
1.0
176
     0
 90
       10
176
     2
 62
     7
176
     0
 40
1.0
176
     0
 90
        1
176
     0
 90
        6
176
     0
 90
        2
176
     0
 62
     7
176
     0
 90
        5
176
     0
 90
        0
176
     0
 90
        0
176
     0
290
     0
176
     0
 90
        1
176
     0
 40
0.0
176
     0
 90
        0
176
     0
290
     0
176
     0
290
     1
176
     0
290
     1
176
     0
290
     0
176
     0
290
     0
176
     0
290
     0
176
     0
290
     0
176
     0
290
     0
176
     0
290
     0
176
     0
 90
       50
176
     0
 40
0.0
176
     0
 40
1.0
176
     0
 90
        0
176
     0
 62
    18
420
        0
176
     0
 90
       50
176
     0
 90
        3
176
     0
 62
     5
420
      255
176
     0
290
     0
176
     0
 90
       50
176
     0
 90
       50
176
     0
 90
       50
176
     0
290
     0
176
     0
 90
       50
176
     0
 62
   256
176
     0
 40
1.0
176
     0
 90
        2
176
     0
  1
strokes_ogs.tif
176
     0
290
     0
176
     0
 40
1.0
176
     0
 40
1.0
176
     0
  0
VISUALSTYLE
  5
C82
102
{ACAD_REACTORS
330
C74
102
}
330
C74
100
AcDbVisualStyle
  2
Linepattern
 70
    14
177
     3
291
     1
 70
    58
 90
        2
176
     1
 90
        2
176
     1
 90
        0
176
     1
 90
        0
176
     1
 40
0.6
176
     1
 40
30.0
176
     1
 62
     7
176
     1
 90
        1
176
     1
 90
        4
176
     1
 62
     7
176
     1
 62
   257
176
     1
 90
        7
176
     1
 90
        7
176
     1
 40
1.0
176
     1
 90
        8
176
     1
 62
     7
176
     1
 40
1.0
176
     1
 90
        1
176
     1
 90
        6
176
     1
 90
        2
176
     1
 62
     7
176
     1
 90
        5
176
     1
 90
        0
176
     1
 90
        0
176
     1
290
     0
176
     1
 90
        1
176
     1
 40
0.0
176
     1
 90
        0
176
     1
290
     0
176
     1
290
     1
176
     1
290
     1
176
     1
290
     0
176
     1
290
     0
176
     1
290
     0
176
     1
290
     0
176
     1
290
     0
176
     1
290
     0
176
     1
 90
       50
176
     1
 40
0.0
176
     1
 40
1.0
176
     1
 90
        0
176
     1
 62
    18
420
        0
176
     1
 90
       50
176
     1
 90
        3
176
     1
 62
     5
420
      255
176
     1
290
     0
176
     1
 90
       50
176
     1
 90
       50
176
     1
 90
       50
176
     1
290
     0
176
     1
 90
       50
176
     1
 62
   256
176
     0
 40
1.0
176
     0
 90
        2
176
     1
  1
strokes_ogs.tif
176
     1
290
     0
176
     1
 40
1.0
176
     1
 40
1.0
176
     1
  0
VISUALSTYLE
  5
6523
102
{ACAD_REACTORS
330
C74
102
}
330
C74
100
AcDbVisualStyle
  2
OverhangOff
 70
    21
177
     3
291
     1
 70
    58
 90
        2
176
     0
 90
        2
176
     0
 90
        0
176
     0
 90
        0
176
     0
 40
0.6
176
     0
 40
30.0
176
     0
 62
     7
420
 16777215
176
     0
 90
        1
176
     0
 90
        4
176
     0
 62
     7
176
     0
 62
   257
176
     0
 90
        1
176
     0
 90
        1
176
     0
 40
1.0
176
     0
 90
        9
176
     2
 62
     7
176
     0
 40
1.0
176
     0
 90
        1
176
     0
 90
        6
176
     0
 90
        2
176
     0
 62
     7
176
     0
 90
        5
176
     0
 90
        0
176
     0
 90
        0
176
     0
290
     0
176
     0
 90
        1
176
     0
 40
0.0
176
     0
 90
        0
176
     0
290
     0
176
     0
290
     1
176
     0
290
     1
176
     0
290
     0
176
     0
290
     0
176
     0
290
     0
176
     0
290
     0
176
     0
290
     0
176
     0
290
     0
176
     0
 90
       50
176
     0
 40
0.0
176
     0
 40
1.0
176
     0
 90
        0
176
     0
 62
    18
420
        0
176
     0
 90
       50
176
     0
 90
        3
176
     0
 62
     5
420
      255
176
     0
290
     0
176
     0
 90
       50
176
     0
 90
       50
176
     0
 90
       50
176
     0
290
     0
176
     0
 90
       50
176
     0
 62
   256
176
     0
 40
1.0
176
     0
 90
        2
176
     0
  1
strokes_ogs.tif
176
     0
290
     0
176
     0
 40
1.0
176
     0
 40
1.0
176
     0
  0
VISUALSTYLE
  5
C7E
102
{ACAD_REACTORS
330
C74
102
}
330
C74
100
AcDbVisualStyle
  2
Realistic
 70
     8
177
     3
291
     0
 70
    58
 90
        2
176
     1
 90
        2
176
     1
 90
        0
176
     1
 90
        0
176
     1
 40
0.6
176
     1
 40
30.0
176
     1
 62
     7
176
     1
 90
        1
176
     1
 90
        0
176
     1
 62
     7
176
     1
 62
   257
176
     1
 90
        1
176
     1
 90
        1
176
     1
 40
1.0
176
     1
 90
        8
176
     1
 62
     8
176
     1
 40
1.0
176
     1
 90
        1
176
     1
 90
        6
176
     1
 90
        2
176
     1
 62
     7
176
     1
 90
        5
176
     1
 90
        0
176
     1
 90
        0
176
     1
290
     0
176
     1
 90
       13
176
     1
 40
0.0
176
     1
 90
        0
176
     1
290
     0
176
     1
290
     1
176
     1
290
     1
176
     1
290
     0
176
     1
290
     0
176
     1
290
     0
176
     1
290
     0
176
     1
290
     0
176
     1
290
     0
176
     1
 90
       50
176
     1
 40
0.0
176
     1
 40
1.0
176
     1
 90
        0
176
     1
 62
    18
420
        0
176
     1
 90
       50
176
     1
 90
        3
176
     1
 62
     5
420
      255
176
     1
290
     0
176
     1
 90
       50
176
     1
 90
       50
176
     1
 90
       50
176
     1
290
     0
176
     1
 90
       50
176
     1
 62
   256
176
     0
 40
1.0
176
     0
 90
        2
176
     1
  1
strokes_ogs.tif
176
     1
290
     0
176
     1
 40
1.0
176
     1
 40
1.0
176
     1
  0
VISUALSTYLE
  5
6521
102
{ACAD_REACTORS
330
C74
102
}
330
C74
100
AcDbVisualStyle
  2
Shaded
 70
    27
177
     3
291
     0
 70
    58
 90
        2
176
     1
 90
        2
176
     1
 90
        1
176
     1
 90
        2
176
     1
 40
0.6
176
     1
 40
30.0
176
     1
 62
     7
420
 16777215
176
     1
 90
        0
176
     1
 90
        4
176
     1
 62
     7
176
     1
 62
   257
176
     1
 90
        1
176
     1
 90
        1
176
     1
 40
1.0
176
     1
 90
        8
176
     1
 62
   257
176
     1
 40
1.0
176
     1
 90
        1
176
     1
 90
        6
176
     1
 90
        2
176
     1
 62
     8
420
  7895160
176
     1
 90
        3
176
     1
 90
        0
176
     1
 90
        0
176
     1
290
     0
176
     1
 90
        5
176
     1
 40
0.0
176
     1
 90
        0
176
     1
290
     0
176
     1
290
     1
176
     1
290
     1
176
     1
290
     0
176
     1
290
     0
176
     1
290
     0
176
     1
290
     0
176
     1
290
     0
176
     1
290
     0
176
     1
 90
       50
176
     1
 40
0.0
176
     1
 40
1.0
176
     1
 90
        0
176
     1
 62
    18
420
        0
176
     1
 90
       50
176
     1
 90
        3
176
     1
 62
     5
420
      255
176
     1
290
     0
176
     1
 90
       50
176
     1
 90
       50
176
     1
 90
       50
176
     1
290
     0
176
     1
 90
       50
176
     1
 62
   256
176
     0
 40
1.0
176
     0
 90
        2
176
     1
  1
strokes_ogs.tif
176
     1
290
     0
176
     1
 40
1.0
176
     1
 40
1.0
176
     1
  0
VISUALSTYLE
  5
6520
102
{ACAD_REACTORS
330
C74
102
}
330
C74
100
AcDbVisualStyle
  2
Shaded with edges
 70
    26
177
     3
291
     0
 70
    58
 90
        2
176
     1
 90
        2
176
     1
 90
        1
176
     1
 90
        2
176
     1
 40
0.6
176
     1
 40
30.0
176
     1
 62
     7
420
 16777215
176
     1
 90
        1
176
     1
 90
       10
176
     1
 62
     7
176
     1
 62
   257
176
     1
 90
        2
176
     1
 90
        1
176
     1
 40
1.0
176
     1
 90
        8
176
     1
 62
   257
176
     1
 40
1.0
176
     1
 90
        1
176
     1
 90
        6
176
     1
 90
        2
176
     1
 62
     7
176
     1
 90
        3
176
     1
 90
        0
176
     1
 90
        0
176
     1
290
     0
176
     1
 90
        5
176
     1
 40
0.0
176
     1
 90
        0
176
     1
290
     0
176
     1
290
     1
176
     1
290
     1
176
     1
290
     0
176
     1
290
     0
176
     1
290
     0
176
     1
290
     0
176
     1
290
     0
176
     1
290
     0
176
     1
 90
       50
176
     1
 40
0.0
176
     1
 40
1.0
176
     1
 90
        0
176
     1
 62
    18
420
        0
176
     1
 90
       50
176
     1
 90
        3
176
     1
 62
     5
420
      255
176
     1
290
     0
176
     1
 90
       50
176
     1
 90
       50
176
     1
 90
       50
176
     1
290
     0
176
     1
 90
       50
176
     1
 62
   256
176
     0
 40
1.0
176
     0
 90
        2
176
     1
  1
strokes_ogs.tif
176
     1
290
     0
176
     1
 40
1.0
176
     1
 40
1.0
176
     1
  0
VISUALSTYLE
  5
651D
102
{ACAD_REACTORS
330
C74
102
}
330
C74
100
AcDbVisualStyle
  2
Shades of Gray
 70
    23
177
     3
291
     0
 70
    58
 90
        2
176
     1
 90
        2
176
     1
 90
        3
176
     1
 90
        0
176
     1
 40
0.6
176
     1
 40
30.0
176
     1
 62
     7
420
 16777215
176
     1
 90
        2
176
     1
 90
        2
176
     1
 62
     7
176
     1
 62
     7
176
     1
 90
        1
176
     1
 90
        1
176
     1
 40
40.0
176
     1
 90
        8
176
     1
 62
     7
176
     1
 40
1.0
176
     1
 90
        1
176
     1
 90
        6
176
     1
 90
        2
176
     1
 62
     7
176
     1
 90
        3
176
     1
 90
        0
176
     1
 90
        0
176
     1
290
     0
176
     1
 90
        1
176
     1
 40
0.0
176
     1
 90
        0
176
     1
290
     0
176
     1
290
     1
176
     1
290
     1
176
     1
290
     0
176
     1
290
     0
176
     1
290
     0
176
     1
290
     0
176
     1
290
     0
176
     1
290
     0
176
     1
 90
       50
176
     1
 40
0.0
176
     1
 40
1.0
176
     1
 90
        0
176
     1
 62
    18
420
        0
176
     1
 90
       50
176
     1
 90
        3
176
     1
 62
     5
420
      255
176
     1
290
     0
176
     1
 90
       50
176
     1
 90
       50
176
     1
 90
       50
176
     1
290
     0
176
     1
 90
       50
176
     1
 62
   256
176
     0
 40
1.0
176
     0
 90
        2
176
     1
  1
strokes_ogs.tif
176
     1
290
     0
176
     1
 40
1.0
176
     1
 40
1.0
176
     1
  0
VISUALSTYLE
  5
651E
102
{ACAD_REACTORS
330
C74
102
}
330
C74
100
AcDbVisualStyle
  2
Sketchy
 70
    24
177
     3
291
     0
 70
    58
 90
        1
176
     1
 90
        2
176
     1
 90
        2
176
     1
 90
        0
176
     1
 40
0.6
176
     1
 40
30.0
176
     1
 62
     7
420
 16777215
176
     1
 90
        2
176
     1
 90
        2
176
     1
 62
     7
176
     1
 62
     7
176
     1
 90
        1
176
     1
 90
        1
176
     1
 40
40.0
176
     1
 90
       11
176
     1
 62
     7
176
     1
 40
1.0
176
     1
 90
        1
176
     1
 90
        6
176
     1
 90
        2
176
     1
 62
     7
176
     1
 90
        6
176
     1
 90
        0
176
     1
 90
        0
176
     1
290
     0
176
     1
 90
        1
176
     1
 40
0.0
176
     1
 90
        0
176
     1
290
     0
176
     1
290
     1
176
     1
290
     1
176
     1
290
     0
176
     1
290
     0
176
     1
290
     0
176
     1
290
     0
176
     1
290
     0
176
     1
290
     0
176
     1
 90
       50
176
     1
 40
0.0
176
     1
 40
1.0
176
     1
 90
        0
176
     1
 62
    18
420
        0
176
     1
 90
       50
176
     1
 90
        3
176
     1
 62
     5
420
      255
176
     1
290
     0
176
     1
 90
       50
176
     1
 90
       50
176
     1
 90
       50
176
     1
290
     0
176
     1
 90
       50
176
     1
 62
   256
176
     0
 40
1.0
176
     0
 90
        2
176
     1
  1
strokes_ogs.tif
176
     1
290
     0
176
     1
 40
1.0
176
     1
 40
1.0
176
     1
  0
VISUALSTYLE
  5
C81
102
{ACAD_REACTORS
330
C74
102
}
330
C74
100
AcDbVisualStyle
  2
Thicken
 70
    13
177
     3
291
     1
 70
    58
 90
        2
176
     1
 90
        2
176
     1
 90
        0
176
     1
 90
        0
176
     1
 40
0.6
176
     1
 40
30.0
176
     1
 62
     7
176
     1
 90
        1
176
     1
 90
        4
176
     1
 62
     7
176
     1
 62
   257
176
     1
 90
        1
176
     1
 90
        1
176
     1
 40
1.0
176
     1
 90
       12
176
     1
 62
     7
176
     1
 40
1.0
176
     1
 90
        1
176
     1
 90
        6
176
     1
 90
        2
176
     1
 62
     7
176
     1
 90
        5
176
     1
 90
        0
176
     1
 90
        0
176
     1
290
     0
176
     1
 90
        1
176
     1
 40
0.0
176
     1
 90
        0
176
     1
290
     0
176
     1
290
     1
176
     1
290
     1
176
     1
290
     0
176
     1
290
     0
176
     1
290
     0
176
     1
290
     0
176
     1
290
     0
176
     1
290
     0
176
     1
 90
       50
176
     1
 40
0.0
176
     1
 40
1.0
176
     1
 90
        0
176
     1
 62
    18
420
        0
176
     1
 90
       50
176
     1
 90
        3
176
     1
 62
     5
420
      255
176
     1
290
     0
176
     1
 90
       50
176
     1
 90
       50
176
     1
 90
       50
176
     1
290
     0
176
     1
 90
       50
176
     1
 62
   256
176
     0
 40
1.0
176
     0
 90
        2
176
     1
  1
strokes_ogs.tif
176
     1
290
     0
176
     1
 40
1.0
176
     1
 40
1.0
176
     1
  0
VISUALSTYLE
  5
651B
102
{ACAD_REACTORS
330
C74
102
}
330
C74
100
AcDbVisualStyle
  2
Wireframe
 70
     5
177
     3
291
     0
 70
    58
 90
        0
176
     1
 90
        2
176
     1
 90
        0
176
     1
 90
        0
176
     1
 40
0.6
176
     1
 40
30.0
176
     1
 62
     7
420
 16777215
176
     1
 90
        1
176
     1
 90
        4
176
     1
 62
     7
176
     1
 62
   257
176
     1
 90
        1
176
     1
 90
        1
176
     1
 40
1.0
176
     1
 90
        0
176
     1
 62
   257
176
     1
 40
1.0
176
     1
 90
        1
176
     1
 90
        6
176
     1
 90
        2
176
     1
 62
     7
176
     1
 90
        3
176
     1
 90
        0
176
     1
 90
        0
176
     1
290
     0
176
     1
 90
        1
176
     1
 40
0.0
176
     1
 90
        0
176
     1
290
     0
176
     1
290
     1
176
     1
290
     1
176
     1
290
     0
176
     1
290
     0
176
     1
290
     0
176
     1
290
     0
176
     1
290
     0
176
     1
290
     0
176
     1
 90
       50
176
     1
 40
0.0
176
     1
 40
1.0
176
     1
 90
        0
176
     1
 62
    18
420
        0
176
     1
 90
       50
176
     1
 90
        3
176
     1
 62
     5
420
      255
176
     1
290
     0
176
     1
 90
       50
176
     1
 90
       50
176
     1
 90
       50
176
     1
290
     0
176
     1
 90
       50
176
     1
 62
   256
176
     0
 40
1.0
176
     0
 90
        2
176
     1
  1
strokes_ogs.tif
176
     1
290
     0
176
     1
 40
1.0
176
     1
 40
1.0
176
     1
  0
VISUALSTYLE
  5
651F
102
{ACAD_REACTORS
330
C74
102
}
330
C74
100
AcDbVisualStyle
  2
X-Ray
 70
    25
177
     3
291
     0
 70
    58
 90
        2
176
     1
 90
        2
176
     1
 90
        1
176
     1
 90
        1
176
     1
 40
0.5
176
     1
 40
30.0
176
     1
 62
     7
420
 16777215
176
     1
 90
        1
176
     1
 90
        0
176
     1
 62
     7
176
     1
 62
   257
176
     1
 90
        1
176
     1
 90
        1
176
     1
 40
1.0
176
     1
 90
        8
176
     1
 62
     7
176
     1
 40
1.0
176
     1
 90
        1
176
     1
 90
        6
176
     1
 90
        2
176
     1
 62
     7
176
     1
 90
        3
176
     1
 90
        0
176
     1
 90
        0
176
     1
290
     0
176
     1
 90
       13
176
     1
 40
0.0
176
     1
 90
        0
176
     1
290
     0
176
     1
290
     1
176
     1
290
     1
176
     1
290
     0
176
     1
290
     0
176
     1
290
     0
176
     1
290
     0
176
     1
290
     0
176
     1
290
     0
176
     1
 90
       50
176
     1
 40
0.0
176
     1
 40
1.0
176
     1
 90
        0
176
     1
 62
    18
420
        0
176
     1
 90
       50
176
     1
 90
        3
176
     1
 62
     5
420
      255
176
     1
290
     0
176
     1
 90
       50
176
     1
 90
       50
176
     1
 90
       50
176
     1
290
     0
176
     1
 90
       50
176
     1
 62
   256
176
     0
 40
1.0
176
     0
 90
        2
176
     1
  1
strokes_ogs.tif
176
     1
290
     0
176
     1
 40
1.0
176
     1
 40
1.0
176
     1
  0
DICTIONARYVAR
  5
656B
102
{ACAD_REACTORS
330
21E
102
}
330
21E
100
DictionaryVariables
280
     0
  1
1:1
  0
DICTIONARYVAR
  5
6567
102
{ACAD_REACTORS
330
21E
102
}
330
21E
100
DictionaryVariables
280
     0
  1
STANDARD
  0
DICTIONARYVAR
  5
E8E
102
{ACAD_REACTORS
330
21E
102
}
330
21E
100
DictionaryVariables
280
     0
  1
STANDARD
  0
DICTIONARYVAR
  5
6568
102
{ACAD_REACTORS
330
21E
102
}
330
21E
100
DictionaryVariables
280
     0
  1
Imperial24
  0
DICTIONARYVAR
  5
6569
102
{ACAD_REACTORS
330
21E
102
}
330
21E
100
DictionaryVariables
280
     0
  1
Imperial24
  0
DICTIONARYVAR
  5
21F
102
{ACAD_REACTORS
330
21E
102
}
330
21E
100
DictionaryVariables
280
     0
  1
1
  0
DICTIONARYVAR
  5
E90
102
{ACAD_REACTORS
330
21E
102
}
330
21E
100
DictionaryVariables
280
     0
  1
0
  0
DICTIONARYVAR
  5
656D
102
{ACAD_REACTORS
330
21E
102
}
330
21E
100
DictionaryVariables
280
     0
  1
1
  0
DICTIONARYVAR
  5
656E
102
{ACAD_REACTORS
330
21E
102
}
330
21E
100
DictionaryVariables
280
     0
  1
15
  0
DICTIONARYVAR
  5
656C
102
{ACAD_REACTORS
330
21E
102
}
330
21E
100
DictionaryVariables
280
     0
  1
0
  0
DICTIONARYVAR
  5
656A
102
{ACAD_REACTORS
330
21E
102
}
330
21E
100
DictionaryVariables
280
     0
  1
0
  0
DICTIONARYVAR
  5
220
102
{ACAD_REACTORS
330
21E
102
}
330
21E
100
DictionaryVariables
280
     0
  1

  0
DICTIONARYVAR
  5
E8F
102
{ACAD_REACTORS
330
21E
102
}
330
21E
100
DictionaryVariables
280
     0
  1
127
  0
DICTIONARY
  5
DBDE
330
C86
100
AcDbDictionary
280
     1
281
     1
  3
ACAD_ROUNDTRIP_2008_TABLESTYLE_CELLSTYLEMAP
360
DBDF
  0
CELLSTYLEMAP
  5
DBDF
102
{ACAD_REACTORS
330
DBDE
102
}
330
DBDE
100
AcDbCellStyleMap
 90
        3
300
CELLSTYLE
  1
TABLEFORMAT_BEGIN
 90
        5
170
     1
 91
        0
 92
    32768
 62
   257
 93
        1
300
CONTENTFORMAT
  1
CONTENTFORMAT_BEGIN
 90
        0
 91
        0
 92
      512
 93
        0
300

 40
0.0
140
1.0
 94
        5
 62
     0
340
16
144
0.25
309
CONTENTFORMAT_END
171
     0
 94
        6
 95
        1
302
GRIDFORMAT
  1
GRIDFORMAT_BEGIN
 90
        0
 91
        1
 62
     0
 92
       -2
340
0
 93
        0
 40
0.045
309
GRIDFORMAT_END
 95
        2
302
GRIDFORMAT
  1
GRIDFORMAT_BEGIN
 90
        0
 91
        1
 62
     0
 92
       -2
340
0
 93
        0
 40
0.045
309
GRIDFORMAT_END
 95
        4
302
GRIDFORMAT
  1
GRIDFORMAT_BEGIN
 90
        0
 91
        1
 62
     0
 92
       -2
340
0
 93
        0
 40
0.045
309
GRIDFORMAT_END
 95
        8
302
GRIDFORMAT
  1
GRIDFORMAT_BEGIN
 90
        0
 91
        1
 62
     0
 92
       -2
340
0
 93
        0
 40
0.045
309
GRIDFORMAT_END
 95
       16
302
GRIDFORMAT
  1
GRIDFORMAT_BEGIN
 90
        0
 91
        1
 62
     0
 92
       -2
340
0
 93
        0
 40
0.045
309
GRIDFORMAT_END
 95
       32
302
GRIDFORMAT
  1
GRIDFORMAT_BEGIN
 90
        0
 91
        1
 62
     0
 92
       -2
340
0
 93
        0
 40
0.045
309
GRIDFORMAT_END
309
TABLEFORMAT_END
  1
CELLSTYLE_BEGIN
 90
        1
 91
        1
300
_TITLE
309
CELLSTYLE_END
300
CELLSTYLE
  1
TABLEFORMAT_BEGIN
 90
        5
170
     1
 91
        0
 92
        0
 62
   257
 93
        1
300
CONTENTFORMAT
  1
CONTENTFORMAT_BEGIN
 90
        0
 91
        0
 92
      512
 93
        0
300

 40
0.0
140
1.0
 94
        5
 62
     0
340
16
144
0.18
309
CONTENTFORMAT_END
171
     0
 94
        6
 95
        1
302
GRIDFORMAT
  1
GRIDFORMAT_BEGIN
 90
        0
 91
        1
 62
     0
 92
       -2
340
0
 93
        0
 40
0.045
309
GRIDFORMAT_END
 95
        2
302
GRIDFORMAT
  1
GRIDFORMAT_BEGIN
 90
        0
 91
        1
 62
     0
 92
       -2
340
0
 93
        0
 40
0.045
309
GRIDFORMAT_END
 95
        4
302
GRIDFORMAT
  1
GRIDFORMAT_BEGIN
 90
        0
 91
        1
 62
     0
 92
       -2
340
0
 93
        0
 40
0.045
309
GRIDFORMAT_END
 95
        8
302
GRIDFORMAT
  1
GRIDFORMAT_BEGIN
 90
        0
 91
        1
 62
     0
 92
       -2
340
0
 93
        0
 40
0.045
309
GRIDFORMAT_END
 95
       16
302
GRIDFORMAT
  1
GRIDFORMAT_BEGIN
 90
        0
 91
        1
 62
     0
 92
       -2
340
0
 93
        0
 40
0.045
309
GRIDFORMAT_END
 95
       32
302
GRIDFORMAT
  1
GRIDFORMAT_BEGIN
 90
        0
 91
        1
 62
     0
 92
       -2
340
0
 93
        0
 40
0.045
309
GRIDFORMAT_END
309
TABLEFORMAT_END
  1
CELLSTYLE_BEGIN
 90
        2
 91
        1
300
_HEADER
309
CELLSTYLE_END
300
CELLSTYLE
  1
TABLEFORMAT_BEGIN
 90
        5
170
     1
 91
        0
 92
        0
 62
   257
 93
        1
300
CONTENTFORMAT
  1
CONTENTFORMAT_BEGIN
 90
        0
 91
        0
 92
      512
 93
        0
300

 40
0.0
140
1.0
 94
        2
 62
     0
340
16
144
0.18
309
CONTENTFORMAT_END
171
     0
 94
        6
 95
        1
302
GRIDFORMAT
  1
GRIDFORMAT_BEGIN
 90
        0
 91
        1
 62
     0
 92
       -2
340
0
 93
        0
 40
0.045
309
GRIDFORMAT_END
 95
        2
302
GRIDFORMAT
  1
GRIDFORMAT_BEGIN
 90
        0
 91
        1
 62
     0
 92
       -2
340
0
 93
        0
 40
0.045
309
GRIDFORMAT_END
 95
        4
302
GRIDFORMAT
  1
GRIDFORMAT_BEGIN
 90
        0
 91
        1
 62
     0
 92
       -2
340
0
 93
        0
 40
0.045
309
GRIDFORMAT_END
 95
        8
302
GRIDFORMAT
  1
GRIDFORMAT_BEGIN
 90
        0
 91
        1
 62
     0
 92
       -2
340
0
 93
        0
 40
0.045
309
GRIDFORMAT_END
 95
       16
302
GRIDFORMAT
  1
GRIDFORMAT_BEGIN
 90
        0
 91
        1
 62
     0
 92
       -2
340
0
 93
        0
 40
0.045
309
GRIDFORMAT_END
 95
       32
302
GRIDFORMAT
  1
GRIDFORMAT_BEGIN
 90
        0
 91
        1
 62
     0
 92
       -2
340
0
 93
        0
 40
0.045
309
GRIDFORMAT_END
309
TABLEFORMAT_END
  1
CELLSTYLE_BEGIN
 90
        3
 91
        2
300
_DATA
309
CELLSTYLE_END
  0
ENDSEC
  0
SECTION
  2
ACDSDATA
 70
     2
 71
     7
  0
ACDSSCHEMA
 90
        0
  1
AcDb_Thumbnail_Schema
  2
AcDbDs::ID
280
    10
 91
        8
  2
Thumbnail_Data
280
    15
 91
        0
101
ACDSRECORD
 95
        0
 90
        1
  2
AcDbDs::TreatedAsObjectData
280
     1
291
     1
101
ACDSRECORD
 95
        0
 90
        2
  2
AcDbDs::Legacy
280
     1
291
     1
101
ACDSRECORD
  1
AcDbDs::ID
 90
        3
  2
AcDs:Indexable
280
     1
291
     1
101
ACDSRECORD
  1
AcDbDs::ID
 90
        4
  2
AcDbDs::HandleAttribute
280
     7
282
     1
  0
ACDSSCHEMA
 90
        1
  1
AcDbDs::TreatedAsObjectDataSchema
  2
AcDbDs::TreatedAsObjectData
280
     1
 91
        0
  0
ACDSSCHEMA
 90
        2
  1
AcDbDs::LegacySchema
  2
AcDbDs::Legacy
280
     1
 91
        0
  0
ACDSSCHEMA
 90
        3
  1
AcDbDs::IndexedPropertySchema
  2
AcDs:Indexable
280
     1
 91
        0
  0
ACDSSCHEMA
 90
        4
  1
AcDbDs::HandleAttributeSchema
  2
AcDbDs::HandleAttribute
280
     7
 91
        1
284
     1
  0
ACDSRECORD
 90
        0
  2
AcDbDs::ID
280
    10
320
C
  2
Thumbnail_Data
280
    15
 94
     3055
310
89504E470D0A1A0A0000000D4948445200000100000000790803000000E1F60FE900000300504C5445000000000000C8C8C80000000000000000000000000000000000000000000000000000330000660000990000CC0000FF0033000033330033660033990033CC0033FF0066000066330066660066990066CC0066FF0099
310
000099330099660099990099CC0099FF00CC0000CC3300CC6600CC9900CCCC00CCFF00FF0000FF3300FF6600FF9900FFCC00FFFF3300003300333300663300993300CC3300FF3333003333333333663333993333CC3333FF3366003366333366663366993366CC3366FF3399003399333399663399993399CC3399FF33CC00
310
33CC3333CC6633CC9933CCCC33CCFF33FF0033FF3333FF6633FF9933FFCC33FFFF6600006600336600666600996600CC6600FF6633006633336633666633996633CC6633FF6666006666336666666666996666CC6666FF6699006699336699666699996699CC6699FF66CC0066CC3366CC6666CC9966CCCC66CCFF66FF0066
310
FF3366FF6666FF9966FFCC66FFFF9900009900339900669900999900CC9900FF9933009933339933669933999933CC9933FF9966009966339966669966999966CC9966FF9999009999339999669999999999CC9999FF99CC0099CC3399CC6699CC9999CCCC99CCFF99FF0099FF3399FF6699FF9999FFCC99FFFFCC0000CC00
310
33CC0066CC0099CC00CCCC00FFCC3300CC3333CC3366CC3399CC33CCCC33FFCC6600CC6633CC6666CC6699CC66CCCC66FFCC9900CC9933CC9966CC9999CC99CCCC99FFCCCC00CCCC33CCCC66CCCC99CCCCCCCCCCFFCCFF00CCFF33CCFF66CCFF99CCFFCCCCFFFFFF0000FF0033FF0066FF0099FF00CCFF00FFFF3300FF3333
310
FF3366FF3399FF33CCFF33FFFF6600FF6633FF6666FF6699FF66CCFF66FFFF9900FF9933FF9966FF9999FF99CCFF99FFFFCC00FFCC33FFCC66FFCC99FFCCCCFFCCFFFFFF00FFFF33FFFF66FFFF99FFFFCCFFFFFF0000000D0D0D1A1A1A2828283535354343435050505D5D5D6B6B6B787878868686939393A1A1A1AEAEAEBB
310
BBBBC9C9C9D6D6D6E4E4E4F1F1F1FFFFFF00000000000000000000000000000000000000000000000000000000000008F1915C000003E14944415478DAED9D4B9684200C45B321F63F634D35C9BCEBF8234002686B81240CBACB0F1CB93E4288A000AD095F95E0FEF444998FA5A70038D8FFAC9AC855127EBB29014489D55E
310
383CBD028EA6B6FC40BA675E052400C82F8CDB801205180011809226A0D108869A2DF75DF240D40088A410F7926A00ACF77DBBFFDABAC10800B58B6A00C4CD5F21800D815FD5A0AE096C080E67582D00F0EB094A0064C3C1E304650AD8FE1A000360000C8001300006C000440054C4040D8001301B60000C800130003428AA
310
1680F7CA012857C0121445D0AE0003A018C0BE69000C806600E91C099D002A0A78820B57660F00EB168A17E9E40934D9EC9A364C8532070490EE888BC6D2611180BCDDC7152ECD539F1F4026066500609F2F730100E657FC4200B04D95D10A60978166055C6D02889F6F520B20F8D12F0670D402E11C8063CDC9257FB10F00
310
3257F8BF00C27A03981880B4C08A3A8D58751C7900E95285C7012CD7751600909112EF3372CB2EAE2C961C5401A19254F4E44C6C50377F4518FEBF02006204A0347A3809202B69A06ED0452787C80160E95A1B01C4A1D8AE00444FD0E5F72C0E9EFD030013881B6F2C2001A06BEEAE1AC1ADC0410020D40020464DE0061B20
310
36BD1EC3E1BA0D488CE02D4D8000E86B04B1660489F32377E49595E982338130402F20083A8B7E328143AE564E3EC464ED6F03C4A0280F80EFCD0ADA88DB7C744DE30038A180B4E0A306C8DB000C6D7D6C008E7932740EC06E0B78050C0E00D867836715B05800A29BB5879D1B00F124D712220080203A0D06601400851922
310
F960488A1B6E7E02C6D8100051CA1375835DFD00C62B77822324C64DD9F731E4E123AE0FEDEF08F99A02821143B813C012171B602CE0C579825940A425B6E55CD9314AC68DDD1500FE9BA004803873AE581761385CC8E469646C4405A4EBAC5D369663DC3FD73C3AFC0270DD43620DCBE7831EEE05F055C071B0E393A1A3C3
310
EA0300DF09000BD3AA5A01F82DBD5901EC10508502B2ABBD6C045F6A03F02600631AC1F4016F0E207F3AEC84304A1900BC1700D0ACB301A8378108015E6F022F07700C23F502F8E6FA7C3EA81A002DDD00E804A0DB06ECD90C805E00E82A2B468607E0FF05A05ACBC100E4EF13448F9A00D0884635283A3780E3B195AF2D9F
310
9F18C0FA56D9DA7B85A7058008F1F30E19805BE799D2FDC9561B80AC887DFE6A1F0540D3BBC55D532A003899FFB72F574FCF2A04441E4DBD0034BD5EFF34800B8B8C3B0028CDF49B1580F085898A11743F491D8C606A0DEC232B064017007D5F9AAA7D6C6CF68FAC543BAABED5FE25806F4D9DCBAB1DED9E1CC015977EB226
310
7072483B310072D315011857FF3F03305A13203740E957671F0630E77787FF003357326E27A67C370000000049454E44AE4260820C1D1EB5F44674B998F03235DDDA5E6E5968631168B9AB4C5386DE892F0B9840801A2B1180B0D17C885B5C632C89EB994D667CCAD9F038D4C206F75D2C779300E7A1BF24A1060162FACD02
310
24BFA731D936672BEEAD6C1C634900193B22405EEE62DB5CF2E3403109EE1A93B3D0261EB27297FCA264BAB8817C4984BAC64A2C7216085B104F50EE17D9E6F8DBE19DB6B9ECF578A3F32B7B3DDEE23863B6B92DAEB1826D4EBEB23BFCBBC2CDFB12D436A7B6B91902B4C6F54C32CCB6E6EF2F202F15406D731A1A1A1A1A1A
310
1A1A1A1A1A1F1CFF00FB94E4F4EF7E04CD0000000049454E44AE4260825587C281B5C3FF7653D5FF00B12E573BDDCA1B350000000049454E44AE426082706899C962F66D12B9E1EB4C530EC54D7C5F079E00B079E32A00A0630071B95B364C517C3100AA012C7B012418275C6302C03FF06C38F60D560072C3B70160FB803E
310
00CC3E76CA3526BF5025353CCB3607F96CA30D807DC750659B73DF0DA0FC42C51600E601AC6D73EE1880341096B639EF8E0030F1B5B6B963F71A3DB7CDD5E27C547B36D86CB8E5B99BF37054B7CDB53E3C6B9B6B89CFB9C65A5A5CF2B5BAAFD9E6C262DD6C73BDB63932DB9CD9E6CC36F77DB6B9AD3638A41D135B58585858
310
58585858585858585858585834E23F1B4059B849F368280000000049454E44AE42608200725E0FDCA7CF8B005A1539775806D0A818F600601BA5494D13C9D3150056450600B50C8A2A4F03A03501D601F02AB3005895C701FC43003D0056650280AC6273347633043800B72ACD10500360556C0E470500F53E1DF60F470500
310
A28A5C3F80190254E689F479E0FF6CE040FD004945533F80F7805551F5809CF75DD40FA81BEDD70F70AE2E0E305A85408810497FCB74C897AEFD0734ADA141FA0FDACD0000000049454E44AE4260826A755807B05321BD10408AD02280ED6970F5C42E3EB8E897E9E94900143E300DD02BC8A5522A1AD4AEA90C610B60EBFC
310
B68A99B25CCE91717C701660CD291F04D0EC5A69CF67618029C5EBA0025405FB2500B17E1A4E83B9548A1703E026B0773ECAB22EAD779D43ADF1F5A0091CE9B7143BB03ED520A1EC5B3A62023138ABF1910680A708DA04306D0EE31AC0B45EF80039FE0F00A065AAF7631FC0CAFAA4F7CC0474003C7CE8C7D69B800AC098E1
310
5AE1560006BB3631119C9B1353D8AF44F1B5D799008DDFAB33821701289648A44DD10D0A5E1B72BCB9546DADFE2F00869D084A63BA1FDCD83D00972BC08500FAB0F2F8F9F583DB002E96AA82574482FF050053813B5BC4AF0D853500C36178B0C785CDAA5AB96F7CD8EA27C7C473A9B684DC10AB33DE06E00401A026B7E146
310
1A5EE0D83D0CF158B830BDCF4EBB0AC05E38B66AC0D6E56A7E30FC63AC0600C41F1BC1E632CDC1DA936C293700973BC1FDF34F6900FFF23F3FFFFCFC0C0148DCB62A223B0ED6AD3F5903AC68B3BC1CC096096C11C8B3A785F05400F889D246DAD005FA0480D71B32052805D65588DFC500764D00F634000A030960CB04BA5F
310
68D5AF02F49E2D7F65F36A13D817F9E77E725D8F1F89AFD33F7FF52C40EF593A03B6D66D07016C8B993265CA942953A64C993265CA9429536E91B92E95A3FEBB2B73D152FC1733135E28C5043001FC1DA13CEBDF0590D3BD725EF85B00FE742800030068A64C993265CA942953A6DC27FF02EB5F9BED4E895F5A0000000049
310
454E44AE426082
  0
ENDSEC
  0
EOF
