  0
SECTION
  2
HEADER
  9
$ACADVER
  1
AC1027
  9
$ACADMAINTVER
 70
    20
  9
$DWGCODEPAGE
  3
ANSI_932
  9
$LASTSAVEDBY
  1
hiroki nakayama
  9
$REQUIREDVERSIONS
160
                 0
  9
$INSBASE
 10
0.0
 20
0.0
 30
0.0
  9
$EXTMIN
 10
-0.0299222192437583
 20
-0.014759583196792
 30
-0.0000000000000058
  9
$EXTMAX
 10
395.0276461888724
 20
275.0032960643182
 30
0.0000000000000104
  9
$LIMMIN
 10
0.0
 20
0.0
  9
$LIMMAX
 10
59.40000000000001
 20
42.0
  9
$ORTHOMODE
 70
     1
  9
$REGENMODE
 70
     1
  9
$FILLMODE
 70
     1
  9
$QTEXTMODE
 70
     0
  9
$MIRRTEXT
 70
     1
  9
$LTSCALE
 40
3.0
  9
$ATTMODE
 70
     1
  9
$TEXTSIZE
 40
4.0
  9
$TRACEWID
 40
0.05
  9
$TEXTSTYLE
  7
STYLE1
  9
$CLAYER
  8
0
  9
$CELTYPE
  6
BYLAYER
  9
$CECOLOR
 62
   256
  9
$CELTSCALE
 40
1.0
  9
$DISPSILH
 70
     0
  9
$DIMSCALE
 40
1.0
  9
$DIMASZ
 40
2.0
  9
$DIMEXO
 40
1.0
  9
$DIMDLI
 40
0.0
  9
$DIMRND
 40
0.0
  9
$DIMDLE
 40
0.0
  9
$DIMEXE
 40
0.0
  9
$DIMTP
 40
0.0
  9
$DIMTM
 40
0.0
  9
$DIMTXT
 40
3.0
  9
$DIMCEN
 40
0.0
  9
$DIMTSZ
 40
0.0
  9
$DIMTOL
 70
     0
  9
$DIMLIM
 70
     0
  9
$DIMTIH
 70
     0
  9
$DIMTOH
 70
     0
  9
$DIMSE1
 70
     0
  9
$DIMSE2
 70
     0
  9
$DIMTAD
 70
     3
  9
$DIMZIN
 70
     8
  9
$DIMBLK
  1

  9
$DIMASO
 70
     1
  9
$DIMSHO
 70
     1
  9
$DIMPOST
  1

  9
$DIMAPOST
  1

  9
$DIMALT
 70
     0
  9
$DIMALTD
 70
     2
  9
$DIMALTF
 40
25.4
  9
$DIMLFAC
 40
1.0
  9
$DIMTOFL
 70
     1
  9
$DIMTVP
 40
1.0
  9
$DIMTIX
 70
     0
  9
$DIMSOXD
 70
     0
  9
$DIMSAH
 70
     0
  9
$DIMBLK1
  1

  9
$DIMBLK2
  1
DOTSMALL
  9
$DIMSTYLE
  2
S1
  9
$DIMCLRD
 70
     0
  9
$DIMCLRE
 70
     0
  9
$DIMCLRT
 70
     4
  9
$DIMTFAC
 40
0.7
  9
$DIMGAP
 40
1.0
  9
$DIMJUST
 70
     0
  9
$DIMSD1
 70
     0
  9
$DIMSD2
 70
     0
  9
$DIMTOLJ
 70
     2
  9
$DIMTZIN
 70
     8
  9
$DIMALTZ
 70
     8
  9
$DIMALTTZ
 70
     8
  9
$DIMUPT
 70
     0
  9
$DIMDEC
 70
     2
  9
$DIMTDEC
 70
     2
  9
$DIMALTU
 70
     2
  9
$DIMALTTD
 70
     2
  9
$DIMTXSTY
  7
STANDARD
  9
$DIMAUNIT
 70
     0
  9
$DIMADEC
 70
     2
  9
$DIMALTRND
 40
0.0
  9
$DIMAZIN
 70
     2
  9
$DIMDSEP
 70
    46
  9
$DIMATFIT
 70
     3
  9
$DIMFRAC
 70
     0
  9
$DIMLDRBLK
  1

  9
$DIMLUNIT
 70
     2
  9
$DIMLWD
 70
    -2
  9
$DIMLWE
 70
    -2
  9
$DIMTMOVE
 70
     1
  9
$DIMFXL
 40
1.0
  9
$DIMFXLON
 70
     0
  9
$DIMJOGANG
 40
0.7853981633974483
  9
$DIMTFILL
 70
     0
  9
$DIMTFILLCLR
 70
     0
  9
$DIMARCSYM
 70
     0
  9
$DIMLTYPE
  6

  9
$DIMLTEX1
  6

  9
$DIMLTEX2
  6

  9
$DIMTXTDIRECTION
 70
     0
  9
$LUNITS
 70
     2
  9
$LUPREC
 70
     4
  9
$SKETCHINC
 40
0.1
  9
$FILLETRAD
 40
2.0
  9
$AUNITS
 70
     0
  9
$AUPREC
 70
     0
  9
$MENU
  1
acad
  9
$ELEVATION
 40
0.0
  9
$PELEVATION
 40
0.0
  9
$THICKNESS
 40
0.0
  9
$LIMCHECK
 70
     0
  9
$CHAMFERA
 40
10.0
  9
$CHAMFERB
 40
10.0
  9
$CHAMFERC
 40
20.0
  9
$CHAMFERD
 40
0.0
  9
$SKPOLY
 70
     0
  9
$TDCREATE
 40
2450912.645647222
  9
$TDUCREATE
 40
2450912.270647222
  9
$TDUPDATE
 40
2457926.781002928
  9
$TDUUPDATE
 40
2457926.406002928
  9
$TDINDWG
 40
6.7170681829
  9
$TDUSRTIMER
 40
6.7170681829
  9
$USRTIMER
 70
     1
  9
$ANGBASE
 50
0.0
  9
$ANGDIR
 70
     0
  9
$PDMODE
 70
     0
  9
$PDSIZE
 40
0.0
  9
$PLINEWID
 40
0.0
  9
$SPLFRAME
 70
     0
  9
$SPLINETYPE
 70
     6
  9
$SPLINESEGS
 70
     8
  9
$HANDSEED
  5
DB63
  9
$SURFTAB1
 70
     6
  9
$SURFTAB2
 70
     6
  9
$SURFTYPE
 70
     6
  9
$SURFU
 70
     6
  9
$SURFV
 70
     6
  9
$UCSBASE
  2

  9
$UCSNAME
  2

  9
$UCSORG
 10
0.0
 20
0.0
 30
0.0
  9
$UCSXDIR
 10
1.0
 20
0.0
 30
0.0
  9
$UCSYDIR
 10
0.0
 20
1.0
 30
0.0
  9
$UCSORTHOREF
  2

  9
$UCSORTHOVIEW
 70
     0
  9
$UCSORGTOP
 10
0.0
 20
0.0
 30
0.0
  9
$UCSORGBOTTOM
 10
0.0
 20
0.0
 30
0.0
  9
$UCSORGLEFT
 10
0.0
 20
0.0
 30
0.0
  9
$UCSORGRIGHT
 10
0.0
 20
0.0
 30
0.0
  9
$UCSORGFRONT
 10
0.0
 20
0.0
 30
0.0
  9
$UCSORGBACK
 10
0.0
 20
0.0
 30
0.0
  9
$PUCSBASE
  2

  9
$PUCSNAME
  2

  9
$PUCSORG
 10
0.0
 20
0.0
 30
0.0
  9
$PUCSXDIR
 10
1.0
 20
0.0
 30
0.0
  9
$PUCSYDIR
 10
0.0
 20
1.0
 30
0.0
  9
$PUCSORTHOREF
  2

  9
$PUCSORTHOVIEW
 70
     0
  9
$PUCSORGTOP
 10
0.0
 20
0.0
 30
0.0
  9
$PUCSORGBOTTOM
 10
0.0
 20
0.0
 30
0.0
  9
$PUCSORGLEFT
 10
0.0
 20
0.0
 30
0.0
  9
$PUCSORGRIGHT
 10
0.0
 20
0.0
 30
0.0
  9
$PUCSORGFRONT
 10
0.0
 20
0.0
 30
0.0
  9
$PUCSORGBACK
 10
0.0
 20
0.0
 30
0.0
  9
$USERI1
 70
     0
  9
$USERI2
 70
     0
  9
$USERI3
 70
     0
  9
$USERI4
 70
     0
  9
$USERI5
 70
     0
  9
$USERR1
 40
0.0
  9
$USERR2
 40
0.0
  9
$USERR3
 40
0.0
  9
$USERR4
 40
0.0
  9
$USERR5
 40
0.0
  9
$WORLDVIEW
 70
     1
  9
$SHADEDGE
 70
     3
  9
$SHADEDIF
 70
    70
  9
$TILEMODE
 70
     1
  9
$MAXACTVP
 70
    16
  9
$PINSBASE
 10
0.0
 20
0.0
 30
0.0
  9
$PLIMCHECK
 70
     0
  9
$PEXTMIN
 10
1.000000000000000E+20
 20
1.000000000000000E+20
 30
1.000000000000000E+20
  9
$PEXTMAX
 10
-1.000000000000000E+20
 20
-1.000000000000000E+20
 30
-1.000000000000000E+20
  9
$PLIMMIN
 10
0.0
 20
0.0
  9
$PLIMMAX
 10
12.0
 20
9.0
  9
$UNITMODE
 70
     0
  9
$VISRETAIN
 70
     0
  9
$PLINEGEN
 70
     0
  9
$PSLTSCALE
 70
     1
  9
$TREEDEPTH
 70
  3020
  9
$CMLSTYLE
  2
STANDARD
  9
$CMLJUST
 70
     0
  9
$CMLSCALE
 40
20.0
  9
$PROXYGRAPHICS
 70
     1
  9
$MEASUREMENT
 70
     0
  9
$CELWEIGHT
370
    -1
  9
$ENDCAPS
280
     0
  9
$JOINSTYLE
280
     0
  9
$LWDISPLAY
290
     0
  9
$INSUNITS
 70
     0
  9
$HYPERLINKBASE
  1

  9
$STYLESHEET
  1
CanonLBP-830 light.ctb
  9
$XEDIT
290
     1
  9
$CEPSNTYPE
380
     0
  9
$PSTYLEMODE
290
     1
  9
$FINGERPRINTGUID
  2
{5E0348CB-91E9-11D7-A9B7-00074088341F}
  9
$VERSIONGUID
  2
{6BD1555F-D947-419F-90A0-0E28952EF5EB}
  9
$EXTNAMES
290
     1
  9
$PSVPSCALE
 40
0.0
  9
$OLESTARTUP
290
     0
  9
$SORTENTS
280
   127
  9
$INDEXCTL
280
     0
  9
$HIDETEXT
280
     0
  9
$XCLIPFRAME
280
     0
  9
$HALOGAP
280
     0
  9
$OBSCOLOR
 70
   257
  9
$OBSLTYPE
280
     0
  9
$INTERSECTIONDISPLAY
280
     0
  9
$INTERSECTIONCOLOR
 70
   257
  9
$DIMASSOC
280
     1
  9
$PROJECTNAME
  1

  9
$CAMERADISPLAY
290
     0
  9
$LENSLENGTH
 40
50.0
  9
$CAMERAHEIGHT
 40
0.0
  9
$STEPSPERSEC
 40
2.0
  9
$STEPSIZE
 40
6.0
  9
$3DDWFPREC
 40
2.0
  9
$PSOLWIDTH
 40
0.25
  9
$PSOLHEIGHT
 40
4.0
  9
$LOFTANG1
 40
1.570796326794896
  9
$LOFTANG2
 40
1.570796326794896
  9
$LOFTMAG1
 40
0.0
  9
$LOFTMAG2
 40
0.0
  9
$LOFTPARAM
 70
     7
  9
$LOFTNORMALS
280
     1
  9
$LATITUDE
 40
37.795
  9
$LONGITUDE
 40
-122.394
  9
$NORTHDIRECTION
 40
0.0
  9
$TIMEZONE
 70
 -8000
  9
$LIGHTGLYPHDISPLAY
280
     1
  9
$TILEMODELIGHTSYNCH
280
     1
  9
$CMATERIAL
347
C71
  9
$SOLIDHIST
280
     1
  9
$SHOWHIST
280
     1
  9
$DWFFRAME
280
     2
  9
$DGNFRAME
280
     0
  9
$REALWORLDSCALE
290
     1
  9
$INTERFERECOLOR
 62
     1
  9
$INTERFEREOBJVS
345
C7E
  9
$INTERFEREVPVS
346
651B
  9
$CSHADOW
280
     0
  9
$SHADOWPLANELOCATION
 40
0.0
  0
ENDSEC
  0
SECTION
  2
CLASSES
  0
CLASS
  1
ACDBDICTIONARYWDFLT
  2
AcDbDictionaryWithDefault
  3
ObjectDBX Classes
 90
        0
 91
        1
280
     0
281
     0
  0
CLASS
  1
DICTIONARYVAR
  2
AcDbDictionaryVar
  3
ObjectDBX Classes
 90
        0
 91
       13
280
     0
281
     0
  0
CLASS
  1
SORTENTSTABLE
  2
AcDbSortentsTable
  3
ObjectDBX Classes
 90
        0
 91
        1
280
     0
281
     0
  0
CLASS
  1
MATERIAL
  2
AcDbMaterial
  3
ObjectDBX Classes
 90
     1153
 91
        3
280
     0
281
     0
  0
CLASS
  1
VISUALSTYLE
  2
AcDbVisualStyle
  3
ObjectDBX Classes
 90
     4095
 91
       26
280
     0
281
     0
  0
CLASS
  1
TABLESTYLE
  2
AcDbTableStyle
  3
ObjectDBX Classes
 90
     4095
 91
        1
280
     0
281
     0
  0
CLASS
  1
ACAD_EVALUATION_GRAPH
  2
AcDbEvalGraph
  3
ObjectDBX Classes
 90
     1153
 91
        0
280
     0
281
     0
  0
CLASS
  1
ACAECUSTOBJ
  2
AcAeEditorObj
  3
AcAeEditorObj
 90
     1024
 91
        0
280
     0
281
     0
  0
CLASS
  1
ACDB_DYNAMICBLOCKPURGEPREVENTER_VERSION
  2
AcDbDynamicBlockPurgePreventer
  3
ObjectDBX Classes
 90
     1153
 91
        0
280
     0
281
     0
  0
CLASS
  1
SCALE
  2
AcDbScale
  3
ObjectDBX Classes
 90
     1153
 91
       17
280
     0
281
     0
  0
CLASS
  1
MLEADERSTYLE
  2
AcDbMLeaderStyle
  3
ACDB_MLEADERSTYLE_CLASS
 90
     4095
 91
        1
280
     0
281
     0
  0
CLASS
  1
ACDBSECTIONVIEWSTYLE
  2
AcDbSectionViewStyle
  3
ObjectDBX Classes
 90
     1025
 91
        1
280
     0
281
     0
  0
CLASS
  1
ACDBDETAILVIEWSTYLE
  2
AcDbDetailViewStyle
  3
ObjectDBX Classes
 90
     1025
 91
        1
280
     0
281
     0
  0
CLASS
  1
CELLSTYLEMAP
  2
AcDbCellStyleMap
  3
ObjectDBX Classes
 90
     1152
 91
        1
280
     0
281
     0
  0
ENDSEC
  0
SECTION
  2
TABLES
  0
TABLE
  2
VPORT
  5
1D
102
{ACAD_XDICTIONARY
360
E64
102
}
330
0
100
AcDbSymbolTable
 70
     1
  0
VPORT
  5
C33
330
1D
100
AcDbSymbolTableRecord
100
AcDbViewportTableRecord
  2
*Active
 70
     0
 10
0.0
 20
0.0
 11
1.0
 21
1.0
 12
197.4988619848143
 22
137.4942682405607
 13
0.0
 23
0.0
 14
1.399999999999999
 24
1.399999999999999
 15
1.0
 25
1.0
 16
0.0
 26
0.0
 36
1.0
 17
0.0
 27
0.0
 37
0.0
 40
276.9349943641169
 41
2.123873873873873
 42
50.0
 43
0.0
 44
0.0
 50
0.0
 51
0.0
 71
     0
 72
   100
 73
     1
 74
     0
 75
     0
 76
     0
 77
     0
 78
     2
281
     0
 65
     1
110
0.0
120
0.0
130
0.0
111
1.0
121
0.0
131
0.0
112
0.0
122
1.0
132
0.0
 79
     0
146
0.0
348
C7A
 60
     3
 61
     5
292
     1
282
     1
141
0.0
142
0.0
 63
   250
421
  3355443
1001
ACAD_NAV_VCDISPLAY
1070
     3
  0
ENDTAB
  0
TABLE
  2
LTYPE
  5
18
330
0
100
AcDbSymbolTable
 70
     4
  0
LTYPE
  5
19
330
18
100
AcDbSymbolTableRecord
100
AcDbLinetypeTableRecord
  2
BYBLOCK
 70
     0
  3

 72
    65
 73
     0
 40
0.0
  0
LTYPE
  5
1A
330
18
100
AcDbSymbolTableRecord
100
AcDbLinetypeTableRecord
  2
BYLAYER
 70
     0
  3

 72
    65
 73
     0
 40
0.0
  0
LTYPE
  5
A
330
18
100
AcDbSymbolTableRecord
100
AcDbLinetypeTableRecord
  2
CONTINUOUS
 70
     0
  3
Solid line
 72
    65
 73
     0
 40
0.0
  0
LTYPE
  5
E14
330
18
100
AcDbSymbolTableRecord
100
AcDbLinetypeTableRecord
  2
CENTER
 70
     0
  3
____ _ ____ _ ____ _ ____ _ ____ _ ____ _ ____ 
 72
    65
 73
     4
 40
2.0
 49
1.25
 74
     0
 49
-0.25
 74
     0
 49
0.25
 74
     0
 49
-0.25
 74
     0
  0
LTYPE
  5
14DF
330
18
100
AcDbSymbolTableRecord
100
AcDbLinetypeTableRecord
  2
HIDDEN
 70
     0
  3
Hidden __ __ __ __ __ __ __ __ __ __ __ __ __ __
 72
    65
 73
     2
 40
0.375
 49
0.25
 74
     0
 49
-0.125
 74
     0
  0
LTYPE
  5
653A
330
18
100
AcDbSymbolTableRecord
100
AcDbLinetypeTableRecord
  2
PHANTOM2
 70
     0
  3
___ _ _ ___ _ _ ___ _ _ ___ _ _
 72
    65
 73
     6
 40
1.25
 49
0.625
 74
     0
 49
-0.125
 74
     0
 49
0.125
 74
     0
 49
-0.125
 74
     0
 49
0.125
 74
     0
 49
-0.125
 74
     0
  0
ENDTAB
  0
TABLE
  2
LAYER
  5
14
102
{ACAD_XDICTIONARY
360
115
102
}
330
0
100
AcDbSymbolTable
 70
     6
  0
LAYER
  5
6
102
{ACAD_XDICTIONARY
360
6544
102
}
330
14
100
AcDbSymbolTableRecord
100
AcDbLayerTableRecord
  2
0
 70
     0
 62
     7
  6
CONTINUOUS
370
    -3
390
7
347
C73
348
0
  0
LAYER
  5
26
102
{ACAD_XDICTIONARY
360
6546
102
}
330
14
100
AcDbSymbolTableRecord
100
AcDbLayerTableRecord
  2
ADM
 70
     0
 62
     4
  6
CONTINUOUS
370
    -3
390
7
347
C73
348
0
  0
LAYER
  5
111
102
{ACAD_XDICTIONARY
360
654E
102
}
330
14
100
AcDbSymbolTableRecord
100
AcDbLayerTableRecord
  2
WAKU
 70
     0
 62
     7
  6
CONTINUOUS
370
    -3
390
7
347
C73
348
0
  0
LAYER
  5
399
330
14
100
AcDbSymbolTableRecord
100
AcDbLayerTableRecord
  2
DEFPOINTS
 70
     0
 62
     6
  6
CONTINUOUS
290
     0
370
    -3
390
7
347
C73
348
0
  0
LAYER
  5
E15
102
{ACAD_XDICTIONARY
360
6554
102
}
330
14
100
AcDbSymbolTableRecord
100
AcDbLayerTableRecord
  2
ACL
 70
     0
 62
     1
  6
CENTER
370
    -3
390
7
347
C73
348
0
  0
LAYER
  5
14E0
102
{ACAD_XDICTIONARY
360
655E
102
}
330
14
100
AcDbSymbolTableRecord
100
AcDbLayerTableRecord
  2
ALH
 70
     0
 62
     9
  6
HIDDEN
370
    -3
390
7
347
C73
348
0
  0
ENDTAB
  0
TABLE
  2
STYLE
  5
15
330
0
100
AcDbSymbolTable
 70
     3
  0
STYLE
  5
16
330
15
100
AcDbSymbolTableRecord
100
AcDbTextStyleTableRecord
  2
STANDARD
 70
     0
 40
0.0
 41
0.8
 50
0.0
 71
     0
 42
5.0
  3
romans.shx
  4
extfont.shx
  0
STYLE
  5
2B8B
330
15
100
AcDbSymbolTableRecord
100
AcDbTextStyleTableRecord
  2
STYLE1
 70
     4
 40
0.0
 41
0.8
 50
0.0
 71
     0
 42
4.0
  3
romans.shx
  4
extfont.shx
  0
ENDTAB
  0
TABLE
  2
VIEW
  5
1B
330
0
100
AcDbSymbolTable
 70
     1
  0
ENDTAB
  0
TABLE
  2
UCS
  5
1C
330
0
100
AcDbSymbolTable
 70
     0
  0
ENDTAB
  0
TABLE
  2
APPID
  5
1F
330
0
100
AcDbSymbolTable
 70
    26
  0
APPID
  5
20
330
1F
100
AcDbSymbolTableRecord
100
AcDbRegAppTableRecord
  2
ACAD
 70
     0
  0
APPID
  5
606
330
1F
100
AcDbSymbolTableRecord
100
AcDbRegAppTableRecord
  2
ASKOBJSC
 70
     0
  0
APPID
  5
607
330
1F
100
AcDbSymbolTableRecord
100
AcDbRegAppTableRecord
  2
ASKDWGSC
 70
     0
  0
APPID
  5
C67
330
1F
100
AcDbSymbolTableRecord
100
AcDbRegAppTableRecord
  2
CONTENTBLOCKICON
 70
     0
  0
APPID
  5
D1F
330
1F
100
AcDbSymbolTableRecord
100
AcDbRegAppTableRecord
  2
ACAD_EXEMPT_FROM_CAD_STANDARDS
 70
     0
  0
APPID
  5
1107
330
1F
100
AcDbSymbolTableRecord
100
AcDbRegAppTableRecord
  2
ACAUTHENVIRON
 70
     0
  0
APPID
  5
110B
330
1F
100
AcDbSymbolTableRecord
100
AcDbRegAppTableRecord
  2
AcDbDynamicBlockTrueName
 70
     0
  0
APPID
  5
110C
330
1F
100
AcDbSymbolTableRecord
100
AcDbRegAppTableRecord
  2
AcDbDynamicBlockGUID
 70
     0
  0
APPID
  5
110E
330
1F
100
AcDbSymbolTableRecord
100
AcDbRegAppTableRecord
  2
AcDbBlockRepETag
 70
     0
  0
APPID
  5
1A81
330
1F
100
AcDbSymbolTableRecord
100
AcDbRegAppTableRecord
  2
GENIUS_GENODEF_13
 70
     0
  0
APPID
  5
1A82
330
1F
100
AcDbSymbolTableRecord
100
AcDbRegAppTableRecord
  2
GENIUS_GENOBJ-N-CEN_13
 70
     0
  0
APPID
  5
1A83
330
1F
100
AcDbSymbolTableRecord
100
AcDbRegAppTableRecord
  2
GENIUS_GENOBJ-N-FIL_13
 70
     0
  0
APPID
  5
1A84
330
1F
100
AcDbSymbolTableRecord
100
AcDbRegAppTableRecord
  2
GENIUS_GENCEN_19
 70
     0
  0
APPID
  5
2048
330
1F
100
AcDbSymbolTableRecord
100
AcDbRegAppTableRecord
  2
GENIUS_GENFIL_13
 70
     0
  0
APPID
  5
2049
330
1F
100
AcDbSymbolTableRecord
100
AcDbRegAppTableRecord
  2
GENIUS_GENOBJ-N-CHA_13
 70
     0
  0
APPID
  5
20E9
330
1F
100
AcDbSymbolTableRecord
100
AcDbRegAppTableRecord
  2
GENIUS_GENREC_14
 70
     0
  0
APPID
  5
20EA
330
1F
100
AcDbSymbolTableRecord
100
AcDbRegAppTableRecord
  2
GENIUS_GENOBJ-N-REC_13
 70
     0
  0
APPID
  5
20EB
330
1F
100
AcDbSymbolTableRecord
100
AcDbRegAppTableRecord
  2
GENIUS_GENOBJ-N-HTC_13
 70
     0
  0
APPID
  5
20EC
330
1F
100
AcDbSymbolTableRecord
100
AcDbRegAppTableRecord
  2
GENIUS_GENHATCH_13
 70
     0
  0
APPID
  5
2B8C
330
1F
100
AcDbSymbolTableRecord
100
AcDbRegAppTableRecord
  2
ACAD_PSEXT
 70
     0
  0
APPID
  5
4879
330
1F
100
AcDbSymbolTableRecord
100
AcDbRegAppTableRecord
  2
ACAD_DSTYLE_DIMJOGGED_JOGANGLE_SYMBOL
 70
     0
  0
APPID
  5
6566
330
1F
100
AcDbSymbolTableRecord
100
AcDbRegAppTableRecord
  2
ACAD_NAV_VCDISPLAY
 70
     0
  0
APPID
  5
693C
330
1F
100
AcDbSymbolTableRecord
100
AcDbRegAppTableRecord
  2
GradientColor1ACI
 70
     0
  0
APPID
  5
693D
330
1F
100
AcDbSymbolTableRecord
100
AcDbRegAppTableRecord
  2
GradientColor2ACI
 70
     0
  0
APPID
  5
6CA2
330
1F
100
AcDbSymbolTableRecord
100
AcDbRegAppTableRecord
  2
AcadAnnoMonitorAlertIconDisabled
 70
     0
  0
APPID
  5
D614
330
1F
100
AcDbSymbolTableRecord
100
AcDbRegAppTableRecord
  2
ACAD_DSTYLE_DIMRADIAL_EXTENSION
 70
     0
  0
ENDTAB
  0
TABLE
  2
DIMSTYLE
  5
21
330
0
100
AcDbSymbolTable
 70
     3
100
AcDbDimStyleTable
 71
     1
340
104D
  0
DIMSTYLE
105
104D
330
21
100
AcDbSymbolTableRecord
100
AcDbDimStyleTableRecord
  2
S1
 70
     0
 41
2.0
 42
1.0
 43
0.0
 44
0.0
 73
     0
 74
     0
 77
     3
 78
     8
 79
     2
140
3.0
141
0.0
145
1.0
146
0.7
147
1.0
172
     1
178
     4
179
     2
271
     2
272
     2
279
     1
283
     2
284
     8
285
     8
286
     8
340
16
344
10B
  0
DIMSTYLE
105
104E
102
{ACAD_REACTORS
330
C741
330
C742
330
C743
330
C744
330
C745
330
C746
330
C747
330
C748
330
C749
330
C74D
330
C769
330
C76A
330
C76B
330
C76C
330
C76D
330
C76E
330
C76F
330
C770
330
C771
330
C772
330
C773
330
C774
330
C775
330
C776
330
C777
330
C778
330
C779
102
}
330
21
100
AcDbSymbolTableRecord
100
AcDbDimStyleTableRecord
  2
S1$0
 70
     0
 41
0.8
 42
1.0
 43
0.0
 44
0.0
 73
     0
 74
     0
 77
     3
 78
     8
 79
     2
140
3.0
141
0.0
145
1.0
146
0.7
147
1.0
172
     1
178
     4
179
     2
271
     2
272
     2
279
     1
283
     2
284
     8
285
     8
286
     8
340
16
341
DBC
342
DBC
  0
ENDTAB
  0
TABLE
  2
BLOCK_RECORD
  5
1
330
0
100
AcDbSymbolTable
 70
    30
  0
BLOCK_RECORD
  5
2
102
{ACAD_XDICTIONARY
360
3
102
}
330
1
100
AcDbSymbolTableRecord
100
AcDbBlockTableRecord
  2
*MODEL_SPACE
340
C
 70
     0
280
     1
281
     0
  0
BLOCK_RECORD
  5
E
102
{ACAD_XDICTIONARY
360
F
102
}
330
1
100
AcDbSymbolTableRecord
100
AcDbBlockTableRecord
  2
*PAPER_SPACE
340
13
 70
     0
280
     1
281
     0
  0
BLOCK_RECORD
  5
10B
330
1
100
AcDbSymbolTableRecord
100
AcDbBlockTableRecord
  2
_DOTSMALL
340
0
 70
     0
280
     1
281
     0
  0
BLOCK_RECORD
  5
DBC
330
1
100
AcDbSymbolTableRecord
100
AcDbBlockTableRecord
  2
_Dot
340
0
310
2800000020000000200000000100080000000000000400000000000000000000000000000000000000000000000080000080000000808000800000008000800080800000C0C0C000C0DCC000F0CAA6000020400000206000002080000020A0000020C0000020E00000400000004020000040400000406000004080000040A0
310
000040C0000040E00000600000006020000060400000606000006080000060A0000060C0000060E00000800000008020000080400000806000008080000080A0000080C0000080E00000A0000000A0200000A0400000A0600000A0800000A0A00000A0C00000A0E00000C0000000C0200000C0400000C0600000C0800000C0
310
A00000C0C00000C0E00000E0000000E0200000E0400000E0600000E0800000E0A00000E0C00000E0E00040000000400020004000400040006000400080004000A0004000C0004000E00040200000402020004020400040206000402080004020A0004020C0004020E000404000004040200040404000404060004040800040
310
40A0004040C0004040E00040600000406020004060400040606000406080004060A0004060C0004060E00040800000408020004080400040806000408080004080A0004080C0004080E00040A0000040A0200040A0400040A0600040A0800040A0A00040A0C00040A0E00040C0000040C0200040C0400040C0600040C08000
310
40C0A00040C0C00040C0E00040E0000040E0200040E0400040E0600040E0800040E0A00040E0C00040E0E00080000000800020008000400080006000800080008000A0008000C0008000E00080200000802020008020400080206000802080008020A0008020C0008020E00080400000804020008040400080406000804080
310
008040A0008040C0008040E00080600000806020008060400080606000806080008060A0008060C0008060E00080800000808020008080400080806000808080008080A0008080C0008080E00080A0000080A0200080A0400080A0600080A0800080A0A00080A0C00080A0E00080C0000080C0200080C0400080C0600080C0
310
800080C0A00080C0C00080C0E00080E0000080E0200080E0400080E0600080E0800080E0A00080E0C00080E0E000C0000000C0002000C0004000C0006000C0008000C000A000C000C000C000E000C0200000C0202000C0204000C0206000C0208000C020A000C020C000C020E000C0400000C0402000C0404000C0406000C0
310
408000C040A000C040C000C040E000C0600000C0602000C0604000C0606000C0608000C060A000C060C000C060E000C0800000C0802000C0804000C0806000C0808000C080A000C080C000C080E000C0A00000C0A02000C0A04000C0A06000C0A08000C0A0A000C0A0C000C0A0E000C0C00000C0C02000C0C04000C0C06000
310
C0C08000C0C0A000F0FBFF00A4A0A000808080000000FF0000FF000000FFFF00FF000000FF00FF00FFFF0000FFFFFF0000000000000000000000000000000000000000000000000000000000000000000000000000000000000000000000000000000000000000000000000000000000000000000000000000000000000000
310
000000000000000000000000000000000000000000000000000000000000000000000000000000000000000000000000000000000000000000000000000000000000000000000000000000000000000000000000000000000000000000000000000000FFFFFFFFFFFFFFFFFFFFFFFFFF000000000000000000000000000000
310
000000FF00FF000000000000000000FF00FF0000000000000000000000000000000000FF00FF000000000000000000FF00FF00000000000000000000000000000000FF000000FF00000000000000FF00000000000000000000000000000000000000FF000000FF00000000000000FF00000000000000000000000000000000
310
0000FF0000000000FF0000000000FF00000000000000000000000000000000000000FF0000000000FF0000000000FF000000000000000000000000000000000000FF00000000000000FF000000FF00000000000000000000000000000000000000FF00000000000000FF000000FF0000000000000000000000000000000000
310
00FF000000000000000000FF00FF00000000000000000000000000000000000000FF000000000000000000FFFFFF00000000FFFF00FFFFFFFFFFFFFFFFFFFFFFFFFFFFFFFFFFFFFFFFFFFFFFFFFFFFFFFFFF000000000000000000000000000000FF000000000000000000FF00FF0000000000000000000000000000000000
310
0000FF0000000000000000FF000000FF00000000000000000000000000000000000000FF00000000000000FF000000FF00000000000000000000000000000000000000FF000000000000FF0000000000FF00000000000000000000000000000000000000FF0000000000FF0000000000FF0000000000000000000000000000
310
000000000000FF000000FF00000000000000FF00000000000000000000000000000000000000FF000000FF00000000000000FF0000000000000000000000000000000000000000FF00FF000000000000000000FF00FF0000000000000000000000000000000000FF00FF000000000000000000FF00FF000000000000000000
310
000000000000000000FFFFFFFFFFFFFFFFFFFFFFFFFF000000000000000000000000000000000000000000000000000000000000000000000000000000000000000000000000000000000000000000000000000000000000000000000000000000000000000000000000000000000000000000000000000000000000000000
310
0000000000000000000000000000000000000000000000000000000000000000000000000000000000000000000000000000000000000000
102
{BLKREFS
331
D721
331
D722
331
D72A
331
D72B
331
D733
331
D734
331
D73C
331
D73D
331
D745
331
D746
331
D74E
331
D74F
331
D757
331
D758
331
D760
331
D761
331
D769
331
D76A
331
D772
331
D773
331
D77B
331
D77C
331
D784
331
D785
331
D78D
331
D78E
331
D796
331
D797
331
D79F
331
D7A0
331
D7A8
331
D7A9
331
D7B1
331
D7B2
331
D7BA
331
D7BB
331
D7C3
331
D7C4
331
D7CC
331
D7CD
331
D7D5
331
D7D6
331
D7DE
331
D7DF
331
D7E7
331
D7E8
331
D7F0
331
D7F1
331
D7F9
331
D7FA
331
D807
331
D808
331
D814
331
D815
102
}
 70
     0
280
     1
281
     0
  0
BLOCK_RECORD
  5
C9BE
330
1
100
AcDbSymbolTableRecord
100
AcDbBlockTableRecord
  2
*D2
340
0
 70
     0
280
     1
281
     0
  0
BLOCK_RECORD
  5
C9CA
330
1
100
AcDbSymbolTableRecord
100
AcDbBlockTableRecord
  2
*D3
340
0
 70
     0
280
     1
281
     0
  0
BLOCK_RECORD
  5
C9D6
330
1
100
AcDbSymbolTableRecord
100
AcDbBlockTableRecord
  2
*D4
340
0
 70
     0
280
     1
281
     0
  0
BLOCK_RECORD
  5
C9E2
330
1
100
AcDbSymbolTableRecord
100
AcDbBlockTableRecord
  2
*D5
340
0
 70
     0
280
     1
281
     0
  0
BLOCK_RECORD
  5
C9EE
330
1
100
AcDbSymbolTableRecord
100
AcDbBlockTableRecord
  2
*D6
340
0
 70
     0
280
     1
281
     0
  0
BLOCK_RECORD
  5
C9FA
330
1
100
AcDbSymbolTableRecord
100
AcDbBlockTableRecord
  2
*D7
340
0
 70
     0
280
     1
281
     0
  0
BLOCK_RECORD
  5
CA06
330
1
100
AcDbSymbolTableRecord
100
AcDbBlockTableRecord
  2
*D8
340
0
 70
     0
280
     1
281
     0
  0
BLOCK_RECORD
  5
CA12
330
1
100
AcDbSymbolTableRecord
100
AcDbBlockTableRecord
  2
*D9
340
0
 70
     0
280
     1
281
     0
  0
BLOCK_RECORD
  5
CA1E
330
1
100
AcDbSymbolTableRecord
100
AcDbBlockTableRecord
  2
*D10
340
0
 70
     0
280
     1
281
     0
  0
BLOCK_RECORD
  5
CA2A
330
1
100
AcDbSymbolTableRecord
100
AcDbBlockTableRecord
  2
*D11
340
0
 70
     0
280
     1
281
     0
  0
BLOCK_RECORD
  5
CA36
330
1
100
AcDbSymbolTableRecord
100
AcDbBlockTableRecord
  2
*D12
340
0
 70
     0
280
     1
281
     0
  0
BLOCK_RECORD
  5
CA42
330
1
100
AcDbSymbolTableRecord
100
AcDbBlockTableRecord
  2
*D13
340
0
 70
     0
280
     1
281
     0
  0
BLOCK_RECORD
  5
CA4E
330
1
100
AcDbSymbolTableRecord
100
AcDbBlockTableRecord
  2
*D14
340
0
 70
     0
280
     1
281
     0
  0
BLOCK_RECORD
  5
CA5A
330
1
100
AcDbSymbolTableRecord
100
AcDbBlockTableRecord
  2
*D15
340
0
 70
     0
280
     1
281
     0
  0
BLOCK_RECORD
  5
CA66
330
1
100
AcDbSymbolTableRecord
100
AcDbBlockTableRecord
  2
*D16
340
0
 70
     0
280
     1
281
     0
  0
BLOCK_RECORD
  5
CA72
330
1
100
AcDbSymbolTableRecord
100
AcDbBlockTableRecord
  2
*D17
340
0
 70
     0
280
     1
281
     0
  0
BLOCK_RECORD
  5
CA7E
330
1
100
AcDbSymbolTableRecord
100
AcDbBlockTableRecord
  2
*D18
340
0
 70
     0
280
     1
281
     0
  0
BLOCK_RECORD
  5
CA8A
330
1
100
AcDbSymbolTableRecord
100
AcDbBlockTableRecord
  2
*D19
340
0
 70
     0
280
     1
281
     0
  0
BLOCK_RECORD
  5
CA96
330
1
100
AcDbSymbolTableRecord
100
AcDbBlockTableRecord
  2
*D20
340
0
 70
     0
280
     1
281
     0
  0
BLOCK_RECORD
  5
CAA2
330
1
100
AcDbSymbolTableRecord
100
AcDbBlockTableRecord
  2
*D21
340
0
 70
     0
280
     1
281
     0
  0
BLOCK_RECORD
  5
CAAE
330
1
100
AcDbSymbolTableRecord
100
AcDbBlockTableRecord
  2
*D22
340
0
 70
     0
280
     1
281
     0
  0
BLOCK_RECORD
  5
CABA
330
1
100
AcDbSymbolTableRecord
100
AcDbBlockTableRecord
  2
*D23
340
0
 70
     0
280
     1
281
     0
  0
BLOCK_RECORD
  5
CAC6
330
1
100
AcDbSymbolTableRecord
100
AcDbBlockTableRecord
  2
*D24
340
0
 70
     0
280
     1
281
     0
  0
BLOCK_RECORD
  5
CAD2
330
1
100
AcDbSymbolTableRecord
100
AcDbBlockTableRecord
  2
*D25
340
0
 70
     0
280
     1
281
     0
  0
BLOCK_RECORD
  5
CADE
330
1
100
AcDbSymbolTableRecord
100
AcDbBlockTableRecord
  2
*D26
340
0
 70
     0
280
     1
281
     0
  0
BLOCK_RECORD
  5
CAEA
330
1
100
AcDbSymbolTableRecord
100
AcDbBlockTableRecord
  2
*D27
340
0
 70
     0
280
     1
281
     0
  0
BLOCK_RECORD
  5
CAFA
330
1
100
AcDbSymbolTableRecord
100
AcDbBlockTableRecord
  2
*D28
340
0
 70
     0
280
     1
281
     0
  0
ENDTAB
  0
ENDSEC
  0
SECTION
  2
BLOCKS
  0
BLOCK
  5
5
330
2
100
AcDbEntity
  8
0
100
AcDbBlockBegin
  2
*MODEL_SPACE
 70
     0
 10
0.0
 20
0.0
 30
0.0
  3
*MODEL_SPACE
  1

  0
ENDBLK
  5
B
330
2
100
AcDbEntity
  8
0
100
AcDbBlockEnd
  0
BLOCK
  5
11
330
E
100
AcDbEntity
 67
     1
  8
0
100
AcDbBlockBegin
  2
*PAPER_SPACE
 70
     0
 10
0.0
 20
0.0
 30
0.0
  3
*PAPER_SPACE
  1

  0
ENDBLK
  5
12
330
E
100
AcDbEntity
 67
     1
  8
0
100
AcDbBlockEnd
  0
BLOCK
  5
10C
330
10B
100
AcDbEntity
  8
0
100
AcDbBlockBegin
  2
_DOTSMALL
 70
     0
 10
0.0
 20
0.0
 30
0.0
  3
_DOTSMALL
  1

  0
LWPOLYLINE
  5
10D
330
10B
100
AcDbEntity
  8
0
  6
ByBlock
 62
     0
100
AcDbPolyline
 90
        2
 70
     1
 43
0.5
 10
-0.0625
 20
0.0
 42
1.0
 10
0.0625
 20
0.0
 42
1.0
  0
ENDBLK
  5
10E
330
10B
100
AcDbEntity
  8
0
100
AcDbBlockEnd
  0
BLOCK
  5
DBD
330
DBC
100
AcDbEntity
  8
0
100
AcDbBlockBegin
  2
_Dot
 70
     0
 10
0.0
 20
0.0
 30
0.0
  3
_Dot
  1

  0
LWPOLYLINE
  5
DBE
330
DBC
100
AcDbEntity
  8
0
  6
ByBlock
 62
     0
100
AcDbPolyline
 90
        2
 70
     1
 43
0.5
 10
-0.25
 20
0.0
 42
1.0
 10
0.25
 20
0.0
 42
1.0
  0
LINE
  5
DBF
330
DBC
100
AcDbEntity
  8
0
  6
ByBlock
 62
     0
370
    -2
100
AcDbLine
 10
-0.5
 20
0.0
 30
0.0
 11
-1.0
 21
0.0
 31
0.0
  0
ENDBLK
  5
DC0
330
DBC
100
AcDbEntity
  8
0
100
AcDbBlockEnd
  0
BLOCK
  5
C9BF
330
C9BE
100
AcDbEntity
  8
0
100
AcDbBlockBegin
  2
*D2
 70
     1
 10
0.0
 20
0.0
 30
0.0
  3
*D2
  1

  0
LINE
  5
D71E
330
C9BE
100
AcDbEntity
  8
ADM
 62
     0
440
 16777216
370
    -2
100
AcDbLine
 10
39.89719144851483
 20
18.76792811928214
 30
0.0
 11
39.89719144851483
 21
12.34362558948328
 31
0.0
  0
LINE
  5
D71F
330
C9BE
100
AcDbEntity
  8
ADM
 62
     0
440
 16777216
370
    -2
100
AcDbLine
 10
84.89719144851482
 20
18.76792811928214
 30
0.0
 11
84.89719144851482
 21
12.34362558948328
 31
0.0
  0
LINE
  5
D720
330
C9BE
100
AcDbEntity
  8
ADM
 62
     0
440
 16777216
370
    -2
100
AcDbLine
 10
40.69719144851482
 20
12.34362558948328
 30
0.0
 11
84.09719144851484
 21
12.34362558948328
 31
0.0
  0
INSERT
  5
D721
330
C9BE
100
AcDbEntity
  8
ADM
 62
     0
440
 16777216
370
    -2
100
AcDbBlockReference
  2
_Dot
 10
39.89719144851483
 20
12.34362558948328
 30
0.0
 41
0.8
 42
0.8
 43
0.8
 50
180.0
  0
INSERT
  5
D722
330
C9BE
100
AcDbEntity
  8
ADM
 62
     0
440
 16777216
370
    -2
100
AcDbBlockReference
  2
_Dot
 10
84.89719144851482
 20
12.34362558948328
 30
0.0
 41
0.8
 42
0.8
 43
0.8
  0
MTEXT
  5
D723
330
C9BE
100
AcDbEntity
  8
ADM
 62
     4
440
 16777216
100
AcDbMText
 10
62.39719144851483
 20
14.84362558948328
 30
0.0
 40
3.0
 41
0.0
 46
0.0
 71
     5
 72
     1
  1
\A2;45
 73
     1
 44
1.0
  0
POINT
  5
D724
330
C9BE
100
AcDbEntity
  8
DEFPOINTS
 62
     0
440
 16777216
100
AcDbPoint
 10
39.89719144851483
 20
19.76792811928214
 30
0.0
  0
POINT
  5
D725
330
C9BE
100
AcDbEntity
  8
DEFPOINTS
 62
     0
440
 16777216
100
AcDbPoint
 10
84.89719144851482
 20
19.76792811928214
 30
0.0
  0
POINT
  5
D726
330
C9BE
100
AcDbEntity
  8
DEFPOINTS
 62
     0
440
 16777216
100
AcDbPoint
 10
84.89719144851482
 20
12.34362558948328
 30
0.0
  0
ENDBLK
  5
C9C0
330
C9BE
100
AcDbEntity
  8
0
100
AcDbBlockEnd
  0
BLOCK
  5
C9CB
330
C9CA
100
AcDbEntity
  8
0
100
AcDbBlockBegin
  2
*D3
 70
     1
 10
0.0
 20
0.0
 30
0.0
  3
*D3
  1

  0
LINE
  5
D727
330
C9CA
100
AcDbEntity
  8
ADM
 62
     0
440
 16777216
370
    -2
100
AcDbLine
 10
36.89719144851688
 20
18.76792811928214
 30
0.0
 11
36.89719144851688
 21
5.058868499882692
 31
0.0
  0
LINE
  5
D728
330
C9CA
100
AcDbEntity
  8
ADM
 62
     0
440
 16777216
370
    -2
100
AcDbLine
 10
86.89719144851688
 20
18.76792811928214
 30
0.0
 11
86.89719144851688
 21
5.058868499882692
 31
0.0
  0
LINE
  5
D729
330
C9CA
100
AcDbEntity
  8
ADM
 62
     0
440
 16777216
370
    -2
100
AcDbLine
 10
37.69719144851688
 20
5.058868499882692
 30
0.0
 11
86.09719144851688
 21
5.058868499882692
 31
0.0
  0
INSERT
  5
D72A
330
C9CA
100
AcDbEntity
  8
ADM
 62
     0
440
 16777216
370
    -2
100
AcDbBlockReference
  2
_Dot
 10
36.89719144851688
 20
5.058868499882692
 30
0.0
 41
0.8
 42
0.8
 43
0.8
 50
180.0
  0
INSERT
  5
D72B
330
C9CA
100
AcDbEntity
  8
ADM
 62
     0
440
 16777216
370
    -2
100
AcDbBlockReference
  2
_Dot
 10
86.89719144851688
 20
5.058868499882692
 30
0.0
 41
0.8
 42
0.8
 43
0.8
  0
MTEXT
  5
D72C
330
C9CA
100
AcDbEntity
  8
ADM
 62
     4
440
 16777216
100
AcDbMText
 10
61.89719144851688
 20
7.558868499882692
 30
0.0
 40
3.0
 41
0.0
 46
0.0
 71
     5
 72
     1
  1
\A2;50
 73
     1
 44
1.0
  0
POINT
  5
D72D
330
C9CA
100
AcDbEntity
  8
DEFPOINTS
 62
     0
440
 16777216
100
AcDbPoint
 10
36.89719144851688
 20
19.76792811928214
 30
0.0
  0
POINT
  5
D72E
330
C9CA
100
AcDbEntity
  8
DEFPOINTS
 62
     0
440
 16777216
100
AcDbPoint
 10
86.89719144851688
 20
19.76792811928214
 30
0.0
  0
POINT
  5
D72F
330
C9CA
100
AcDbEntity
  8
DEFPOINTS
 62
     0
440
 16777216
100
AcDbPoint
 10
86.89719144851688
 20
5.058868499882692
 30
0.0
  0
ENDBLK
  5
C9CC
330
C9CA
100
AcDbEntity
  8
0
100
AcDbBlockEnd
  0
BLOCK
  5
C9D7
330
C9D6
100
AcDbEntity
  8
0
100
AcDbBlockBegin
  2
*D4
 70
     1
 10
0.0
 20
0.0
 30
0.0
  3
*D4
  1

  0
LINE
  5
D730
330
C9D6
100
AcDbEntity
  8
ADM
 62
     0
440
 16777216
370
    -2
100
AcDbLine
 10
35.89719144851688
 20
269.7679281192822
 30
0.0
 11
9.044333516993503
 21
269.7679281192822
 31
0.0
  0
LINE
  5
D731
330
C9D6
100
AcDbEntity
  8
ADM
 62
     0
440
 16777216
370
    -2
100
AcDbLine
 10
35.89719144851688
 20
19.76792811928214
 30
0.0
 11
9.044333516993447
 21
19.76792811928215
 31
0.0
  0
LINE
  5
D732
330
C9D6
100
AcDbEntity
  8
ADM
 62
     0
440
 16777216
370
    -2
100
AcDbLine
 10
9.044333516993503
 20
268.9679281192822
 30
0.0
 11
9.044333516993448
 21
20.56792811928215
 31
0.0
  0
INSERT
  5
D733
330
C9D6
100
AcDbEntity
  8
ADM
 62
     0
440
 16777216
370
    -2
100
AcDbBlockReference
  2
_Dot
 10
9.044333516993503
 20
269.7679281192822
 30
0.0
 41
0.8
 42
0.8
 43
0.8
 50
90.0
  0
INSERT
  5
D734
330
C9D6
100
AcDbEntity
  8
ADM
 62
     0
440
 16777216
370
    -2
100
AcDbBlockReference
  2
_Dot
 10
9.044333516993447
 20
19.76792811928215
 30
0.0
 41
0.8
 42
0.8
 43
0.8
 50
270.0
  0
MTEXT
  5
D735
330
C9D6
100
AcDbEntity
  8
ADM
 62
     4
440
 16777216
100
AcDbMText
 10
6.544333516993452
 20
144.7679281192822
 30
0.0
 40
3.0
 41
0.0
 46
0.0
 71
     5
 72
     1
  1
\A2;H
 11
0.0000000000000001
 21
1.0
 31
0.0
 73
     1
 44
1.0
  0
POINT
  5
D736
330
C9D6
100
AcDbEntity
  8
DEFPOINTS
 62
     0
440
 16777216
100
AcDbPoint
 10
36.89719144851688
 20
269.7679281192822
 30
0.0
  0
POINT
  5
D737
330
C9D6
100
AcDbEntity
  8
DEFPOINTS
 62
     0
440
 16777216
100
AcDbPoint
 10
36.89719144851688
 20
19.76792811928214
 30
0.0
  0
POINT
  5
D738
330
C9D6
100
AcDbEntity
  8
DEFPOINTS
 62
     0
440
 16777216
100
AcDbPoint
 10
9.044333516993447
 20
19.76792811928215
 30
0.0
  0
ENDBLK
  5
C9D8
330
C9D6
100
AcDbEntity
  8
0
100
AcDbBlockEnd
  0
BLOCK
  5
C9E3
330
C9E2
100
AcDbEntity
  8
0
100
AcDbBlockBegin
  2
*D5
 70
     1
 10
0.0
 20
0.0
 30
0.0
  3
*D5
  1

  0
LINE
  5
D739
330
C9E2
100
AcDbEntity
  8
ADM
 62
     0
440
 16777216
370
    -2
100
AcDbLine
 10
50.39719144851687
 20
236.7679281192823
 30
0.0
 11
19.89901260470332
 21
236.7679281192823
 31
0.0
  0
LINE
  5
D73A
330
C9E2
100
AcDbEntity
  8
ADM
 62
     0
440
 16777216
370
    -2
100
AcDbLine
 10
35.89719144851688
 20
269.7679281192822
 30
0.0
 11
19.89901260470333
 21
269.7679281192822
 31
0.0
  0
LINE
  5
D73B
330
C9E2
100
AcDbEntity
  8
ADM
 62
     0
440
 16777216
370
    -2
100
AcDbLine
 10
19.89901260470332
 20
237.5679281192823
 30
0.0
 11
19.89901260470333
 21
268.9679281192822
 31
0.0
  0
INSERT
  5
D73C
330
C9E2
100
AcDbEntity
  8
ADM
 62
     0
440
 16777216
370
    -2
100
AcDbBlockReference
  2
_Dot
 10
19.89901260470332
 20
236.7679281192823
 30
0.0
 41
0.8
 42
0.8
 43
0.8
 50
270.0
  0
INSERT
  5
D73D
330
C9E2
100
AcDbEntity
  8
ADM
 62
     0
440
 16777216
370
    -2
100
AcDbBlockReference
  2
_Dot
 10
19.89901260470333
 20
269.7679281192822
 30
0.0
 41
0.8
 42
0.8
 43
0.8
 50
90.0
  0
MTEXT
  5
D73E
330
C9E2
100
AcDbEntity
  8
ADM
 62
     4
440
 16777216
100
AcDbMText
 10
17.39901260470328
 20
253.2679281192822
 30
0.0
 40
3.0
 41
0.0
 46
0.0
 71
     5
 72
     1
  1
\A2;33
 11
0.0000000000000001
 21
1.0
 31
0.0
 73
     1
 44
1.0
  0
POINT
  5
D73F
330
C9E2
100
AcDbEntity
  8
DEFPOINTS
 62
     0
440
 16777216
100
AcDbPoint
 10
51.39719144851688
 20
236.7679281192823
 30
0.0
  0
POINT
  5
D740
330
C9E2
100
AcDbEntity
  8
DEFPOINTS
 62
     0
440
 16777216
100
AcDbPoint
 10
36.89719144851688
 20
269.7679281192822
 30
0.0
  0
POINT
  5
D741
330
C9E2
100
AcDbEntity
  8
DEFPOINTS
 62
     0
440
 16777216
100
AcDbPoint
 10
19.89901260470333
 20
269.7679281192822
 30
0.0
  0
ENDBLK
  5
C9E4
330
C9E2
100
AcDbEntity
  8
0
100
AcDbBlockEnd
  0
BLOCK
  5
C9EF
330
C9EE
100
AcDbEntity
  8
0
100
AcDbBlockBegin
  2
*D6
 70
     1
 10
0.0
 20
0.0
 30
0.0
  3
*D6
  1

  0
LINE
  5
D742
330
C9EE
100
AcDbEntity
  8
ADM
 62
     0
440
 16777216
370
    -2
100
AcDbLine
 10
50.39719144851687
 20
52.76792811928214
 30
0.0
 11
19.88181945428596
 21
52.76792811928215
 31
0.0
  0
LINE
  5
D743
330
C9EE
100
AcDbEntity
  8
ADM
 62
     0
440
 16777216
370
    -2
100
AcDbLine
 10
35.89719144851688
 20
19.76792811928214
 30
0.0
 11
19.88181945428596
 21
19.76792811928215
 31
0.0
  0
LINE
  5
D744
330
C9EE
100
AcDbEntity
  8
ADM
 62
     0
440
 16777216
370
    -2
100
AcDbLine
 10
19.88181945428596
 20
51.96792811928215
 30
0.0
 11
19.88181945428596
 21
20.56792811928215
 31
0.0
  0
INSERT
  5
D745
330
C9EE
100
AcDbEntity
  8
ADM
 62
     0
440
 16777216
370
    -2
100
AcDbBlockReference
  2
_Dot
 10
19.88181945428596
 20
52.76792811928215
 30
0.0
 41
0.8
 42
0.8
 43
0.8
 50
90.0
  0
INSERT
  5
D746
330
C9EE
100
AcDbEntity
  8
ADM
 62
     0
440
 16777216
370
    -2
100
AcDbBlockReference
  2
_Dot
 10
19.88181945428596
 20
19.76792811928215
 30
0.0
 41
0.8
 42
0.8
 43
0.8
 50
270.0
  0
MTEXT
  5
D747
330
C9EE
100
AcDbEntity
  8
ADM
 62
     4
440
 16777216
100
AcDbMText
 10
17.38181945428596
 20
36.26792811928216
 30
0.0
 40
3.0
 41
0.0
 46
0.0
 71
     5
 72
     1
  1
\A2;33
 11
0.0000000000000001
 21
1.0
 31
0.0
 73
     1
 44
1.0
  0
POINT
  5
D748
330
C9EE
100
AcDbEntity
  8
DEFPOINTS
 62
     0
440
 16777216
100
AcDbPoint
 10
51.39719144851688
 20
52.76792811928214
 30
0.0
  0
POINT
  5
D749
330
C9EE
100
AcDbEntity
  8
DEFPOINTS
 62
     0
440
 16777216
100
AcDbPoint
 10
36.89719144851688
 20
19.76792811928214
 30
0.0
  0
POINT
  5
D74A
330
C9EE
100
AcDbEntity
  8
DEFPOINTS
 62
     0
440
 16777216
100
AcDbPoint
 10
19.88181945428596
 20
19.76792811928215
 30
0.0
  0
ENDBLK
  5
C9F0
330
C9EE
100
AcDbEntity
  8
0
100
AcDbBlockEnd
  0
BLOCK
  5
C9FB
330
C9FA
100
AcDbEntity
  8
0
100
AcDbBlockBegin
  2
*D7
 70
     1
 10
0.0
 20
0.0
 30
0.0
  3
*D7
  1

  0
LINE
  5
D74B
330
C9FA
100
AcDbEntity
  8
ADM
 62
     0
440
 16777216
370
    -2
100
AcDbLine
 10
50.39719144851687
 20
52.76792811928214
 30
0.0
 11
19.89901260470329
 21
52.76792811928215
 31
0.0
  0
LINE
  5
D74C
330
C9FA
100
AcDbEntity
  8
ADM
 62
     0
440
 16777216
370
    -2
100
AcDbLine
 10
50.39719144851687
 20
236.7679281192823
 30
0.0
 11
19.89901260470333
 21
236.7679281192823
 31
0.0
  0
LINE
  5
D74D
330
C9FA
100
AcDbEntity
  8
ADM
 62
     0
440
 16777216
370
    -2
100
AcDbLine
 10
19.89901260470329
 20
53.56792811928215
 30
0.0
 11
19.89901260470333
 21
235.9679281192823
 31
0.0
  0
INSERT
  5
D74E
330
C9FA
100
AcDbEntity
  8
ADM
 62
     0
440
 16777216
370
    -2
100
AcDbBlockReference
  2
_Dot
 10
19.89901260470329
 20
52.76792811928215
 30
0.0
 41
0.8
 42
0.8
 43
0.8
 50
270.0
  0
INSERT
  5
D74F
330
C9FA
100
AcDbEntity
  8
ADM
 62
     0
440
 16777216
370
    -2
100
AcDbBlockReference
  2
_Dot
 10
19.89901260470333
 20
236.7679281192823
 30
0.0
 41
0.8
 42
0.8
 43
0.8
 50
90.0
  0
MTEXT
  5
D750
330
C9FA
100
AcDbEntity
  8
ADM
 62
     4
440
 16777216
100
AcDbMText
 10
17.39901260470328
 20
144.7679281192822
 30
0.0
 40
3.0
 41
0.0
 46
0.0
 71
     5
 72
     1
  1
\A2;H-66
 11
0.0000000000000001
 21
1.0
 31
0.0
 73
     1
 44
1.0
  0
POINT
  5
D751
330
C9FA
100
AcDbEntity
  8
DEFPOINTS
 62
     0
440
 16777216
100
AcDbPoint
 10
51.39719144851688
 20
52.76792811928214
 30
0.0
  0
POINT
  5
D752
330
C9FA
100
AcDbEntity
  8
DEFPOINTS
 62
     0
440
 16777216
100
AcDbPoint
 10
51.39719144851688
 20
236.7679281192823
 30
0.0
  0
POINT
  5
D753
330
C9FA
100
AcDbEntity
  8
DEFPOINTS
 62
     0
440
 16777216
100
AcDbPoint
 10
19.89901260470333
 20
236.7679281192823
 30
0.0
  0
ENDBLK
  5
C9FC
330
C9FA
100
AcDbEntity
  8
0
100
AcDbBlockEnd
  0
BLOCK
  5
CA07
330
CA06
100
AcDbEntity
  8
0
100
AcDbBlockBegin
  2
*D8
 70
     1
 10
0.0
 20
0.0
 30
0.0
  3
*D8
  1

  0
LINE
  5
D754
330
CA06
100
AcDbEntity
  8
ADM
 62
     0
440
 16777216
370
    -2
100
AcDbLine
 10
370.3437397443786
 20
95.30331918690206
 30
0.0
 11
370.3437397443786
 21
32.02234674075112
 31
0.0
  0
LINE
  5
D755
330
CA06
100
AcDbEntity
  8
ADM
 62
     0
440
 16777216
370
    -2
100
AcDbLine
 10
140.3437397443742
 20
95.30331918690206
 30
0.0
 11
140.3437397443742
 21
32.02234674075112
 31
0.0
  0
LINE
  5
D756
330
CA06
100
AcDbEntity
  8
ADM
 62
     0
440
 16777216
370
    -2
100
AcDbLine
 10
369.5437397443786
 20
32.02234674075112
 30
0.0
 11
141.1437397443743
 21
32.02234674075112
 31
0.0
  0
INSERT
  5
D757
330
CA06
100
AcDbEntity
  8
ADM
 62
     0
440
 16777216
370
    -2
100
AcDbBlockReference
  2
_Dot
 10
370.3437397443786
 20
32.02234674075112
 30
0.0
 41
0.8
 42
0.8
 43
0.8
  0
INSERT
  5
D758
330
CA06
100
AcDbEntity
  8
ADM
 62
     0
440
 16777216
370
    -2
100
AcDbBlockReference
  2
_Dot
 10
140.3437397443742
 20
32.02234674075112
 30
0.0
 41
0.8
 42
0.8
 43
0.8
 50
180.0
  0
MTEXT
  5
D759
330
CA06
100
AcDbEntity
  8
ADM
 62
     4
440
 16777216
100
AcDbMText
 10
255.3437397443764
 20
34.52234674075112
 30
0.0
 40
3.0
 41
0.0
 46
0.0
 71
     5
 72
     1
  1
\A2;W
 73
     1
 44
1.0
  0
POINT
  5
D75A
330
CA06
100
AcDbEntity
  8
DEFPOINTS
 62
     0
440
 16777216
100
AcDbPoint
 10
370.3437397443786
 20
96.30331918690206
 30
0.0
  0
POINT
  5
D75B
330
CA06
100
AcDbEntity
  8
DEFPOINTS
 62
     0
440
 16777216
100
AcDbPoint
 10
140.3437397443742
 20
96.30331918690206
 30
0.0
  0
POINT
  5
D75C
330
CA06
100
AcDbEntity
  8
DEFPOINTS
 62
     0
440
 16777216
100
AcDbPoint
 10
140.3437397443742
 20
32.02234674075112
 30
0.0
  0
ENDBLK
  5
CA08
330
CA06
100
AcDbEntity
  8
0
100
AcDbBlockEnd
  0
BLOCK
  5
CA13
330
CA12
100
AcDbEntity
  8
0
100
AcDbBlockBegin
  2
*D9
 70
     1
 10
0.0
 20
0.0
 30
0.0
  3
*D9
  1

  0
LINE
  5
D75D
330
CA12
100
AcDbEntity
  8
ADM
 62
     0
440
 16777216
370
    -2
100
AcDbLine
 10
353.3437397443766
 20
95.80331918690239
 30
0.0
 11
353.3437397443766
 21
40.02234674075111
 31
0.0
  0
LINE
  5
D75E
330
CA12
100
AcDbEntity
  8
ADM
 62
     0
440
 16777216
370
    -2
100
AcDbLine
 10
370.3437397443786
 20
95.3033191869024
 30
0.0
 11
370.3437397443786
 21
40.02234674075111
 31
0.0
  0
LINE
  5
D75F
330
CA12
100
AcDbEntity
  8
ADM
 62
     0
440
 16777216
370
    -2
100
AcDbLine
 10
354.1437397443766
 20
40.02234674075111
 30
0.0
 11
369.5437397443786
 21
40.02234674075111
 31
0.0
  0
INSERT
  5
D760
330
CA12
100
AcDbEntity
  8
ADM
 62
     0
440
 16777216
370
    -2
100
AcDbBlockReference
  2
_Dot
 10
353.3437397443766
 20
40.02234674075111
 30
0.0
 41
0.8
 42
0.8
 43
0.8
 50
180.0
  0
INSERT
  5
D761
330
CA12
100
AcDbEntity
  8
ADM
 62
     0
440
 16777216
370
    -2
100
AcDbBlockReference
  2
_Dot
 10
370.3437397443786
 20
40.02234674075111
 30
0.0
 41
0.8
 42
0.8
 43
0.8
  0
MTEXT
  5
D762
330
CA12
100
AcDbEntity
  8
ADM
 62
     4
440
 16777216
100
AcDbMText
 10
361.8437397443777
 20
42.52234674075111
 30
0.0
 40
3.0
 41
0.0
 46
0.0
 71
     5
 72
     1
  1
\A2;17
 73
     1
 44
1.0
  0
POINT
  5
D763
330
CA12
100
AcDbEntity
  8
DEFPOINTS
 62
     0
440
 16777216
100
AcDbPoint
 10
353.3437397443766
 20
96.80331918690241
 30
0.0
  0
POINT
  5
D764
330
CA12
100
AcDbEntity
  8
DEFPOINTS
 62
     0
440
 16777216
100
AcDbPoint
 10
370.3437397443786
 20
96.3033191869024
 30
0.0
  0
POINT
  5
D765
330
CA12
100
AcDbEntity
  8
DEFPOINTS
 62
     0
440
 16777216
100
AcDbPoint
 10
370.3437397443786
 20
40.02234674075111
 30
0.0
  0
ENDBLK
  5
CA14
330
CA12
100
AcDbEntity
  8
0
100
AcDbBlockEnd
  0
BLOCK
  5
CA1F
330
CA1E
100
AcDbEntity
  8
0
100
AcDbBlockBegin
  2
*D10
 70
     1
 10
0.0
 20
0.0
 30
0.0
  3
*D10
  1

  0
LINE
  5
D766
330
CA1E
100
AcDbEntity
  8
ADM
 62
     0
440
 16777216
370
    -2
100
AcDbLine
 10
157.3437397443763
 20
95.80331918690239
 30
0.0
 11
157.3437397443763
 21
40.02234674075111
 31
0.0
  0
LINE
  5
D767
330
CA1E
100
AcDbEntity
  8
ADM
 62
     0
440
 16777216
370
    -2
100
AcDbLine
 10
140.3437397443742
 20
95.30331918690206
 30
0.0
 11
140.3437397443742
 21
40.02234674075111
 31
0.0
  0
LINE
  5
D768
330
CA1E
100
AcDbEntity
  8
ADM
 62
     0
440
 16777216
370
    -2
100
AcDbLine
 10
156.5437397443763
 20
40.02234674075111
 30
0.0
 11
141.1437397443743
 21
40.02234674075111
 31
0.0
  0
INSERT
  5
D769
330
CA1E
100
AcDbEntity
  8
ADM
 62
     0
440
 16777216
370
    -2
100
AcDbBlockReference
  2
_Dot
 10
157.3437397443763
 20
40.02234674075111
 30
0.0
 41
0.8
 42
0.8
 43
0.8
  0
INSERT
  5
D76A
330
CA1E
100
AcDbEntity
  8
ADM
 62
     0
440
 16777216
370
    -2
100
AcDbBlockReference
  2
_Dot
 10
140.3437397443742
 20
40.02234674075111
 30
0.0
 41
0.8
 42
0.8
 43
0.8
 50
180.0
  0
MTEXT
  5
D76B
330
CA1E
100
AcDbEntity
  8
ADM
 62
     4
440
 16777216
100
AcDbMText
 10
148.8437397443752
 20
42.52234674075111
 30
0.0
 40
3.0
 41
0.0
 46
0.0
 71
     5
 72
     1
  1
\A2;17
 73
     1
 44
1.0
  0
POINT
  5
D76C
330
CA1E
100
AcDbEntity
  8
DEFPOINTS
 62
     0
440
 16777216
100
AcDbPoint
 10
157.3437397443763
 20
96.80331918690241
 30
0.0
  0
POINT
  5
D76D
330
CA1E
100
AcDbEntity
  8
DEFPOINTS
 62
     0
440
 16777216
100
AcDbPoint
 10
140.3437397443742
 20
96.30331918690206
 30
0.0
  0
POINT
  5
D76E
330
CA1E
100
AcDbEntity
  8
DEFPOINTS
 62
     0
440
 16777216
100
AcDbPoint
 10
140.3437397443742
 20
40.02234674075111
 30
0.0
  0
ENDBLK
  5
CA20
330
CA1E
100
AcDbEntity
  8
0
100
AcDbBlockEnd
  0
BLOCK
  5
CA2B
330
CA2A
100
AcDbEntity
  8
0
100
AcDbBlockBegin
  2
*D11
 70
     1
 10
0.0
 20
0.0
 30
0.0
  3
*D11
  1

  0
LINE
  5
D76F
330
CA2A
100
AcDbEntity
  8
ADM
 62
     0
440
 16777216
370
    -2
100
AcDbLine
 10
87.89719144851687
 20
32.76792811928215
 30
0.0
 11
108.6386157073375
 21
32.76792811928215
 31
0.0
  0
LINE
  5
D770
330
CA2A
100
AcDbEntity
  8
ADM
 62
     0
440
 16777216
370
    -2
100
AcDbLine
 10
87.89719144851687
 20
19.76792811928214
 30
0.0
 11
108.6386157073375
 21
19.76792811928214
 31
0.0
  0
LINE
  5
D771
330
CA2A
100
AcDbEntity
  8
ADM
 62
     0
440
 16777216
370
    -2
100
AcDbLine
 10
108.6386157073375
 20
31.96792811928214
 30
0.0
 11
108.6386157073375
 21
20.56792811928214
 31
0.0
  0
INSERT
  5
D772
330
CA2A
100
AcDbEntity
  8
ADM
 62
     0
440
 16777216
370
    -2
100
AcDbBlockReference
  2
_Dot
 10
108.6386157073375
 20
32.76792811928215
 30
0.0
 41
0.8
 42
0.8
 43
0.8
 50
90.0
  0
INSERT
  5
D773
330
CA2A
100
AcDbEntity
  8
ADM
 62
     0
440
 16777216
370
    -2
100
AcDbBlockReference
  2
_Dot
 10
108.6386157073375
 20
19.76792811928214
 30
0.0
 41
0.8
 42
0.8
 43
0.8
 50
270.0
  0
MTEXT
  5
D774
330
CA2A
100
AcDbEntity
  8
ADM
 62
     4
440
 16777216
100
AcDbMText
 10
106.1386157073375
 20
26.26792811928216
 30
0.0
 40
3.0
 41
0.0
 46
0.0
 71
     5
 72
     1
  1
\A2;13
 11
0.0000000000000001
 21
1.0
 31
0.0
 73
     1
 44
1.0
  0
POINT
  5
D775
330
CA2A
100
AcDbEntity
  8
DEFPOINTS
 62
     0
440
 16777216
100
AcDbPoint
 10
86.89719144851688
 20
32.76792811928215
 30
0.0
  0
POINT
  5
D776
330
CA2A
100
AcDbEntity
  8
DEFPOINTS
 62
     0
440
 16777216
100
AcDbPoint
 10
86.89719144851688
 20
19.76792811928214
 30
0.0
  0
POINT
  5
D777
330
CA2A
100
AcDbEntity
  8
DEFPOINTS
 62
     0
440
 16777216
100
AcDbPoint
 10
108.6386157073375
 20
19.76792811928214
 30
0.0
  0
ENDBLK
  5
CA2C
330
CA2A
100
AcDbEntity
  8
0
100
AcDbBlockEnd
  0
BLOCK
  5
CA37
330
CA36
100
AcDbEntity
  8
0
100
AcDbBlockBegin
  2
*D12
 70
     1
 10
0.0
 20
0.0
 30
0.0
  3
*D12
  1

  0
LINE
  5
D778
330
CA36
100
AcDbEntity
  8
ADM
 62
     0
440
 16777216
370
    -2
100
AcDbLine
 10
353.3437397443784
 20
95.80331918690246
 30
0.0
 11
353.3437397443784
 21
40.02234674075111
 31
0.0
  0
LINE
  5
D779
330
CA36
100
AcDbEntity
  8
ADM
 62
     0
440
 16777216
370
    -2
100
AcDbLine
 10
347.3437397443766
 20
102.2633191869021
 30
0.0
 11
347.3437397443766
 21
40.02234674075111
 31
0.0
  0
LINE
  5
D77A
330
CA36
100
AcDbEntity
  8
ADM
 62
     0
440
 16777216
370
    -2
100
AcDbLine
 10
352.5437397443783
 20
40.02234674075111
 30
0.0
 11
348.1437397443766
 21
40.02234674075111
 31
0.0
  0
INSERT
  5
D77B
330
CA36
100
AcDbEntity
  8
ADM
 62
     0
440
 16777216
370
    -2
100
AcDbBlockReference
  2
_Dot
 10
353.3437397443784
 20
40.02234674075111
 30
0.0
 41
0.8
 42
0.8
 43
0.8
  0
INSERT
  5
D77C
330
CA36
100
AcDbEntity
  8
ADM
 62
     0
440
 16777216
370
    -2
100
AcDbBlockReference
  2
_Dot
 10
347.3437397443766
 20
40.02234674075111
 30
0.0
 41
0.8
 42
0.8
 43
0.8
 50
180.0
  0
MTEXT
  5
D77D
330
CA36
100
AcDbEntity
  8
ADM
 62
     4
440
 16777216
100
AcDbMText
 10
350.3437397443775
 20
42.52234674075111
 30
0.0
 40
3.0
 41
0.0
 46
0.0
 71
     5
 72
     1
  1
\A2;6
 73
     1
 44
1.0
  0
POINT
  5
D77E
330
CA36
100
AcDbEntity
  8
DEFPOINTS
 62
     0
440
 16777216
100
AcDbPoint
 10
353.3437397443784
 20
96.80331918690246
 30
0.0
  0
POINT
  5
D77F
330
CA36
100
AcDbEntity
  8
DEFPOINTS
 62
     0
440
 16777216
100
AcDbPoint
 10
347.3437397443766
 20
103.2633191869021
 30
0.0
  0
POINT
  5
D780
330
CA36
100
AcDbEntity
  8
DEFPOINTS
 62
     0
440
 16777216
100
AcDbPoint
 10
347.3437397443766
 20
40.02234674075111
 30
0.0
  0
ENDBLK
  5
CA38
330
CA36
100
AcDbEntity
  8
0
100
AcDbBlockEnd
  0
BLOCK
  5
CA43
330
CA42
100
AcDbEntity
  8
0
100
AcDbBlockBegin
  2
*D13
 70
     1
 10
0.0
 20
0.0
 30
0.0
  3
*D13
  1

  0
LINE
  5
D781
330
CA42
100
AcDbEntity
  8
ADM
 62
     0
440
 16777216
370
    -2
100
AcDbLine
 10
347.3437397443784
 20
102.2633191869069
 30
0.0
 11
347.3437397443784
 21
40.02234674075111
 31
0.0
  0
LINE
  5
D782
330
CA42
100
AcDbEntity
  8
ADM
 62
     0
440
 16777216
370
    -2
100
AcDbLine
 10
287.343739744377
 20
100.5633191869019
 30
0.0
 11
287.343739744377
 21
40.02234674075111
 31
0.0
  0
LINE
  5
D783
330
CA42
100
AcDbEntity
  8
ADM
 62
     0
440
 16777216
370
    -2
100
AcDbLine
 10
346.5437397443783
 20
40.02234674075111
 30
0.0
 11
288.143739744377
 21
40.02234674075111
 31
0.0
  0
INSERT
  5
D784
330
CA42
100
AcDbEntity
  8
ADM
 62
     0
440
 16777216
370
    -2
100
AcDbBlockReference
  2
_Dot
 10
347.3437397443784
 20
40.02234674075111
 30
0.0
 41
0.8
 42
0.8
 43
0.8
  0
INSERT
  5
D785
330
CA42
100
AcDbEntity
  8
ADM
 62
     0
440
 16777216
370
    -2
100
AcDbBlockReference
  2
_Dot
 10
287.343739744377
 20
40.02234674075111
 30
0.0
 41
0.8
 42
0.8
 43
0.8
 50
180.0
  0
MTEXT
  5
D786
330
CA42
100
AcDbEntity
  8
ADM
 62
     4
440
 16777216
100
AcDbMText
 10
317.3437397443777
 20
42.52234674075111
 30
0.0
 40
3.0
 41
0.0
 46
0.0
 71
     5
 72
     1
  1
\A2;60
 73
     1
 44
1.0
  0
POINT
  5
D787
330
CA42
100
AcDbEntity
  8
DEFPOINTS
 62
     0
440
 16777216
100
AcDbPoint
 10
347.3437397443784
 20
103.2633191869069
 30
0.0
  0
POINT
  5
D788
330
CA42
100
AcDbEntity
  8
DEFPOINTS
 62
     0
440
 16777216
100
AcDbPoint
 10
287.343739744377
 20
101.5633191869019
 30
0.0
  0
POINT
  5
D789
330
CA42
100
AcDbEntity
  8
DEFPOINTS
 62
     0
440
 16777216
100
AcDbPoint
 10
287.343739744377
 20
40.02234674075111
 30
0.0
  0
ENDBLK
  5
CA44
330
CA42
100
AcDbEntity
  8
0
100
AcDbBlockEnd
  0
BLOCK
  5
CA4F
330
CA4E
100
AcDbEntity
  8
0
100
AcDbBlockBegin
  2
*D14
 70
     1
 10
0.0
 20
0.0
 30
0.0
  3
*D14
  1

  0
LINE
  5
D78A
330
CA4E
100
AcDbEntity
  8
ADM
 62
     0
440
 16777216
370
    -2
100
AcDbLine
 10
224.5437397443764
 20
100.5633191869093
 30
0.0
 11
224.5437397443764
 21
40.02234674075111
 31
0.0
  0
LINE
  5
D78B
330
CA4E
100
AcDbEntity
  8
ADM
 62
     0
440
 16777216
370
    -2
100
AcDbLine
 10
164.5437397443772
 20
102.2633191869021
 30
0.0
 11
164.5437397443772
 21
40.02234674075111
 31
0.0
  0
LINE
  5
D78C
330
CA4E
100
AcDbEntity
  8
ADM
 62
     0
440
 16777216
370
    -2
100
AcDbLine
 10
223.7437397443764
 20
40.02234674075111
 30
0.0
 11
165.3437397443773
 21
40.02234674075111
 31
0.0
  0
INSERT
  5
D78D
330
CA4E
100
AcDbEntity
  8
ADM
 62
     0
440
 16777216
370
    -2
100
AcDbBlockReference
  2
_Dot
 10
224.5437397443764
 20
40.02234674075111
 30
0.0
 41
0.8
 42
0.8
 43
0.8
  0
INSERT
  5
D78E
330
CA4E
100
AcDbEntity
  8
ADM
 62
     0
440
 16777216
370
    -2
100
AcDbBlockReference
  2
_Dot
 10
164.5437397443772
 20
40.02234674075111
 30
0.0
 41
0.8
 42
0.8
 43
0.8
 50
180.0
  0
MTEXT
  5
D78F
330
CA4E
100
AcDbEntity
  8
ADM
 62
     4
440
 16777216
100
AcDbMText
 10
194.5437397443768
 20
42.52234674075111
 30
0.0
 40
3.0
 41
0.0
 46
0.0
 71
     5
 72
     1
  1
\A2;60
 73
     1
 44
1.0
  0
POINT
  5
D790
330
CA4E
100
AcDbEntity
  8
DEFPOINTS
 62
     0
440
 16777216
100
AcDbPoint
 10
224.5437397443764
 20
101.5633191869093
 30
0.0
  0
POINT
  5
D791
330
CA4E
100
AcDbEntity
  8
DEFPOINTS
 62
     0
440
 16777216
100
AcDbPoint
 10
164.5437397443772
 20
103.2633191869021
 30
0.0
  0
POINT
  5
D792
330
CA4E
100
AcDbEntity
  8
DEFPOINTS
 62
     0
440
 16777216
100
AcDbPoint
 10
164.5437397443772
 20
40.02234674075111
 30
0.0
  0
ENDBLK
  5
CA50
330
CA4E
100
AcDbEntity
  8
0
100
AcDbBlockEnd
  0
BLOCK
  5
CA5B
330
CA5A
100
AcDbEntity
  8
0
100
AcDbBlockBegin
  2
*D15
 70
     1
 10
0.0
 20
0.0
 30
0.0
  3
*D15
  1

  0
LINE
  5
D793
330
CA5A
100
AcDbEntity
  8
ADM
 62
     0
440
 16777216
370
    -2
100
AcDbLine
 10
164.5437397443772
 20
102.2633191869021
 30
0.0
 11
164.5437397443772
 21
40.02234674075111
 31
0.0
  0
LINE
  5
D794
330
CA5A
100
AcDbEntity
  8
ADM
 62
     0
440
 16777216
370
    -2
100
AcDbLine
 10
157.3437397443758
 20
95.80331918690246
 30
0.0
 11
157.3437397443758
 21
40.02234674075111
 31
0.0
  0
LINE
  5
D795
330
CA5A
100
AcDbEntity
  8
ADM
 62
     0
440
 16777216
370
    -2
100
AcDbLine
 10
163.7437397443772
 20
40.02234674075111
 30
0.0
 11
158.1437397443758
 21
40.02234674075111
 31
0.0
  0
INSERT
  5
D796
330
CA5A
100
AcDbEntity
  8
ADM
 62
     0
440
 16777216
370
    -2
100
AcDbBlockReference
  2
_Dot
 10
164.5437397443772
 20
40.02234674075111
 30
0.0
 41
0.8
 42
0.8
 43
0.8
  0
INSERT
  5
D797
330
CA5A
100
AcDbEntity
  8
ADM
 62
     0
440
 16777216
370
    -2
100
AcDbBlockReference
  2
_Dot
 10
157.3437397443758
 20
40.02234674075111
 30
0.0
 41
0.8
 42
0.8
 43
0.8
 50
180.0
  0
MTEXT
  5
D798
330
CA5A
100
AcDbEntity
  8
ADM
 62
     4
440
 16777216
100
AcDbMText
 10
160.9437397443765
 20
42.52234674075111
 30
0.0
 40
3.0
 41
0.0
 46
0.0
 71
     5
 72
     1
  1
\A2;7.2
 73
     1
 44
1.0
  0
POINT
  5
D799
330
CA5A
100
AcDbEntity
  8
DEFPOINTS
 62
     0
440
 16777216
100
AcDbPoint
 10
164.5437397443772
 20
103.2633191869021
 30
0.0
  0
POINT
  5
D79A
330
CA5A
100
AcDbEntity
  8
DEFPOINTS
 62
     0
440
 16777216
100
AcDbPoint
 10
157.3437397443758
 20
96.80331918690246
 30
0.0
  0
POINT
  5
D79B
330
CA5A
100
AcDbEntity
  8
DEFPOINTS
 62
     0
440
 16777216
100
AcDbPoint
 10
157.3437397443758
 20
40.02234674075111
 30
0.0
  0
ENDBLK
  5
CA5C
330
CA5A
100
AcDbEntity
  8
0
100
AcDbBlockEnd
  0
BLOCK
  5
CA67
330
CA66
100
AcDbEntity
  8
0
100
AcDbBlockBegin
  2
*D16
 70
     1
 10
0.0
 20
0.0
 30
0.0
  3
*D16
  1

  0
LINE
  5
D79C
330
CA66
100
AcDbEntity
  8
ADM
 62
     0
440
 16777216
370
    -2
100
AcDbLine
 10
85.39719144851687
 20
256.7679281192824
 30
0.0
 11
108.6386157073375
 21
256.7679281192824
 31
0.0
  0
LINE
  5
D79D
330
CA66
100
AcDbEntity
  8
ADM
 62
     0
440
 16777216
370
    -2
100
AcDbLine
 10
87.89719144851687
 20
269.7679281192822
 30
0.0
 11
108.6386157073375
 21
269.7679281192822
 31
0.0
  0
LINE
  5
D79E
330
CA66
100
AcDbEntity
  8
ADM
 62
     0
440
 16777216
370
    -2
100
AcDbLine
 10
108.6386157073375
 20
257.5679281192825
 30
0.0
 11
108.6386157073375
 21
268.9679281192822
 31
0.0
  0
INSERT
  5
D79F
330
CA66
100
AcDbEntity
  8
ADM
 62
     0
440
 16777216
370
    -2
100
AcDbBlockReference
  2
_Dot
 10
108.6386157073375
 20
256.7679281192824
 30
0.0
 41
0.8
 42
0.8
 43
0.8
 50
270.0
  0
INSERT
  5
D7A0
330
CA66
100
AcDbEntity
  8
ADM
 62
     0
440
 16777216
370
    -2
100
AcDbBlockReference
  2
_Dot
 10
108.6386157073375
 20
269.7679281192822
 30
0.0
 41
0.8
 42
0.8
 43
0.8
 50
90.0
  0
MTEXT
  5
D7A1
330
CA66
100
AcDbEntity
  8
ADM
 62
     4
440
 16777216
100
AcDbMText
 10
106.1386157073375
 20
263.2679281192823
 30
0.0
 40
3.0
 41
0.0
 46
0.0
 71
     5
 72
     1
  1
\A2;13
 11
0.0000000000000001
 21
1.0
 31
0.0
 73
     1
 44
1.0
  0
POINT
  5
D7A2
330
CA66
100
AcDbEntity
  8
DEFPOINTS
 62
     0
440
 16777216
100
AcDbPoint
 10
84.39719144851688
 20
256.7679281192824
 30
0.0
  0
POINT
  5
D7A3
330
CA66
100
AcDbEntity
  8
DEFPOINTS
 62
     0
440
 16777216
100
AcDbPoint
 10
86.89719144851688
 20
269.7679281192822
 30
0.0
  0
POINT
  5
D7A4
330
CA66
100
AcDbEntity
  8
DEFPOINTS
 62
     0
440
 16777216
100
AcDbPoint
 10
108.6386157073375
 20
269.7679281192822
 30
0.0
  0
ENDBLK
  5
CA68
330
CA66
100
AcDbEntity
  8
0
100
AcDbBlockEnd
  0
BLOCK
  5
CA73
330
CA72
100
AcDbEntity
  8
0
100
AcDbBlockBegin
  2
*D17
 70
     1
 10
0.0
 20
0.0
 30
0.0
  3
*D17
  1

  0
LINE
  5
D7A5
330
CA72
100
AcDbEntity
  8
ADM
 62
     0
440
 16777216
370
    -2
100
AcDbLine
 10
85.39719144851687
 20
32.76792811928198
 30
0.0
 11
108.6386157073375
 21
32.76792811928198
 31
0.0
  0
LINE
  5
D7A6
330
CA72
100
AcDbEntity
  8
ADM
 62
     0
440
 16777216
370
    -2
100
AcDbLine
 10
81.0971914485167
 20
40.76792811928214
 30
0.0
 11
108.6386157073375
 21
40.76792811928214
 31
0.0
  0
LINE
  5
D7A7
330
CA72
100
AcDbEntity
  8
ADM
 62
     0
440
 16777216
370
    -2
100
AcDbLine
 10
108.6386157073375
 20
33.56792811928198
 30
0.0
 11
108.6386157073375
 21
39.96792811928215
 31
0.0
  0
INSERT
  5
D7A8
330
CA72
100
AcDbEntity
  8
ADM
 62
     0
440
 16777216
370
    -2
100
AcDbBlockReference
  2
_Dot
 10
108.6386157073375
 20
32.76792811928198
 30
0.0
 41
0.8
 42
0.8
 43
0.8
 50
270.0
  0
INSERT
  5
D7A9
330
CA72
100
AcDbEntity
  8
ADM
 62
     0
440
 16777216
370
    -2
100
AcDbBlockReference
  2
_Dot
 10
108.6386157073375
 20
40.76792811928214
 30
0.0
 41
0.8
 42
0.8
 43
0.8
 50
90.0
  0
MTEXT
  5
D7AA
330
CA72
100
AcDbEntity
  8
ADM
 62
     4
440
 16777216
100
AcDbMText
 10
106.1386157073375
 20
36.76792811928208
 30
0.0
 40
3.0
 41
0.0
 46
0.0
 71
     5
 72
     1
  1
\A2;8
 11
0.0000000000000001
 21
1.0
 31
0.0
 73
     1
 44
1.0
  0
POINT
  5
D7AB
330
CA72
100
AcDbEntity
  8
DEFPOINTS
 62
     0
440
 16777216
100
AcDbPoint
 10
84.39719144851688
 20
32.76792811928198
 30
0.0
  0
POINT
  5
D7AC
330
CA72
100
AcDbEntity
  8
DEFPOINTS
 62
     0
440
 16777216
100
AcDbPoint
 10
80.0971914485167
 20
40.76792811928214
 30
0.0
  0
POINT
  5
D7AD
330
CA72
100
AcDbEntity
  8
DEFPOINTS
 62
     0
440
 16777216
100
AcDbPoint
 10
108.6386157073375
 20
40.76792811928214
 30
0.0
  0
ENDBLK
  5
CA74
330
CA72
100
AcDbEntity
  8
0
100
AcDbBlockEnd
  0
BLOCK
  5
CA7F
330
CA7E
100
AcDbEntity
  8
0
100
AcDbBlockBegin
  2
*D18
 70
     1
 10
0.0
 20
0.0
 30
0.0
  3
*D18
  1

  0
LINE
  5
D7AE
330
CA7E
100
AcDbEntity
  8
ADM
 62
     0
440
 16777216
370
    -2
100
AcDbLine
 10
81.03719144851812
 20
116.7679281192822
 30
0.0
 11
108.6386157073375
 21
116.7679281192822
 31
0.0
  0
LINE
  5
D7AF
330
CA7E
100
AcDbEntity
  8
ADM
 62
     0
440
 16777216
370
    -2
100
AcDbLine
 10
81.0971914485167
 20
40.76792811928214
 30
0.0
 11
108.6386157073375
 21
40.76792811928214
 31
0.0
  0
LINE
  5
D7B0
330
CA7E
100
AcDbEntity
  8
ADM
 62
     0
440
 16777216
370
    -2
100
AcDbLine
 10
108.6386157073375
 20
115.9679281192822
 30
0.0
 11
108.6386157073375
 21
41.56792811928214
 31
0.0
  0
INSERT
  5
D7B1
330
CA7E
100
AcDbEntity
  8
ADM
 62
     0
440
 16777216
370
    -2
100
AcDbBlockReference
  2
_Dot
 10
108.6386157073375
 20
116.7679281192822
 30
0.0
 41
0.8
 42
0.8
 43
0.8
 50
90.0
  0
INSERT
  5
D7B2
330
CA7E
100
AcDbEntity
  8
ADM
 62
     0
440
 16777216
370
    -2
100
AcDbBlockReference
  2
_Dot
 10
108.6386157073375
 20
40.76792811928214
 30
0.0
 41
0.8
 42
0.8
 43
0.8
 50
270.0
  0
MTEXT
  5
D7B3
330
CA7E
100
AcDbEntity
  8
ADM
 62
     4
440
 16777216
100
AcDbMText
 10
106.1386157073375
 20
78.76792811928218
 30
0.0
 40
3.0
 41
0.0
 46
0.0
 71
     5
 72
     1
  1
\A2;76
 11
0.0000000000000001
 21
1.0
 31
0.0
 73
     1
 44
1.0
  0
POINT
  5
D7B4
330
CA7E
100
AcDbEntity
  8
DEFPOINTS
 62
     0
440
 16777216
100
AcDbPoint
 10
80.03719144851812
 20
116.7679281192822
 30
0.0
  0
POINT
  5
D7B5
330
CA7E
100
AcDbEntity
  8
DEFPOINTS
 62
     0
440
 16777216
100
AcDbPoint
 10
80.0971914485167
 20
40.76792811928214
 30
0.0
  0
POINT
  5
D7B6
330
CA7E
100
AcDbEntity
  8
DEFPOINTS
 62
     0
440
 16777216
100
AcDbPoint
 10
108.6386157073375
 20
40.76792811928214
 30
0.0
  0
ENDBLK
  5
CA80
330
CA7E
100
AcDbEntity
  8
0
100
AcDbBlockEnd
  0
BLOCK
  5
CA8B
330
CA8A
100
AcDbEntity
  8
0
100
AcDbBlockBegin
  2
*D19
 70
     1
 10
0.0
 20
0.0
 30
0.0
  3
*D19
  1

  0
LINE
  5
D7B7
330
CA8A
100
AcDbEntity
  8
ADM
 62
     0
440
 16777216
370
    -2
100
AcDbLine
 10
81.03713347256007
 20
175.7679281192822
 30
0.0
 11
108.6386157073373
 21
175.7679281192822
 31
0.0
  0
LINE
  5
D7B8
330
CA8A
100
AcDbEntity
  8
ADM
 62
     0
440
 16777216
370
    -2
100
AcDbLine
 10
81.09713347255866
 20
251.7679281192824
 30
0.0
 11
108.6386157073373
 21
251.7679281192824
 31
0.0
  0
LINE
  5
D7B9
330
CA8A
100
AcDbEntity
  8
ADM
 62
     0
440
 16777216
370
    -2
100
AcDbLine
 10
108.6386157073373
 20
176.5679281192823
 30
0.0
 11
108.6386157073373
 21
250.9679281192823
 31
0.0
  0
INSERT
  5
D7BA
330
CA8A
100
AcDbEntity
  8
ADM
 62
     0
440
 16777216
370
    -2
100
AcDbBlockReference
  2
_Dot
 10
108.6386157073373
 20
175.7679281192822
 30
0.0
 41
0.8
 42
0.8
 43
0.8
 50
270.0
  0
INSERT
  5
D7BB
330
CA8A
100
AcDbEntity
  8
ADM
 62
     0
440
 16777216
370
    -2
100
AcDbBlockReference
  2
_Dot
 10
108.6386157073373
 20
251.7679281192824
 30
0.0
 41
0.8
 42
0.8
 43
0.8
 50
90.0
  0
MTEXT
  5
D7BC
330
CA8A
100
AcDbEntity
  8
ADM
 62
     4
440
 16777216
100
AcDbMText
 10
106.1386157073372
 20
213.7679281192824
 30
0.0
 40
3.0
 41
0.0
 46
0.0
 71
     5
 72
     1
  1
\A2;76
 11
0.0000000000000001
 21
1.0
 31
0.0
 73
     1
 44
1.0
  0
POINT
  5
D7BD
330
CA8A
100
AcDbEntity
  8
DEFPOINTS
 62
     0
440
 16777216
100
AcDbPoint
 10
80.03713347256008
 20
175.7679281192822
 30
0.0
  0
POINT
  5
D7BE
330
CA8A
100
AcDbEntity
  8
DEFPOINTS
 62
     0
440
 16777216
100
AcDbPoint
 10
80.09713347255866
 20
251.7679281192824
 30
0.0
  0
POINT
  5
D7BF
330
CA8A
100
AcDbEntity
  8
DEFPOINTS
 62
     0
440
 16777216
100
AcDbPoint
 10
108.6386157073373
 20
251.7679281192824
 30
0.0
  0
ENDBLK
  5
CA8C
330
CA8A
100
AcDbEntity
  8
0
100
AcDbBlockEnd
  0
BLOCK
  5
CA97
330
CA96
100
AcDbEntity
  8
0
100
AcDbBlockBegin
  2
*D20
 70
     1
 10
0.0
 20
0.0
 30
0.0
  3
*D20
  1

  0
LINE
  5
D7C0
330
CA96
100
AcDbEntity
  8
ADM
 62
     0
440
 16777216
370
    -2
100
AcDbLine
 10
81.09713347255866
 20
251.7679281192824
 30
0.0
 11
108.6386157073373
 21
251.7679281192824
 31
0.0
  0
LINE
  5
D7C1
330
CA96
100
AcDbEntity
  8
ADM
 62
     0
440
 16777216
370
    -2
100
AcDbLine
 10
85.39719144851687
 20
256.7679281192824
 30
0.0
 11
108.6386157073373
 21
256.7679281192824
 31
0.0
  0
LINE
  5
D7C2
330
CA96
100
AcDbEntity
  8
ADM
 62
     0
440
 16777216
370
    -2
100
AcDbLine
 10
108.6386157073373
 20
252.5679281192824
 30
0.0
 11
108.6386157073373
 21
255.9679281192824
 31
0.0
  0
INSERT
  5
D7C3
330
CA96
100
AcDbEntity
  8
ADM
 62
     0
440
 16777216
370
    -2
100
AcDbBlockReference
  2
_Dot
 10
108.6386157073373
 20
251.7679281192824
 30
0.0
 41
0.8
 42
0.8
 43
0.8
 50
270.0
  0
INSERT
  5
D7C4
330
CA96
100
AcDbEntity
  8
ADM
 62
     0
440
 16777216
370
    -2
100
AcDbBlockReference
  2
_Dot
 10
108.6386157073373
 20
256.7679281192824
 30
0.0
 41
0.8
 42
0.8
 43
0.8
 50
90.0
  0
MTEXT
  5
D7C5
330
CA96
100
AcDbEntity
  8
ADM
 62
     4
440
 16777216
100
AcDbMText
 10
106.1386157073372
 20
254.2679281192824
 30
0.0
 40
3.0
 41
0.0
 46
0.0
 71
     5
 72
     1
  1
\A2;5
 11
0.0000000000000001
 21
1.0
 31
0.0
 73
     1
 44
1.0
  0
POINT
  5
D7C6
330
CA96
100
AcDbEntity
  8
DEFPOINTS
 62
     0
440
 16777216
100
AcDbPoint
 10
80.09713347255866
 20
251.7679281192824
 30
0.0
  0
POINT
  5
D7C7
330
CA96
100
AcDbEntity
  8
DEFPOINTS
 62
     0
440
 16777216
100
AcDbPoint
 10
84.39719144851688
 20
256.7679281192824
 30
0.0
  0
POINT
  5
D7C8
330
CA96
100
AcDbEntity
  8
DEFPOINTS
 62
     0
440
 16777216
100
AcDbPoint
 10
108.6386157073373
 20
256.7679281192824
 30
0.0
  0
ENDBLK
  5
CA98
330
CA96
100
AcDbEntity
  8
0
100
AcDbBlockEnd
  0
BLOCK
  5
CAA3
330
CAA2
100
AcDbEntity
  8
0
100
AcDbBlockBegin
  2
*D21
 70
     1
 10
0.0
 20
0.0
 30
0.0
  3
*D21
  1

  0
LINE
  5
D7C9
330
CAA2
100
AcDbEntity
  8
ADM
 62
     0
440
 16777216
370
    -2
100
AcDbLine
 10
297.6629091354757
 20
171.8033497044808
 30
0.0
 11
265.8073227885803
 21
171.8033497044808
 31
0.0
  0
LINE
  5
D7CA
330
CAA2
100
AcDbEntity
  8
ADM
 62
     0
440
 16777216
370
    -2
100
AcDbLine
 10
286.7437397443769
 20
126.8033191869024
 30
0.0
 11
265.8073227885802
 21
126.8033191869024
 31
0.0
  0
LINE
  5
D7CB
330
CAA2
100
AcDbEntity
  8
ADM
 62
     0
440
 16777216
370
    -2
100
AcDbLine
 10
265.8073227885803
 20
171.0033497044808
 30
0.0
 11
265.8073227885802
 21
127.6033191869024
 31
0.0
  0
INSERT
  5
D7CC
330
CAA2
100
AcDbEntity
  8
ADM
 62
     0
440
 16777216
370
    -2
100
AcDbBlockReference
  2
_Dot
 10
265.8073227885803
 20
171.8033497044808
 30
0.0
 41
0.8
 42
0.8
 43
0.8
 50
90.0
  0
INSERT
  5
D7CD
330
CAA2
100
AcDbEntity
  8
ADM
 62
     0
440
 16777216
370
    -2
100
AcDbBlockReference
  2
_Dot
 10
265.8073227885802
 20
126.8033191869024
 30
0.0
 41
0.8
 42
0.8
 43
0.8
 50
270.0
  0
MTEXT
  5
D7CE
330
CAA2
100
AcDbEntity
  8
ADM
 62
     4
440
 16777216
100
AcDbMText
 10
263.3073227885802
 20
149.3033344456916
 30
0.0
 40
3.0
 41
0.0
 46
0.0
 71
     5
 72
     1
  1
\A2;45
 11
0.0000000000000001
 21
1.0
 31
0.0
 73
     1
 44
1.0
  0
POINT
  5
D7CF
330
CAA2
100
AcDbEntity
  8
DEFPOINTS
 62
     0
440
 16777216
100
AcDbPoint
 10
298.6629091354757
 20
171.8033497044808
 30
0.0
  0
POINT
  5
D7D0
330
CAA2
100
AcDbEntity
  8
DEFPOINTS
 62
     0
440
 16777216
100
AcDbPoint
 10
287.7437397443769
 20
126.8033191869024
 30
0.0
  0
POINT
  5
D7D1
330
CAA2
100
AcDbEntity
  8
DEFPOINTS
 62
     0
440
 16777216
100
AcDbPoint
 10
265.8073227885802
 20
126.8033191869024
 30
0.0
  0
ENDBLK
  5
CAA4
330
CAA2
100
AcDbEntity
  8
0
100
AcDbBlockEnd
  0
BLOCK
  5
CAAF
330
CAAE
100
AcDbEntity
  8
0
100
AcDbBlockBegin
  2
*D22
 70
     1
 10
0.0
 20
0.0
 30
0.0
  3
*D22
  1

  0
LINE
  5
D7D2
330
CAAE
100
AcDbEntity
  8
ADM
 62
     0
440
 16777216
370
    -2
100
AcDbLine
 10
272.6686483506992
 20
126.8033191869024
 30
0.0
 11
265.8073227885802
 21
126.8033191869024
 31
0.0
  0
LINE
  5
D7D3
330
CAAE
100
AcDbEntity
  8
ADM
 62
     0
440
 16777216
370
    -2
100
AcDbLine
 10
286.6437397443769
 20
101.303319186902
 30
0.0
 11
265.8073227885802
 21
101.303319186902
 31
0.0
  0
LINE
  5
D7D4
330
CAAE
100
AcDbEntity
  8
ADM
 62
     0
440
 16777216
370
    -2
100
AcDbLine
 10
265.8073227885802
 20
126.0033191869024
 30
0.0
 11
265.8073227885802
 21
102.103319186902
 31
0.0
  0
INSERT
  5
D7D5
330
CAAE
100
AcDbEntity
  8
ADM
 62
     0
440
 16777216
370
    -2
100
AcDbBlockReference
  2
_Dot
 10
265.8073227885802
 20
126.8033191869024
 30
0.0
 41
0.8
 42
0.8
 43
0.8
 50
90.0
  0
INSERT
  5
D7D6
330
CAAE
100
AcDbEntity
  8
ADM
 62
     0
440
 16777216
370
    -2
100
AcDbBlockReference
  2
_Dot
 10
265.8073227885802
 20
101.303319186902
 30
0.0
 41
0.8
 42
0.8
 43
0.8
 50
270.0
  0
MTEXT
  5
D7D7
330
CAAE
100
AcDbEntity
  8
ADM
 62
     4
440
 16777216
100
AcDbMText
 10
263.3073227885802
 20
114.0533191869022
 30
0.0
 40
3.0
 41
0.0
 46
0.0
 71
     5
 72
     1
  1
\A2;25.5
 11
0.0000000000000001
 21
1.0
 31
0.0
 73
     1
 44
1.0
  0
POINT
  5
D7D8
330
CAAE
100
AcDbEntity
  8
DEFPOINTS
 62
     0
440
 16777216
100
AcDbPoint
 10
273.6686483506992
 20
126.8033191869024
 30
0.0
  0
POINT
  5
D7D9
330
CAAE
100
AcDbEntity
  8
DEFPOINTS
 62
     0
440
 16777216
100
AcDbPoint
 10
287.6437397443769
 20
101.303319186902
 30
0.0
  0
POINT
  5
D7DA
330
CAAE
100
AcDbEntity
  8
DEFPOINTS
 62
     0
440
 16777216
100
AcDbPoint
 10
265.8073227885802
 20
101.303319186902
 30
0.0
  0
ENDBLK
  5
CAB0
330
CAAE
100
AcDbEntity
  8
0
100
AcDbBlockEnd
  0
BLOCK
  5
CABB
330
CABA
100
AcDbEntity
  8
0
100
AcDbBlockBegin
  2
*D23
 70
     1
 10
0.0
 20
0.0
 30
0.0
  3
*D23
  1

  0
LINE
  5
D7DB
330
CABA
100
AcDbEntity
  8
ADM
 62
     0
440
 16777216
370
    -2
100
AcDbLine
 10
286.6437397443769
 20
101.303319186902
 30
0.0
 11
265.8073227885802
 21
101.303319186902
 31
0.0
  0
LINE
  5
D7DC
330
CABA
100
AcDbEntity
  8
ADM
 62
     0
440
 16777216
370
    -2
100
AcDbLine
 10
297.6629091354757
 20
56.30328866932405
 30
0.0
 11
265.8073227885802
 21
56.30328866932405
 31
0.0
  0
LINE
  5
D7DD
330
CABA
100
AcDbEntity
  8
ADM
 62
     0
440
 16777216
370
    -2
100
AcDbLine
 10
265.8073227885802
 20
100.503319186902
 30
0.0
 11
265.8073227885802
 21
57.10328866932405
 31
0.0
  0
INSERT
  5
D7DE
330
CABA
100
AcDbEntity
  8
ADM
 62
     0
440
 16777216
370
    -2
100
AcDbBlockReference
  2
_Dot
 10
265.8073227885802
 20
101.303319186902
 30
0.0
 41
0.8
 42
0.8
 43
0.8
 50
90.0
  0
INSERT
  5
D7DF
330
CABA
100
AcDbEntity
  8
ADM
 62
     0
440
 16777216
370
    -2
100
AcDbBlockReference
  2
_Dot
 10
265.8073227885802
 20
56.30328866932405
 30
0.0
 41
0.8
 42
0.8
 43
0.8
 50
270.0
  0
MTEXT
  5
D7E0
330
CABA
100
AcDbEntity
  8
ADM
 62
     4
440
 16777216
100
AcDbMText
 10
263.3073227885802
 20
78.80330392811309
 30
0.0
 40
3.0
 41
0.0
 46
0.0
 71
     5
 72
     1
  1
\A2;45
 11
0.0000000000000001
 21
1.0
 31
0.0
 73
     1
 44
1.0
  0
POINT
  5
D7E1
330
CABA
100
AcDbEntity
  8
DEFPOINTS
 62
     0
440
 16777216
100
AcDbPoint
 10
287.6437397443769
 20
101.303319186902
 30
0.0
  0
POINT
  5
D7E2
330
CABA
100
AcDbEntity
  8
DEFPOINTS
 62
     0
440
 16777216
100
AcDbPoint
 10
298.6629091354757
 20
56.30328866932405
 30
0.0
  0
POINT
  5
D7E3
330
CABA
100
AcDbEntity
  8
DEFPOINTS
 62
     0
440
 16777216
100
AcDbPoint
 10
265.8073227885802
 20
56.30328866932405
 30
0.0
  0
ENDBLK
  5
CABC
330
CABA
100
AcDbEntity
  8
0
100
AcDbBlockEnd
  0
BLOCK
  5
CAC7
330
CAC6
100
AcDbEntity
  8
0
100
AcDbBlockBegin
  2
*D24
 70
     1
 10
0.0
 20
0.0
 30
0.0
  3
*D24
  1

  0
LINE
  5
D7E4
330
CAC6
100
AcDbEntity
  8
ADM
 62
     0
440
 16777216
370
    -2
100
AcDbLine
 10
370.3437397443809
 20
96.30331918690229
 30
0.0
 11
385.4359616106244
 21
96.30331918690229
 31
0.0
  0
LINE
  5
D7E5
330
CAC6
100
AcDbEntity
  8
ADM
 62
     0
440
 16777216
370
    -2
100
AcDbLine
 10
370.3437397443786
 20
146.3033191869023
 30
0.0
 11
385.4359616106244
 21
146.3033191869023
 31
0.0
  0
LINE
  5
D7E6
330
CAC6
100
AcDbEntity
  8
ADM
 62
     0
440
 16777216
370
    -2
100
AcDbLine
 10
385.4359616106244
 20
97.10331918690229
 30
0.0
 11
385.4359616106244
 21
145.5033191869022
 31
0.0
  0
INSERT
  5
D7E7
330
CAC6
100
AcDbEntity
  8
ADM
 62
     0
440
 16777216
370
    -2
100
AcDbBlockReference
  2
_Dot
 10
385.4359616106244
 20
96.30331918690229
 30
0.0
 41
0.8
 42
0.8
 43
0.8
 50
270.0
  0
INSERT
  5
D7E8
330
CAC6
100
AcDbEntity
  8
ADM
 62
     0
440
 16777216
370
    -2
100
AcDbBlockReference
  2
_Dot
 10
385.4359616106244
 20
146.3033191869023
 30
0.0
 41
0.8
 42
0.8
 43
0.8
 50
90.0
  0
MTEXT
  5
D7E9
330
CAC6
100
AcDbEntity
  8
ADM
 62
     4
440
 16777216
100
AcDbMText
 10
382.9359616106243
 20
121.3033191869023
 30
0.0
 40
3.0
 41
0.0
 46
0.0
 71
     5
 72
     1
  1
\A2;50
 11
0.0000000000000001
 21
1.0
 31
0.0
 73
     1
 44
1.0
  0
POINT
  5
D7EA
330
CAC6
100
AcDbEntity
  8
DEFPOINTS
 62
     0
440
 16777216
100
AcDbPoint
 10
369.3437397443809
 20
96.30331918690229
 30
0.0
  0
POINT
  5
D7EB
330
CAC6
100
AcDbEntity
  8
DEFPOINTS
 62
     0
440
 16777216
100
AcDbPoint
 10
369.3437397443786
 20
146.3033191869023
 30
0.0
  0
POINT
  5
D7EC
330
CAC6
100
AcDbEntity
  8
DEFPOINTS
 62
     0
440
 16777216
100
AcDbPoint
 10
385.4359616106244
 20
146.3033191869023
 30
0.0
  0
ENDBLK
  5
CAC8
330
CAC6
100
AcDbEntity
  8
0
100
AcDbBlockEnd
  0
BLOCK
  5
CAD3
330
CAD2
100
AcDbEntity
  8
0
100
AcDbBlockBegin
  2
*D25
 70
     1
 10
0.0
 20
0.0
 30
0.0
  3
*D25
  1

  0
LINE
  5
D7ED
330
CAD2
100
AcDbEntity
  8
ADM
 62
     0
440
 16777216
370
    -2
100
AcDbLine
 10
370.3437397443802
 20
143.3033191869018
 30
0.0
 11
370.3437397443802
 21
171.2078068931375
 31
0.0
  0
LINE
  5
D7EE
330
CAD2
100
AcDbEntity
  8
ADM
 62
     0
440
 16777216
370
    -2
100
AcDbLine
 10
333.3437397443804
 20
146.8033191869024
 30
0.0
 11
333.3437397443804
 21
171.2078068931375
 31
0.0
  0
LINE
  5
D7EF
330
CAD2
100
AcDbEntity
  8
ADM
 62
     0
440
 16777216
370
    -2
100
AcDbLine
 10
369.5437397443801
 20
171.2078068931375
 30
0.0
 11
334.1437397443804
 21
171.2078068931375
 31
0.0
  0
INSERT
  5
D7F0
330
CAD2
100
AcDbEntity
  8
ADM
 62
     0
440
 16777216
370
    -2
100
AcDbBlockReference
  2
_Dot
 10
370.3437397443802
 20
171.2078068931375
 30
0.0
 41
0.8
 42
0.8
 43
0.8
  0
INSERT
  5
D7F1
330
CAD2
100
AcDbEntity
  8
ADM
 62
     0
440
 16777216
370
    -2
100
AcDbBlockReference
  2
_Dot
 10
333.3437397443804
 20
171.2078068931375
 30
0.0
 41
0.8
 42
0.8
 43
0.8
 50
180.0
  0
MTEXT
  5
D7F2
330
CAD2
100
AcDbEntity
  8
ADM
 62
     4
440
 16777216
100
AcDbMText
 10
351.8437397443803
 20
173.7078068931375
 30
0.0
 40
3.0
 41
0.0
 46
0.0
 71
     5
 72
     1
  1
\A2;37
 73
     1
 44
1.0
  0
POINT
  5
D7F3
330
CAD2
100
AcDbEntity
  8
DEFPOINTS
 62
     0
440
 16777216
100
AcDbPoint
 10
370.3437397443802
 20
142.3033191869018
 30
0.0
  0
POINT
  5
D7F4
330
CAD2
100
AcDbEntity
  8
DEFPOINTS
 62
     0
440
 16777216
100
AcDbPoint
 10
333.3437397443804
 20
145.8033191869024
 30
0.0
  0
POINT
  5
D7F5
330
CAD2
100
AcDbEntity
  8
DEFPOINTS
 62
     0
440
 16777216
100
AcDbPoint
 10
333.3437397443804
 20
171.2078068931375
 30
0.0
  0
ENDBLK
  5
CAD4
330
CAD2
100
AcDbEntity
  8
0
100
AcDbBlockEnd
  0
BLOCK
  5
CADF
330
CADE
100
AcDbEntity
  8
0
100
AcDbBlockBegin
  2
*D26
 70
     1
 10
0.0
 20
0.0
 30
0.0
  3
*D26
  1

  0
LINE
  5
D7F6
330
CADE
100
AcDbEntity
  8
ADM
 62
     0
440
 16777216
370
    -2
100
AcDbLine
 10
177.3437397443727
 20
146.8033191869024
 30
0.0
 11
177.3437397443727
 21
171.2078068931375
 31
0.0
  0
LINE
  5
D7F7
330
CADE
100
AcDbEntity
  8
ADM
 62
     0
440
 16777216
370
    -2
100
AcDbLine
 10
140.3437397443724
 20
143.3033191869018
 30
0.0
 11
140.3437397443724
 21
171.2078068931375
 31
0.0
  0
LINE
  5
D7F8
330
CADE
100
AcDbEntity
  8
ADM
 62
     0
440
 16777216
370
    -2
100
AcDbLine
 10
176.5437397443726
 20
171.2078068931375
 30
0.0
 11
141.1437397443724
 21
171.2078068931375
 31
0.0
  0
INSERT
  5
D7F9
330
CADE
100
AcDbEntity
  8
ADM
 62
     0
440
 16777216
370
    -2
100
AcDbBlockReference
  2
_Dot
 10
177.3437397443727
 20
171.2078068931375
 30
0.0
 41
0.8
 42
0.8
 43
0.8
  0
INSERT
  5
D7FA
330
CADE
100
AcDbEntity
  8
ADM
 62
     0
440
 16777216
370
    -2
100
AcDbBlockReference
  2
_Dot
 10
140.3437397443724
 20
171.2078068931375
 30
0.0
 41
0.8
 42
0.8
 43
0.8
 50
180.0
  0
MTEXT
  5
D7FB
330
CADE
100
AcDbEntity
  8
ADM
 62
     4
440
 16777216
100
AcDbMText
 10
158.8437397443725
 20
173.7078068931375
 30
0.0
 40
3.0
 41
0.0
 46
0.0
 71
     5
 72
     1
  1
\A2;37
 73
     1
 44
1.0
  0
POINT
  5
D7FC
330
CADE
100
AcDbEntity
  8
DEFPOINTS
 62
     0
440
 16777216
100
AcDbPoint
 10
177.3437397443727
 20
145.8033191869024
 30
0.0
  0
POINT
  5
D7FD
330
CADE
100
AcDbEntity
  8
DEFPOINTS
 62
     0
440
 16777216
100
AcDbPoint
 10
140.3437397443724
 20
142.3033191869018
 30
0.0
  0
POINT
  5
D7FE
330
CADE
100
AcDbEntity
  8
DEFPOINTS
 62
     0
440
 16777216
100
AcDbPoint
 10
140.3437397443724
 20
171.2078068931375
 30
0.0
  0
ENDBLK
  5
CAE0
330
CADE
100
AcDbEntity
  8
0
100
AcDbBlockEnd
  0
BLOCK
  5
CAEB
330
CAEA
100
AcDbEntity
  8
0
100
AcDbBlockBegin
  2
*D27
 70
     1
 10
0.0
 20
0.0
 30
0.0
  3
*D27
  1

  0
LINE
  5
D7FF
330
CAEA
100
AcDbEntity
  8
ADM
 62
     0
440
 16777216
370
    -2
100
AcDbLine
 10
84.89719144851482
 20
17.76792811928214
 30
0.0
 11
84.89719144851482
 21
12.34362558948328
 31
0.0
  0
LINE
  5
D800
330
CAEA
100
AcDbEntity
  8
ADM
 62
     0
440
 16777216
370
    -2
100
AcDbLine
 10
86.89719144851688
 20
18.76792811928214
 30
0.0
 11
86.89719144851688
 21
12.34362558948328
 31
0.0
  0
LINE
  5
D801
330
CAEA
100
AcDbEntity
  8
ADM
 62
     0
440
 16777216
370
    -2
100
AcDbLine
 10
84.09719144851484
 20
12.34362558948328
 30
0.0
 11
83.29719144851484
 21
12.34362558948328
 31
0.0
  0
LINE
  5
D802
330
CAEA
100
AcDbEntity
  8
ADM
 62
     0
440
 16777216
370
    -2
100
AcDbLine
 10
87.69719144851688
 20
12.34362558948328
 30
0.0
 11
88.49719144851688
 21
12.34362558948328
 31
0.0
  0
LINE
  5
D803
330
CAEA
100
AcDbEntity
  8
ADM
 62
     0
440
 16777216
370
    -2
100
AcDbLine
 10
93.19007690293783
 20
12.34362558948328
 30
0.0
 11
86.89719144851688
 21
12.34362558948328
 31
0.0
  0
MTEXT
  5
D804
330
CAEA
100
AcDbEntity
  8
ADM
 62
     4
440
 16777216
100
AcDbMText
 10
91.39007690293784
 20
14.84362558948328
 30
0.0
 40
3.0
 41
0.0
 46
0.0
 71
     5
 72
     1
  1
\A2;2
 73
     1
 44
1.0
  0
LINE
  5
D805
330
CAEA
100
AcDbEntity
  8
ADM
 62
     0
440
 16777216
370
    -2
100
AcDbLine
 10
84.89719144851482
 20
12.34362558948328
 30
0.0
 11
86.89719144851688
 21
12.34362558948328
 31
0.0
  0
LINE
  5
D806
330
CAEA
100
AcDbEntity
  8
ADM
 62
     0
440
 16777216
370
    -2
100
AcDbLine
 10
84.89719144851482
 20
12.34362558948328
 30
0.0
 11
86.89719144851688
 21
12.34362558948328
 31
0.0
  0
INSERT
  5
D807
330
CAEA
100
AcDbEntity
  8
ADM
 62
     0
440
 16777216
370
    -2
100
AcDbBlockReference
  2
_Dot
 10
84.89719144851482
 20
12.34362558948328
 30
0.0
 41
0.8
 42
0.8
 43
0.8
  0
INSERT
  5
D808
330
CAEA
100
AcDbEntity
  8
ADM
 62
     0
440
 16777216
370
    -2
100
AcDbBlockReference
  2
_Dot
 10
86.89719144851688
 20
12.34362558948328
 30
0.0
 41
0.8
 42
0.8
 43
0.8
 50
180.0
  0
POINT
  5
D809
330
CAEA
100
AcDbEntity
  8
DEFPOINTS
 62
     0
440
 16777216
100
AcDbPoint
 10
84.89719144851482
 20
18.76792811928214
 30
0.0
  0
POINT
  5
D80A
330
CAEA
100
AcDbEntity
  8
DEFPOINTS
 62
     0
440
 16777216
100
AcDbPoint
 10
86.89719144851688
 20
19.76792811928214
 30
0.0
  0
POINT
  5
D80B
330
CAEA
100
AcDbEntity
  8
DEFPOINTS
 62
     0
440
 16777216
100
AcDbPoint
 10
86.89719144851688
 20
12.34362558948328
 30
0.0
  0
ENDBLK
  5
CAEC
330
CAEA
100
AcDbEntity
  8
0
100
AcDbBlockEnd
  0
BLOCK
  5
CAFB
330
CAFA
100
AcDbEntity
  8
0
100
AcDbBlockBegin
  2
*D28
 70
     1
 10
0.0
 20
0.0
 30
0.0
  3
*D28
  1

  0
LINE
  5
D80C
330
CAFA
100
AcDbEntity
  8
ADM
 62
     0
440
 16777216
370
    -2
100
AcDbLine
 10
39.89719144851506
 20
19.76792811928209
 30
0.0
 11
39.89719144851506
 21
12.34362558948328
 31
0.0
  0
LINE
  5
D80D
330
CAFA
100
AcDbEntity
  8
ADM
 62
     0
440
 16777216
370
    -2
100
AcDbLine
 10
36.89719144851688
 20
18.76792811928214
 30
0.0
 11
36.89719144851688
 21
12.34362558948328
 31
0.0
  0
LINE
  5
D80E
330
CAFA
100
AcDbEntity
  8
ADM
 62
     0
440
 16777216
370
    -2
100
AcDbLine
 10
40.69719144851505
 20
12.34362558948328
 30
0.0
 11
41.49719144851506
 21
12.34362558948328
 31
0.0
  0
LINE
  5
D80F
330
CAFA
100
AcDbEntity
  8
ADM
 62
     0
440
 16777216
370
    -2
100
AcDbLine
 10
36.09719144851688
 20
12.34362558948328
 30
0.0
 11
35.29719144851688
 21
12.34362558948328
 31
0.0
  0
LINE
  5
D810
330
CAFA
100
AcDbEntity
  8
ADM
 62
     0
440
 16777216
370
    -2
100
AcDbLine
 10
30.87818403232468
 20
12.34362558948328
 30
0.0
 11
36.89719144851688
 21
12.34362558948328
 31
0.0
  0
MTEXT
  5
D811
330
CAFA
100
AcDbEntity
  8
ADM
 62
     4
440
 16777216
100
AcDbMText
 10
32.67818403232468
 20
14.84362558948328
 30
0.0
 40
3.0
 41
0.0
 46
0.0
 71
     5
 72
     1
  1
\A2;3
 73
     1
 44
1.0
  0
LINE
  5
D812
330
CAFA
100
AcDbEntity
  8
ADM
 62
     0
440
 16777216
370
    -2
100
AcDbLine
 10
39.89719144851506
 20
12.34362558948328
 30
0.0
 11
36.89719144851688
 21
12.34362558948328
 31
0.0
  0
LINE
  5
D813
330
CAFA
100
AcDbEntity
  8
ADM
 62
     0
440
 16777216
370
    -2
100
AcDbLine
 10
39.89719144851506
 20
12.34362558948328
 30
0.0
 11
36.89719144851688
 21
12.34362558948328
 31
0.0
  0
INSERT
  5
D814
330
CAFA
100
AcDbEntity
  8
ADM
 62
     0
440
 16777216
370
    -2
100
AcDbBlockReference
  2
_Dot
 10
39.89719144851506
 20
12.34362558948328
 30
0.0
 41
0.8
 42
0.8
 43
0.8
 50
180.0
  0
INSERT
  5
D815
330
CAFA
100
AcDbEntity
  8
ADM
 62
     0
440
 16777216
370
    -2
100
AcDbBlockReference
  2
_Dot
 10
36.89719144851688
 20
12.34362558948328
 30
0.0
 41
0.8
 42
0.8
 43
0.8
  0
POINT
  5
D816
330
CAFA
100
AcDbEntity
  8
DEFPOINTS
 62
     0
440
 16777216
100
AcDbPoint
 10
39.89719144851506
 20
20.76792811928209
 30
0.0
  0
POINT
  5
D817
330
CAFA
100
AcDbEntity
  8
DEFPOINTS
 62
     0
440
 16777216
100
AcDbPoint
 10
36.89719144851688
 20
19.76792811928214
 30
0.0
  0
POINT
  5
D818
330
CAFA
100
AcDbEntity
  8
DEFPOINTS
 62
     0
440
 16777216
100
AcDbPoint
 10
36.89719144851688
 20
12.34362558948328
 30
0.0
  0
ENDBLK
  5
CAFC
330
CAFA
100
AcDbEntity
  8
0
100
AcDbBlockEnd
  0
ENDSEC
  0
SECTION
  2
ENTITIES
  0
LINE
  5
C728
330
2
100
AcDbEntity
  8
0
100
AcDbLine
 10
86.89719144851688
 20
19.76792811928214
 30
0.0
 11
36.89719144851688
 21
19.76792811928214
 31
0.0
  0
LINE
  5
C729
330
2
100
AcDbEntity
  8
0
100
AcDbLine
 10
36.89719144851688
 20
269.7679281192822
 30
0.0
 11
36.89719144851688
 21
145.7679281192822
 31
0.0
  0
LINE
  5
C72A
330
2
100
AcDbEntity
  8
0
100
AcDbLine
 10
36.89719144851688
 20
143.7679281192822
 30
0.0
 11
36.89719144851688
 21
19.76792811928214
 31
0.0
  0
LINE
  5
C72B
330
2
100
AcDbEntity
  8
0
100
AcDbLine
 10
86.89719144851688
 20
269.7679281192822
 30
0.0
 11
86.89719144851665
 21
145.7679281192822
 31
0.0
  0
LINE
  5
C72C
330
2
100
AcDbEntity
  8
0
100
AcDbLine
 10
86.89719144851688
 20
143.7679281192822
 30
0.0
 11
86.89719144851688
 21
19.76792811928214
 31
0.0
  0
LWPOLYLINE
  5
C72D
330
2
100
AcDbEntity
  8
WAKU
100
AcDbPolyline
 90
        4
 70
     1
 43
0.0
 10
0.0
 20
0.0
 10
395.0
 20
0.0
 10
395.0
 20
275.0
 10
0.0
 20
275.0
  0
LINE
  5
C72E
330
2
100
AcDbEntity
  8
0
100
AcDbLine
 10
51.39719144851688
 20
52.24571662218557
 30
0.0
 11
51.39719144851665
 21
143.7679281192822
 31
0.0
  0
LINE
  5
C72F
330
2
100
AcDbEntity
  8
0
100
AcDbLine
 10
51.3971914485171
 20
145.7679281192822
 30
0.0
 11
51.39719144851688
 21
237.2901396163788
 31
0.0
  0
LINE
  5
C730
330
2
100
AcDbEntity
  8
0
100
AcDbLine
 10
56.39719144851688
 20
236.7679281192823
 30
0.0
 11
56.3971914485171
 21
145.7679281192822
 31
0.0
  0
LINE
  5
C731
330
2
100
AcDbEntity
  8
0
100
AcDbLine
 10
56.39719144851688
 20
143.7679281192822
 30
0.0
 11
56.39719144851688
 21
55.76792811928209
 31
0.0
  0
LINE
  5
C732
330
2
100
AcDbEntity
  8
0
100
AcDbLine
 10
81.89719144851711
 20
118.3679281192824
 30
0.0
 11
81.89719144851734
 21
45.76792811928209
 31
0.0
  0
LINE
  5
C733
330
2
100
AcDbEntity
  8
0
100
AcDbLine
 10
58.99719144851679
 20
116.7738257638967
 30
0.0
 11
58.99719144851701
 21
143.7679281192822
 31
0.0
  0
LINE
  5
C734
330
2
100
AcDbEntity
  8
0
100
AcDbLine
 10
58.99719144851679
 20
145.7679281192822
 30
0.0
 11
58.99719144851679
 21
175.7679281192821
 31
0.0
  0
LINE
  5
C735
330
2
100
AcDbEntity
  8
0
100
AcDbLine
 10
177.3437397443731
 20
131.8033191869024
 30
0.0
 11
255.3437397443765
 21
131.8033191869024
 31
0.0
  0
LINE
  5
C736
330
2
100
AcDbEntity
  8
0
100
AcDbLine
 10
257.3437397443763
 20
131.8033191869024
 30
0.0
 11
309.3431535057775
 21
131.8033191869024
 31
0.0
  0
LINE
  5
C737
330
2
100
AcDbEntity
  8
0
100
AcDbLine
 10
328.3431535057762
 20
131.8033191869024
 30
0.0
 11
333.34373974438
 21
131.8033191869024
 31
0.0
  0
LINE
  5
C738
330
2
100
AcDbEntity
  8
0
100
AcDbLine
 10
333.3437397443699
 20
143.3033191869045
 30
0.0
 11
328.3431535057762
 21
143.3033191869045
 31
0.0
  0
LINE
  5
C739
330
2
100
AcDbEntity
  8
0
100
AcDbLine
 10
306.0289071657739
 20
143.3033191869045
 30
0.0
 11
257.3437397443763
 21
143.3033191869045
 31
0.0
  0
LINE
  5
C73A
330
2
100
AcDbEntity
  8
0
100
AcDbLine
 10
353.3437397443679
 20
98.30331918690456
 30
0.0
 11
328.3431535057762
 21
98.30331918690456
 31
0.0
  0
LINE
  5
C73B
330
2
100
AcDbEntity
  8
0
100
AcDbLine
 10
309.343153505778
 20
98.30331918690456
 30
0.0
 11
257.3437397443763
 21
98.30331918690456
 31
0.0
  0
LINE
  5
C73C
330
2
100
AcDbEntity
  8
0
100
AcDbLine
 10
255.3437397443763
 20
98.30331918690456
 30
0.0
 11
164.5437397443768
 21
98.30331918690456
 31
0.0
  0
LINE
  5
C73D
330
2
100
AcDbEntity
  8
0
100
AcDbLine
 10
287.3437397443768
 20
126.8033191869024
 30
0.0
 11
257.3437397443763
 21
126.8033191869024
 31
0.0
  0
LINE
  5
C73E
330
2
100
AcDbEntity
  8
0
100
AcDbLine
 10
255.3437397443763
 20
126.8033191869024
 30
0.0
 11
224.5437397443766
 21
126.8033191869024
 31
0.0
  0
LINE
  5
C73F
330
2
100
AcDbEntity
  8
0
100
AcDbLine
 10
36.89719144851688
 20
269.7679281192822
 30
0.0
 11
86.89719144851688
 21
269.7679281192822
 31
0.0
  0
LWPOLYLINE
  5
C740
330
2
100
AcDbEntity
  8
0
  6
ByBlock
100
AcDbPolyline
 90
        4
 70
     1
 43
0.0
 10
164.543739744377
 20
108.5033191869076
 10
164.543739744377
 20
123.5033191869076
 10
171.0437397443761
 20
123.5033191869076
 10
171.0437397443761
 20
108.5033191869062
1001
AcDbBlockRepETag
1070
     1
1071
        2
1005
6C0A
  0
DIMENSION
  5
C741
330
2
100
AcDbEntity
  8
ADM
100
AcDbDimension
280
     0
  2
*D2
 10
84.89719144851482
 20
12.34362558948328
 30
0.0
 11
62.39719144851483
 21
14.84362558948328
 31
0.0
 70
    32
 71
     5
 42
45.0
 73
     0
 74
     0
 75
     0
  3
S1$0
100
AcDbAlignedDimension
 13
39.89719144851483
 23
19.76792811928214
 33
0.0
 14
84.89719144851482
 24
19.76792811928214
 34
0.0
100
AcDbRotatedDimension
1001
ACAD
1000
DSTYLE
1002
{
1070
   279
1070
     0
1002
}
  0
DIMENSION
  5
C742
330
2
100
AcDbEntity
  8
ADM
100
AcDbDimension
280
     0
  2
*D3
 10
86.89719144851688
 20
5.058868499882692
 30
0.0
 11
61.89719144851688
 21
5.058868499882692
 31
0.0
 70
   160
 71
     5
 42
50.0
 73
     0
 74
     0
 75
     0
  3
S1$0
100
AcDbAlignedDimension
 13
36.89719144851688
 23
19.76792811928214
 33
0.0
 14
86.89719144851688
 24
19.76792811928214
 34
0.0
100
AcDbRotatedDimension
1001
ACAD
1000
DSTYLE
1002
{
1070
   279
1070
     0
1002
}
  0
DIMENSION
  5
C743
330
2
100
AcDbEntity
  8
ADM
100
AcDbDimension
280
     0
  2
*D4
 10
9.044333516993447
 20
19.76792811928215
 30
0.0
 11
6.544333516993452
 21
144.7679281192822
 31
0.0
 70
    32
  1
H
 71
     5
 42
250.0
 73
     0
 74
     0
 75
     0
  3
S1$0
100
AcDbAlignedDimension
 13
36.89719144851688
 23
269.7679281192822
 33
0.0
 14
36.89719144851688
 24
19.76792811928214
 34
0.0
 50
90.0
100
AcDbRotatedDimension
  0
DIMENSION
  5
C744
330
2
100
AcDbEntity
  8
ADM
100
AcDbDimension
280
     0
  2
*D5
 10
19.89901260470333
 20
269.7679281192822
 30
0.0
 11
17.39901260470328
 21
253.2679281192822
 31
0.0
 70
    32
 71
     5
 42
32.99999999999994
 73
     0
 74
     0
 75
     0
  3
S1$0
100
AcDbAlignedDimension
 13
51.39719144851688
 23
236.7679281192823
 33
0.0
 14
36.89719144851688
 24
269.7679281192822
 34
0.0
 50
90.0
100
AcDbRotatedDimension
  0
DIMENSION
  5
C745
330
2
100
AcDbEntity
  8
ADM
100
AcDbDimension
280
     0
  2
*D6
 10
19.88181945428596
 20
19.76792811928215
 30
0.0
 11
17.38181945428596
 21
36.26792811928216
 31
0.0
 70
    32
 71
     5
 42
33.00000000000001
 73
     0
 74
     0
 75
     0
  3
S1$0
100
AcDbAlignedDimension
 13
51.39719144851688
 23
52.76792811928214
 33
0.0
 14
36.89719144851688
 24
19.76792811928214
 34
0.0
 50
90.0
100
AcDbRotatedDimension
  0
DIMENSION
  5
C746
330
2
100
AcDbEntity
  8
ADM
100
AcDbDimension
280
     0
  2
*D7
 10
19.89901260470333
 20
236.7679281192823
 30
0.0
 11
17.39901260470328
 21
144.7679281192822
 31
0.0
 70
    32
  1
H-66
 71
     5
 42
184.0000000000001
 73
     0
 74
     0
 75
     0
  3
S1$0
100
AcDbAlignedDimension
 13
51.39719144851688
 23
52.76792811928214
 33
0.0
 14
51.39719144851688
 24
236.7679281192823
 34
0.0
 50
90.0
100
AcDbRotatedDimension
  0
DIMENSION
  5
C747
330
2
100
AcDbEntity
  8
ADM
100
AcDbDimension
280
     0
  2
*D8
 10
140.3437397443742
 20
32.02234674075112
 30
0.0
 11
255.3437397443764
 21
34.52234674075112
 31
0.0
 70
    32
  1
W
 71
     5
 42
230.0000000000043
 73
     0
 74
     0
 75
     0
  3
S1$0
100
AcDbAlignedDimension
 13
370.3437397443786
 23
96.30331918690206
 33
0.0
 14
140.3437397443742
 24
96.30331918690206
 34
0.0
 50
180.0
100
AcDbRotatedDimension
1001
ACAD
1000
DSTYLE
1002
{
1070
   279
1070
     0
1002
}
  0
DIMENSION
  5
C748
330
2
100
AcDbEntity
  8
ADM
100
AcDbDimension
280
     0
  2
*D9
 10
370.3437397443786
 20
40.02234674075111
 30
0.0
 11
361.8437397443777
 21
40.02234674075111
 31
0.0
 70
   160
 71
     5
 42
17.00000000000204
 73
     0
 74
     0
 75
     0
  3
S1$0
100
AcDbAlignedDimension
 13
353.3437397443766
 23
96.80331918690241
 33
0.0
 14
370.3437397443786
 24
96.3033191869024
 34
0.0
 50
180.0
100
AcDbRotatedDimension
1001
ACAD
1000
DSTYLE
1002
{
1070
   279
1070
     0
1002
}
  0
DIMENSION
  5
C749
330
2
100
AcDbEntity
  8
ADM
100
AcDbDimension
280
     0
  2
*D10
 10
140.3437397443742
 20
40.02234674075111
 30
0.0
 11
148.8437397443752
 21
42.52234674075111
 31
0.0
 70
    32
 71
     5
 42
17.00000000000204
 73
     0
 74
     0
 75
     0
  3
S1$0
100
AcDbAlignedDimension
 13
157.3437397443763
 23
96.80331918690241
 33
0.0
 14
140.3437397443742
 24
96.30331918690206
 34
0.0
 50
180.0
100
AcDbRotatedDimension
  0
DIMENSION
  5
C74D
330
2
100
AcDbEntity
  8
ADM
100
AcDbDimension
280
     0
  2
*D11
 10
108.6386157073375
 20
19.76792811928214
 30
0.0
 11
106.1386157073375
 21
26.26792811928216
 31
0.0
 70
    32
 71
     5
 42
13.0
 73
     0
 74
     0
 75
     0
  3
S1$0
100
AcDbAlignedDimension
 13
86.89719144851688
 23
32.76792811928215
 33
0.0
 14
86.89719144851688
 24
19.76792811928214
 34
0.0
 50
90.0
100
AcDbRotatedDimension
  0
LWPOLYLINE
  5
C752
330
2
100
AcDbEntity
  8
0
100
AcDbPolyline
 90
        4
 70
     1
 43
0.0
 10
159.3437397443765
 20
97.30331918690239
 10
157.3437397443765
 20
97.30331918690239
 10
157.3437397443765
 20
123.5033191869024
 10
159.3437397443765
 20
123.5033191869024
  0
LINE
  5
C755
330
2
100
AcDbEntity
  8
0
100
AcDbLine
 10
59.39719144851688
 20
40.76792811928214
 30
0.0
 11
80.0971914485167
 21
40.76792811928214
 31
0.0
  0
LINE
  5
C756
330
2
100
AcDbEntity
  8
0
100
AcDbLine
 10
83.09719144851669
 20
43.76792811928214
 30
0.0
 11
83.09719144851669
 21
45.76792811928214
 31
0.0
  0
LINE
  5
C757
330
2
100
AcDbEntity
  8
0
100
AcDbLine
 10
83.09719144851669
 20
45.76792811928214
 30
0.0
 11
80.69719144851797
 21
45.76792811928209
 31
0.0
  0
LINE
  5
C758
330
2
100
AcDbEntity
  8
0
100
AcDbLine
 10
56.39719144851688
 20
43.76792811928214
 30
0.0
 11
56.39719144851688
 21
43.76792811928214
 31
0.0
  0
ARC
  5
C759
330
2
100
AcDbEntity
  8
0
100
AcDbCircle
 10
80.0971914485167
 20
43.76792811928214
 30
0.0
 40
3.0
100
AcDbArc
 50
270.0
 51
0.0
  0
LINE
  5
C75A
330
2
100
AcDbEntity
  8
0
100
AcDbLine
 10
59.39719144851688
 20
40.76792811928214
 30
0.0
 11
80.0971914485167
 21
40.76792811928214
 31
0.0
  0
LINE
  5
C75B
330
2
100
AcDbEntity
  8
0
100
AcDbLine
 10
83.09719144851669
 20
43.76792811928214
 30
0.0
 11
83.09719144851669
 21
45.76792811928214
 31
0.0
  0
LINE
  5
C75C
330
2
100
AcDbEntity
  8
0
100
AcDbLine
 10
83.09719144851669
 20
45.76792811928214
 30
0.0
 11
80.69719144851797
 21
45.76792811928209
 31
0.0
  0
LINE
  5
C75D
330
2
100
AcDbEntity
  8
0
100
AcDbLine
 10
56.39719144851688
 20
43.76792811928214
 30
0.0
 11
56.39719144851688
 21
43.76792811928214
 31
0.0
  0
ARC
  5
C75E
330
2
100
AcDbEntity
  8
0
100
AcDbCircle
 10
80.0971914485167
 20
43.76792811928214
 30
0.0
 40
3.0
100
AcDbArc
 50
270.0
 51
0.0
  0
LINE
  5
C75F
330
2
100
AcDbEntity
  8
0
100
AcDbLine
 10
59.39713347255883
 20
251.7679281192824
 30
0.0
 11
80.09713347255866
 21
251.7679281192824
 31
0.0
  0
LINE
  5
C760
330
2
100
AcDbEntity
  8
0
100
AcDbLine
 10
83.09713347255865
 20
248.7679281192824
 30
0.0
 11
83.09713347255865
 21
246.7679281192824
 31
0.0
  0
LINE
  5
C761
330
2
100
AcDbEntity
  8
0
100
AcDbLine
 10
83.09713347255865
 20
246.7679281192824
 30
0.0
 11
80.69713347256016
 21
246.7679281192824
 31
0.0
  0
ARC
  5
C762
330
2
100
AcDbEntity
  8
0
100
AcDbCircle
 10
80.09713347255866
 20
248.7679281192824
 30
0.0
 40
3.0
100
AcDbArc
 50
0.0
 51
90.0
  0
LINE
  5
C763
330
2
100
AcDbEntity
  8
0
100
AcDbLine
 10
59.39713347255883
 20
251.7679281192824
 30
0.0
 11
80.09713347255866
 21
251.7679281192824
 31
0.0
  0
LINE
  5
C764
330
2
100
AcDbEntity
  8
0
100
AcDbLine
 10
83.09713347255865
 20
248.7679281192824
 30
0.0
 11
83.09713347255865
 21
246.7679281192824
 31
0.0
  0
LINE
  5
C765
330
2
100
AcDbEntity
  8
0
100
AcDbLine
 10
83.09713347255865
 20
246.7679281192824
 30
0.0
 11
80.69713347256016
 21
246.7679281192824
 31
0.0
  0
ARC
  5
C766
330
2
100
AcDbEntity
  8
0
100
AcDbCircle
 10
80.09713347255866
 20
248.7679281192824
 30
0.0
 40
3.0
100
AcDbArc
 50
0.0
 51
90.0
  0
DIMENSION
  5
C769
330
2
100
AcDbEntity
  8
ADM
100
AcDbDimension
280
     0
  2
*D12
 10
347.3437397443766
 20
40.02234674075111
 30
0.0
 11
350.3437397443775
 21
42.52234674075111
 31
0.0
 70
    32
 71
     5
 42
6.000000000001818
 73
     0
 74
     0
 75
     0
  3
S1$0
100
AcDbAlignedDimension
 13
353.3437397443784
 23
96.80331918690246
 33
0.0
 14
347.3437397443766
 24
103.2633191869021
 34
0.0
 50
180.0
100
AcDbRotatedDimension
  0
DIMENSION
  5
C76A
330
2
100
AcDbEntity
  8
ADM
100
AcDbDimension
280
     0
  2
*D13
 10
287.343739744377
 20
40.02234674075111
 30
0.0
 11
317.3437397443777
 21
42.52234674075111
 31
0.0
 70
    32
 71
     5
 42
60.00000000000136
 73
     0
 74
     0
 75
     0
  3
S1$0
100
AcDbAlignedDimension
 13
347.3437397443784
 23
103.2633191869069
 33
0.0
 14
287.343739744377
 24
101.5633191869019
 34
0.0
 50
180.0
100
AcDbRotatedDimension
  0
DIMENSION
  5
C76B
330
2
100
AcDbEntity
  8
ADM
100
AcDbDimension
280
     0
  2
*D14
 10
164.5437397443772
 20
40.02234674075111
 30
0.0
 11
194.5437397443768
 21
42.52234674075111
 31
0.0
 70
    32
 71
     5
 42
59.99999999999909
 73
     0
 74
     0
 75
     0
  3
S1$0
100
AcDbAlignedDimension
 13
224.5437397443764
 23
101.5633191869093
 33
0.0
 14
164.5437397443772
 24
103.2633191869021
 34
0.0
 50
180.0
100
AcDbRotatedDimension
  0
DIMENSION
  5
C76C
330
2
100
AcDbEntity
  8
ADM
100
AcDbDimension
280
     0
  2
*D15
 10
157.3437397443758
 20
40.02234674075111
 30
0.0
 11
160.9437397443765
 21
42.52234674075111
 31
0.0
 70
    32
 71
     5
 42
7.200000000001409
 73
     0
 74
     0
 75
     0
  3
S1$0
100
AcDbAlignedDimension
 13
164.5437397443772
 23
103.2633191869021
 33
0.0
 14
157.3437397443758
 24
96.80331918690246
 34
0.0
 50
180.0
100
AcDbRotatedDimension
  0
DIMENSION
  5
C76D
330
2
100
AcDbEntity
  8
ADM
100
AcDbDimension
280
     0
  2
*D16
 10
108.6386157073375
 20
269.7679281192822
 30
0.0
 11
106.1386157073375
 21
263.2679281192823
 31
0.0
 70
    32
 71
     5
 42
12.99999999999977
 73
     0
 74
     0
 75
     0
  3
S1$0
100
AcDbAlignedDimension
 13
84.39719144851688
 23
256.7679281192824
 33
0.0
 14
86.89719144851688
 24
269.7679281192822
 34
0.0
 50
270.0
100
AcDbRotatedDimension
  0
DIMENSION
  5
C76E
330
2
100
AcDbEntity
  8
ADM
100
AcDbDimension
280
     0
  2
*D17
 10
108.6386157073375
 20
40.76792811928214
 30
0.0
 11
106.1386157073375
 21
36.76792811928208
 31
0.0
 70
    32
 71
     5
 42
8.00000000000017
 73
     0
 74
     0
 75
     0
  3
S1$0
100
AcDbAlignedDimension
 13
84.39719144851688
 23
32.76792811928198
 33
0.0
 14
80.0971914485167
 24
40.76792811928214
 34
0.0
 50
90.0
100
AcDbRotatedDimension
  0
DIMENSION
  5
C76F
330
2
100
AcDbEntity
  8
ADM
100
AcDbDimension
280
     0
  2
*D18
 10
108.6386157073375
 20
40.76792811928214
 30
0.0
 11
106.1386157073375
 21
78.76792811928218
 31
0.0
 70
    32
 71
     5
 42
76.00000000000005
 73
     0
 74
     0
 75
     0
  3
S1$0
100
AcDbAlignedDimension
 13
80.03719144851812
 23
116.7679281192822
 33
0.0
 14
80.0971914485167
 24
40.76792811928214
 34
0.0
 50
90.0
100
AcDbRotatedDimension
  0
DIMENSION
  5
C770
330
2
100
AcDbEntity
  8
ADM
100
AcDbDimension
280
     0
  2
*D19
 10
108.6386157073373
 20
251.7679281192824
 30
0.0
 11
106.1386157073372
 21
213.7679281192824
 31
0.0
 70
    32
 71
     5
 42
76.00000000000012
 73
     0
 74
     0
 75
     0
  3
S1$0
100
AcDbAlignedDimension
 13
80.03713347256008
 23
175.7679281192822
 33
0.0
 14
80.09713347255866
 24
251.7679281192824
 34
0.0
 50
90.0
100
AcDbRotatedDimension
  0
DIMENSION
  5
C771
330
2
100
AcDbEntity
  8
ADM
100
AcDbDimension
280
     0
  2
*D20
 10
108.6386157073373
 20
256.7679281192824
 30
0.0
 11
106.1386157073372
 21
254.2679281192824
 31
0.0
 70
    32
 71
     5
 42
5.000000000000028
 73
     0
 74
     0
 75
     0
  3
S1$0
100
AcDbAlignedDimension
 13
80.09713347255866
 23
251.7679281192824
 33
0.0
 14
84.39719144851688
 24
256.7679281192824
 34
0.0
 50
90.0
100
AcDbRotatedDimension
  0
DIMENSION
  5
C772
330
2
100
AcDbEntity
  8
ADM
100
AcDbDimension
280
     0
  2
*D21
 10
265.8073227885802
 20
126.8033191869024
 30
0.0
 11
263.3073227885802
 21
149.3033344456916
 31
0.0
 70
    32
 71
     5
 42
45.00003051757841
 73
     0
 74
     0
 75
     0
  3
S1$0
100
AcDbAlignedDimension
 13
298.6629091354757
 23
171.8033497044808
 33
0.0
 14
287.7437397443769
 24
126.8033191869024
 34
0.0
 50
90.0
100
AcDbRotatedDimension
  0
DIMENSION
  5
C773
330
2
100
AcDbEntity
  8
ADM
100
AcDbDimension
280
     0
  2
*D22
 10
265.8073227885802
 20
101.303319186902
 30
0.0
 11
263.3073227885802
 21
114.0533191869022
 31
0.0
 70
    32
 71
     5
 42
25.50000000000034
 73
     0
 74
     0
 75
     0
  3
S1$0
100
AcDbAlignedDimension
 13
273.6686483506992
 23
126.8033191869024
 33
0.0
 14
287.6437397443769
 24
101.303319186902
 34
0.0
 50
90.0
100
AcDbRotatedDimension
  0
DIMENSION
  5
C774
330
2
100
AcDbEntity
  8
ADM
100
AcDbDimension
280
     0
  2
*D23
 10
265.8073227885802
 20
56.30328866932405
 30
0.0
 11
263.3073227885802
 21
78.80330392811309
 31
0.0
 70
    32
 71
     5
 42
45.000030517578
 73
     0
 74
     0
 75
     0
  3
S1$0
100
AcDbAlignedDimension
 13
287.6437397443769
 23
101.303319186902
 33
0.0
 14
298.6629091354757
 24
56.30328866932405
 34
0.0
 50
90.0
100
AcDbRotatedDimension
  0
DIMENSION
  5
C775
330
2
100
AcDbEntity
  8
ADM
100
AcDbDimension
280
     0
  2
*D24
 10
385.4359616106244
 20
146.3033191869023
 30
0.0
 11
382.9359616106243
 21
121.3033191869023
 31
0.0
 70
    32
 71
     5
 42
50.0
 73
     0
 74
     0
 75
     0
  3
S1$0
100
AcDbAlignedDimension
 13
369.3437397443809
 23
96.30331918690229
 33
0.0
 14
369.3437397443786
 24
146.3033191869023
 34
0.0
 50
90.0
100
AcDbRotatedDimension
  0
DIMENSION
  5
C776
330
2
100
AcDbEntity
  8
ADM
100
AcDbDimension
280
     0
  2
*D25
 10
333.3437397443804
 20
171.2078068931375
 30
0.0
 11
351.8437397443803
 21
173.7078068931375
 31
0.0
 70
    32
 71
     5
 42
36.99999999999977
 73
     0
 74
     0
 75
     0
  3
S1$0
100
AcDbAlignedDimension
 13
370.3437397443802
 23
142.3033191869018
 33
0.0
 14
333.3437397443804
 24
145.8033191869024
 34
0.0
 50
180.0
100
AcDbRotatedDimension
  0
DIMENSION
  5
C777
330
2
100
AcDbEntity
  8
ADM
100
AcDbDimension
280
     0
  2
*D26
 10
140.3437397443724
 20
171.2078068931375
 30
0.0
 11
158.8437397443725
 21
173.7078068931375
 31
0.0
 70
    32
 71
     5
 42
37.00000000000023
 73
     0
 74
     0
 75
     0
  3
S1$0
100
AcDbAlignedDimension
 13
177.3437397443727
 23
145.8033191869024
 33
0.0
 14
140.3437397443724
 24
142.3033191869018
 34
0.0
 50
180.0
100
AcDbRotatedDimension
  0
DIMENSION
  5
C778
330
2
100
AcDbEntity
  8
ADM
100
AcDbDimension
280
     0
  2
*D27
 10
86.89719144851688
 20
12.34362558948328
 30
0.0
 11
91.39007690293784
 21
11.44025124340055
 31
0.0
 70
   160
 71
     5
 42
2.000000000002046
 73
     0
 74
     0
 75
     0
  3
S1$0
100
AcDbAlignedDimension
 13
84.89719144851482
 23
18.76792811928214
 33
0.0
 14
86.89719144851688
 24
19.76792811928214
 34
0.0
100
AcDbRotatedDimension
  0
DIMENSION
  5
C779
330
2
100
AcDbEntity
  8
ADM
100
AcDbDimension
280
     0
  2
*D28
 10
36.89719144851688
 20
12.34362558948328
 30
0.0
 11
32.67818403232468
 21
12.05945222528476
 31
0.0
 70
   160
 71
     5
 42
2.999999999998181
 73
     0
 74
     0
 75
     0
  3
S1$0
100
AcDbAlignedDimension
 13
39.89719144851506
 23
20.76792811928209
 33
0.0
 14
36.89719144851688
 24
19.76792811928214
 34
0.0
100
AcDbRotatedDimension
  0
LINE
  5
C77A
330
2
100
AcDbEntity
  8
0
100
AcDbLine
 10
288.8437397443772
 20
109.8033191869025
 30
0.0
 11
288.8437397443772
 21
102.303319186902
 31
0.0
  0
LINE
  5
C77B
330
2
100
AcDbEntity
  8
0
100
AcDbLine
 10
286.8437397443774
 20
111.2033191869026
 30
0.0
 11
286.843739744377
 21
100.8033191869025
 31
0.0
  0
LINE
  5
C77C
330
2
100
AcDbEntity
  8
0
100
AcDbLine
 10
286.8437397443774
 20
111.2033191869026
 30
0.0
 11
286.843739744377
 21
100.8033191869025
 31
0.0
  0
LINE
  5
C77D
330
2
100
AcDbEntity
  8
0
100
AcDbLine
 10
288.843739744375
 20
109.8033191869032
 30
0.0
 11
288.843739744375
 21
102.3033191869027
 31
0.0
  0
LINE
  5
C77E
330
2
100
AcDbEntity
  8
0
100
AcDbLine
 10
283.3437397443774
 20
102.4033191869026
 30
0.0
 11
257.3437397443765
 21
102.4033191869026
 31
0.0
  0
LINE
  5
C77F
330
2
100
AcDbEntity
  8
0
100
AcDbLine
 10
285.8608970319026
 20
100.0033191869025
 30
0.0
 11
267.5937397443772
 21
100.0033191869025
 31
0.0
  0
LINE
  5
C780
330
2
100
AcDbEntity
  8
0
100
AcDbLine
 10
288.8437397443772
 20
102.5033191869025
 30
0.0
 11
286.8437397443772
 21
102.5033191869025
 31
0.0
  0
LINE
  5
C781
330
2
100
AcDbEntity
  8
0
100
AcDbLine
 10
288.7437397443771
 20
99.80331918690263
 30
0.0
 11
286.1437397443772
 21
99.80331918690263
 31
0.0
  0
LINE
  5
C782
330
2
100
AcDbEntity
  8
0
100
AcDbLine
 10
286.843739744377
 20
100.8033191869025
 30
0.0
 11
289.2437397443771
 21
100.8033191869026
 31
0.0
  0
LINE
  5
C783
330
2
100
AcDbEntity
  8
0
100
AcDbLine
 10
288.7437397443771
 20
99.80331918690263
 30
0.0
 11
286.1437397443772
 21
99.80331918690263
 31
0.0
  0
LINE
  5
C784
330
2
100
AcDbEntity
  8
0
100
AcDbLine
 10
286.843739744377
 20
100.8033191869025
 30
0.0
 11
289.2437397443771
 21
100.8033191869026
 31
0.0
  0
ARC
  5
C785
330
2
100
AcDbEntity
  8
0
100
AcDbCircle
 10
288.7437397443771
 20
100.3033191869026
 30
0.0
 40
0.5
100
AcDbArc
 50
270.0
 51
0.0
  0
LINE
  5
C786
330
2
100
AcDbEntity
  8
0
100
AcDbLine
 10
289.2437397443771
 20
100.8033191869026
 30
0.0
 11
289.2437397443771
 21
100.3033191869026
 31
0.0
  0
ARC
  5
C787
330
2
100
AcDbEntity
  8
0
100
AcDbCircle
 10
288.7437397443771
 20
100.3033191869026
 30
0.0
 40
0.5
100
AcDbArc
 50
270.0
 51
0.0
  0
LINE
  5
C788
330
2
100
AcDbEntity
  8
0
100
AcDbLine
 10
289.2437397443771
 20
100.8033191869026
 30
0.0
 11
289.2437397443771
 21
100.3033191869026
 31
0.0
  0
ARC
  5
C789
330
2
100
AcDbEntity
  8
0
100
AcDbCircle
 10
286.1437397443772
 20
100.1033191869026
 30
0.0
 40
0.3
100
AcDbArc
 50
199.471220634491
 51
270.0
  0
ARC
  5
C78A
330
2
100
AcDbEntity
  8
0
100
AcDbCircle
 10
267.5937397443772
 20
100.2533191869025
 30
0.0
 40
0.2500000000000284
100
AcDbArc
 50
179.9999999999935
 51
270.0
  0
LINE
  5
C78B
330
2
100
AcDbEntity
  8
0
100
AcDbLine
 10
267.3437397443772
 20
100.2533191869025
 30
0.0
 11
267.3437397443772
 21
101.8033191869026
 31
0.0
  0
ARC
  5
C78C
330
2
100
AcDbEntity
  8
0
100
AcDbCircle
 10
267.5937397443772
 20
100.2533191869025
 30
0.0
 40
0.2500000000000284
100
AcDbArc
 50
179.9999999999935
 51
270.0
  0
LINE
  5
C78D
330
2
100
AcDbEntity
  8
0
100
AcDbLine
 10
268.3437397443772
 20
100.0033191869025
 30
0.0
 11
267.5937397443772
 21
100.0033191869025
 31
0.0
  0
LINE
  5
C78E
330
2
100
AcDbEntity
  8
0
100
AcDbLine
 10
267.3437397443772
 20
100.2533191869025
 30
0.0
 11
267.3437397443772
 21
102.4033191869026
 31
0.0
  0
LINE
  5
C78F
330
2
100
AcDbEntity
  8
0
100
AcDbLine
 10
288.8437397443772
 20
109.8033191869025
 30
0.0
 11
303.5437397443772
 21
110.2033191869028
 31
0.0
  0
LINE
  5
C790
330
2
100
AcDbEntity
  8
0
100
AcDbLine
 10
288.8437397443772
 20
124.2033191869026
 30
0.0
 11
303.5437397443772
 21
123.8033191869023
 31
0.0
  0
LINE
  5
C791
330
2
100
AcDbEntity
  8
0
100
AcDbLine
 10
288.8437397443772
 20
109.8033191869025
 30
0.0
 11
303.5437397443772
 21
110.2033191869028
 31
0.0
  0
LINE
  5
C792
330
2
100
AcDbEntity
  8
0
100
AcDbLine
 10
288.8437397443772
 20
124.2033191869026
 30
0.0
 11
303.5437397443772
 21
123.8033191869023
 31
0.0
  0
LINE
  5
C793
330
2
100
AcDbEntity
  8
0
100
AcDbLine
 10
303.5437397443772
 20
110.2033191869025
 30
0.0
 11
303.5437397443772
 21
123.8033191869023
 31
0.0
  0
LINE
  5
C794
330
2
100
AcDbEntity
  8
0
100
AcDbLine
 10
303.5437397443772
 20
110.2033191869024
 30
0.0
 11
303.543739744377
 21
123.8033191869023
 31
0.0
  0
LINE
  5
C795
330
2
100
AcDbEntity
  8
0
100
AcDbLine
 10
267.5937397443775
 20
122.8033191869027
 30
0.0
 11
301.3437397443774
 21
122.8033191869025
 31
0.0
  0
LINE
  5
C796
330
2
100
AcDbEntity
  8
0
100
AcDbLine
 10
267.5937397443775
 20
122.8033191869027
 30
0.0
 11
302.2437397443771
 21
122.8033191869025
 31
0.0
  0
LINE
  5
C797
330
2
100
AcDbEntity
  8
0
100
AcDbLine
 10
283.3437397443774
 20
105.4033191869026
 30
0.0
 11
257.3437397443765
 21
105.4033191869026
 31
0.0
  0
LINE
  5
C798
330
2
100
AcDbEntity
  8
0
100
AcDbLine
 10
283.3437397443774
 20
120.4033191869026
 30
0.0
 11
264.6452035013356
 21
120.4033191869026
 31
0.0
  0
LINE
  5
C799
330
2
100
AcDbEntity
  8
0
100
AcDbLine
 10
283.3437397443774
 20
117.4033191869026
 30
0.0
 11
267.4870567246092
 21
117.4033191869026
 31
0.0
  0
LINE
  5
C79A
330
2
100
AcDbEntity
  8
0
100
AcDbLine
 10
261.3424825346906
 20
117.4033191869026
 30
0.0
 11
257.3437397443765
 21
117.4033191869026
 31
0.0
  0
LINE
  5
C79B
330
2
100
AcDbEntity
  8
0
100
AcDbLine
 10
283.3437397443774
 20
120.4033191869026
 30
0.0
 11
264.6452035013356
 21
120.4033191869026
 31
0.0
  0
LINE
  5
C79C
330
2
100
AcDbEntity
  8
0
100
AcDbLine
 10
283.3437397443774
 20
120.4033191869026
 30
0.0
 11
257.3437397443765
 21
120.4033191869026
 31
0.0
  0
LINE
  5
C79D
330
2
100
AcDbEntity
  8
0
100
AcDbLine
 10
301.3437397443772
 20
111.2033191869025
 30
0.0
 11
286.8437397443774
 21
111.2033191869026
 31
0.0
  0
LINE
  5
C79E
330
2
100
AcDbEntity
  8
0
100
AcDbLine
 10
302.2437397443771
 20
111.2033191869024
 30
0.0
 11
286.8437397443774
 21
111.2033191869026
 31
0.0
  0
LINE
  5
C79F
330
2
100
AcDbEntity
  8
0
100
AcDbLine
 10
298.8437397443775
 20
121.0033191869025
 30
0.0
 11
298.8437397443772
 21
113.0033191869025
 31
0.0
  0
LINE
  5
C7A0
330
2
100
AcDbEntity
  8
0
100
AcDbLine
 10
302.2437397443771
 20
122.8033191869025
 30
0.0
 11
302.2437397443771
 21
111.2033191869024
 31
0.0
  0
LINE
  5
C7A1
330
2
100
AcDbEntity
  8
0
100
AcDbLine
 10
298.8437397443775
 20
121.0033191869025
 30
0.0
 11
298.8437397443772
 21
113.0033191869025
 31
0.0
  0
LINE
  5
C7A2
330
2
100
AcDbEntity
  8
0
100
AcDbLine
 10
298.8437397443772
 20
113.0033191869025
 30
0.0
 11
301.3437397443774
 21
113.0033191869025
 31
0.0
  0
LINE
  5
C7A3
330
2
100
AcDbEntity
  8
0
100
AcDbLine
 10
298.8437397443772
 20
113.0033191869025
 30
0.0
 11
301.3437397443774
 21
113.0033191869025
 31
0.0
  0
LINE
  5
C7A4
330
2
100
AcDbEntity
  8
0
100
AcDbLine
 10
301.8437397443772
 20
112.5033191869025
 30
0.0
 11
301.8437397443774
 21
111.7033191869025
 31
0.0
  0
LINE
  5
C7A5
330
2
100
AcDbEntity
  8
0
100
AcDbLine
 10
301.8437397443772
 20
112.5033191869025
 30
0.0
 11
301.8437397443774
 21
111.7033191869025
 31
0.0
  0
ARC
  5
C7A6
330
2
100
AcDbEntity
  8
0
100
AcDbCircle
 10
301.3437397443774
 20
111.7033191869026
 30
0.0
 40
0.5000000000000711
100
AcDbArc
 50
270.0
 51
359.9999999999935
  0
ARC
  5
C7A7
330
2
100
AcDbEntity
  8
0
100
AcDbCircle
 10
301.3437397443774
 20
112.5033191869025
 30
0.0
 40
0.4999999999999432
100
AcDbArc
 50
359.9999999999935
 51
90.0
  0
ARC
  5
C7A8
330
2
100
AcDbEntity
  8
0
100
AcDbCircle
 10
301.3437397443774
 20
111.7033191869026
 30
0.0
 40
0.5000000000000711
100
AcDbArc
 50
270.0
 51
359.9999999999935
  0
ARC
  5
C7A9
330
2
100
AcDbEntity
  8
0
100
AcDbCircle
 10
301.3437397443774
 20
112.5033191869025
 30
0.0
 40
0.4999999999999432
100
AcDbArc
 50
359.9999999999935
 51
90.0
  0
LINE
  5
C7AA
330
2
100
AcDbEntity
  8
0
100
AcDbLine
 10
301.3437397443774
 20
121.0033191869024
 30
0.0
 11
298.8437397443775
 21
121.0033191869025
 31
0.0
  0
LINE
  5
C7AB
330
2
100
AcDbEntity
  8
0
100
AcDbLine
 10
301.3437397443774
 20
121.0033191869024
 30
0.0
 11
298.8437397443775
 21
121.0033191869025
 31
0.0
  0
LINE
  5
C7AC
330
2
100
AcDbEntity
  8
0
100
AcDbLine
 10
301.8437397443774
 20
122.3033191869025
 30
0.0
 11
301.8437397443774
 21
121.5033191869024
 31
0.0
  0
LINE
  5
C7AD
330
2
100
AcDbEntity
  8
0
100
AcDbLine
 10
301.8437397443774
 20
122.3033191869025
 30
0.0
 11
301.8437397443774
 21
121.5033191869024
 31
0.0
  0
ARC
  5
C7AE
330
2
100
AcDbEntity
  8
0
100
AcDbCircle
 10
301.3437397443774
 20
121.5033191869024
 30
0.0
 40
0.4999999999999965
100
AcDbArc
 50
270.0
 51
0.0
  0
ARC
  5
C7AF
330
2
100
AcDbEntity
  8
0
100
AcDbCircle
 10
301.3437397443774
 20
122.3033191869025
 30
0.0
 40
0.4999999999999929
100
AcDbArc
 50
0.0000000000065138
 51
90.0
  0
ARC
  5
C7B0
330
2
100
AcDbEntity
  8
0
100
AcDbCircle
 10
301.3437397443774
 20
121.5033191869024
 30
0.0
 40
0.4999999999999965
100
AcDbArc
 50
270.0
 51
0.0
  0
ARC
  5
C7B1
330
2
100
AcDbEntity
  8
0
100
AcDbCircle
 10
301.3437397443774
 20
122.3033191869025
 30
0.0
 40
0.4999999999999929
100
AcDbArc
 50
0.0000000000065138
 51
90.0
  0
LINE
  5
C7B2
330
2
100
AcDbEntity
  8
0
100
AcDbLine
 10
288.8437397443772
 20
122.8033191869025
 30
0.0
 11
288.8437397443772
 21
124.2033191869026
 31
0.0
  0
LINE
  5
C7B3
330
2
100
AcDbEntity
  8
0
100
AcDbLine
 10
272.8437397443774
 20
117.4033191869026
 30
0.0
 11
272.8437397443772
 21
105.4033191869026
 31
0.0
  0
LINE
  5
C7B4
330
2
100
AcDbEntity
  8
0
100
AcDbLine
 10
272.8437397443774
 20
117.4033191869026
 30
0.0
 11
283.3437397443772
 21
105.4033191869026
 31
0.0
  0
ARC
  5
C7B5
330
2
100
AcDbEntity
  8
0
100
AcDbCircle
 10
267.5937397443775
 20
122.5533191869027
 30
0.0
 40
0.2499999999999787
100
AcDbArc
 50
90.0
 51
179.9999999999935
  0
LINE
  5
C7B6
330
2
100
AcDbEntity
  8
0
100
AcDbLine
 10
267.3437397443775
 20
120.4033191869026
 30
0.0
 11
267.3437397443775
 21
122.5533191869027
 31
0.0
  0
ARC
  5
C7B7
330
2
100
AcDbEntity
  8
0
100
AcDbCircle
 10
267.5937397443775
 20
122.5533191869027
 30
0.0
 40
0.2499999999999787
100
AcDbArc
 50
90.0
 51
179.9999999999935
  0
LINE
  5
C7B8
330
2
100
AcDbEntity
  8
0
100
AcDbLine
 10
267.3437397443775
 20
121.0033191869027
 30
0.0
 11
267.3437397443775
 21
122.5533191869027
 31
0.0
  0
LINE
  5
C7B9
330
2
100
AcDbEntity
  8
0
100
AcDbLine
 10
283.3437397443774
 20
120.4033191869026
 30
0.0
 11
283.343739744377
 21
102.4033191869026
 31
0.0
  0
LINE
  5
C7BA
330
2
100
AcDbEntity
  8
0
100
AcDbLine
 10
225.0437397443759
 20
111.2033191869026
 30
0.0
 11
225.0437397443763
 21
100.8033191869025
 31
0.0
  0
LINE
  5
C7BB
330
2
100
AcDbEntity
  8
0
100
AcDbLine
 10
225.0437397443759
 20
111.2033191869026
 30
0.0
 11
225.0437397443763
 21
100.8033191869025
 31
0.0
  0
LINE
  5
C7BC
330
2
100
AcDbEntity
  8
0
100
AcDbLine
 10
228.5437397443759
 20
102.4033191869026
 30
0.0
 11
255.3437397443763
 21
102.4033191869026
 31
0.0
  0
LINE
  5
C7BD
330
2
100
AcDbEntity
  8
0
100
AcDbLine
 10
226.0265824568508
 20
100.0033191869025
 30
0.0
 11
244.2937397443761
 21
100.0033191869025
 31
0.0
  0
LINE
  5
C7BE
330
2
100
AcDbEntity
  8
0
100
AcDbLine
 10
223.0437397443761
 20
102.5033191869025
 30
0.0
 11
225.0437397443761
 21
102.5033191869025
 31
0.0
  0
LINE
  5
C7BF
330
2
100
AcDbEntity
  8
0
100
AcDbLine
 10
223.1437397443762
 20
99.80331918690263
 30
0.0
 11
225.7437397443762
 21
99.80331918690263
 31
0.0
  0
LINE
  5
C7C0
330
2
100
AcDbEntity
  8
0
100
AcDbLine
 10
225.0437397443763
 20
100.8033191869025
 30
0.0
 11
222.6437397443763
 21
100.8033191869026
 31
0.0
  0
LINE
  5
C7C1
330
2
100
AcDbEntity
  8
0
100
AcDbLine
 10
223.1437397443762
 20
99.80331918690263
 30
0.0
 11
225.7437397443762
 21
99.80331918690263
 31
0.0
  0
LINE
  5
C7C2
330
2
100
AcDbEntity
  8
0
100
AcDbLine
 10
225.0437397443763
 20
100.8033191869025
 30
0.0
 11
222.6437397443763
 21
100.8033191869026
 31
0.0
  0
ARC
  5
C7C3
330
2
100
AcDbEntity
  8
0
100
AcDbCircle
 10
223.1437397443762
 20
100.3033191869026
 30
0.0
 40
0.5
100
AcDbArc
 50
180.0
 51
270.0
  0
LINE
  5
C7C4
330
2
100
AcDbEntity
  8
0
100
AcDbLine
 10
222.6437397443763
 20
100.8033191869026
 30
0.0
 11
222.6437397443763
 21
100.3033191869026
 31
0.0
  0
ARC
  5
C7C5
330
2
100
AcDbEntity
  8
0
100
AcDbCircle
 10
223.1437397443762
 20
100.3033191869026
 30
0.0
 40
0.5
100
AcDbArc
 50
180.0
 51
270.0
  0
LINE
  5
C7C6
330
2
100
AcDbEntity
  8
0
100
AcDbLine
 10
222.6437397443763
 20
100.8033191869026
 30
0.0
 11
222.6437397443763
 21
100.3033191869026
 31
0.0
  0
ARC
  5
C7C7
330
2
100
AcDbEntity
  8
0
100
AcDbCircle
 10
225.7437397443762
 20
100.1033191869026
 30
0.0
 40
0.3
100
AcDbArc
 50
270.0
 51
340.5287793655121
  0
ARC
  5
C7C8
330
2
100
AcDbEntity
  8
0
100
AcDbCircle
 10
244.2937397443761
 20
100.2533191869025
 30
0.0
 40
0.2500000000000284
100
AcDbArc
 50
270.0
 51
0.0000000000065138
  0
LINE
  5
C7C9
330
2
100
AcDbEntity
  8
0
100
AcDbLine
 10
244.5437397443761
 20
100.2533191869025
 30
0.0
 11
244.5437397443761
 21
101.8033191869026
 31
0.0
  0
ARC
  5
C7CA
330
2
100
AcDbEntity
  8
0
100
AcDbCircle
 10
244.2937397443761
 20
100.2533191869025
 30
0.0
 40
0.2500000000000284
100
AcDbArc
 50
270.0
 51
0.0000000000065138
  0
LINE
  5
C7CB
330
2
100
AcDbEntity
  8
0
100
AcDbLine
 10
243.5437397443761
 20
100.0033191869025
 30
0.0
 11
244.2937397443761
 21
100.0033191869025
 31
0.0
  0
LINE
  5
C7CC
330
2
100
AcDbEntity
  8
0
100
AcDbLine
 10
244.5437397443761
 20
100.2533191869025
 30
0.0
 11
244.5437397443761
 21
102.4033191869026
 31
0.0
  0
LINE
  5
C7CD
330
2
100
AcDbEntity
  8
0
100
AcDbLine
 10
223.0437397443761
 20
109.8033191869025
 30
0.0
 11
208.3437397443761
 21
110.2033191869028
 31
0.0
  0
LINE
  5
C7CE
330
2
100
AcDbEntity
  8
0
100
AcDbLine
 10
223.0437397443761
 20
124.2033191869026
 30
0.0
 11
208.3437397443761
 21
123.8033191869023
 31
0.0
  0
LINE
  5
C7CF
330
2
100
AcDbEntity
  8
0
100
AcDbLine
 10
223.0437397443761
 20
109.8033191869025
 30
0.0
 11
208.3437397443761
 21
110.2033191869028
 31
0.0
  0
LINE
  5
C7D0
330
2
100
AcDbEntity
  8
0
100
AcDbLine
 10
223.0437397443761
 20
124.2033191869026
 30
0.0
 11
208.3437397443761
 21
123.8033191869023
 31
0.0
  0
LINE
  5
C7D1
330
2
100
AcDbEntity
  8
0
100
AcDbLine
 10
208.3437397443761
 20
110.2033191869025
 30
0.0
 11
208.3437397443761
 21
123.8033191869023
 31
0.0
  0
LINE
  5
C7D2
330
2
100
AcDbEntity
  8
0
100
AcDbLine
 10
208.3437397443761
 20
110.2033191869024
 30
0.0
 11
208.3437397443763
 21
123.8033191869023
 31
0.0
  0
LINE
  5
C7D3
330
2
100
AcDbEntity
  8
0
100
AcDbLine
 10
244.2937397443759
 20
122.8033191869027
 30
0.0
 11
210.5437397443759
 21
122.8033191869025
 31
0.0
  0
LINE
  5
C7D4
330
2
100
AcDbEntity
  8
0
100
AcDbLine
 10
244.2937397443759
 20
122.8033191869027
 30
0.0
 11
209.6437397443763
 21
122.8033191869025
 31
0.0
  0
LINE
  5
C7D5
330
2
100
AcDbEntity
  8
0
100
AcDbLine
 10
228.5437397443759
 20
105.4033191869026
 30
0.0
 11
255.3437397443763
 21
105.4033191869026
 31
0.0
  0
LINE
  5
C7D6
330
2
100
AcDbEntity
  8
0
100
AcDbLine
 10
228.5437397443759
 20
120.4033191869026
 30
0.0
 11
247.2422759874178
 21
120.4033191869026
 31
0.0
  0
LINE
  5
C7D7
330
2
100
AcDbEntity
  8
0
100
AcDbLine
 10
228.5437397443759
 20
117.4033191869026
 30
0.0
 11
255.3437397443763
 21
117.4033191869026
 31
0.0
  0
LINE
  5
C7D8
330
2
100
AcDbEntity
  8
0
100
AcDbLine
 10
228.5437397443759
 20
120.4033191869026
 30
0.0
 11
247.2422759874178
 21
120.4033191869026
 31
0.0
  0
LINE
  5
C7D9
330
2
100
AcDbEntity
  8
0
100
AcDbLine
 10
228.5437397443759
 20
120.4033191869026
 30
0.0
 11
255.3437397443763
 21
120.4033191869026
 31
0.0
  0
LINE
  5
C7DA
330
2
100
AcDbEntity
  8
0
100
AcDbLine
 10
210.5437397443761
 20
111.2033191869025
 30
0.0
 11
225.0437397443759
 21
111.2033191869026
 31
0.0
  0
LINE
  5
C7DB
330
2
100
AcDbEntity
  8
0
100
AcDbLine
 10
209.6437397443763
 20
111.2033191869024
 30
0.0
 11
225.0437397443759
 21
111.2033191869026
 31
0.0
  0
LINE
  5
C7DC
330
2
100
AcDbEntity
  8
0
100
AcDbLine
 10
213.0437397443759
 20
121.0033191869025
 30
0.0
 11
213.0437397443761
 21
113.0033191869025
 31
0.0
  0
LINE
  5
C7DD
330
2
100
AcDbEntity
  8
0
100
AcDbLine
 10
209.6437397443763
 20
122.8033191869025
 30
0.0
 11
209.6437397443763
 21
111.2033191869024
 31
0.0
  0
LINE
  5
C7DE
330
2
100
AcDbEntity
  8
0
100
AcDbLine
 10
213.0437397443759
 20
121.0033191869025
 30
0.0
 11
213.0437397443761
 21
113.0033191869025
 31
0.0
  0
LINE
  5
C7DF
330
2
100
AcDbEntity
  8
0
100
AcDbLine
 10
213.0437397443761
 20
113.0033191869025
 30
0.0
 11
210.5437397443759
 21
113.0033191869025
 31
0.0
  0
LINE
  5
C7E0
330
2
100
AcDbEntity
  8
0
100
AcDbLine
 10
213.0437397443761
 20
113.0033191869025
 30
0.0
 11
210.5437397443759
 21
113.0033191869025
 31
0.0
  0
LINE
  5
C7E1
330
2
100
AcDbEntity
  8
0
100
AcDbLine
 10
210.0437397443761
 20
112.5033191869025
 30
0.0
 11
210.0437397443759
 21
111.7033191869025
 31
0.0
  0
LINE
  5
C7E2
330
2
100
AcDbEntity
  8
0
100
AcDbLine
 10
210.0437397443761
 20
112.5033191869025
 30
0.0
 11
210.0437397443759
 21
111.7033191869025
 31
0.0
  0
ARC
  5
C7E3
330
2
100
AcDbEntity
  8
0
100
AcDbCircle
 10
210.5437397443759
 20
111.7033191869026
 30
0.0
 40
0.5000000000000711
100
AcDbArc
 50
180.0000000000065
 51
270.0
  0
ARC
  5
C7E4
330
2
100
AcDbEntity
  8
0
100
AcDbCircle
 10
210.5437397443759
 20
112.5033191869025
 30
0.0
 40
0.4999999999999432
100
AcDbArc
 50
90.0
 51
180.0000000000065
  0
ARC
  5
C7E5
330
2
100
AcDbEntity
  8
0
100
AcDbCircle
 10
210.5437397443759
 20
111.7033191869026
 30
0.0
 40
0.5000000000000711
100
AcDbArc
 50
180.0000000000065
 51
270.0
  0
ARC
  5
C7E6
330
2
100
AcDbEntity
  8
0
100
AcDbCircle
 10
210.5437397443759
 20
112.5033191869025
 30
0.0
 40
0.4999999999999432
100
AcDbArc
 50
90.0
 51
180.0000000000065
  0
LINE
  5
C7E7
330
2
100
AcDbEntity
  8
0
100
AcDbLine
 10
210.5437397443759
 20
121.0033191869024
 30
0.0
 11
213.0437397443759
 21
121.0033191869025
 31
0.0
  0
LINE
  5
C7E8
330
2
100
AcDbEntity
  8
0
100
AcDbLine
 10
210.5437397443759
 20
121.0033191869024
 30
0.0
 11
213.0437397443759
 21
121.0033191869025
 31
0.0
  0
LINE
  5
C7E9
330
2
100
AcDbEntity
  8
0
100
AcDbLine
 10
210.0437397443759
 20
122.3033191869025
 30
0.0
 11
210.0437397443759
 21
121.5033191869024
 31
0.0
  0
LINE
  5
C7EA
330
2
100
AcDbEntity
  8
0
100
AcDbLine
 10
210.0437397443759
 20
122.3033191869025
 30
0.0
 11
210.0437397443759
 21
121.5033191869024
 31
0.0
  0
ARC
  5
C7EB
330
2
100
AcDbEntity
  8
0
100
AcDbCircle
 10
210.5437397443759
 20
121.5033191869024
 30
0.0
 40
0.4999999999999965
100
AcDbArc
 50
180.0
 51
270.0
  0
ARC
  5
C7EC
330
2
100
AcDbEntity
  8
0
100
AcDbCircle
 10
210.5437397443759
 20
122.3033191869025
 30
0.0
 40
0.4999999999999929
100
AcDbArc
 50
90.0
 51
179.9999999999935
  0
ARC
  5
C7ED
330
2
100
AcDbEntity
  8
0
100
AcDbCircle
 10
210.5437397443759
 20
121.5033191869024
 30
0.0
 40
0.4999999999999965
100
AcDbArc
 50
180.0
 51
270.0
  0
ARC
  5
C7EE
330
2
100
AcDbEntity
  8
0
100
AcDbCircle
 10
210.5437397443759
 20
122.3033191869025
 30
0.0
 40
0.4999999999999929
100
AcDbArc
 50
90.0
 51
179.9999999999935
  0
LINE
  5
C7EF
330
2
100
AcDbEntity
  8
0
100
AcDbLine
 10
223.0437397443761
 20
122.8033191869025
 30
0.0
 11
223.0437397443761
 21
124.2033191869026
 31
0.0
  0
LINE
  5
C7F0
330
2
100
AcDbEntity
  8
0
100
AcDbLine
 10
239.0437397443759
 20
117.4033191869026
 30
0.0
 11
239.0437397443761
 21
105.4033191869026
 31
0.0
  0
LINE
  5
C7F1
330
2
100
AcDbEntity
  8
0
100
AcDbLine
 10
239.0437397443759
 20
117.4033191869026
 30
0.0
 11
228.5437397443761
 21
105.4033191869026
 31
0.0
  0
ARC
  5
C7F2
330
2
100
AcDbEntity
  8
0
100
AcDbCircle
 10
244.2937397443759
 20
122.5533191869027
 30
0.0
 40
0.2499999999999787
100
AcDbArc
 50
0.0000000000065138
 51
90.0
  0
LINE
  5
C7F3
330
2
100
AcDbEntity
  8
0
100
AcDbLine
 10
244.5437397443759
 20
120.4033191869026
 30
0.0
 11
244.5437397443759
 21
122.5533191869027
 31
0.0
  0
ARC
  5
C7F4
330
2
100
AcDbEntity
  8
0
100
AcDbCircle
 10
244.2937397443759
 20
122.5533191869027
 30
0.0
 40
0.2499999999999787
100
AcDbArc
 50
0.0000000000065138
 51
90.0
  0
LINE
  5
C7F5
330
2
100
AcDbEntity
  8
0
100
AcDbLine
 10
244.5437397443759
 20
121.0033191869027
 30
0.0
 11
244.5437397443759
 21
122.5533191869027
 31
0.0
  0
LINE
  5
C7F6
330
2
100
AcDbEntity
  8
0
100
AcDbLine
 10
228.5437397443759
 20
120.4033191869026
 30
0.0
 11
228.5437397443764
 21
102.4033191869026
 31
0.0
  0
LINE
  5
C7F7
330
2
100
AcDbEntity
  8
0
100
AcDbLine
 10
65.79713326996648
 20
124.467928119282
 30
0.0
 11
65.79713326996648
 21
143.7679281192822
 31
0.0
  0
LINE
  5
C7F8
330
2
100
AcDbEntity
  8
0
100
AcDbLine
 10
65.79713326996648
 20
145.7679281192822
 30
0.0
 11
65.79713326996648
 21
168.0679281192824
 31
0.0
  0
LINE
  5
C7F9
330
2
100
AcDbEntity
  8
0
100
AcDbLine
 10
77.79713326996625
 20
124.467928119282
 30
0.0
 11
77.79713326996603
 21
143.7679281192822
 31
0.0
  0
LINE
  5
C7FA
330
2
100
AcDbEntity
  8
0
100
AcDbLine
 10
77.79713326996603
 20
145.7679281192822
 30
0.0
 11
77.79713326996625
 21
168.0679281192824
 31
0.0
  0
LINE
  5
C7FB
330
2
100
AcDbEntity
  8
0
100
AcDbLine
 10
80.79713326996625
 20
124.467928119282
 30
0.0
 11
80.79713326996602
 21
143.7679281192822
 31
0.0
  0
LINE
  5
C7FC
330
2
100
AcDbEntity
  8
0
100
AcDbLine
 10
80.79713326996602
 20
145.7679281192822
 30
0.0
 11
80.79713326996602
 21
168.0679281192824
 31
0.0
  0
LINE
  5
C7FD
330
2
100
AcDbEntity
  8
0
100
AcDbLine
 10
62.79713326996625
 20
124.467928119282
 30
0.0
 11
62.79713326996603
 21
143.7679281192822
 31
0.0
  0
LINE
  5
C7FE
330
2
100
AcDbEntity
  8
0
100
AcDbLine
 10
62.79713326996603
 20
145.7679281192822
 30
0.0
 11
62.79713326996625
 21
168.0679281192824
 31
0.0
  0
LINE
  5
C7FF
330
2
100
AcDbEntity
  8
0
100
AcDbLine
 10
59.44719144851706
 20
100.7679281192549
 30
0.0
 11
72.96181729885711
 21
100.7679281192549
 31
0.0
  0
LINE
  5
C800
330
2
100
AcDbEntity
  8
0
100
AcDbLine
 10
59.44713326996634
 20
100.7679281192553
 30
0.0
 11
72.96181729885711
 21
100.7679281192553
 31
0.0
  0
LINE
  5
C801
330
2
100
AcDbEntity
  8
0
100
AcDbLine
 10
62.19713326996611
 20
106.3679281192821
 30
0.0
 11
70.19713326996612
 21
106.3679281192823
 31
0.0
  0
ARC
  5
C802
330
2
100
AcDbEntity
  8
0
100
AcDbCircle
 10
61.69713326996634
 20
103.8679281192822
 30
0.0
 40
0.4999999999999965
100
AcDbArc
 50
270.0
 51
0.0
  0
LINE
  5
C803
330
2
100
AcDbEntity
  8
0
100
AcDbLine
 10
62.79713326996625
 20
137.8679281192823
 30
0.0
 11
60.64713326996593
 21
137.8679281192821
 31
0.0
  0
LINE
  5
C804
330
2
100
AcDbEntity
  8
0
100
AcDbLine
 10
66.19713326996611
 20
103.3676576383088
 30
0.0
 11
60.39713326996639
 21
103.3680236913373
 31
0.0
  0
LINE
  5
C805
330
2
100
AcDbEntity
  8
0
100
AcDbLine
 10
58.9971914485161
 20
116.7679281192547
 30
0.0
 11
59.43256559817564
 21
100.7679281192819
 31
0.0
  0
LINE
  5
C806
330
2
100
AcDbEntity
  8
0
100
AcDbLine
 10
62.19713326996634
 20
103.8679281192822
 30
0.0
 11
62.19713326996611
 21
106.3679281192821
 31
0.0
  0
LINE
  5
C807
330
2
100
AcDbEntity
  8
0
100
AcDbLine
 10
60.39713326996616
 20
137.6179281192821
 30
0.0
 11
60.39713326996616
 21
103.3680236913375
 31
0.0
  0
LINE
  5
C808
330
2
100
AcDbEntity
  8
0
100
AcDbLine
 10
60.89713326996616
 20
103.3679281192822
 30
0.0
 11
61.69713326996634
 21
103.3679281192822
 31
0.0
  0
ARC
  5
C809
330
2
100
AcDbEntity
  8
0
100
AcDbCircle
 10
60.89713326996616
 20
103.8679281192822
 30
0.0
 40
0.4999999999999929
100
AcDbArc
 50
180.0
 51
270.0
  0
LINE
  5
C80A
330
2
100
AcDbEntity
  8
0
100
AcDbLine
 10
60.39713326996616
 20
116.7679281192548
 30
0.0
 11
58.99713326996629
 21
116.7679281192548
 31
0.0
  0
ARC
  5
C80B
330
2
100
AcDbEntity
  8
0
100
AcDbCircle
 10
60.64713326996593
 20
137.6179281192821
 30
0.0
 40
0.2499999999999787
100
AcDbArc
 50
90.0
 51
180.0000000000065
  0
LINE
  5
C80C
330
2
100
AcDbEntity
  8
0
100
AcDbLine
 10
73.39719144851756
 20
116.7679281192547
 30
0.0
 11
72.96181729885802
 21
100.7679281192819
 31
0.0
  0
LINE
  5
C80D
330
2
100
AcDbEntity
  8
0
100
AcDbLine
 10
71.99713326996629
 20
103.3676576383092
 30
0.0
 11
71.99713326996607
 21
118.3679281192822
 31
0.0
  0
LINE
  5
C80E
330
2
100
AcDbEntity
  8
0
100
AcDbLine
 10
70.19713326996612
 20
106.3679281192823
 30
0.0
 11
70.19713326996612
 21
103.8679281192822
 31
0.0
  0
ARC
  5
C80F
330
2
100
AcDbEntity
  8
0
100
AcDbCircle
 10
70.69713326996612
 20
103.8679281192823
 30
0.0
 40
0.4999999999999432
100
AcDbArc
 50
180.0000000000065
 51
270.0
  0
LINE
  5
C810
330
2
100
AcDbEntity
  8
0
100
AcDbLine
 10
71.99713326996629
 20
103.3679281192823
 30
0.0
 11
63.04713347256143
 21
103.3679281192823
 31
0.0
  0
LINE
  5
C811
330
2
100
AcDbEntity
  8
0
100
AcDbLine
 10
66.19719144851638
 20
103.3676576383087
 30
0.0
 11
62.99724697836381
 21
103.3676576383087
 31
0.0
  0
ARC
  5
C812
330
2
100
AcDbEntity
  8
0
100
AcDbCircle
 10
71.49713326996607
 20
103.8679281192823
 30
0.0
 40
0.5000000000000711
100
AcDbArc
 50
270.0
 51
0.0000000000097707
  0
LINE
  5
C813
330
2
100
AcDbEntity
  8
0
100
AcDbLine
 10
70.69713326996612
 20
103.3679281192823
 30
0.0
 11
71.49713326996629
 21
103.3679281192822
 31
0.0
  0
LINE
  5
C814
330
2
100
AcDbEntity
  8
0
100
AcDbLine
 10
65.79713326996648
 20
124.467928119282
 30
0.0
 11
77.79713326996625
 21
134.967928119282
 31
0.0
  0
LINE
  5
C815
330
2
100
AcDbEntity
  8
0
100
AcDbLine
 10
83.19713326996611
 20
119.3507708317569
 30
0.0
 11
83.19713326996611
 21
137.6179281192823
 31
0.0
  0
LINE
  5
C816
330
2
100
AcDbEntity
  8
0
100
AcDbLine
 10
71.99713326996607
 20
118.3679281192822
 30
0.0
 11
82.39713326996616
 21
118.3679281192824
 31
0.0
  0
LINE
  5
C817
330
2
100
AcDbEntity
  8
0
100
AcDbLine
 10
80.79713326996625
 20
124.467928119282
 30
0.0
 11
62.79713326996625
 21
124.467928119282
 31
0.0
  0
LINE
  5
C818
330
2
100
AcDbEntity
  8
0
100
AcDbLine
 10
71.99713326996607
 20
116.7677387852364
 30
0.0
 11
73.39713326996729
 21
116.7679281192548
 31
0.0
  0
LINE
  5
C819
330
2
100
AcDbEntity
  8
0
100
AcDbLine
 10
83.39713326996616
 20
116.4679281192823
 30
0.0
 11
83.39713326996616
 21
119.0679281192824
 31
0.0
  0
LINE
  5
C81A
330
2
100
AcDbEntity
  8
0
100
AcDbLine
 10
82.39713326996616
 20
118.3679281192824
 30
0.0
 11
82.39713326996616
 21
115.9679281192824
 31
0.0
  0
LINE
  5
C81B
330
2
100
AcDbEntity
  8
0
100
AcDbLine
 10
82.39713326996616
 20
115.9679281192824
 30
0.0
 11
82.89713326996617
 21
115.9679281192823
 31
0.0
  0
ARC
  5
C81C
330
2
100
AcDbEntity
  8
0
100
AcDbCircle
 10
82.89713326996617
 20
116.4679281192823
 30
0.0
 40
0.5
100
AcDbArc
 50
270.0
 51
0.0
  0
ARC
  5
C81D
330
2
100
AcDbEntity
  8
0
100
AcDbCircle
 10
83.0971332699662
 20
119.0679281192824
 30
0.0
 40
0.3
100
AcDbArc
 50
0.0
 51
70.52877936551318
  0
LINE
  5
C81E
330
2
100
AcDbEntity
  8
0
100
AcDbLine
 10
77.79713326996625
 20
134.967928119282
 30
0.0
 11
65.79713326996648
 21
134.9679281192821
 31
0.0
  0
LINE
  5
C81F
330
2
100
AcDbEntity
  8
0
100
AcDbLine
 10
82.94713326996612
 20
137.8679281192823
 30
0.0
 11
80.79713326996625
 21
137.8679281192823
 31
0.0
  0
ARC
  5
C820
330
2
100
AcDbEntity
  8
0
100
AcDbCircle
 10
82.94713326996612
 20
137.6179281192823
 30
0.0
 40
0.2500000000000284
100
AcDbArc
 50
0.0000000000065138
 51
90.0
  0
LINE
  5
C821
330
2
100
AcDbEntity
  8
0
100
AcDbLine
 10
59.44713347255924
 20
191.7679281193095
 30
0.0
 11
72.9617593228993
 21
191.7679281193095
 31
0.0
  0
LINE
  5
C822
330
2
100
AcDbEntity
  8
0
100
AcDbLine
 10
59.44707529400853
 20
191.7679281193091
 30
0.0
 11
72.9617593228993
 21
191.7679281193091
 31
0.0
  0
LINE
  5
C823
330
2
100
AcDbEntity
  8
0
100
AcDbLine
 10
62.1970752940083
 20
186.1679281192823
 30
0.0
 11
70.1970752940083
 21
186.1679281192821
 31
0.0
  0
ARC
  5
C824
330
2
100
AcDbEntity
  8
0
100
AcDbCircle
 10
61.69707529400852
 20
188.6679281192822
 30
0.0
 40
0.4999999999999965
100
AcDbArc
 50
0.0
 51
90.0
  0
LINE
  5
C825
330
2
100
AcDbEntity
  8
0
100
AcDbLine
 10
62.79707529400844
 20
154.6679281192821
 30
0.0
 11
60.64707529400812
 21
154.6679281192823
 31
0.0
  0
LINE
  5
C826
330
2
100
AcDbEntity
  8
0
100
AcDbLine
 10
66.1970752940083
 20
189.1681986002556
 30
0.0
 11
60.39707529400857
 21
189.1678325472271
 31
0.0
  0
LINE
  5
C827
330
2
100
AcDbEntity
  8
0
100
AcDbLine
 10
58.99713347255829
 20
175.7679281193097
 30
0.0
 11
59.43250762221783
 21
191.7679281192825
 31
0.0
  0
LINE
  5
C828
330
2
100
AcDbEntity
  8
0
100
AcDbLine
 10
62.19707529400853
 20
188.6679281192822
 30
0.0
 11
62.1970752940083
 21
186.1679281192823
 31
0.0
  0
LINE
  5
C829
330
2
100
AcDbEntity
  8
0
100
AcDbLine
 10
60.39707529400835
 20
154.9179281192823
 30
0.0
 11
60.39707529400835
 21
189.1678325472269
 31
0.0
  0
LINE
  5
C82A
330
2
100
AcDbEntity
  8
0
100
AcDbLine
 10
60.89707529400834
 20
189.1679281192822
 30
0.0
 11
61.69707529400852
 21
189.1679281192822
 31
0.0
  0
ARC
  5
C82B
330
2
100
AcDbEntity
  8
0
100
AcDbCircle
 10
60.89707529400834
 20
188.6679281192822
 30
0.0
 40
0.4999999999999929
100
AcDbArc
 50
90.0
 51
180.0
  0
LINE
  5
C82C
330
2
100
AcDbEntity
  8
0
100
AcDbLine
 10
60.39707529400835
 20
175.7679281193096
 30
0.0
 11
58.99707529400848
 21
175.7679281193096
 31
0.0
  0
ARC
  5
C82D
330
2
100
AcDbEntity
  8
0
100
AcDbCircle
 10
60.64707529400812
 20
154.9179281192823
 30
0.0
 40
0.2499999999999787
100
AcDbArc
 50
179.9999999999935
 51
269.999999999987
  0
LINE
  5
C82E
330
2
100
AcDbEntity
  8
0
100
AcDbLine
 10
73.39713347255974
 20
175.7679281193097
 30
0.0
 11
72.96175932290021
 21
191.7679281192825
 31
0.0
  0
LINE
  5
C82F
330
2
100
AcDbEntity
  8
0
100
AcDbLine
 10
71.99707529400848
 20
189.1681986002552
 30
0.0
 11
71.99707529400825
 21
174.1679281192822
 31
0.0
  0
LINE
  5
C830
330
2
100
AcDbEntity
  8
0
100
AcDbLine
 10
70.1970752940083
 20
186.1679281192821
 30
0.0
 11
70.1970752940083
 21
188.6679281192822
 31
0.0
  0
ARC
  5
C831
330
2
100
AcDbEntity
  8
0
100
AcDbCircle
 10
70.6970752940083
 20
188.6679281192821
 30
0.0
 40
0.4999999999999432
100
AcDbArc
 50
89.99999999998697
 51
179.9999999999935
  0
LINE
  5
C832
330
2
100
AcDbEntity
  8
0
100
AcDbLine
 10
71.99707529400848
 20
189.1679281192821
 30
0.0
 11
63.04707549660361
 21
189.1679281192821
 31
0.0
  0
LINE
  5
C833
330
2
100
AcDbEntity
  8
0
100
AcDbLine
 10
66.19713347255856
 20
189.1681986002557
 30
0.0
 11
62.997189002406
 21
189.1681986002557
 31
0.0
  0
ARC
  5
C834
330
2
100
AcDbEntity
  8
0
100
AcDbCircle
 10
71.49707529400825
 20
188.6679281192821
 30
0.0
 40
0.5000000000000711
100
AcDbArc
 50
359.9999999999902
 51
89.99999999998697
  0
LINE
  5
C835
330
2
100
AcDbEntity
  8
0
100
AcDbLine
 10
70.6970752940083
 20
189.1679281192821
 30
0.0
 11
71.49707529400848
 21
189.1679281192822
 31
0.0
  0
LINE
  5
C836
330
2
100
AcDbEntity
  8
0
100
AcDbLine
 10
65.79707529400867
 20
168.0679281192824
 30
0.0
 11
77.79707529400844
 21
157.5679281192824
 31
0.0
  0
LINE
  5
C837
330
2
100
AcDbEntity
  8
0
100
AcDbLine
 10
83.1970752940083
 20
173.1850854068075
 30
0.0
 11
83.1970752940083
 21
154.9179281192821
 31
0.0
  0
LINE
  5
C838
330
2
100
AcDbEntity
  8
0
100
AcDbLine
 10
71.99707529400825
 20
174.1679281192822
 30
0.0
 11
82.39707529400835
 21
174.167928119282
 31
0.0
  0
LINE
  5
C839
330
2
100
AcDbEntity
  8
0
100
AcDbLine
 10
80.79713326996602
 20
168.0679281192824
 30
0.0
 11
62.79707529400844
 21
168.0679281192824
 31
0.0
  0
LINE
  5
C83A
330
2
100
AcDbEntity
  8
0
100
AcDbLine
 10
71.99707529400825
 20
175.768117453328
 30
0.0
 11
73.39707529400948
 21
175.7679281193096
 31
0.0
  0
LINE
  5
C83B
330
2
100
AcDbEntity
  8
0
100
AcDbLine
 10
83.39707529400834
 20
176.0679281192821
 30
0.0
 11
83.39707529400834
 21
173.4679281192821
 31
0.0
  0
LINE
  5
C83C
330
2
100
AcDbEntity
  8
0
100
AcDbLine
 10
82.39707529400835
 20
174.167928119282
 30
0.0
 11
82.39707529400835
 21
176.567928119282
 31
0.0
  0
LINE
  5
C83D
330
2
100
AcDbEntity
  8
0
100
AcDbLine
 10
82.39707529400835
 20
176.567928119282
 30
0.0
 11
82.89707529400834
 21
176.5679281192821
 31
0.0
  0
ARC
  5
C83E
330
2
100
AcDbEntity
  8
0
100
AcDbCircle
 10
82.89707529400834
 20
176.0679281192821
 30
0.0
 40
0.5
100
AcDbArc
 50
0.0
 51
90.0
  0
ARC
  5
C83F
330
2
100
AcDbEntity
  8
0
100
AcDbCircle
 10
83.09707529400839
 20
173.4679281192821
 30
0.0
 40
0.3
100
AcDbArc
 50
289.4712206344868
 51
0.0
  0
LINE
  5
C840
330
2
100
AcDbEntity
  8
0
100
AcDbLine
 10
77.79707529400844
 20
157.5679281192824
 30
0.0
 11
65.79707529400867
 21
157.5679281192823
 31
0.0
  0
LINE
  5
C841
330
2
100
AcDbEntity
  8
0
100
AcDbLine
 10
82.94707529400829
 20
154.6679281192821
 30
0.0
 11
80.79707529400844
 21
154.6679281192821
 31
0.0
  0
ARC
  5
C842
330
2
100
AcDbEntity
  8
0
100
AcDbCircle
 10
82.94707529400829
 20
154.9179281192821
 30
0.0
 40
0.2500000000000284
100
AcDbArc
 50
269.999999999987
 51
359.9999999999935
  0
TEXT
  5
C8E9
330
2
100
AcDbEntity
  8
ADM
100
AcDbText
 10
371.9732285799076
 20
1.154120148162746
 30
0.0
 40
3.0
  1
TL03
 41
0.8
 72
     1
 11
376.0303714370504
 21
1.154120148162746
 31
0.0
100
AcDbText
  0
LINE
  5
D4D7
330
2
100
AcDbEntity
  8
ACL
100
AcDbLine
 10
153.9437397443771
 20
89.50331918690238
 30
0.0
 11
169.9437397443771
 21
89.50331918690238
 31
0.0
  0
LINE
  5
D4D8
330
2
100
AcDbEntity
  8
ACL
100
AcDbLine
 10
161.9437397443771
 20
81.50331918690239
 30
0.0
 11
161.9437397443771
 21
97.50331918690239
 31
0.0
  0
LINE
  5
D4E7
330
2
100
AcDbEntity
  8
ACL
100
AcDbLine
 10
62.19713347255901
 20
194.26792811928
 30
0.0
 11
70.19713347255901
 21
194.26792811928
 31
0.0
  0
LINE
  5
D4E8
330
2
100
AcDbEntity
  8
ACL
100
AcDbLine
 10
66.19713347255902
 20
190.26792811928
 30
0.0
 11
66.19713347255902
 21
198.26792811928
 31
0.0
  0
LINE
  5
D4E9
330
2
100
AcDbEntity
  8
ACL
100
AcDbLine
 10
62.19713347255901
 20
242.7679281192822
 30
0.0
 11
70.19713347255901
 21
242.7679281192822
 31
0.0
  0
LINE
  5
D4EA
330
2
100
AcDbEntity
  8
ACL
100
AcDbLine
 10
66.19713347255902
 20
238.7679281192822
 30
0.0
 11
66.19713347255902
 21
246.7679281192822
 31
0.0
  0
LINE
  5
D4EB
330
2
100
AcDbEntity
  8
ACL
100
AcDbLine
 10
62.19719144851683
 20
49.76792811928226
 30
0.0
 11
70.19719144851683
 21
49.76792811928226
 31
0.0
  0
LINE
  5
D4EC
330
2
100
AcDbEntity
  8
ACL
100
AcDbLine
 10
66.19719144851683
 20
45.76792811928226
 30
0.0
 11
66.19719144851683
 21
53.76792811928226
 31
0.0
  0
LINE
  5
D4ED
330
2
100
AcDbEntity
  8
ACL
100
AcDbLine
 10
62.19719144851683
 20
98.26792811928449
 30
0.0
 11
70.19719144851683
 21
98.26792811928449
 31
0.0
  0
LINE
  5
D4EE
330
2
100
AcDbEntity
  8
ACL
100
AcDbLine
 10
66.19719144851683
 20
94.26792811928448
 30
0.0
 11
66.19719144851683
 21
102.2679281192844
 31
0.0
  0
LINE
  5
D6B9
330
2
100
AcDbEntity
  8
0
100
AcDbLine
 10
162.9437397443771
 20
98.30331918690456
 30
0.0
 11
160.9437397443771
 21
98.30331918690456
 31
0.0
  0
LINE
  5
D6CE
330
2
100
AcDbEntity
  8
0
100
AcDbLine
 10
255.3437397443761
 20
143.3033191869045
 30
0.0
 11
177.3437397443745
 21
143.3033191869045
 31
0.0
  0
LINE
  5
D819
330
2
100
AcDbEntity
  8
0
 48
0.1
100
AcDbLine
 10
84.89719144851688
 20
257.2679281192824
 30
0.0
 11
84.89719144851688
 21
268.2679281192824
 31
0.0
  0
ARC
  5
D81A
330
2
100
AcDbEntity
  8
0
 48
0.1
100
AcDbCircle
 10
84.39719144851691
 20
257.2679281192824
 30
0.0
 40
0.5
100
AcDbArc
 50
269.9999999999951
 51
0.0000000000032569
  0
LINE
  5
D81B
330
2
100
AcDbEntity
  8
0
100
AcDbLine
 10
42.39719144851631
 20
241.2679281192823
 30
0.0
 11
42.39719144851631
 21
241.2679281192823
 31
0.0
  0
LINE
  5
D81C
330
2
100
AcDbEntity
  8
0
 48
2.0
100
AcDbLine
 10
55.06333272674578
 20
236.8403757997098
 30
0.0
 11
49.73089479868327
 21
236.8403757997098
 31
0.0
  0
ARC
  5
D81D
330
2
100
AcDbEntity
  8
0
 48
2.0
100
AcDbCircle
 10
55.06333272674578
 20
238.8403757997098
 30
0.0
 40
2.0
100
AcDbArc
 50
270.0
 51
337.4009727453426
  0
LINE
  5
D81E
330
2
100
AcDbEntity
  8
0
 48
2.0
100
AcDbLine
 10
59.37031730800504
 20
243.9831937371817
 30
0.0
 11
56.90976620953711
 21
238.0718165023052
 31
0.0
  0
ARC
  5
D81F
330
2
100
AcDbEntity
  8
0
 48
2.0
100
AcDbCircle
 10
59.04719144851651
 20
244.1176916142275
 30
0.0
 40
0.3500000000000013
100
AcDbArc
 50
337.4009727453426
 51
157.4009727453427
  0
LINE
  5
D820
330
2
100
AcDbEntity
  8
0
 48
2.0
100
AcDbLine
 10
56.26351449056016
 20
238.3408122563969
 30
0.0
 11
58.7240655890281
 21
244.2521894912733
 31
0.0
  0
ARC
  5
D821
330
2
100
AcDbEntity
  8
0
 48
2.0
100
AcDbCircle
 10
55.06333272674578
 20
238.8403757997098
 30
0.0
 40
1.299999999999997
100
AcDbArc
 50
270.0
 51
337.4009727453426
  0
LINE
  5
D822
330
2
100
AcDbEntity
  8
0
 48
2.0
100
AcDbLine
 10
53.49719144851644
 20
237.5403757997099
 30
0.0
 11
55.06333272674578
 21
237.5403757997099
 31
0.0
  0
ARC
  5
D823
330
2
100
AcDbEntity
  8
0
 48
2.0
100
AcDbCircle
 10
53.49719144851644
 20
238.5403757997099
 30
0.0
 40
1.0
100
AcDbArc
 50
180.0
 51
270.0
  0
LINE
  5
D824
330
2
100
AcDbEntity
  8
0
 48
2.0
100
AcDbLine
 10
52.49719144851645
 20
244.6403757997098
 30
0.0
 11
52.49719144851645
 21
238.5403757997099
 31
0.0
  0
LINE
  5
D825
330
2
100
AcDbEntity
  8
0
 48
2.0
100
AcDbLine
 10
53.14719144851654
 20
244.6403757997098
 30
0.0
 11
52.49719144851645
 21
244.6403757997098
 31
0.0
  0
ARC
  5
D826
330
2
100
AcDbEntity
  8
0
 48
2.0
100
AcDbCircle
 10
53.14719144851654
 20
244.9903757997098
 30
0.0
 40
0.3499999999999979
100
AcDbArc
 50
270.0
 51
0.0
  0
ARC
  5
D827
330
2
100
AcDbEntity
  8
0
 48
2.0
100
AcDbCircle
 10
53.14719144851654
 20
244.9903757997098
 30
0.0
 40
0.3500000000000014
100
AcDbArc
 50
0.0
 51
90.0
  0
LINE
  5
D828
330
2
100
AcDbEntity
  8
0
 48
2.0
100
AcDbLine
 10
51.39191494058161
 20
245.3403757997098
 30
0.0
 11
53.14719144851654
 21
245.3403757997098
 31
0.0
  0
LINE
  5
D829
330
2
100
AcDbEntity
  8
0
100
AcDbLine
 10
53.49719144851644
 20
244.9903757997098
 30
0.0
 11
53.49719144851644
 21
244.9903757997098
 31
0.0
  0
LINE
  5
D82A
330
2
100
AcDbEntity
  8
0
100
AcDbLine
 10
60.79719144851527
 20
260.8679281192822
 30
0.0
 11
60.79719144851527
 21
260.0679281192803
 31
0.0
  0
LINE
  5
D82B
330
2
100
AcDbEntity
  8
0
100
AcDbLine
 10
46.59719144851692
 20
239.4789856047651
 30
0.0
 11
43.6407230569556
 21
239.607527708746
 31
0.0
  0
LINE
  5
D82C
330
2
100
AcDbEntity
  8
0
100
AcDbLine
 10
46.59719144851692
 20
245.2679281192823
 30
0.0
 11
46.59719144851692
 21
239.4789856047651
 31
0.0
  0
ARC
  5
D82D
330
2
100
AcDbEntity
  8
0
100
AcDbCircle
 10
47.09719144851692
 20
245.2679281192823
 30
0.0
 40
0.5
100
AcDbArc
 50
90.0
 51
180.0
  0
LINE
  5
D82E
330
2
100
AcDbEntity
  8
0
100
AcDbLine
 10
50.89719144851699
 20
245.7679281192823
 30
0.0
 11
47.09719144851692
 21
245.7679281192823
 31
0.0
  0
ARC
  5
D82F
330
2
100
AcDbEntity
  8
0
100
AcDbCircle
 10
50.89719144851699
 20
245.2679281192823
 30
0.0
 40
0.5
100
AcDbArc
 50
8.331219816438192
 51
90.0
  0
LINE
  5
D830
330
2
100
AcDbEntity
  8
0
100
AcDbLine
 10
43.53212999626486
 20
237.1098873128584
 30
0.0
 11
49.73089479868349
 21
236.8403757997098
 31
0.0
  0
ARC
  5
D831
330
2
100
AcDbEntity
  8
0
100
AcDbCircle
 10
43.69719144851479
 20
240.9063007146076
 30
0.0
 40
3.800000000000011
100
AcDbArc
 50
180.0
 51
267.5104470780003
  0
LINE
  5
D832
330
2
100
AcDbEntity
  8
0
100
AcDbLine
 10
39.89719144851483
 20
268.7679281192822
 30
0.0
 11
39.89719144851472
 21
240.9063007146077
 31
0.0
  0
LINE
  5
D833
330
2
100
AcDbEntity
  8
0
100
AcDbLine
 10
43.39719144851494
 20
268.7679281192822
 30
0.0
 11
40.51689354677444
 21
268.7679281192822
 31
0.0
  0
ARC
  5
D834
330
2
100
AcDbEntity
  8
0
100
AcDbCircle
 10
43.39719144851494
 20
269.2679281192823
 30
0.0
 40
0.5
100
AcDbArc
 50
270.0
 51
0.0
  0
LINE
  5
D835
330
2
100
AcDbEntity
  8
0
100
AcDbLine
 10
43.89719144851494
 20
269.7679281192823
 30
0.0
 11
43.89719144851494
 21
269.2679281192823
 31
0.0
  0
LINE
  5
D836
330
2
100
AcDbEntity
  8
0
100
AcDbLine
 10
44.89719144851494
 20
269.7679281192823
 30
0.0
 11
43.89719144851494
 21
269.7679281192823
 31
0.0
  0
LINE
  5
D837
330
2
100
AcDbEntity
  8
0
100
AcDbLine
 10
44.89719144851494
 20
268.2679281192825
 30
0.0
 11
44.89719144851494
 21
269.7679281192823
 31
0.0
  0
ARC
  5
D838
330
2
100
AcDbEntity
  8
0
100
AcDbCircle
 10
43.89719144851494
 20
268.2679281192825
 30
0.0
 40
1.000000000000014
100
AcDbArc
 50
270.0
 51
0.0
  0
LINE
  5
D839
330
2
100
AcDbEntity
  8
0
100
AcDbLine
 10
41.6971914485149
 20
267.2679281192825
 30
0.0
 11
43.89719144851494
 21
267.2679281192825
 31
0.0
  0
LINE
  5
D83A
330
2
100
AcDbEntity
  8
0
100
AcDbLine
 10
41.6971914485149
 20
258.5679281192797
 30
0.0
 11
41.6971914485149
 21
267.2679281192825
 31
0.0
  0
LINE
  5
D83B
330
2
100
AcDbEntity
  8
0
100
AcDbLine
 10
59.29719144851526
 20
258.5679281192803
 30
0.0
 11
41.6971914485149
 21
258.5679281192797
 31
0.0
  0
ARC
  5
D83C
330
2
100
AcDbEntity
  8
0
100
AcDbCircle
 10
59.29719144851515
 20
260.0679281192803
 30
0.0
 40
1.500000000000014
100
AcDbArc
 50
270.0000000000065
 51
0.0
  0
LINE
  5
D83D
330
2
100
AcDbEntity
  8
0
100
AcDbLine
 10
42.39719144851483
 20
240.9063007146076
 30
0.0
 11
42.39719144851483
 21
241.7679281192823
 31
0.0
  0
ARC
  5
D83E
330
2
100
AcDbEntity
  8
0
100
AcDbCircle
 10
43.69719144851479
 20
240.9063007146076
 30
0.0
 40
1.299999999999998
100
AcDbArc
 50
180.0
 51
267.5104470780003
  0
LINE
  5
D83F
330
2
100
AcDbEntity
  8
0
100
AcDbLine
 10
68.99719144851508
 20
260.0679281192811
 30
0.0
 11
68.99719144851508
 21
267.7679281192823
 31
0.0
  0
LINE
  5
D840
330
2
100
AcDbEntity
  8
0
100
AcDbLine
 10
68.99719144851508
 20
267.7679281192823
 30
0.0
 11
70.49719144851508
 21
267.7679281192823
 31
0.0
  0
ARC
  5
D841
330
2
100
AcDbEntity
  8
0
100
AcDbCircle
 10
70.49719144851508
 20
268.7679281192822
 30
0.0
 40
1.0
100
AcDbArc
 50
270.0
 51
0.0
  0
LINE
  5
D842
330
2
100
AcDbEntity
  8
0
100
AcDbLine
 10
71.49719144851508
 20
268.7679281192822
 30
0.0
 11
71.49719144851508
 21
269.7679281192823
 31
0.0
  0
LINE
  5
D843
330
2
100
AcDbEntity
  8
0
100
AcDbLine
 10
71.49719144851508
 20
269.7679281192823
 30
0.0
 11
66.99719144851508
 21
269.7679281192823
 31
0.0
  0
ARC
  5
D844
330
2
100
AcDbEntity
  8
0
100
AcDbCircle
 10
66.99719144851508
 20
269.2679281192823
 30
0.0
 40
0.5
100
AcDbArc
 50
90.0
 51
180.0
  0
LINE
  5
D845
330
2
100
AcDbEntity
  8
0
100
AcDbLine
 10
66.49719144851508
 20
269.2679281192823
 30
0.0
 11
66.49719144851508
 21
258.5679281192797
 31
0.0
  0
LINE
  5
D846
330
2
100
AcDbEntity
  8
0
100
AcDbLine
 10
66.49719144851508
 20
258.5679281192797
 30
0.0
 11
63.29719144851515
 21
258.5679281192795
 31
0.0
  0
LINE
  5
D847
330
2
100
AcDbEntity
  8
0
100
AcDbLine
 10
63.29719144851515
 20
258.5679281192795
 30
0.0
 11
63.29719144851515
 21
269.2679281192823
 31
0.0
  0
ARC
  5
D848
330
2
100
AcDbEntity
  8
0
100
AcDbCircle
 10
62.79719144851515
 20
269.2679281192823
 30
0.0
 40
0.5
100
AcDbArc
 50
0.0
 51
90.0
  0
LINE
  5
D849
330
2
100
AcDbEntity
  8
0
100
AcDbLine
 10
62.79719144851515
 20
269.7679281192823
 30
0.0
 11
58.29719144851515
 21
269.7679281192822
 31
0.0
  0
LINE
  5
D84A
330
2
100
AcDbEntity
  8
0
100
AcDbLine
 10
58.29719144851515
 20
269.7679281192822
 30
0.0
 11
58.29719144851527
 21
268.7679281192822
 31
0.0
  0
ARC
  5
D84B
330
2
100
AcDbEntity
  8
0
100
AcDbCircle
 10
59.29719144851526
 20
268.7679281192822
 30
0.0
 40
0.9999999999999964
100
AcDbArc
 50
180.0
 51
270.0
  0
LINE
  5
D84C
330
2
100
AcDbEntity
  8
0
100
AcDbLine
 10
59.29719144851526
 20
267.7679281192823
 30
0.0
 11
60.79719144851527
 21
267.7679281192823
 31
0.0
  0
LINE
  5
D84D
330
2
100
AcDbEntity
  8
0
100
AcDbLine
 10
60.79719144851527
 20
267.7679281192823
 30
0.0
 11
60.79719144851527
 21
260.0679281192803
 31
0.0
  0
LINE
  5
D84E
330
2
100
AcDbEntity
  8
0
100
AcDbLine
 10
42.39719144851483
 20
241.7679281192823
 30
0.0
 11
42.39719144851483
 21
256.7679281192823
 31
0.0
  0
LINE
  5
D84F
330
2
100
AcDbEntity
  8
0
100
AcDbLine
 10
42.39719144851483
 20
256.7679281192823
 30
0.0
 11
84.39719144851691
 21
256.7679281192823
 31
0.0
  0
LINE
  5
D850
330
2
100
AcDbEntity
  8
0
100
AcDbLine
 10
84.89719144851472
 20
268.2679281192823
 30
0.0
 11
84.89719144851482
 21
268.7679281192822
 31
0.0
  0
LINE
  5
D851
330
2
100
AcDbEntity
  8
0
100
AcDbLine
 10
84.27748935025523
 20
268.7679281192822
 30
0.0
 11
81.39719144851472
 21
268.7679281192822
 31
0.0
  0
ARC
  5
D852
330
2
100
AcDbEntity
  8
0
100
AcDbCircle
 10
81.39719144851472
 20
269.2679281192823
 30
0.0
 40
0.5
100
AcDbArc
 50
180.0
 51
270.0
  0
LINE
  5
D853
330
2
100
AcDbEntity
  8
0
100
AcDbLine
 10
80.89719144851471
 20
269.2679281192823
 30
0.0
 11
80.89719144851471
 21
269.7679281192823
 31
0.0
  0
LINE
  5
D854
330
2
100
AcDbEntity
  8
0
100
AcDbLine
 10
80.89719144851471
 20
269.7679281192823
 30
0.0
 11
79.89719144851472
 21
269.7679281192823
 31
0.0
  0
LINE
  5
D855
330
2
100
AcDbEntity
  8
0
100
AcDbLine
 10
79.89719144851472
 20
269.7679281192823
 30
0.0
 11
79.89719144851472
 21
268.2679281192825
 31
0.0
  0
ARC
  5
D856
330
2
100
AcDbEntity
  8
0
100
AcDbCircle
 10
80.89719144851471
 20
268.2679281192825
 30
0.0
 40
1.0
100
AcDbArc
 50
180.0
 51
270.0
  0
LINE
  5
D857
330
2
100
AcDbEntity
  8
0
100
AcDbLine
 10
80.89719144851471
 20
267.2679281192825
 30
0.0
 11
83.09719144851476
 21
267.2679281192825
 31
0.0
  0
LINE
  5
D858
330
2
100
AcDbEntity
  8
0
100
AcDbLine
 10
83.09719144851476
 20
267.2679281192825
 30
0.0
 11
83.09719144851488
 21
258.5679281192823
 31
0.0
  0
LINE
  5
D859
330
2
100
AcDbEntity
  8
0
100
AcDbLine
 10
83.09719144851488
 20
258.5679281192823
 30
0.0
 11
70.49719144851531
 21
258.5679281192811
 31
0.0
  0
ARC
  5
D85A
330
2
100
AcDbEntity
  8
0
100
AcDbCircle
 10
70.49719144851508
 20
260.0679281192811
 30
0.0
 40
1.5
100
AcDbArc
 50
180.0
 51
270.0000000000065
  0
LINE
  5
D85B
330
2
100
AcDbEntity
  8
0
100
AcDbLine
 10
68.99719144851508
 20
260.0679281192811
 30
0.0
 11
68.99719144851508
 21
260.8679281192822
 31
0.0
  0
LINE
  5
D85C
330
2
100
AcDbEntity
  8
0
100
AcDbLine
 10
42.39719144851335
 20
241.2679281192821
 30
0.0
 11
42.39719144851335
 21
241.2679281192821
 31
0.0
  0
LINE
  5
D85D
330
2
100
AcDbEntity
  8
0
100
AcDbLine
 10
43.9971914485144
 20
240.2679281192821
 30
0.0
 11
43.9971914485144
 21
240.2679281192821
 31
0.0
  0
LINE
  5
D85E
330
2
100
AcDbEntity
  8
0
100
AcDbLine
 10
43.64719144851164
 20
240.2679281192821
 30
0.0
 11
43.64719144851176
 21
240.2679281192821
 31
0.0
  0
LINE
  5
D85F
330
2
100
AcDbEntity
  8
0
100
AcDbLine
 10
43.59719144851545
 20
242.2679281192821
 30
0.0
 11
43.59719144851545
 21
255.2679281192821
 31
0.0
  0
ARC
  5
D860
330
2
100
AcDbEntity
  8
0
100
AcDbCircle
 10
45.09719144851544
 20
255.2679281192821
 30
0.0
 40
1.5
100
AcDbArc
 50
90.0
 51
180.0
  0
LINE
  5
D861
330
2
100
AcDbEntity
  8
0
100
AcDbLine
 10
85.89793191510887
 20
269.7679281192823
 30
0.0
 11
86.39534137779531
 21
256.8448511962055
 31
0.0
  0
LINE
  5
D869
330
2
100
AcDbEntity
  8
0
100
AcDbLine
 10
46.59719144851544
 20
254.7679281192825
 30
0.0
 11
46.59719144851544
 21
241.2679281192821
 31
0.0
  0
ARC
  5
D86A
330
2
100
AcDbEntity
  8
0
100
AcDbCircle
 10
45.59719144851544
 20
241.2679281192821
 30
0.0
 40
1.0
100
AcDbArc
 50
270.0
 51
0.0
  0
LINE
  5
D86B
330
2
100
AcDbEntity
  8
0
100
AcDbLine
 10
45.59719144851544
 20
240.2679281192821
 30
0.0
 11
44.99719144851439
 21
240.2679281192821
 31
0.0
  0
LINE
  5
D86C
330
2
100
AcDbEntity
  8
0
100
AcDbLine
 10
44.99719144851439
 20
240.2679281192821
 30
0.0
 11
44.99719144851439
 21
240.2679281192821
 31
0.0
  0
ARC
  5
D86D
330
2
100
AcDbEntity
  8
0
100
AcDbCircle
 10
44.4971914485144
 20
240.2679281192821
 30
0.0
 40
0.4999999999999858
100
AcDbArc
 50
270.0
 51
0.0000000000032569
  0
LINE
  5
D86E
330
2
100
AcDbEntity
  8
0
100
AcDbLine
 10
44.4971914485144
 20
239.7679281192821
 30
0.0
 11
44.4971914485144
 21
239.7679281192821
 31
0.0
  0
ARC
  5
D86F
330
2
100
AcDbEntity
  8
0
100
AcDbCircle
 10
44.4971914485144
 20
240.2679281192821
 30
0.0
 40
0.5
100
AcDbArc
 50
180.0
 51
270.0
  0
LINE
  5
D870
330
2
100
AcDbEntity
  8
0
100
AcDbLine
 10
43.9971914485144
 20
240.2679281192821
 30
0.0
 11
43.39719144851335
 21
240.2679281192821
 31
0.0
  0
ARC
  5
D871
330
2
100
AcDbEntity
  8
0
100
AcDbCircle
 10
43.39719144851335
 20
241.2679281192821
 30
0.0
 40
1.0
100
AcDbArc
 50
180.0
 51
270.0
  0
ARC
  5
D872
330
2
100
AcDbEntity
  8
0
100
AcDbCircle
 10
43.39719144851335
 20
241.2679281192821
 30
0.0
 40
1.0
100
AcDbArc
 50
90.0
 51
180.0
  0
LINE
  5
D873
330
2
100
AcDbEntity
  8
0
100
AcDbLine
 10
43.39719144851335
 20
242.2679281192821
 30
0.0
 11
43.59719144851545
 21
242.2679281192821
 31
0.0
  0
ARC
  5
D874
330
2
100
AcDbEntity
  8
0
100
AcDbCircle
 10
82.39919224915537
 20
268.2079281192823
 30
0.0
 40
2.560000000000033
100
AcDbArc
 50
12.63562509302109
 51
95.12799088309291
  0
ARC
  5
D875
330
2
100
AcDbEntity
  8
0
100
AcDbCircle
 10
82.39919224915537
 20
268.2079281192823
 30
0.0
 40
1.960000000000014
100
AcDbArc
 50
16.60154959901984
 51
95.12799088309291
  0
ARC
  5
D876
330
2
100
AcDbEntity
  8
0
100
AcDbCircle
 10
82.19719144851479
 20
270.4588825116547
 30
0.0
 40
0.3000000000000198
100
AcDbArc
 50
95.12799088309938
 51
275.1279908830994
  0
ARC
  5
D877
330
2
100
AcDbEntity
  8
0
100
AcDbCircle
 10
42.3951906478743
 20
268.2079281192823
 30
0.0
 40
2.560000000000034
100
AcDbArc
 50
84.8720091169071
 51
167.3643749069789
  0
ARC
  5
D878
330
2
100
AcDbEntity
  8
0
100
AcDbCircle
 10
42.3951906478743
 20
268.2079281192823
 30
0.0
 40
1.960000000000014
100
AcDbArc
 50
84.8720091169071
 51
163.3984504009801
  0
ARC
  5
D879
330
2
100
AcDbEntity
  8
0
100
AcDbCircle
 10
42.59719144851476
 20
270.4588825116547
 30
0.0
 40
0.3000000000000198
100
AcDbArc
 50
264.8720091169006
 51
84.87200911690059
  0
LINE
  5
D87A
330
2
100
AcDbEntity
  8
0
100
AcDbLine
 10
84.42897056217384
 20
269.7679281192823
 30
0.0
 11
85.89793191510876
 21
269.7679281192823
 31
0.0
  0
LINE
  5
D87B
330
2
100
AcDbEntity
  8
0
100
AcDbLine
 10
69.44674883441336
 20
244.5679281192823
 30
0.0
 11
70.39719144851682
 21
244.5679281192823
 31
0.0
  0
ARC
  5
D87C
330
2
100
AcDbEntity
  8
0
100
AcDbCircle
 10
70.39719144851682
 20
245.5679281192823
 30
0.0
 40
1.0
100
AcDbArc
 50
270.0
 51
0.0
  0
LINE
  5
D87D
330
2
100
AcDbEntity
  8
0
100
AcDbLine
 10
71.39719144851682
 20
245.5679281192823
 30
0.0
 11
71.39719144851682
 21
250.5679281192811
 31
0.0
  0
LINE
  5
D87E
330
2
100
AcDbEntity
  8
0
100
AcDbLine
 10
71.39719144851682
 20
250.5679281192811
 30
0.0
 11
73.79713347255682
 21
250.5679281192807
 31
0.0
  0
LINE
  5
D87F
330
2
100
AcDbEntity
  8
0
100
AcDbLine
 10
73.79713347255767
 20
250.5679281192807
 30
0.0
 11
73.79713347255989
 21
197.7679281192897
 31
0.0
  0
ARC
  5
D880
330
2
100
AcDbEntity
  8
0
100
AcDbCircle
 10
73.29713347255983
 20
197.7679281192897
 30
0.0
 40
0.5000000000000285
100
AcDbArc
 50
270.0000000000749
 51
0.0000000000065138
  0
LINE
  5
D881
330
2
100
AcDbEntity
  8
0
100
AcDbLine
 10
73.29713347256046
 20
197.2679281192881
 30
0.0
 11
59.09713347256109
 21
197.2679281192702
 31
0.0
  0
ARC
  5
D882
330
2
100
AcDbEntity
  8
0
100
AcDbCircle
 10
59.0971334725604
 20
197.7679281192701
 30
0.0
 40
0.4999999999999716
100
AcDbArc
 50
179.9999999999935
 51
270.0000000000749
  0
LINE
  5
D883
330
2
100
AcDbEntity
  8
0
100
AcDbLine
 10
58.59713347255358
 20
197.7679281192702
 30
0.0
 11
58.59713347256132
 21
237.4679281192824
 31
0.0
  0
ARC
  5
D884
330
2
100
AcDbEntity
  8
0
100
AcDbCircle
 10
58.09713347256132
 20
237.4679281192824
 30
0.0
 40
0.5
100
AcDbArc
 50
359.9999999999968
 51
90.0
  0
LINE
  5
D885
330
2
100
AcDbEntity
  8
0
100
AcDbLine
 10
58.09713347256132
 20
237.9679281192824
 30
0.0
 11
57.59713347255905
 21
237.9679281192824
 31
0.0
  0
LINE
  5
D886
330
2
100
AcDbEntity
  8
0
100
AcDbLine
 10
57.59713347255905
 20
237.9679281192824
 30
0.0
 11
57.59713347255905
 21
248.767928119283
 31
0.0
  0
ARC
  5
D887
330
2
100
AcDbEntity
  8
0
100
AcDbCircle
 10
59.397133472559
 20
248.767928119283
 30
0.0
 40
1.800000000000004
100
AcDbArc
 50
89.99999999999023
 51
180.0
  0
LINE
  5
D888
330
2
100
AcDbEntity
  8
0
100
AcDbLine
 10
59.39713347255935
 20
250.567928119283
 30
0.0
 11
60.99707549660121
 21
250.5679281192827
 31
0.0
  0
LINE
  5
D889
330
2
100
AcDbEntity
  8
0
100
AcDbLine
 10
60.99707549660121
 20
250.5679281192827
 30
0.0
 11
60.99707549660121
 21
245.5679281192823
 31
0.0
  0
ARC
  5
D88A
330
2
100
AcDbEntity
  8
0
100
AcDbCircle
 10
61.99707549660121
 20
245.5679281192823
 30
0.0
 40
1.0
100
AcDbArc
 50
180.0
 51
270.0
  0
LINE
  5
D88B
330
2
100
AcDbEntity
  8
0
100
AcDbLine
 10
61.99707549660121
 20
244.5679281192823
 30
0.0
 11
62.94751811070466
 21
244.5679281192823
 31
0.0
  0
LINE
  5
D88C
330
2
100
AcDbEntity
  8
0
100
AcDbLine
 10
70.19707549660125
 20
245.7679281192822
 30
0.0
 11
62.1970754966012
 21
245.7679281192822
 31
0.0
  0
LINE
  5
D88D
330
2
100
AcDbEntity
  8
0
100
AcDbLine
 10
62.19707549660114
 20
245.7679281192822
 30
0.0
 11
62.19707549660114
 21
250.7679281192823
 31
0.0
  0
ARC
  5
D88E
330
2
100
AcDbEntity
  8
0
100
AcDbCircle
 10
61.19707549660114
 20
250.7679281192823
 30
0.0
 40
0.9999999999999857
100
AcDbArc
 50
0.0
 51
90.00000000000325
  0
LINE
  5
D88F
330
2
100
AcDbEntity
  8
0
100
AcDbLine
 10
61.19707549660114
 20
251.7679281192823
 30
0.0
 11
59.39713347255912
 21
251.7679281192823
 31
0.0
  0
ARC
  5
D890
330
2
100
AcDbEntity
  8
0
100
AcDbCircle
 10
59.39713347255912
 20
248.7679281192823
 30
0.0
 40
3.0
100
AcDbArc
 50
90.0
 51
180.0
  0
LINE
  5
D891
330
2
100
AcDbEntity
  8
0
100
AcDbLine
 10
56.39713347255912
 20
248.7679281192823
 30
0.0
 11
56.39713347255912
 21
236.7679281192823
 31
0.0
  0
LINE
  5
D892
330
2
100
AcDbEntity
  8
0
100
AcDbLine
 10
56.39713347255912
 20
236.7679281192823
 30
0.0
 11
57.39713347256127
 21
236.7679281192823
 31
0.0
  0
LINE
  5
D893
330
2
100
AcDbEntity
  8
0
100
AcDbLine
 10
57.39713347256127
 20
236.7679281192823
 30
0.0
 11
57.39713347255888
 21
176.0679281192824
 31
0.0
  0
ARC
  5
D894
330
2
100
AcDbEntity
  8
0
100
AcDbCircle
 10
57.69713347255895
 20
176.0679281192824
 30
0.0
 40
0.3000000000000114
100
AcDbArc
 50
180.0
 51
270.0
  0
LINE
  5
D895
330
2
100
AcDbEntity
  8
0
100
AcDbLine
 10
57.69713347255895
 20
175.7679281192823
 30
0.0
 11
58.69713347255906
 21
175.7679281192823
 31
0.0
  0
ARC
  5
D896
330
2
100
AcDbEntity
  8
0
100
AcDbCircle
 10
58.69713347255906
 20
176.0679281192824
 30
0.0
 40
0.3000000000000256
100
AcDbArc
 50
270.0000000000065
 51
0.0000000000097707
  0
LINE
  5
D897
330
2
100
AcDbEntity
  8
0
100
AcDbLine
 10
58.99713347255902
 20
176.0679281192824
 30
0.0
 11
58.99713347255794
 21
191.7679281192823
 31
0.0
  0
LINE
  5
D898
330
2
100
AcDbEntity
  8
0
100
AcDbLine
 10
58.49713347255902
 20
192.5679281192822
 30
0.0
 11
58.49713347255902
 21
195.5679281192703
 31
0.0
  0
ARC
  5
D899
330
2
100
AcDbEntity
  8
0
100
AcDbCircle
 10
58.99713347255902
 20
195.5679281192703
 30
0.0
 40
0.5
100
AcDbArc
 50
90.00000000007814
 51
180.0
  0
LINE
  5
D89A
330
2
100
AcDbEntity
  8
0
100
AcDbLine
 10
58.99713347255834
 20
196.0679281192703
 30
0.0
 11
62.27794988410465
 21
196.0679281192748
 31
0.0
  0
LINE
  5
D89B
330
2
100
AcDbEntity
  8
0
100
AcDbLine
 10
70.11631706101081
 20
196.0679281192851
 30
0.0
 11
73.4971334725596
 21
196.0679281192897
 31
0.0
  0
ARC
  5
D89C
330
2
100
AcDbEntity
  8
0
100
AcDbCircle
 10
73.49713347256027
 20
195.5679281192897
 30
0.0
 40
0.5
100
AcDbArc
 50
359.9999999999968
 51
90.00000000007814
  0
LINE
  5
D89D
330
2
100
AcDbEntity
  8
0
100
AcDbLine
 10
73.99713347256028
 20
195.5679281192897
 30
0.0
 11
73.99713347256028
 21
192.5679281192822
 31
0.0
  0
LINE
  5
D89E
330
2
100
AcDbEntity
  8
0
100
AcDbLine
 10
74.99713347256204
 20
250.7679281192822
 30
0.0
 11
74.9971334725621
 21
251.2679281192823
 31
0.0
  0
ARC
  5
D89F
330
2
100
AcDbEntity
  8
0
100
AcDbCircle
 10
74.4971334725621
 20
251.2679281192824
 30
0.0
 40
0.5
100
AcDbArc
 50
359.9999999999968
 51
90.0
  0
LINE
  5
D8A0
330
2
100
AcDbEntity
  8
0
100
AcDbLine
 10
74.4971334725621
 20
251.7679281192824
 30
0.0
 11
71.19719144851678
 21
251.7679281192823
 31
0.0
  0
ARC
  5
D8A1
330
2
100
AcDbEntity
  8
0
100
AcDbCircle
 10
71.19719144851683
 20
250.7679281192823
 30
0.0
 40
1.000000000000014
100
AcDbArc
 50
90.00000000000325
 51
180.0
  0
LINE
  5
D8A2
330
2
100
AcDbEntity
  8
0
100
AcDbLine
 10
70.19719144851677
 20
250.7679281192823
 30
0.0
 11
70.19719144851677
 21
245.7679281192822
 31
0.0
  0
ARC
  5
D8A3
330
2
100
AcDbEntity
  8
0
100
AcDbCircle
 10
66.19713347255907
 20
194.26792811928
 30
0.0
 40
3.0
100
AcDbArc
 50
168.4630409671852
 51
213.5573097619229
  0
ARC
  5
D8A4
330
2
100
AcDbEntity
  8
0
100
AcDbCircle
 10
66.19713347255907
 20
194.26792811928
 30
0.0
 40
3.0
100
AcDbArc
 50
326.4426902380793
 51
11.53695903281478
  0
LINE
  5
D8A5
330
2
100
AcDbEntity
  8
0
100
AcDbLine
 10
63.69713347255906
 20
192.5679281192824
 30
0.0
 11
63.69713347255906
 21
192.6096157241023
 31
0.0
  0
LINE
  5
D8A6
330
2
100
AcDbEntity
  8
0
100
AcDbLine
 10
68.69713347255907
 20
192.5679281192822
 30
0.0
 11
68.69713347255907
 21
192.6096157241023
 31
0.0
  0
ARC
  5
D8A7
330
2
100
AcDbEntity
  8
0
100
AcDbCircle
 10
70.11631706101212
 20
195.06792811928
 30
0.0
 40
1.0
100
AcDbArc
 50
90.0
 51
191.5369590328148
  0
ARC
  5
D8A8
330
2
100
AcDbEntity
  8
0
100
AcDbCircle
 10
62.27794988410601
 20
195.06792811928
 30
0.0
 40
1.0
100
AcDbArc
 50
348.4630409671853
 51
90.0
  0
ARC
  5
D8A9
330
2
100
AcDbEntity
  8
0
100
AcDbCircle
 10
66.19713347255902
 20
242.7679281192822
 30
0.0
 40
3.0
100
AcDbArc
 50
158.1962520106179
 51
221.8103148957796
  0
ARC
  5
D8AA
330
2
100
AcDbEntity
  8
0
100
AcDbCircle
 10
66.19713347255902
 20
242.7679281192822
 30
0.0
 40
3.0
100
AcDbArc
 50
318.1896851042204
 51
21.80374798938212
  0
ARC
  5
D8AB
330
2
100
AcDbEntity
  8
0
100
AcDbCircle
 10
69.44674883441336
 20
244.0679281192823
 30
0.0
 40
0.5
100
AcDbArc
 50
90.0
 51
201.8037479893821
  0
ARC
  5
D8AC
330
2
100
AcDbEntity
  8
0
100
AcDbCircle
 10
62.94751811070466
 20
244.0679281192823
 30
0.0
 40
0.5
100
AcDbArc
 50
338.1962520106179
 51
90.0
  0
LINE
  5
D8AD
330
2
100
AcDbEntity
  8
0
370
    -2
100
AcDbLine
 10
80.69713347256021
 20
248.9679281192823
 30
0.0
 11
80.69713347256019
 21
176.4279281192824
 31
0.0
  0
ARC
  5
D8AE
330
2
100
AcDbEntity
  8
0
370
    -2
100
AcDbCircle
 10
80.03713347256022
 20
176.4279281192824
 30
0.0
 40
0.6600000000001529
100
AcDbArc
 50
270.0
 51
0.0
  0
LINE
  5
D8AF
330
2
100
AcDbEntity
  8
0
370
    -2
100
AcDbLine
 10
74.99713347256204
 20
250.7679281192822
 30
0.0
 11
79.69713347256021
 21
250.7679281192825
 31
0.0
  0
ARC
  5
D8B0
330
2
100
AcDbEntity
  8
0
370
    -2
100
AcDbCircle
 10
79.69713347256021
 20
249.7679281192824
 30
0.0
 40
1.000000000000028
100
AcDbArc
 50
0.0000000000032569
 51
90.0
  0
LINE
  5
D8B1
330
2
100
AcDbEntity
  8
0
370
    -2
100
AcDbLine
 10
80.69713347256021
 20
249.7679281192824
 30
0.0
 11
80.69713347256021
 21
248.9679281192823
 31
0.0
  0
LINE
  5
D8B2
330
2
100
AcDbEntity
  8
0
370
    -2
100
AcDbLine
 10
80.03713347256015
 20
175.7679281192816
 30
0.0
 11
73.39713347255944
 21
175.7679281192823
 31
0.0
  0
LINE
  5
D8B3
330
2
100
AcDbEntity
  8
0
370
    -2
100
AcDbLine
 10
73.39713347255933
 20
175.7679281192822
 30
0.0
 11
73.39713347255934
 21
191.7679281192823
 31
0.0
  0
LINE
  5
D8B4
330
2
100
AcDbEntity
  8
0
100
AcDbLine
 10
58.99713347255902
 20
191.7679281192823
 30
0.0
 11
60.29713347255897
 21
191.7679281192823
 31
0.0
  0
ARC
  5
D8B5
330
2
100
AcDbEntity
  8
0
100
AcDbCircle
 10
60.29713347255897
 20
192.1679281192823
 30
0.0
 40
0.4000000000000199
100
AcDbArc
 50
270.0
 51
90.0
  0
LINE
  5
D8B6
330
2
100
AcDbEntity
  8
0
100
AcDbLine
 10
60.29713347255897
 20
192.5679281192822
 30
0.0
 11
58.49713347255902
 21
192.5679281192822
 31
0.0
  0
LINE
  5
D8B7
330
2
100
AcDbEntity
  8
0
100
AcDbLine
 10
73.99713347256028
 20
192.5679281192822
 30
0.0
 11
72.09713347255899
 21
192.5679281192822
 31
0.0
  0
ARC
  5
D8B8
330
2
100
AcDbEntity
  8
0
100
AcDbCircle
 10
72.09713347255899
 20
192.1679281192823
 30
0.0
 40
0.3999999999999915
100
AcDbArc
 50
90.0
 51
270.0
  0
LINE
  5
D8B9
330
2
100
AcDbEntity
  8
0
100
AcDbLine
 10
72.09713347255899
 20
191.7679281192823
 30
0.0
 11
73.39713347255901
 21
191.7679281192823
 31
0.0
  0
ARC
  5
D8BA
330
2
100
AcDbEntity
  8
0
100
AcDbCircle
 10
68.39713347255912
 20
192.06792811928
 30
0.0
 40
0.3
100
AcDbArc
 50
270.0
 51
359.9999999999968
  0
ARC
  5
D8BB
330
2
100
AcDbEntity
  8
0
100
AcDbCircle
 10
64.69713347255913
 20
192.26792811928
 30
0.0
 40
0.5
100
AcDbArc
 50
270.0
 51
0.0
  0
LINE
  5
D8BC
330
2
100
AcDbEntity
  8
0
100
AcDbLine
 10
67.19713347255913
 20
192.26792811928
 30
0.0
 11
67.19713347255908
 21
192.6828413708654
 31
0.0
  0
LINE
  5
D8BD
330
2
100
AcDbEntity
  8
0
100
AcDbLine
 10
63.99713347255907
 20
191.76792811928
 30
0.0
 11
64.69713347255913
 21
191.76792811928
 31
0.0
  0
ARC
  5
D8BE
330
2
100
AcDbEntity
  8
0
100
AcDbCircle
 10
63.99713347255907
 20
192.06792811928
 30
0.0
 40
0.3
100
AcDbArc
 50
179.9999999999967
 51
270.0
  0
LINE
  5
D8BF
330
2
100
AcDbEntity
  8
0
100
AcDbLine
 10
67.69713347255913
 20
191.76792811928
 30
0.0
 11
68.39713347255912
 21
191.76792811928
 31
0.0
  0
ARC
  5
D8C0
330
2
100
AcDbEntity
  8
0
100
AcDbCircle
 10
67.69713347255913
 20
192.26792811928
 30
0.0
 40
0.5
100
AcDbArc
 50
180.0
 51
270.0
  0
LINE
  5
D8C1
330
2
100
AcDbEntity
  8
0
100
AcDbLine
 10
63.69713347255906
 20
192.06792811928
 30
0.0
 11
63.69713347255912
 21
192.6096157241022
 31
0.0
  0
LINE
  5
D8C2
330
2
100
AcDbEntity
  8
0
100
AcDbLine
 10
68.69713347255907
 20
192.0679281192799
 30
0.0
 11
68.69713347255913
 21
192.6096157241023
 31
0.0
  0
LINE
  5
D8C3
330
2
100
AcDbEntity
  8
0
100
AcDbLine
 10
63.96106549505919
 20
240.7679281192822
 30
0.0
 11
64.82541832715549
 21
240.7679281192822
 31
0.0
  0
LINE
  5
D8C4
330
2
100
AcDbEntity
  8
0
100
AcDbLine
 10
67.56884861796248
 20
240.7679281192822
 30
0.0
 11
68.43320145005879
 21
240.7679281192822
 31
0.0
  0
ARC
  5
D8C5
330
2
100
AcDbEntity
  8
0
100
AcDbCircle
 10
64.82541832715549
 20
241.1438084446328
 30
0.0
 40
0.3758803253505718
100
AcDbArc
 50
270.0
 51
49.81590005117721
  0
ARC
  5
D8C6
330
2
100
AcDbEntity
  8
0
100
AcDbCircle
 10
67.56884861796248
 20
241.1438084446328
 30
0.0
 40
0.3758803253505718
100
AcDbArc
 50
130.1840999488228
 51
270.0
  0
LINE
  5
D8C7
330
2
100
AcDbEntity
  8
0
100
AcDbLine
 10
69.44680681037119
 20
47.96792811928219
 30
0.0
 11
70.39724942447463
 21
47.96792811928219
 31
0.0
  0
ARC
  5
D8C8
330
2
100
AcDbEntity
  8
0
100
AcDbCircle
 10
70.39724942447463
 20
46.96792811928219
 30
0.0
 40
1.0
100
AcDbArc
 50
0.0
 51
90.0
  0
LINE
  5
D8C9
330
2
100
AcDbEntity
  8
0
100
AcDbLine
 10
71.39724942447464
 20
46.96792811928219
 30
0.0
 11
71.39724942447464
 21
41.96792811928339
 31
0.0
  0
LINE
  5
D8CA
330
2
100
AcDbEntity
  8
0
100
AcDbLine
 10
71.39724942447464
 20
41.96792811928339
 30
0.0
 11
73.79719144851463
 21
41.96792811928378
 31
0.0
  0
LINE
  5
D8CB
330
2
100
AcDbEntity
  8
0
100
AcDbLine
 10
73.79719144851549
 20
41.96792811928378
 30
0.0
 11
73.79719144851771
 21
94.76792811927476
 31
0.0
  0
ARC
  5
D8CC
330
2
100
AcDbEntity
  8
0
100
AcDbCircle
 10
73.29719144851765
 20
94.76792811927476
 30
0.0
 40
0.5000000000000285
100
AcDbArc
 50
359.9999999999935
 51
89.99999999992509
  0
LINE
  5
D8CD
330
2
100
AcDbEntity
  8
0
100
AcDbLine
 10
73.29719144851828
 20
95.26792811927634
 30
0.0
 11
59.09719144851891
 21
95.26792811929425
 31
0.0
  0
ARC
  5
D8CE
330
2
100
AcDbEntity
  8
0
100
AcDbCircle
 10
59.09719144851823
 20
94.76792811929431
 30
0.0
 40
0.4999999999999716
100
AcDbArc
 50
89.99999999992509
 51
180.0000000000065
  0
LINE
  5
D8CF
330
2
100
AcDbEntity
  8
0
100
AcDbLine
 10
58.5971914485114
 20
94.76792811929419
 30
0.0
 11
58.59719144851914
 21
55.0679281192821
 31
0.0
  0
ARC
  5
D8D0
330
2
100
AcDbEntity
  8
0
100
AcDbCircle
 10
58.09719144851914
 20
55.0679281192821
 30
0.0
 40
0.5
100
AcDbArc
 50
270.0
 51
0.0000000000032569
  0
LINE
  5
D8D1
330
2
100
AcDbEntity
  8
0
100
AcDbLine
 10
58.09719144851914
 20
54.5679281192821
 30
0.0
 11
57.59719144851686
 21
54.5679281192821
 31
0.0
  0
LINE
  5
D8D2
330
2
100
AcDbEntity
  8
0
100
AcDbLine
 10
57.59719144851686
 20
54.5679281192821
 30
0.0
 11
57.59719144851686
 21
43.76792811928146
 31
0.0
  0
ARC
  5
D8D3
330
2
100
AcDbEntity
  8
0
100
AcDbCircle
 10
59.39719144851682
 20
43.76792811928146
 30
0.0
 40
1.800000000000004
100
AcDbArc
 50
180.0
 51
270.0000000000098
  0
LINE
  5
D8D4
330
2
100
AcDbEntity
  8
0
100
AcDbLine
 10
59.39719144851716
 20
41.9679281192815
 30
0.0
 11
60.99713347255903
 21
41.96792811928179
 31
0.0
  0
LINE
  5
D8D5
330
2
100
AcDbEntity
  8
0
100
AcDbLine
 10
60.99713347255903
 20
41.96792811928179
 30
0.0
 11
60.99713347255903
 21
46.96792811928219
 31
0.0
  0
ARC
  5
D8D6
330
2
100
AcDbEntity
  8
0
100
AcDbCircle
 10
61.99713347255903
 20
46.96792811928219
 30
0.0
 40
1.0
100
AcDbArc
 50
90.0
 51
180.0
  0
LINE
  5
D8D7
330
2
100
AcDbEntity
  8
0
100
AcDbLine
 10
61.99713347255903
 20
47.96792811928219
 30
0.0
 11
62.94757608666248
 21
47.96792811928219
 31
0.0
  0
LINE
  5
D8D8
330
2
100
AcDbEntity
  8
0
100
AcDbLine
 10
70.19713347255907
 20
46.7679281192822
 30
0.0
 11
62.19713347255901
 21
46.7679281192822
 31
0.0
  0
LINE
  5
D8D9
330
2
100
AcDbEntity
  8
0
100
AcDbLine
 10
62.19713347255896
 20
46.7679281192822
 30
0.0
 11
62.19713347255896
 21
41.76792811928215
 31
0.0
  0
ARC
  5
D8DA
330
2
100
AcDbEntity
  8
0
100
AcDbCircle
 10
61.19713347255895
 20
41.76792811928215
 30
0.0
 40
0.9999999999999857
100
AcDbArc
 50
269.9999999999968
 51
0.0
  0
LINE
  5
D8DB
330
2
100
AcDbEntity
  8
0
100
AcDbLine
 10
61.19713347255895
 20
40.7679281192822
 30
0.0
 11
59.39719144851693
 21
40.7679281192822
 31
0.0
  0
ARC
  5
D8DC
330
2
100
AcDbEntity
  8
0
100
AcDbCircle
 10
59.39719144851693
 20
43.7679281192822
 30
0.0
 40
3.0
100
AcDbArc
 50
180.0
 51
270.0
  0
LINE
  5
D8DD
330
2
100
AcDbEntity
  8
0
100
AcDbLine
 10
56.39719144851693
 20
43.7679281192822
 30
0.0
 11
56.39719144851693
 21
55.76792811928214
 31
0.0
  0
LINE
  5
D8DE
330
2
100
AcDbEntity
  8
0
100
AcDbLine
 10
56.39719144851693
 20
55.76792811928214
 30
0.0
 11
57.3971914485191
 21
55.76792811928214
 31
0.0
  0
LINE
  5
D8DF
330
2
100
AcDbEntity
  8
0
100
AcDbLine
 10
57.3971914485191
 20
55.76792811928214
 30
0.0
 11
57.39719144851671
 21
116.4679281192821
 31
0.0
  0
ARC
  5
D8E0
330
2
100
AcDbEntity
  8
0
100
AcDbCircle
 10
57.69719144851677
 20
116.4679281192821
 30
0.0
 40
0.3000000000000114
100
AcDbArc
 50
90.0
 51
180.0
  0
LINE
  5
D8E1
330
2
100
AcDbEntity
  8
0
100
AcDbLine
 10
57.69719144851677
 20
116.7679281192821
 30
0.0
 11
58.69719144851689
 21
116.7679281192821
 31
0.0
  0
ARC
  5
D8E2
330
2
100
AcDbEntity
  8
0
100
AcDbCircle
 10
58.69719144851689
 20
116.4679281192821
 30
0.0
 40
0.3000000000000256
100
AcDbArc
 50
359.9999999999902
 51
89.99999999999349
  0
LINE
  5
D8E3
330
2
100
AcDbEntity
  8
0
100
AcDbLine
 10
58.99719144851684
 20
116.4679281192821
 30
0.0
 11
58.99719144851577
 21
100.7679281192822
 31
0.0
  0
LINE
  5
D8E4
330
2
100
AcDbEntity
  8
0
100
AcDbLine
 10
58.49719144851684
 20
99.96792811928219
 30
0.0
 11
58.49719144851684
 21
96.96792811929412
 31
0.0
  0
ARC
  5
D8E5
330
2
100
AcDbEntity
  8
0
100
AcDbCircle
 10
58.99719144851684
 20
96.96792811929412
 30
0.0
 40
0.5
100
AcDbArc
 50
180.0
 51
269.9999999999219
  0
LINE
  5
D8E6
330
2
100
AcDbEntity
  8
0
100
AcDbLine
 10
58.99719144851616
 20
96.46792811929413
 30
0.0
 11
62.27800786006247
 21
96.46792811928969
 31
0.0
  0
LINE
  5
D8E7
330
2
100
AcDbEntity
  8
0
100
AcDbLine
 10
70.11637503696864
 20
96.46792811927936
 30
0.0
 11
73.49719144851741
 21
96.46792811927475
 31
0.0
  0
ARC
  5
D8E8
330
2
100
AcDbEntity
  8
0
100
AcDbCircle
 10
73.49719144851809
 20
96.96792811927474
 30
0.0
 40
0.5
100
AcDbArc
 50
269.9999999999219
 51
0.0000000000032569
  0
LINE
  5
D8E9
330
2
100
AcDbEntity
  8
0
100
AcDbLine
 10
73.99719144851809
 20
96.96792811927474
 30
0.0
 11
73.99719144851809
 21
99.96792811928219
 31
0.0
  0
LINE
  5
D8EA
330
2
100
AcDbEntity
  8
0
100
AcDbLine
 10
74.99719144851986
 20
41.76792811928225
 30
0.0
 11
74.99719144851991
 21
41.26792811928214
 31
0.0
  0
ARC
  5
D8EB
330
2
100
AcDbEntity
  8
0
100
AcDbCircle
 10
74.49719144851991
 20
41.26792811928209
 30
0.0
 40
0.5
100
AcDbArc
 50
270.0
 51
0.0000000000032569
  0
LINE
  5
D8EC
330
2
100
AcDbEntity
  8
0
100
AcDbLine
 10
74.49719144851991
 20
40.76792811928209
 30
0.0
 11
71.19724942447459
 21
40.76792811928214
 31
0.0
  0
ARC
  5
D8ED
330
2
100
AcDbEntity
  8
0
100
AcDbCircle
 10
71.19724942447465
 20
41.76792811928215
 30
0.0
 40
1.000000000000014
100
AcDbArc
 50
180.0
 51
269.9999999999968
  0
LINE
  5
D8EE
330
2
100
AcDbEntity
  8
0
100
AcDbLine
 10
70.19724942447459
 20
41.76792811928215
 30
0.0
 11
70.19724942447459
 21
46.7679281192822
 31
0.0
  0
ARC
  5
D8EF
330
2
100
AcDbEntity
  8
0
100
AcDbCircle
 10
66.19719144851689
 20
98.26792811928449
 30
0.0
 40
3.0
100
AcDbArc
 50
146.442690238077
 51
191.5369590328148
  0
ARC
  5
D8F0
330
2
100
AcDbEntity
  8
0
100
AcDbCircle
 10
66.19719144851689
 20
98.26792811928449
 30
0.0
 40
3.0
100
AcDbArc
 50
348.4630409671853
 51
33.55730976192
  0
LINE
  5
D8F1
330
2
100
AcDbEntity
  8
0
100
AcDbLine
 10
63.69719144851689
 20
99.96792811928209
 30
0.0
 11
63.69719144851689
 21
99.92624051446217
 31
0.0
  0
LINE
  5
D8F2
330
2
100
AcDbEntity
  8
0
100
AcDbLine
 10
68.69719144851689
 20
99.96792811928219
 30
0.0
 11
68.69719144851689
 21
99.92624051446217
 31
0.0
  0
ARC
  5
D8F3
330
2
100
AcDbEntity
  8
0
100
AcDbCircle
 10
70.11637503696994
 20
97.46792811928447
 30
0.0
 40
1.0
100
AcDbArc
 50
168.4630409671852
 51
270.0
  0
ARC
  5
D8F4
330
2
100
AcDbEntity
  8
0
100
AcDbCircle
 10
62.27800786006383
 20
97.46792811928447
 30
0.0
 40
1.0
100
AcDbArc
 50
270.0
 51
11.53695903281478
  0
ARC
  5
D8F5
330
2
100
AcDbEntity
  8
0
100
AcDbCircle
 10
66.19719144851683
 20
49.76792811928226
 30
0.0
 40
3.0
100
AcDbArc
 50
138.1896851042206
 51
201.8037479893818
  0
ARC
  5
D8F6
330
2
100
AcDbEntity
  8
0
100
AcDbCircle
 10
66.19719144851683
 20
49.76792811928226
 30
0.0
 40
3.0
100
AcDbArc
 50
338.1962520106183
 51
41.81031489577932
  0
ARC
  5
D8F7
330
2
100
AcDbEntity
  8
0
100
AcDbCircle
 10
69.44680681037119
 20
48.46792811928219
 30
0.0
 40
0.5
100
AcDbArc
 50
158.1962520106182
 51
270.0
  0
ARC
  5
D8F8
330
2
100
AcDbEntity
  8
0
100
AcDbCircle
 10
62.94757608666248
 20
48.46792811928219
 30
0.0
 40
0.5
100
AcDbArc
 50
270.0
 51
21.80374798938174
  0
LINE
  5
D8F9
330
2
100
AcDbEntity
  8
0
370
    -2
100
AcDbLine
 10
80.69719144851802
 20
43.56792811928215
 30
0.0
 11
80.69719144851802
 21
116.107928119282
 31
0.0
  0
ARC
  5
D8FA
330
2
100
AcDbEntity
  8
0
370
    -2
100
AcDbCircle
 10
80.03719144851805
 20
116.107928119282
 30
0.0
 40
0.6600000000001529
100
AcDbArc
 50
0.0
 51
90.0
  0
LINE
  5
D8FB
330
2
100
AcDbEntity
  8
0
370
    -2
100
AcDbLine
 10
74.99719144851986
 20
41.76792811928225
 30
0.0
 11
79.69719144851802
 21
41.76792811928203
 31
0.0
  0
ARC
  5
D8FC
330
2
100
AcDbEntity
  8
0
370
    -2
100
AcDbCircle
 10
79.69719144851802
 20
42.76792811928209
 30
0.0
 40
1.000000000000028
100
AcDbArc
 50
270.0
 51
359.9999999999968
  0
LINE
  5
D8FD
330
2
100
AcDbEntity
  8
0
370
    -2
100
AcDbLine
 10
80.69719144851802
 20
42.76792811928203
 30
0.0
 11
80.69719144851802
 21
43.56792811928221
 31
0.0
  0
LINE
  5
D8FE
330
2
100
AcDbEntity
  8
0
370
    -2
100
AcDbLine
 10
80.03719144851798
 20
116.7679281192829
 30
0.0
 11
73.39719144851727
 21
116.7679281192821
 31
0.0
  0
LINE
  5
D8FF
330
2
100
AcDbEntity
  8
0
370
    -2
100
AcDbLine
 10
73.39719144851716
 20
116.7679281192822
 30
0.0
 11
73.39719144851716
 21
100.7679281192822
 31
0.0
  0
LINE
  5
D900
330
2
100
AcDbEntity
  8
0
100
AcDbLine
 10
58.99719144851684
 20
100.7679281192822
 30
0.0
 11
60.2971914485168
 21
100.7679281192822
 31
0.0
  0
ARC
  5
D901
330
2
100
AcDbEntity
  8
0
100
AcDbCircle
 10
60.2971914485168
 20
100.3679281192821
 30
0.0
 40
0.4000000000000199
100
AcDbArc
 50
270.0
 51
90.0
  0
LINE
  5
D902
330
2
100
AcDbEntity
  8
0
100
AcDbLine
 10
60.2971914485168
 20
99.96792811928219
 30
0.0
 11
58.49719144851684
 21
99.96792811928219
 31
0.0
  0
LINE
  5
D903
330
2
100
AcDbEntity
  8
0
100
AcDbLine
 10
73.99719144851809
 20
99.96792811928219
 30
0.0
 11
72.09719144851681
 21
99.96792811928219
 31
0.0
  0
ARC
  5
D904
330
2
100
AcDbEntity
  8
0
100
AcDbCircle
 10
72.09719144851681
 20
100.3679281192821
 30
0.0
 40
0.3999999999999915
100
AcDbArc
 50
90.0
 51
270.0
  0
LINE
  5
D905
330
2
100
AcDbEntity
  8
0
100
AcDbLine
 10
72.09719144851681
 20
100.7679281192821
 30
0.0
 11
73.39719144851682
 21
100.7679281192822
 31
0.0
  0
ARC
  5
D906
330
2
100
AcDbEntity
  8
0
100
AcDbCircle
 10
68.39719144851693
 20
100.4679281192844
 30
0.0
 40
0.3
100
AcDbArc
 50
0.0000000000032569
 51
90.0
  0
ARC
  5
D907
330
2
100
AcDbEntity
  8
0
100
AcDbCircle
 10
64.69719144851694
 20
100.2679281192845
 30
0.0
 40
0.5
100
AcDbArc
 50
0.0
 51
90.0
  0
LINE
  5
D908
330
2
100
AcDbEntity
  8
0
100
AcDbLine
 10
67.19719144851694
 20
100.2679281192845
 30
0.0
 11
67.19719144851689
 21
99.85301486769907
 31
0.0
  0
LINE
  5
D909
330
2
100
AcDbEntity
  8
0
100
AcDbLine
 10
63.9971914485169
 20
100.7679281192844
 30
0.0
 11
64.69719144851694
 21
100.7679281192844
 31
0.0
  0
ARC
  5
D90A
330
2
100
AcDbEntity
  8
0
100
AcDbCircle
 10
63.9971914485169
 20
100.4679281192844
 30
0.0
 40
0.3
100
AcDbArc
 50
90.0
 51
180.0000000000032
  0
LINE
  5
D90B
330
2
100
AcDbEntity
  8
0
100
AcDbLine
 10
67.69719144851695
 20
100.7679281192844
 30
0.0
 11
68.39719144851693
 21
100.7679281192844
 31
0.0
  0
ARC
  5
D90C
330
2
100
AcDbEntity
  8
0
100
AcDbCircle
 10
67.69719144851695
 20
100.2679281192845
 30
0.0
 40
0.5
100
AcDbArc
 50
90.0
 51
180.0
  0
LINE
  5
D90D
330
2
100
AcDbEntity
  8
0
100
AcDbLine
 10
63.69719144851689
 20
100.4679281192844
 30
0.0
 11
63.69719144851694
 21
99.92624051446222
 31
0.0
  0
LINE
  5
D90E
330
2
100
AcDbEntity
  8
0
100
AcDbLine
 10
68.69719144851689
 20
100.4679281192845
 30
0.0
 11
68.69719144851694
 21
99.92624051446217
 31
0.0
  0
LINE
  5
D90F
330
2
100
AcDbEntity
  8
0
100
AcDbLine
 10
63.961123471017
 20
51.76792811928226
 30
0.0
 11
64.8254763031133
 21
51.76792811928226
 31
0.0
  0
LINE
  5
D910
330
2
100
AcDbEntity
  8
0
100
AcDbLine
 10
67.56890659392031
 20
51.76792811928226
 30
0.0
 11
68.4332594260166
 21
51.76792811928226
 31
0.0
  0
ARC
  5
D911
330
2
100
AcDbEntity
  8
0
100
AcDbCircle
 10
64.8254763031133
 20
51.39204779393168
 30
0.0
 40
0.3758803253505718
100
AcDbArc
 50
310.1840999488225
 51
90.0
  0
ARC
  5
D912
330
2
100
AcDbEntity
  8
0
100
AcDbCircle
 10
67.56890659392031
 20
51.39204779393168
 30
0.0
 40
0.3758803253505718
100
AcDbArc
 50
90.0
 51
229.8159000511774
  0
LINE
  5
D913
330
2
100
AcDbEntity
  8
0
 48
0.1
100
AcDbLine
 10
84.89719144851688
 20
32.26792811928198
 30
0.0
 11
84.89719144851688
 21
21.26792811928204
 31
0.0
  0
ARC
  5
D914
330
2
100
AcDbEntity
  8
0
 48
0.1
100
AcDbCircle
 10
84.39719144851691
 20
32.26792811928201
 30
0.0
 40
0.5
100
AcDbArc
 50
359.9999999999968
 51
90.00000000000488
  0
LINE
  5
D915
330
2
100
AcDbEntity
  8
0
100
AcDbLine
 10
42.39719144851631
 20
48.26792811928209
 30
0.0
 11
42.39719144851631
 21
48.26792811928209
 31
0.0
  0
LINE
  5
D916
330
2
100
AcDbEntity
  8
0
 48
2.0
100
AcDbLine
 10
55.06333272674578
 20
52.69548043885457
 30
0.0
 11
49.73089479868327
 21
52.6954804388546
 31
0.0
  0
ARC
  5
D917
330
2
100
AcDbEntity
  8
0
 48
2.0
100
AcDbCircle
 10
55.06333272674578
 20
50.69548043885458
 30
0.0
 40
2.0
100
AcDbArc
 50
22.59902725465735
 51
90.0
  0
LINE
  5
D918
330
2
100
AcDbEntity
  8
0
 48
2.0
100
AcDbLine
 10
59.37031730800504
 20
45.55266250138269
 30
0.0
 11
56.90976620953711
 21
51.46403973625915
 31
0.0
  0
ARC
  5
D919
330
2
100
AcDbEntity
  8
0
 48
2.0
100
AcDbCircle
 10
59.04719144851651
 20
45.41816462433688
 30
0.0
 40
0.3500000000000013
100
AcDbArc
 50
202.5990272546573
 51
22.59902725465735
  0
LINE
  5
D91A
330
2
100
AcDbEntity
  8
0
 48
2.0
100
AcDbLine
 10
56.26351449056016
 20
51.19504398216752
 30
0.0
 11
58.7240655890281
 21
45.28366674729112
 31
0.0
  0
ARC
  5
D91B
330
2
100
AcDbEntity
  8
0
 48
2.0
100
AcDbCircle
 10
55.06333272674578
 20
50.69548043885458
 30
0.0
 40
1.299999999999997
100
AcDbArc
 50
22.59902725465735
 51
90.0
  0
LINE
  5
D91C
330
2
100
AcDbEntity
  8
0
 48
2.0
100
AcDbLine
 10
53.49719144851644
 20
51.99548043885454
 30
0.0
 11
55.06333272674578
 21
51.99548043885453
 31
0.0
  0
ARC
  5
D91D
330
2
100
AcDbEntity
  8
0
 48
2.0
100
AcDbCircle
 10
53.49719144851644
 20
50.99548043885454
 30
0.0
 40
1.0
100
AcDbArc
 50
90.0
 51
180.0
  0
LINE
  5
D91E
330
2
100
AcDbEntity
  8
0
 48
2.0
100
AcDbLine
 10
52.49719144851645
 20
44.89548043885458
 30
0.0
 11
52.49719144851645
 21
50.99548043885454
 31
0.0
  0
LINE
  5
D91F
330
2
100
AcDbEntity
  8
0
 48
2.0
100
AcDbLine
 10
53.14719144851654
 20
44.89548043885458
 30
0.0
 11
52.49719144851645
 21
44.89548043885458
 31
0.0
  0
ARC
  5
D920
330
2
100
AcDbEntity
  8
0
 48
2.0
100
AcDbCircle
 10
53.14719144851654
 20
44.54548043885461
 30
0.0
 40
0.3499999999999979
100
AcDbArc
 50
0.0
 51
90.0
  0
ARC
  5
D921
330
2
100
AcDbEntity
  8
0
 48
2.0
100
AcDbCircle
 10
53.14719144851654
 20
44.54548043885461
 30
0.0
 40
0.3500000000000014
100
AcDbArc
 50
270.0
 51
0.0
  0
LINE
  5
D922
330
2
100
AcDbEntity
  8
0
 48
2.0
100
AcDbLine
 10
51.39191494058161
 20
44.19548043885458
 30
0.0
 11
53.14719144851654
 21
44.19548043885458
 31
0.0
  0
LINE
  5
D923
330
2
100
AcDbEntity
  8
0
100
AcDbLine
 10
53.49719144851644
 20
44.54548043885461
 30
0.0
 11
53.49719144851644
 21
44.54548043885461
 31
0.0
  0
LINE
  5
D924
330
2
100
AcDbEntity
  8
0
100
AcDbLine
 10
60.79719144851527
 20
28.66792811928215
 30
0.0
 11
60.79719144851527
 21
29.46792811928408
 31
0.0
  0
LINE
  5
D925
330
2
100
AcDbEntity
  8
0
100
AcDbLine
 10
46.59719144851692
 20
50.05687063379935
 30
0.0
 11
43.6407230569556
 21
49.92832852981841
 31
0.0
  0
LINE
  5
D926
330
2
100
AcDbEntity
  8
0
100
AcDbLine
 10
46.59719144851692
 20
44.26792811928211
 30
0.0
 11
46.59719144851692
 21
50.05687063379935
 31
0.0
  0
ARC
  5
D927
330
2
100
AcDbEntity
  8
0
100
AcDbCircle
 10
47.09719144851692
 20
44.26792811928211
 30
0.0
 40
0.5
100
AcDbArc
 50
180.0
 51
270.0
  0
LINE
  5
D928
330
2
100
AcDbEntity
  8
0
100
AcDbLine
 10
50.89719144851699
 20
43.76792811928211
 30
0.0
 11
47.09719144851692
 21
43.76792811928211
 31
0.0
  0
ARC
  5
D929
330
2
100
AcDbEntity
  8
0
100
AcDbCircle
 10
50.89719144851699
 20
44.26792811928211
 30
0.0
 40
0.5
100
AcDbArc
 50
270.0
 51
351.6687801835618
  0
LINE
  5
D92A
330
2
100
AcDbEntity
  8
0
100
AcDbLine
 10
43.53212999626487
 20
52.425968925706
 30
0.0
 11
49.73089479868349
 21
52.69548043885461
 31
0.0
  0
ARC
  5
D92B
330
2
100
AcDbEntity
  8
0
100
AcDbCircle
 10
43.69719144851479
 20
48.62955552395678
 30
0.0
 40
3.800000000000011
100
AcDbArc
 50
92.48955292199978
 51
180.0
  0
LINE
  5
D92C
330
2
100
AcDbEntity
  8
0
100
AcDbLine
 10
39.89719144851483
 20
20.76792811928218
 30
0.0
 11
39.89719144851472
 21
48.62955552395677
 31
0.0
  0
LINE
  5
D92D
330
2
100
AcDbEntity
  8
0
100
AcDbLine
 10
43.39719144851494
 20
20.76792811928215
 30
0.0
 11
40.51689354677444
 21
20.76792811928218
 31
0.0
  0
ARC
  5
D92E
330
2
100
AcDbEntity
  8
0
100
AcDbCircle
 10
43.39719144851494
 20
20.26792811928215
 30
0.0
 40
0.5
100
AcDbArc
 50
0.0
 51
90.0
  0
LINE
  5
D92F
330
2
100
AcDbEntity
  8
0
100
AcDbLine
 10
43.89719144851494
 20
19.76792811928214
 30
0.0
 11
43.89719144851494
 21
20.26792811928215
 31
0.0
  0
LINE
  5
D930
330
2
100
AcDbEntity
  8
0
100
AcDbLine
 10
44.89719144851494
 20
19.76792811928214
 30
0.0
 11
43.89719144851494
 21
19.76792811928214
 31
0.0
  0
LINE
  5
D931
330
2
100
AcDbEntity
  8
0
100
AcDbLine
 10
44.89719144851494
 20
21.26792811928194
 30
0.0
 11
44.89719144851494
 21
19.76792811928214
 31
0.0
  0
ARC
  5
D932
330
2
100
AcDbEntity
  8
0
100
AcDbCircle
 10
43.89719144851494
 20
21.26792811928192
 30
0.0
 40
1.000000000000014
100
AcDbArc
 50
0.0000000000008142
 51
90.0
  0
LINE
  5
D933
330
2
100
AcDbEntity
  8
0
100
AcDbLine
 10
41.6971914485149
 20
22.26792811928195
 30
0.0
 11
43.89719144851494
 21
22.26792811928193
 31
0.0
  0
LINE
  5
D934
330
2
100
AcDbEntity
  8
0
100
AcDbLine
 10
41.6971914485149
 20
30.96792811928471
 30
0.0
 11
41.6971914485149
 21
22.26792811928195
 31
0.0
  0
LINE
  5
D935
330
2
100
AcDbEntity
  8
0
100
AcDbLine
 10
59.29719144851526
 20
30.96792811928408
 30
0.0
 11
41.6971914485149
 21
30.96792811928471
 31
0.0
  0
ARC
  5
D936
330
2
100
AcDbEntity
  8
0
100
AcDbCircle
 10
59.29719144851515
 20
29.46792811928408
 30
0.0
 40
1.500000000000014
100
AcDbArc
 50
0.0
 51
89.99999999999349
  0
LINE
  5
D937
330
2
100
AcDbEntity
  8
0
100
AcDbLine
 10
42.39719144851483
 20
48.62955552395682
 30
0.0
 11
42.39719144851483
 21
47.76792811928209
 31
0.0
  0
ARC
  5
D938
330
2
100
AcDbEntity
  8
0
100
AcDbCircle
 10
43.69719144851479
 20
48.62955552395684
 30
0.0
 40
1.299999999999998
100
AcDbArc
 50
92.48955292199978
 51
180.0000000000008
  0
LINE
  5
D939
330
2
100
AcDbEntity
  8
0
100
AcDbLine
 10
68.99719144851508
 20
29.46792811928326
 30
0.0
 11
68.99719144851508
 21
21.76792811928215
 31
0.0
  0
LINE
  5
D93A
330
2
100
AcDbEntity
  8
0
100
AcDbLine
 10
68.99719144851508
 20
21.76792811928215
 30
0.0
 11
70.49719144851508
 21
21.76792811928213
 31
0.0
  0
ARC
  5
D93B
330
2
100
AcDbEntity
  8
0
100
AcDbCircle
 10
70.49719144851508
 20
20.76792811928213
 30
0.0
 40
1.0
100
AcDbArc
 50
0.0
 51
90.0
  0
LINE
  5
D93C
330
2
100
AcDbEntity
  8
0
100
AcDbLine
 10
71.49719144851508
 20
20.76792811928213
 30
0.0
 11
71.49719144851508
 21
19.76792811928209
 31
0.0
  0
LINE
  5
D93D
330
2
100
AcDbEntity
  8
0
100
AcDbLine
 10
71.49719144851508
 20
19.76792811928209
 30
0.0
 11
66.99719144851508
 21
19.76792811928214
 31
0.0
  0
ARC
  5
D93E
330
2
100
AcDbEntity
  8
0
100
AcDbCircle
 10
66.99719144851508
 20
20.26792811928215
 30
0.0
 40
0.5
100
AcDbArc
 50
180.0
 51
270.0
  0
LINE
  5
D93F
330
2
100
AcDbEntity
  8
0
100
AcDbLine
 10
66.49719144851508
 20
20.26792811928215
 30
0.0
 11
66.49719144851508
 21
30.96792811928471
 31
0.0
  0
LINE
  5
D940
330
2
100
AcDbEntity
  8
0
100
AcDbLine
 10
66.49719144851508
 20
30.96792811928471
 30
0.0
 11
63.29719144851515
 21
30.96792811928493
 31
0.0
  0
LINE
  5
D941
330
2
100
AcDbEntity
  8
0
100
AcDbLine
 10
63.29719144851515
 20
30.96792811928493
 30
0.0
 11
63.29719144851515
 21
20.26792811928215
 31
0.0
  0
ARC
  5
D942
330
2
100
AcDbEntity
  8
0
100
AcDbCircle
 10
62.79719144851515
 20
20.26792811928215
 30
0.0
 40
0.5
100
AcDbArc
 50
270.0
 51
0.0
  0
LINE
  5
D943
330
2
100
AcDbEntity
  8
0
100
AcDbLine
 10
62.79719144851515
 20
19.76792811928214
 30
0.0
 11
58.29719144851515
 21
19.7679281192822
 31
0.0
  0
LINE
  5
D944
330
2
100
AcDbEntity
  8
0
100
AcDbLine
 10
58.29719144851515
 20
19.7679281192822
 30
0.0
 11
58.29719144851527
 21
20.76792811928218
 31
0.0
  0
ARC
  5
D945
330
2
100
AcDbEntity
  8
0
100
AcDbCircle
 10
59.29719144851526
 20
20.76792811928215
 30
0.0
 40
0.9999999999999964
100
AcDbArc
 50
89.99999999999959
 51
179.9999999999986
  0
LINE
  5
D946
330
2
100
AcDbEntity
  8
0
100
AcDbLine
 10
59.29719144851526
 20
21.76792811928215
 30
0.0
 11
60.79719144851527
 21
21.76792811928215
 31
0.0
  0
LINE
  5
D947
330
2
100
AcDbEntity
  8
0
100
AcDbLine
 10
60.79719144851527
 20
21.76792811928215
 30
0.0
 11
60.79719144851527
 21
29.46792811928408
 31
0.0
  0
LINE
  5
D948
330
2
100
AcDbEntity
  8
0
100
AcDbLine
 10
42.39719144851483
 20
47.76792811928209
 30
0.0
 11
42.39719144851483
 21
32.76792811928209
 31
0.0
  0
LINE
  5
D949
330
2
100
AcDbEntity
  8
0
100
AcDbLine
 10
42.39719144851483
 20
32.76792811928209
 30
0.0
 11
84.39719144851691
 21
32.76792811928209
 31
0.0
  0
LINE
  5
D94A
330
2
100
AcDbEntity
  8
0
100
AcDbLine
 10
84.89719144851472
 20
21.26792811928216
 30
0.0
 11
84.89719144851482
 21
20.76792811928215
 31
0.0
  0
LINE
  5
D94B
330
2
100
AcDbEntity
  8
0
100
AcDbLine
 10
84.27748935025523
 20
20.76792811928215
 30
0.0
 11
81.39719144851472
 21
20.76792811928215
 31
0.0
  0
ARC
  5
D94C
330
2
100
AcDbEntity
  8
0
100
AcDbCircle
 10
81.39719144851472
 20
20.26792811928215
 30
0.0
 40
0.5
100
AcDbArc
 50
90.0
 51
180.0
  0
LINE
  5
D94D
330
2
100
AcDbEntity
  8
0
100
AcDbLine
 10
80.89719144851471
 20
20.26792811928215
 30
0.0
 11
80.89719144851471
 21
19.76792811928214
 31
0.0
  0
LINE
  5
D94E
330
2
100
AcDbEntity
  8
0
100
AcDbLine
 10
80.89719144851471
 20
19.76792811928214
 30
0.0
 11
79.89719144851472
 21
19.76792811928214
 31
0.0
  0
LINE
  5
D94F
330
2
100
AcDbEntity
  8
0
100
AcDbLine
 10
79.89719144851472
 20
19.76792811928214
 30
0.0
 11
79.89719144851472
 21
21.26792811928192
 31
0.0
  0
ARC
  5
D950
330
2
100
AcDbEntity
  8
0
100
AcDbCircle
 10
80.89719144851471
 20
21.26792811928192
 30
0.0
 40
1.0
100
AcDbArc
 50
90.0
 51
180.0
  0
LINE
  5
D951
330
2
100
AcDbEntity
  8
0
100
AcDbLine
 10
80.89719144851471
 20
22.26792811928192
 30
0.0
 11
83.09719144851476
 21
22.26792811928192
 31
0.0
  0
LINE
  5
D952
330
2
100
AcDbEntity
  8
0
100
AcDbLine
 10
83.09719144851476
 20
22.26792811928192
 30
0.0
 11
83.09719144851488
 21
30.96792811928215
 31
0.0
  0
LINE
  5
D953
330
2
100
AcDbEntity
  8
0
100
AcDbLine
 10
83.09719144851488
 20
30.96792811928215
 30
0.0
 11
70.49719144851531
 21
30.96792811928326
 31
0.0
  0
ARC
  5
D954
330
2
100
AcDbEntity
  8
0
100
AcDbCircle
 10
70.49719144851508
 20
29.46792811928326
 30
0.0
 40
1.5
100
AcDbArc
 50
89.99999999999349
 51
180.0
  0
LINE
  5
D955
330
2
100
AcDbEntity
  8
0
100
AcDbLine
 10
68.99719144851508
 20
29.46792811928326
 30
0.0
 11
68.99719144851508
 21
28.66792811928225
 31
0.0
  0
LINE
  5
D956
330
2
100
AcDbEntity
  8
0
100
AcDbLine
 10
42.39719144851335
 20
48.26792811928228
 30
0.0
 11
42.39719144851335
 21
48.26792811928228
 31
0.0
  0
LINE
  5
D957
330
2
100
AcDbEntity
  8
0
100
AcDbLine
 10
43.9971914485144
 20
49.26792811928229
 30
0.0
 11
43.9971914485144
 21
49.26792811928229
 31
0.0
  0
LINE
  5
D958
330
2
100
AcDbEntity
  8
0
100
AcDbLine
 10
43.64719144851164
 20
49.26792811928229
 30
0.0
 11
43.64719144851176
 21
49.26792811928232
 31
0.0
  0
LINE
  5
D959
330
2
100
AcDbEntity
  8
0
100
AcDbLine
 10
43.59719144851545
 20
47.26792811928229
 30
0.0
 11
43.59719144851545
 21
34.26792811928226
 31
0.0
  0
ARC
  5
D95A
330
2
100
AcDbEntity
  8
0
100
AcDbCircle
 10
45.09719144851544
 20
34.26792811928226
 30
0.0
 40
1.5
100
AcDbArc
 50
180.0
 51
270.0
  0
LINE
  5
D95B
330
2
100
AcDbEntity
  8
0
100
AcDbLine
 10
85.89793191510887
 20
19.76792811928207
 30
0.0
 11
86.40063419115824
 21
32.82851636725269
 31
0.0
  0
ARC
  5
D95C
330
2
100
AcDbEntity
  8
0
100
AcDbCircle
 10
84.40211402857869
 20
32.90543944417578
 30
0.0
 40
1.999999999999979
100
AcDbArc
 50
357.7957724960274
 51
86.07588082338125
  0
LINE
  5
D95D
330
2
100
AcDbEntity
  8
0
100
AcDbLine
 10
84.53898456627371
 20
34.90075056174894
 30
0.0
 11
72.58074098319116
 21
35.72103929501412
 31
0.0
  0
ARC
  5
D95E
330
2
100
AcDbEntity
  8
0
100
AcDbCircle
 10
71.21203560624144
 20
15.76792811928233
 30
0.0
 40
20.0000000000001
100
AcDbArc
 50
86.07588082338777
 51
90.0
  0
LINE
  5
D95F
330
2
100
AcDbEntity
  8
0
100
AcDbLine
 10
71.21203560624156
 20
35.76792811928243
 30
0.0
 11
58.80386435737603
 21
35.7679281192824
 31
0.0
  0
ARC
  5
D960
330
2
100
AcDbEntity
  8
0
100
AcDbCircle
 10
58.80386435737603
 20
30.7679281192824
 30
0.0
 40
5.0
100
AcDbArc
 50
90.0
 51
110.5560452195883
  0
LINE
  5
D961
330
2
100
AcDbEntity
  8
0
100
AcDbLine
 10
57.04824714943402
 20
35.44957400712758
 30
0.0
 11
53.89719144851347
 21
34.26792811928232
 31
0.0
  0
LINE
  5
D962
330
2
100
AcDbEntity
  8
0
100
AcDbLine
 10
53.89719144851347
 20
34.26792811928232
 30
0.0
 11
46.59719144851544
 21
34.26792811928226
 31
0.0
  0
LINE
  5
D963
330
2
100
AcDbEntity
  8
0
100
AcDbLine
 10
46.59719144851544
 20
34.26792811928226
 30
0.0
 11
46.59719144851544
 21
48.26792811928228
 31
0.0
  0
ARC
  5
D964
330
2
100
AcDbEntity
  8
0
100
AcDbCircle
 10
45.59719144851544
 20
48.26792811928228
 30
0.0
 40
1.0
100
AcDbArc
 50
0.0
 51
90.0
  0
LINE
  5
D965
330
2
100
AcDbEntity
  8
0
100
AcDbLine
 10
45.59719144851544
 20
49.26792811928229
 30
0.0
 11
44.99719144851439
 21
49.26792811928229
 31
0.0
  0
LINE
  5
D966
330
2
100
AcDbEntity
  8
0
100
AcDbLine
 10
44.99719144851439
 20
49.26792811928229
 30
0.0
 11
44.99719144851439
 21
49.26792811928229
 31
0.0
  0
ARC
  5
D967
330
2
100
AcDbEntity
  8
0
100
AcDbCircle
 10
44.4971914485144
 20
49.2679281192823
 30
0.0
 40
0.4999999999999858
100
AcDbArc
 50
359.9999999999984
 51
90.0
  0
LINE
  5
D968
330
2
100
AcDbEntity
  8
0
100
AcDbLine
 10
44.4971914485144
 20
49.76792811928229
 30
0.0
 11
44.4971914485144
 21
49.76792811928229
 31
0.0
  0
ARC
  5
D969
330
2
100
AcDbEntity
  8
0
100
AcDbCircle
 10
44.4971914485144
 20
49.26792811928229
 30
0.0
 40
0.5
100
AcDbArc
 50
90.0
 51
180.0
  0
LINE
  5
D96A
330
2
100
AcDbEntity
  8
0
100
AcDbLine
 10
43.9971914485144
 20
49.26792811928229
 30
0.0
 11
43.39719144851335
 21
49.26792811928229
 31
0.0
  0
ARC
  5
D96B
330
2
100
AcDbEntity
  8
0
100
AcDbCircle
 10
43.39719144851335
 20
48.26792811928228
 30
0.0
 40
1.0
100
AcDbArc
 50
90.0
 51
180.0
  0
ARC
  5
D96C
330
2
100
AcDbEntity
  8
0
100
AcDbCircle
 10
43.39719144851335
 20
48.26792811928228
 30
0.0
 40
1.0
100
AcDbArc
 50
180.0
 51
270.0
  0
LINE
  5
D96D
330
2
100
AcDbEntity
  8
0
100
AcDbLine
 10
43.39719144851335
 20
47.26792811928229
 30
0.0
 11
43.59719144851545
 21
47.26792811928229
 31
0.0
  0
ARC
  5
D96E
330
2
100
AcDbEntity
  8
0
100
AcDbCircle
 10
82.39919224915537
 20
21.32792811928212
 30
0.0
 40
2.560000000000033
100
AcDbArc
 50
264.8720091169072
 51
347.3643749069787
  0
ARC
  5
D96F
330
2
100
AcDbEntity
  8
0
100
AcDbCircle
 10
82.39919224915537
 20
21.32792811928212
 30
0.0
 40
1.960000000000014
100
AcDbArc
 50
264.8720091169072
 51
343.3984504009792
  0
ARC
  5
D970
330
2
100
AcDbEntity
  8
0
100
AcDbCircle
 10
82.19719144851479
 20
19.0769737269097
 30
0.0
 40
0.3000000000000198
100
AcDbArc
 50
84.87200911690068
 51
264.8720091169006
  0
ARC
  5
D971
330
2
100
AcDbEntity
  8
0
100
AcDbCircle
 10
42.3951906478743
 20
21.32792811928212
 30
0.0
 40
2.560000000000034
100
AcDbArc
 50
192.6356250930212
 51
275.1279908830928
  0
ARC
  5
D972
330
2
100
AcDbEntity
  8
0
100
AcDbCircle
 10
42.3951906478743
 20
21.32792811928212
 30
0.0
 40
1.960000000000014
100
AcDbArc
 50
196.6015495990206
 51
275.1279908830928
  0
ARC
  5
D973
330
2
100
AcDbEntity
  8
0
100
AcDbCircle
 10
42.59719144851476
 20
19.0769737269097
 30
0.0
 40
0.3000000000000198
100
AcDbArc
 50
275.1279908830993
 51
95.12799088309932
  0
LINE
  5
D974
330
2
100
AcDbEntity
  8
0
100
AcDbLine
 10
84.42897056217384
 20
19.76792811928214
 30
0.0
 11
85.89793191510876
 21
19.76792811928214
 31
0.0
  0
LINE
  5
D975
330
2
100
AcDbEntity
  8
0
100
AcDbLine
 10
174.8437397443724
 20
143.3033191869029
 30
0.0
 11
157.3437397443751
 21
143.3033191869031
 31
0.0
  0
LINE
  5
D976
330
2
100
AcDbEntity
  8
0
100
AcDbLine
 10
142.8437397443722
 20
141.3033191869023
 30
0.0
 11
145.1746685090251
 21
141.0045364997967
 31
0.0
  0
LINE
  5
D977
330
2
100
AcDbEntity
  8
0
100
AcDbLine
 10
142.8437397443722
 20
141.9033191869022
 30
0.0
 11
145.2305719753789
 21
141.2987268440565
 31
0.0
  0
ARC
  5
D978
330
2
100
AcDbEntity
  8
0
100
AcDbCircle
 10
145.1937397443722
 20
141.1533191869023
 30
0.0
 40
0.15
100
AcDbArc
 50
262.6955544393867
 51
75.78576665395913
  0
LINE
  5
D979
330
2
100
AcDbEntity
  8
0
100
AcDbLine
 10
141.8437397443724
 20
146.3033191869023
 30
0.0
 11
141.3437397443724
 21
146.3033191869023
 31
0.0
  0
LINE
  5
D97A
330
2
100
AcDbEntity
  8
0
100
AcDbLine
 10
174.8437397443725
 20
143.3033191869029
 30
0.0
 11
174.8437397443725
 21
136.6033191869027
 31
0.0
  0
LINE
  5
D97B
330
2
100
AcDbEntity
  8
0
100
AcDbLine
 10
174.8437397443725
 20
136.6033191869027
 30
0.0
 11
168.8437397443725
 21
136.6033191869024
 31
0.0
  0
ARC
  5
D97C
330
2
100
AcDbEntity
  8
0
100
AcDbCircle
 10
168.8437397443725
 20
136.1033191869024
 30
0.0
 40
0.5
100
AcDbArc
 50
90.0
 51
180.0
  0
LINE
  5
D97D
330
2
100
AcDbEntity
  8
0
100
AcDbLine
 10
168.3437397443725
 20
136.1033191869024
 30
0.0
 11
168.3437397443725
 21
132.3033191869024
 31
0.0
  0
ARC
  5
D97E
330
2
100
AcDbEntity
  8
0
100
AcDbCircle
 10
168.8437397443725
 20
132.3033191869024
 30
0.0
 40
0.5
100
AcDbArc
 50
180.0
 51
270.0
  0
ARC
  5
D97F
330
2
100
AcDbEntity
  8
0
100
AcDbCircle
 10
176.8437397443725
 20
145.8033191869024
 30
0.0
 40
0.5
100
AcDbArc
 50
0.0
 51
90.0
  0
LINE
  5
D980
330
2
100
AcDbEntity
  8
0
100
AcDbLine
 10
176.8437397443725
 20
146.3033191869024
 30
0.0
 11
141.3437397443724
 21
146.3033191869023
 31
0.0
  0
LINE
  5
D981
330
2
100
AcDbEntity
  8
0
100
AcDbLine
 10
141.3437397443725
 20
145.6836170886428
 30
0.0
 11
141.3437397443724
 21
142.8033191869022
 31
0.0
  0
LINE
  5
D982
330
2
100
AcDbEntity
  8
0
100
AcDbLine
 10
140.8437397443724
 20
142.3033191869023
 30
0.0
 11
140.3437397443724
 21
142.3033191869023
 31
0.0
  0
LINE
  5
D983
330
2
100
AcDbEntity
  8
0
100
AcDbLine
 10
140.3437397443724
 20
142.3033191869023
 30
0.0
 11
140.3437397443724
 21
141.8033191869023
 31
0.0
  0
LINE
  5
D984
330
2
100
AcDbEntity
  8
0
100
AcDbLine
 10
140.8437397443724
 20
141.3033191869023
 30
0.0
 11
142.8437397443722
 21
141.3033191869023
 31
0.0
  0
LINE
  5
D985
330
2
100
AcDbEntity
  8
0
100
AcDbLine
 10
142.8437397443722
 20
141.9033191869022
 30
0.0
 11
142.8437397443722
 21
144.7033191869023
 31
0.0
  0
LINE
  5
D986
330
2
100
AcDbEntity
  8
0
100
AcDbLine
 10
142.8437397443722
 20
144.7033191869023
 30
0.0
 11
155.7437397443751
 21
144.7033191869024
 31
0.0
  0
LINE
  5
D987
330
2
100
AcDbEntity
  8
0
100
AcDbLine
 10
140.3437397443724
 20
101.3033191869024
 30
0.0
 11
140.3437397443724
 21
100.3033191869024
 31
0.0
  0
LINE
  5
D988
330
2
100
AcDbEntity
  8
0
100
AcDbLine
 10
140.3437397443724
 20
100.3033191869024
 30
0.0
 11
140.8437397443724
 21
100.3033191869024
 31
0.0
  0
ARC
  5
D989
330
2
100
AcDbEntity
  8
0
100
AcDbCircle
 10
140.8437397443724
 20
99.80331918690241
 30
0.0
 40
0.5
100
AcDbArc
 50
0.0
 51
90.0
  0
LINE
  5
D98A
330
2
100
AcDbEntity
  8
0
100
AcDbLine
 10
141.3437397443738
 20
99.80331918690199
 30
0.0
 11
141.3437397443724
 21
96.92302128516185
 31
0.0
  0
LINE
  5
D98B
330
2
100
AcDbEntity
  8
0
100
AcDbLine
 10
141.3437397443704
 20
140.3040670918552
 30
0.0
 11
141.3437397443704
 21
140.3033191869022
 31
0.0
  0
LINE
  5
D98C
330
2
100
AcDbEntity
  8
0
100
AcDbLine
 10
141.3437397443704
 20
140.3033191869022
 30
0.0
 11
144.3437397443704
 21
141.3033191869022
 31
0.0
  0
LINE
  5
D98D
330
2
100
AcDbEntity
  8
0
100
AcDbLine
 10
144.3437397443704
 20
141.3033191869022
 30
0.0
 11
154.3748153659471
 21
140.4234002727284
 31
0.0
  0
LINE
  5
D98E
330
2
100
AcDbEntity
  8
0
100
AcDbLine
 10
140.3437397443724
 20
101.3033191869014
 30
0.0
 11
149.9437397443721
 21
101.3033191869014
 31
0.0
  0
LINE
  5
D98F
330
2
100
AcDbEntity
  8
0
100
AcDbLine
 10
149.9437397443721
 20
101.3033191869014
 30
0.0
 11
149.9437397443721
 21
104.103319186901
 31
0.0
  0
LINE
  5
D990
330
2
100
AcDbEntity
  8
0
100
AcDbLine
 10
149.9437397443721
 20
104.103319186901
 30
0.0
 11
140.8437397443683
 21
104.103319186901
 31
0.0
  0
ARC
  5
D991
330
2
100
AcDbEntity
  8
0
100
AcDbCircle
 10
140.8437397443683
 20
104.603319186901
 30
0.0
 40
0.4999999999999716
100
AcDbArc
 50
179.9999999999935
 51
270.0000000000065
  0
LINE
  5
D992
330
2
100
AcDbEntity
  8
0
100
AcDbLine
 10
140.3437397443683
 20
104.6033191869011
 30
0.0
 11
140.3437397443686
 21
106.603319186901
 31
0.0
  0
LINE
  5
D993
330
2
100
AcDbEntity
  8
0
100
AcDbLine
 10
140.3437397443686
 20
106.603319186901
 30
0.0
 11
140.8437397443683
 21
106.603319186901
 31
0.0
  0
ARC
  5
D994
330
2
100
AcDbEntity
  8
0
100
AcDbCircle
 10
140.8437397443683
 20
106.1033191869011
 30
0.0
 40
0.5
100
AcDbArc
 50
0.0
 51
90.0
  0
LINE
  5
D995
330
2
100
AcDbEntity
  8
0
100
AcDbLine
 10
141.3437397443683
 20
106.1033191869011
 30
0.0
 11
141.3437397443683
 21
105.603319186901
 31
0.0
  0
LINE
  5
D996
330
2
100
AcDbEntity
  8
0
100
AcDbLine
 10
141.3437397443683
 20
105.603319186901
 30
0.0
 11
151.4437397443721
 21
105.603319186901
 31
0.0
  0
LINE
  5
D997
330
2
100
AcDbEntity
  8
0
100
AcDbLine
 10
151.4437397443721
 20
105.603319186901
 30
0.0
 11
151.4437397443721
 21
101.3033191869029
 31
0.0
  0
LINE
  5
D998
330
2
100
AcDbEntity
  8
0
100
AcDbLine
 10
151.4437397443721
 20
101.3033191869029
 30
0.0
 11
154.2437397443718
 21
101.3033191869029
 31
0.0
  0
LINE
  5
D999
330
2
100
AcDbEntity
  8
0
100
AcDbLine
 10
154.2437397443718
 20
101.3033191869029
 30
0.0
 11
154.2437397443734
 21
129.4033191869021
 31
0.0
  0
LINE
  5
D99A
330
2
100
AcDbEntity
  8
0
100
AcDbLine
 10
154.2437397443734
 20
129.4033191869021
 30
0.0
 11
151.4437397443721
 21
129.4033191869021
 31
0.0
  0
LINE
  5
D99B
330
2
100
AcDbEntity
  8
0
100
AcDbLine
 10
151.4437397443721
 20
129.4033191869021
 30
0.0
 11
151.4437397443721
 21
125.0033191869021
 31
0.0
  0
LINE
  5
D99C
330
2
100
AcDbEntity
  8
0
100
AcDbLine
 10
151.4437397443721
 20
125.0033191869021
 30
0.0
 11
140.8437397443704
 21
125.0033191869021
 31
0.0
  0
ARC
  5
D99D
330
2
100
AcDbEntity
  8
0
100
AcDbCircle
 10
140.8437397443704
 20
125.5033191869021
 30
0.0
 40
0.5000000000000142
100
AcDbArc
 50
179.9999999999984
 51
270.0
  0
LINE
  5
D99E
330
2
100
AcDbEntity
  8
0
100
AcDbLine
 10
140.3437397443704
 20
125.5033191869021
 30
0.0
 11
140.3437397443706
 21
127.5033191869021
 31
0.0
  0
LINE
  5
D99F
330
2
100
AcDbEntity
  8
0
100
AcDbLine
 10
140.3437397443706
 20
127.5033191869021
 30
0.0
 11
140.8437397443704
 21
127.5033191869021
 31
0.0
  0
ARC
  5
D9A0
330
2
100
AcDbEntity
  8
0
100
AcDbCircle
 10
140.8437397443704
 20
127.0033191869021
 30
0.0
 40
0.5
100
AcDbArc
 50
0.0
 51
90.0
  0
LINE
  5
D9A1
330
2
100
AcDbEntity
  8
0
100
AcDbLine
 10
141.3437397443704
 20
127.0033191869021
 30
0.0
 11
141.3437397443704
 21
126.5033191869021
 31
0.0
  0
LINE
  5
D9A2
330
2
100
AcDbEntity
  8
0
100
AcDbLine
 10
141.3437397443704
 20
126.5033191869021
 30
0.0
 11
149.9437397443721
 21
126.5033191869021
 31
0.0
  0
LINE
  5
D9A3
330
2
100
AcDbEntity
  8
0
100
AcDbLine
 10
149.9437397443721
 20
126.5033191869021
 30
0.0
 11
149.9437397443719
 21
130.4033191869021
 31
0.0
  0
ARC
  5
D9A4
330
2
100
AcDbEntity
  8
0
100
AcDbCircle
 10
150.4437397443719
 20
130.4033191869021
 30
0.0
 40
0.5
100
AcDbArc
 50
90.0
 51
180.0
  0
LINE
  5
D9A5
330
2
100
AcDbEntity
  8
0
100
AcDbLine
 10
150.4437397443719
 20
130.9033191869021
 30
0.0
 11
154.2437397443723
 21
130.9033191869021
 31
0.0
  0
LINE
  5
D9A6
330
2
100
AcDbEntity
  8
0
100
AcDbLine
 10
154.2437397443747
 20
130.9033191869021
 30
0.0
 11
154.2437397443749
 21
138.9291381868046
 31
0.0
  0
LINE
  5
D9A7
330
2
100
AcDbEntity
  8
0
100
AcDbLine
 10
154.2437397443749
 20
138.9291381868046
 30
0.0
 11
144.5227645905903
 21
139.781855305558
 31
0.0
  0
LINE
  5
D9A8
330
2
100
AcDbEntity
  8
0
100
AcDbLine
 10
144.5227645905903
 20
139.781855305558
 30
0.0
 11
141.0018536273789
 21
138.6082183178209
 31
0.0
  0
LINE
  5
D9A9
330
2
100
AcDbEntity
  8
0
100
AcDbLine
 10
140.3437397443706
 20
139.0825599668461
 30
0.0
 11
140.3437397443703
 21
140.8033191869022
 31
0.0
  0
LINE
  5
D9AA
330
2
100
AcDbEntity
  8
0
100
AcDbLine
 10
140.3437397443703
 20
140.8033191869022
 30
0.0
 11
140.8437397443704
 21
140.8033191869023
 31
0.0
  0
LINE
  5
D9AB
330
2
100
AcDbEntity
  8
0
100
AcDbLine
 10
141.3437397443705
 20
140.3033191869023
 30
0.0
 11
141.3437397443704
 21
140.3033191869022
 31
0.0
  0
LINE
  5
D9AC
330
2
100
AcDbEntity
  8
0
100
AcDbLine
 10
141.8437397443724
 20
146.3033191869019
 30
0.0
 11
141.3437397443724
 21
146.3033191869019
 31
0.0
  0
LINE
  5
D9AD
330
2
100
AcDbEntity
  8
0
100
AcDbLine
 10
141.3437397443704
 20
140.3040670918548
 30
0.0
 11
141.3437397443704
 21
140.3033191869018
 31
0.0
  0
ARC
  5
D9AE
330
2
100
AcDbEntity
  8
0
100
AcDbCircle
 10
154.2437397443749
 20
138.9291381868045
 30
0.0
 40
1.500000000000009
100
AcDbArc
 50
0.0000000000032569
 51
84.98688624496372
  0
LINE
  5
D9AF
330
2
100
AcDbEntity
  8
0
100
AcDbLine
 10
155.7437397443747
 20
144.7033191869024
 30
0.0
 11
155.7437397443749
 21
138.9291381868045
 31
0.0
  0
ARC
  5
D9B0
330
2
100
AcDbEntity
  8
0
100
AcDbCircle
 10
140.8437397443706
 20
139.0825599668457
 30
0.0
 40
0.4999999999999673
100
AcDbArc
 50
180.0000000000081
 51
288.434948822921
  0
ARC
  5
D9B1
330
2
100
AcDbEntity
  8
0
100
AcDbCircle
 10
140.8437397443706
 20
140.3033191869019
 30
0.0
 40
0.5000000000000142
100
AcDbArc
 50
0.0000000000032569
 51
90.00000000001953
  0
LINE
  5
D9B2
330
2
100
AcDbEntity
  8
0
100
AcDbLine
 10
141.3437397443706
 20
140.3033191869019
 30
0.0
 11
141.3437397443704
 21
140.3033191869018
 31
0.0
  0
ARC
  5
D9B3
330
2
100
AcDbEntity
  8
0
100
AcDbCircle
 10
140.8437397443725
 20
142.8033191869019
 30
0.0
 40
0.5
100
AcDbArc
 50
270.0000000000065
 51
0.0000000000016284
  0
ARC
  5
D9B4
330
2
100
AcDbEntity
  8
0
100
AcDbCircle
 10
140.8437397443726
 20
141.8033191869018
 30
0.0
 40
0.5
100
AcDbArc
 50
180.0000000000032
 51
270.0000000000065
  0
LINE
  5
D9B5
330
2
100
AcDbEntity
  8
0
100
AcDbLine
 10
157.3437397443747
 20
96.80331918690246
 30
0.0
 11
157.3437397443751
 21
143.3033191869032
 31
0.0
  0
LINE
  5
D9B6
330
2
100
AcDbEntity
  8
0
100
AcDbLine
 10
141.3437397443733
 20
96.30331918690202
 30
0.0
 11
156.8437397443758
 21
96.30331918690245
 31
0.0
  0
ARC
  5
D9B7
330
2
100
AcDbEntity
  8
0
100
AcDbCircle
 10
156.8437397443758
 20
96.80331918690246
 30
0.0
 40
0.5
100
AcDbArc
 50
270.0000000000065
 51
0.0000000000016284
  0
LINE
  5
D9B8
330
2
100
AcDbEntity
  8
0
 48
2.0
100
AcDbLine
 10
177.3437397443729
 20
128.1371779086734
 30
0.0
 11
177.3437397443729
 21
145.8033191869024
 31
0.0
  0
ARC
  5
D9B9
330
2
100
AcDbEntity
  8
0
 48
2.0
100
AcDbCircle
 10
175.3437397443729
 20
128.1371779086734
 30
0.0
 40
2.0
100
AcDbArc
 50
292.5990272546574
 51
0.0
  0
LINE
  5
D9BA
330
2
100
AcDbEntity
  8
0
 48
2.0
100
AcDbLine
 10
170.200921806901
 20
123.8301933274142
 30
0.0
 11
176.1122990417775
 21
126.2907444258821
 31
0.0
  0
ARC
  5
D9BB
330
2
100
AcDbEntity
  8
0
 48
2.0
100
AcDbCircle
 10
170.0664239298552
 20
124.1533191869027
 30
0.0
 40
0.3500000000000013
100
AcDbArc
 50
112.5990272546573
 51
292.5990272546574
  0
LINE
  5
D9BC
330
2
100
AcDbEntity
  8
0
 48
2.0
100
AcDbLine
 10
175.8433032876857
 20
126.9369961448591
 30
0.0
 11
169.9319260528094
 21
124.4764450463911
 31
0.0
  0
ARC
  5
D9BD
330
2
100
AcDbEntity
  8
0
 48
2.0
100
AcDbCircle
 10
175.3437397443729
 20
128.1371779086734
 30
0.0
 40
1.299999999999997
100
AcDbArc
 50
292.5990272546574
 51
0.0
  0
LINE
  5
D9BE
330
2
100
AcDbEntity
  8
0
 48
2.0
100
AcDbLine
 10
176.6437397443728
 20
129.7033191869027
 30
0.0
 11
176.6437397443728
 21
128.1371779086734
 31
0.0
  0
ARC
  5
D9BF
330
2
100
AcDbEntity
  8
0
 48
2.0
100
AcDbCircle
 10
175.6437397443728
 20
129.7033191869027
 30
0.0
 40
1.0
100
AcDbArc
 50
0.0
 51
90.0
  0
LINE
  5
D9C0
330
2
100
AcDbEntity
  8
0
 48
2.0
100
AcDbLine
 10
169.5437397443729
 20
130.7033191869027
 30
0.0
 11
175.6437397443728
 21
130.7033191869027
 31
0.0
  0
LINE
  5
D9C1
330
2
100
AcDbEntity
  8
0
 48
2.0
100
AcDbLine
 10
169.5437397443729
 20
130.0533191869027
 30
0.0
 11
169.5437397443729
 21
130.7033191869027
 31
0.0
  0
LINE
  5
D9C2
330
2
100
AcDbEntity
  8
0
 48
2.0
100
AcDbLine
 10
168.8437397443729
 20
131.8033191869028
 30
0.0
 11
168.8437397443729
 21
130.0533191869027
 31
0.0
  0
LINE
  5
D9C3
330
2
100
AcDbEntity
  8
0
 48
2.0
100
AcDbLine
 10
169.1937397443729
 20
129.7033191869027
 30
0.0
 11
169.1937397443729
 21
129.7033191869027
 31
0.0
  0
ARC
  5
D9C4
330
2
100
AcDbEntity
  8
0
100
AcDbCircle
 10
139.6527853520002
 20
143.6033191869018
 30
0.0
 40
0.3000000000000107
100
AcDbArc
 50
185.1279908831091
 51
5.127990883107502
  0
ARC
  5
D9C5
330
2
100
AcDbEntity
  8
0
100
AcDbCircle
 10
141.9037397443727
 20
143.8053199875425
 30
0.0
 40
1.960000000000029
100
AcDbArc
 50
106.6015495990229
 51
185.127990883096
  0
ARC
  5
D9C6
330
2
100
AcDbEntity
  8
0
100
AcDbCircle
 10
141.9037397443726
 20
143.8053199875425
 30
0.0
 40
2.560000000000035
100
AcDbArc
 50
102.6356250930213
 51
185.1279908830992
  0
ARC
  5
D9C7
330
2
100
AcDbEntity
  8
0
100
AcDbCircle
 10
139.6527853520016
 20
99.00331918690184
 30
0.0
 40
0.3000000000000647
100
AcDbArc
 50
354.8720091168974
 51
174.8720091168974
  0
ARC
  5
D9C8
330
2
100
AcDbEntity
  8
0
100
AcDbCircle
 10
141.9037397443741
 20
98.80131838626128
 30
0.0
 40
1.960000000000074
100
AcDbArc
 50
174.8720091169072
 51
253.3984504009771
  0
ARC
  5
D9C9
330
2
100
AcDbEntity
  8
0
100
AcDbCircle
 10
141.903739744374
 20
98.80131838626127
 30
0.0
 40
2.559999999999996
100
AcDbArc
 50
174.872009116904
 51
257.3643749069788
  0
ARC
  5
D9CA
330
2
100
AcDbEntity
  8
0
 48
2.0
100
AcDbCircle
 10
169.1937397443729
 20
130.0533191869027
 30
0.0
 40
0.35
100
AcDbArc
 50
180.0
 51
0.0
  0
LINE
  5
D9CB
330
2
100
AcDbEntity
  8
0
100
AcDbLine
 10
224.1437397443765
 20
126.8033191869024
 30
0.0
 11
172.5437397443763
 21
126.8033191869024
 31
0.0
  0
ARC
  5
D9CC
330
2
100
AcDbEntity
  8
0
100
AcDbCircle
 10
172.5437397443763
 20
123.8033191869024
 30
0.0
 40
3.0
100
AcDbArc
 50
90.0
 51
180.0
  0
LINE
  5
D9CD
330
2
100
AcDbEntity
  8
0
100
AcDbLine
 10
169.5437397443763
 20
123.8033191869024
 30
0.0
 11
169.5437397443761
 21
123.8033191869038
 31
0.0
  0
LINE
  5
D9CE
330
2
100
AcDbEntity
  8
0
100
AcDbLine
 10
169.5437397443761
 20
123.8033191869038
 30
0.0
 11
171.0437397443761
 21
123.8033191869038
 31
0.0
  0
LINE
  5
D9CF
330
2
100
AcDbEntity
  8
0
100
AcDbLine
 10
208.0437397443761
 20
124.2033191869023
 30
0.0
 11
223.0437397443759
 21
124.2033191869023
 31
0.0
  0
LINE
  5
D9D0
330
2
100
AcDbEntity
  8
0
100
AcDbLine
 10
171.0437397443761
 20
123.8033191869038
 30
0.0
 11
171.0437397443761
 21
108.5033191869062
 31
0.0
  0
LINE
  5
D9D1
330
2
100
AcDbEntity
  8
0
100
AcDbLine
 10
168.5437397443761
 20
108.0033191869062
 30
0.0
 11
168.5437397443761
 21
107.5094831605316
 31
0.0
  0
LINE
  5
D9D2
330
2
100
AcDbEntity
  8
0
100
AcDbLine
 10
166.8603682940259
 20
105.5033191869062
 30
0.0
 11
165.0437397443761
 21
105.5033191869062
 31
0.0
  0
LINE
  5
D9D3
330
2
100
AcDbEntity
  8
0
100
AcDbLine
 10
171.0437397443761
 20
108.5033191869062
 30
0.0
 11
169.0437397443761
 21
108.5033191869062
 31
0.0
  0
ARC
  5
D9D4
330
2
100
AcDbEntity
  8
0
100
AcDbCircle
 10
169.0437397443761
 20
108.0033191869062
 30
0.0
 40
0.5
100
AcDbArc
 50
90.0
 51
180.0
  0
LINE
  5
D9D5
330
2
100
AcDbEntity
  8
0
100
AcDbLine
 10
166.8603682940259
 20
105.5033191869062
 30
0.0
 11
168.5437397443761
 21
107.5094831605316
 31
0.0
  0
ARC
  5
D9D6
330
2
100
AcDbEntity
  8
0
100
AcDbCircle
 10
165.0437397443761
 20
105.0033191869062
 30
0.0
 40
0.5
100
AcDbArc
 50
90.0
 51
179.9999999999772
  0
LINE
  5
D9D7
330
2
100
AcDbEntity
  8
0
100
AcDbLine
 10
208.0437397443761
 20
109.8033191869018
 30
0.0
 11
223.0437397443761
 21
109.8033191869024
 31
0.0
  0
LINE
  5
D9D8
330
2
100
AcDbEntity
  8
0
100
AcDbLine
 10
223.0437397443761
 20
109.8033191869024
 30
0.0
 11
223.0437397443761
 21
102.303319186902
 31
0.0
  0
LINE
  5
D9D9
330
2
100
AcDbEntity
  8
0
100
AcDbLine
 10
223.0437397443761
 20
102.303319186902
 30
0.0
 11
224.2437397443762
 21
102.303319186902
 31
0.0
  0
ARC
  5
D9DA
330
2
100
AcDbEntity
  8
0
100
AcDbCircle
 10
224.2437397443764
 20
102.0033191869021
 30
0.0
 40
0.2999999999998692
100
AcDbArc
 50
0.0
 51
90.00000000002605
  0
LINE
  5
D9DB
330
2
100
AcDbEntity
  8
0
100
AcDbLine
 10
224.5437397443761
 20
102.0033191869021
 30
0.0
 11
224.5437397443764
 21
101.5633191869019
 31
0.0
  0
ARC
  5
D9DC
330
2
100
AcDbEntity
  8
0
100
AcDbCircle
 10
224.2756780090158
 20
101.5695442661642
 30
0.0
 40
0.2681340067509704
100
AcDbArc
 50
263.1590819105916
 51
358.6696845294767
  0
ARC
  5
D9DD
330
2
100
AcDbEntity
  8
0
100
AcDbCircle
 10
166.503739744375
 20
103.2633191869021
 30
0.0
 40
1.959999999999999
100
AcDbArc
 50
179.9999999998599
 51
270.0
  0
LINE
  5
D9DE
330
2
100
AcDbEntity
  8
0
100
AcDbLine
 10
224.2437397443766
 20
101.303319186902
 30
0.0
 11
166.503739744375
 21
101.303319186902
 31
0.0
  0
LINE
  5
D9DF
330
2
100
AcDbEntity
  8
0
100
AcDbLine
 10
164.5437397443768
 20
105.0033191869062
 30
0.0
 11
164.5437397443768
 21
103.2633191869021
 31
0.0
  0
LINE
  5
D9E0
330
2
100
AcDbEntity
  8
0
100
AcDbLine
 10
208.0437397443761
 20
109.8033191869025
 30
0.0
 11
208.0437397443761
 21
111.1033191869023
 31
0.0
  0
ARC
  5
D9E1
330
2
100
AcDbEntity
  8
0
100
AcDbCircle
 10
207.643739744376
 20
111.1033191869023
 30
0.0
 40
0.3999999999999915
100
AcDbArc
 50
0.0
 51
180.0
  0
LINE
  5
D9E2
330
2
100
AcDbEntity
  8
0
100
AcDbLine
 10
207.2437397443762
 20
111.1033191869023
 30
0.0
 11
207.2437397443762
 21
109.8033191869025
 31
0.0
  0
LINE
  5
D9E3
330
2
100
AcDbEntity
  8
0
100
AcDbLine
 10
207.2437397443762
 20
124.2033191869023
 30
0.0
 11
207.2437397443759
 21
122.9033191869024
 31
0.0
  0
ARC
  5
D9E4
330
2
100
AcDbEntity
  8
0
100
AcDbCircle
 10
207.643739744376
 20
122.9033191869024
 30
0.0
 40
0.3999999999999915
100
AcDbArc
 50
180.0
 51
0.0
  0
LINE
  5
D9E5
330
2
100
AcDbEntity
  8
0
100
AcDbLine
 10
208.0437397443761
 20
122.9033191869024
 30
0.0
 11
208.0437397443761
 21
124.2033191869023
 31
0.0
  0
LINE
  5
D9E6
330
2
100
AcDbEntity
  8
0
100
AcDbLine
 10
223.0437397443759
 20
124.2033191869023
 30
0.0
 11
223.0437397443761
 21
126.0033191869023
 31
0.0
  0
LINE
  5
D9E7
330
2
100
AcDbEntity
  8
0
100
AcDbLine
 10
223.0437397443761
 20
126.0033191869023
 30
0.0
 11
224.143739744376
 21
126.0033191869023
 31
0.0
  0
ARC
  5
D9E8
330
2
100
AcDbEntity
  8
0
100
AcDbCircle
 10
224.1437397443765
 20
126.4033191869023
 30
0.0
 40
0.4000000000000341
100
AcDbArc
 50
269.9999999999349
 51
90.00000000002605
  0
LINE
  5
D9E9
330
2
100
AcDbEntity
  8
0
100
AcDbLine
 10
207.2437397443762
 20
109.8033191869025
 30
0.0
 11
205.443739744376
 21
109.8033191869025
 31
0.0
  0
LINE
  5
D9EA
330
2
100
AcDbEntity
  8
0
100
AcDbLine
 10
205.443739744376
 20
109.8033191869025
 30
0.0
 11
205.443739744376
 21
124.2033191869023
 31
0.0
  0
LINE
  5
D9EB
330
2
100
AcDbEntity
  8
0
100
AcDbLine
 10
205.443739744376
 20
124.2033191869023
 30
0.0
 11
207.2437397443762
 21
124.2033191869023
 31
0.0
  0
LINE
  5
D9EC
330
2
100
AcDbEntity
  8
0
  6
ByBlock
 62
     0
 48
5.0
100
AcDbLine
 10
162.9437397443771
 20
123.5033191869024
 30
0.0
 11
162.9437397443771
 21
95.31795589094503
 31
0.0
1001
AcDbBlockRepETag
1070
     1
1071
        0
1005
D9EC
  0
LINE
  5
D9ED
330
2
100
AcDbEntity
  8
0
  6
ByBlock
 62
     0
 48
5.0
100
AcDbLine
 10
160.9437397443771
 20
123.5033191869024
 30
0.0
 11
160.9437397443771
 21
95.31795589094503
 31
0.0
1001
AcDbBlockRepETag
1070
     1
1071
        1
1005
D9ED
  0
LINE
  5
D9EE
330
2
100
AcDbEntity
  8
0
  6
ByBlock
 62
     0
 48
5.0
100
AcDbLine
 10
159.3437397443772
 20
94.7995442576485
 30
0.0
 11
159.3437397443772
 21
123.5033191869024
 31
0.0
1001
AcDbBlockRepETag
1070
     1
1071
        2
1005
D9EE
  0
LINE
  5
D9EF
330
2
100
AcDbEntity
  8
0
  6
ByBlock
 62
     0
 48
5.0
100
AcDbLine
 10
164.5437397443771
 20
94.7995442576485
 30
0.0
 11
164.5437397443771
 21
123.5033191869024
 31
0.0
1001
AcDbBlockRepETag
1070
     1
1071
        3
1005
D9EF
  0
ARC
  5
D9F0
330
2
100
AcDbEntity
  8
0
  6
ByBlock
 62
     0
 48
5.0
100
AcDbCircle
 10
161.9437397443771
 20
89.50331918690238
 30
0.0
 40
5.9
100
AcDbArc
 50
116.1471460412647
 51
63.85285395873343
1001
AcDbBlockRepETag
1070
     1
1071
        4
1005
D9F0
  0
ARC
  5
D9F1
330
2
100
AcDbEntity
  8
0
  6
ByBlock
 62
     0
 48
5.0
100
AcDbCircle
 10
161.9437397443771
 20
89.50331918690238
 30
0.0
 40
5.9
100
AcDbArc
 50
80.24174340461851
 51
99.7582565953815
1001
AcDbBlockRepETag
1070
     1
1071
        4
1005
D9F0
  0
LINE
  5
D9F2
330
2
100
AcDbEntity
  8
0
  6
ByBlock
 62
     0
 48
5.0
100
AcDbLine
 10
164.5437397443771
 20
123.5033191869024
 30
0.0
 11
162.9437397443771
 21
123.5033191869024
 31
0.0
1001
AcDbBlockRepETag
1070
     1
1071
        6
1005
D9F2
  0
LINE
  5
D9F3
330
2
100
AcDbEntity
  8
0
  6
ByBlock
 62
     0
 48
5.0
100
AcDbLine
 10
159.3437397443772
 20
123.5033191869024
 30
0.0
 11
160.9437397443771
 21
123.5033191869024
 31
0.0
1001
AcDbBlockRepETag
1070
     1
1071
        7
1005
D9F3
  0
LINE
  5
D9F4
330
2
100
AcDbEntity
  8
0
100
AcDbLine
 10
287.7437397443769
 20
126.8033191869024
 30
0.0
 11
339.343739744377
 21
126.8033191869024
 31
0.0
  0
ARC
  5
D9F5
330
2
100
AcDbEntity
  8
0
100
AcDbCircle
 10
339.343739744377
 20
123.8033191869024
 30
0.0
 40
3.0
100
AcDbArc
 50
0.0
 51
90.0
  0
LINE
  5
D9F6
330
2
100
AcDbEntity
  8
0
100
AcDbLine
 10
342.343739744377
 20
123.8033191869024
 30
0.0
 11
342.3437397443772
 21
123.8033191869038
 31
0.0
  0
LINE
  5
D9F7
330
2
100
AcDbEntity
  8
0
100
AcDbLine
 10
342.3437397443772
 20
123.8033191869038
 30
0.0
 11
340.8437397443772
 21
123.8033191869038
 31
0.0
  0
LINE
  5
D9F8
330
2
100
AcDbEntity
  8
0
100
AcDbLine
 10
303.8437397443772
 20
124.2033191869023
 30
0.0
 11
288.8437397443775
 21
124.2033191869023
 31
0.0
  0
LINE
  5
D9F9
330
2
100
AcDbEntity
  8
0
100
AcDbLine
 10
340.8437397443772
 20
123.8033191869038
 30
0.0
 11
340.8437397443772
 21
108.5033191869062
 31
0.0
  0
LINE
  5
D9FA
330
2
100
AcDbEntity
  8
0
100
AcDbLine
 10
343.3437397443772
 20
108.0033191869062
 30
0.0
 11
343.3437397443772
 21
107.5094831605316
 31
0.0
  0
LINE
  5
D9FB
330
2
100
AcDbEntity
  8
0
100
AcDbLine
 10
345.0271111947275
 20
105.5033191869062
 30
0.0
 11
346.8437397443772
 21
105.5033191869062
 31
0.0
  0
LINE
  5
D9FC
330
2
100
AcDbEntity
  8
0
100
AcDbLine
 10
340.8437397443772
 20
108.5033191869062
 30
0.0
 11
342.8437397443772
 21
108.5033191869062
 31
0.0
  0
ARC
  5
D9FD
330
2
100
AcDbEntity
  8
0
100
AcDbCircle
 10
342.8437397443772
 20
108.0033191869062
 30
0.0
 40
0.5
100
AcDbArc
 50
0.0
 51
90.0
  0
LINE
  5
D9FE
330
2
100
AcDbEntity
  8
0
100
AcDbLine
 10
345.0271111947275
 20
105.5033191869062
 30
0.0
 11
343.3437397443772
 21
107.5094831605316
 31
0.0
  0
ARC
  5
D9FF
330
2
100
AcDbEntity
  8
0
100
AcDbCircle
 10
346.8437397443772
 20
105.0033191869062
 30
0.0
 40
0.5
100
AcDbArc
 50
0.0000000000227982
 51
90.0
  0
LINE
  5
DA00
330
2
100
AcDbEntity
  8
0
100
AcDbLine
 10
303.8437397443772
 20
109.8033191869018
 30
0.0
 11
288.8437397443772
 21
109.8033191869024
 31
0.0
  0
LINE
  5
DA01
330
2
100
AcDbEntity
  8
0
100
AcDbLine
 10
288.8437397443772
 20
109.8033191869024
 30
0.0
 11
288.8437397443772
 21
102.303319186902
 31
0.0
  0
LINE
  5
DA02
330
2
100
AcDbEntity
  8
0
100
AcDbLine
 10
288.8437397443772
 20
102.303319186902
 30
0.0
 11
287.6437397443772
 21
102.303319186902
 31
0.0
  0
ARC
  5
DA03
330
2
100
AcDbEntity
  8
0
100
AcDbCircle
 10
287.6437397443769
 20
102.0033191869021
 30
0.0
 40
0.2999999999998692
100
AcDbArc
 50
89.99999999997395
 51
180.0
  0
LINE
  5
DA04
330
2
100
AcDbEntity
  8
0
100
AcDbLine
 10
287.3437397443772
 20
102.0033191869021
 30
0.0
 11
287.343739744377
 21
101.5633191869019
 31
0.0
  0
ARC
  5
DA05
330
2
100
AcDbEntity
  8
0
100
AcDbCircle
 10
287.6118014797376
 20
101.5695442661642
 30
0.0
 40
0.2681340067509704
100
AcDbArc
 50
181.3303154705232
 51
276.8409180894084
  0
ARC
  5
DA06
330
2
100
AcDbEntity
  8
0
100
AcDbCircle
 10
345.3837397443783
 20
103.2633191869021
 30
0.0
 40
1.959999999999999
100
AcDbArc
 50
270.0
 51
0.0000000001400462
  0
LINE
  5
DA07
330
2
100
AcDbEntity
  8
0
100
AcDbLine
 10
287.6437397443768
 20
101.303319186902
 30
0.0
 11
345.3837397443783
 21
101.303319186902
 31
0.0
  0
LINE
  5
DA08
330
2
100
AcDbEntity
  8
0
100
AcDbLine
 10
347.3437397443766
 20
105.0033191869062
 30
0.0
 11
347.3437397443766
 21
103.2633191869021
 31
0.0
  0
LINE
  5
DA09
330
2
100
AcDbEntity
  8
0
100
AcDbLine
 10
303.8437397443772
 20
109.8033191869025
 30
0.0
 11
303.8437397443772
 21
111.1033191869023
 31
0.0
  0
ARC
  5
DA0A
330
2
100
AcDbEntity
  8
0
100
AcDbCircle
 10
304.2437397443773
 20
111.1033191869023
 30
0.0
 40
0.3999999999999915
100
AcDbArc
 50
0.0
 51
180.0
  0
LINE
  5
DA0B
330
2
100
AcDbEntity
  8
0
100
AcDbLine
 10
304.6437397443772
 20
111.1033191869023
 30
0.0
 11
304.6437397443772
 21
109.8033191869025
 31
0.0
  0
LINE
  5
DA0C
330
2
100
AcDbEntity
  8
0
100
AcDbLine
 10
304.6437397443772
 20
124.2033191869023
 30
0.0
 11
304.6437397443774
 21
122.9033191869024
 31
0.0
  0
ARC
  5
DA0D
330
2
100
AcDbEntity
  8
0
100
AcDbCircle
 10
304.2437397443773
 20
122.9033191869024
 30
0.0
 40
0.3999999999999915
100
AcDbArc
 50
180.0
 51
0.0
  0
LINE
  5
DA0E
330
2
100
AcDbEntity
  8
0
100
AcDbLine
 10
303.8437397443772
 20
122.9033191869024
 30
0.0
 11
303.8437397443772
 21
124.2033191869023
 31
0.0
  0
LINE
  5
DA0F
330
2
100
AcDbEntity
  8
0
100
AcDbLine
 10
288.8437397443775
 20
124.2033191869023
 30
0.0
 11
288.8437397443772
 21
126.0033191869023
 31
0.0
  0
LINE
  5
DA10
330
2
100
AcDbEntity
  8
0
100
AcDbLine
 10
288.8437397443772
 20
126.0033191869023
 30
0.0
 11
287.7437397443773
 21
126.0033191869023
 31
0.0
  0
ARC
  5
DA11
330
2
100
AcDbEntity
  8
0
100
AcDbCircle
 10
287.7437397443769
 20
126.4033191869023
 30
0.0
 40
0.4000000000000341
100
AcDbArc
 50
89.99999999997395
 51
270.0000000000652
  0
LINE
  5
DA12
330
2
100
AcDbEntity
  8
0
100
AcDbLine
 10
304.6437397443772
 20
109.8033191869025
 30
0.0
 11
306.4437397443774
 21
109.8033191869025
 31
0.0
  0
LINE
  5
DA13
330
2
100
AcDbEntity
  8
0
100
AcDbLine
 10
306.4437397443774
 20
109.8033191869025
 30
0.0
 11
306.4437397443774
 21
124.2033191869023
 31
0.0
  0
LINE
  5
DA14
330
2
100
AcDbEntity
  8
0
100
AcDbLine
 10
306.4437397443774
 20
124.2033191869023
 30
0.0
 11
304.6437397443772
 21
124.2033191869023
 31
0.0
  0
LINE
  5
DA15
330
2
100
AcDbEntity
  8
0
100
AcDbLine
 10
309.3431535057762
 20
139.3033191869027
 30
0.0
 11
328.3431535057776
 21
139.3033191869025
 31
0.0
1001
AcDbBlockRepETag
1070
     1
1071
        0
1005
DA15
  0
LINE
  5
DA16
330
2
100
AcDbEntity
  8
0
100
AcDbLine
 10
310.3431535057769
 20
130.8033191869032
 30
0.0
 11
327.3431535057762
 21
130.803319186902
 31
0.0
1001
AcDbBlockRepETag
1070
     1
1071
        3
1005
DA16
  0
LINE
  5
DA17
330
2
100
AcDbEntity
  8
0
100
AcDbLine
 10
309.3431535057783
 20
126.8033191869023
 30
0.0
 11
328.3431535057762
 21
126.8033191869031
 31
0.0
1001
AcDbBlockRepETag
1070
     1
1071
        4
1005
DA17
  0
LINE
  5
DA18
330
2
100
AcDbEntity
  8
0
100
AcDbLine
 10
309.3431535057783
 20
126.8033191869023
 30
0.0
 11
309.3431535057762
 21
139.3033191869027
 31
0.0
1001
AcDbBlockRepETag
1070
     1
1071
        5
1005
DA18
  0
ARC
  5
DA19
330
2
100
AcDbEntity
  8
0
100
AcDbCircle
 10
310.3431535057775
 20
129.8033191869029
 30
0.0
 40
0.9999999999999971
100
AcDbArc
 50
89.99999931676352
 51
180.0000086514279
1001
AcDbBlockRepETag
1070
     1
1071
        6
1005
DA19
  0
LINE
  5
DA1A
330
2
100
AcDbEntity
  8
0
100
AcDbLine
 10
328.3431535057762
 20
126.8033191869031
 30
0.0
 11
328.3431535057776
 21
139.3033191869025
 31
0.0
1001
AcDbBlockRepETag
1070
     1
1071
        7
1005
DA1A
  0
ARC
  5
DA1B
330
2
100
AcDbEntity
  8
0
100
AcDbCircle
 10
327.3431535057769
 20
129.8033191869026
 30
0.0
 40
1.000000000000001
100
AcDbArc
 50
359.9999913485981
 51
90.00000250444918
1001
AcDbBlockRepETag
1070
     1
1071
        8
1005
DA1B
  0
ARC
  5
DA1C
330
2
100
AcDbEntity
  8
0
100
AcDbCircle
 10
327.3431535057771
 20
146.1420948216683
 30
0.0
 40
1.000000000000001
100
AcDbArc
 50
0.0000086514279086
 51
66.94868096139884
1001
AcDbBlockRepETag
1070
     1
1071
        9
1005
DA1C
  0
LINE
  5
DA1D
330
2
100
AcDbEntity
  8
0
100
AcDbLine
 10
328.3431535057762
 20
126.8033191869031
 30
0.0
 11
328.3431535057762
 21
146.142094821669
 31
0.0
1001
AcDbBlockRepETag
1070
     1
1071
       10
1005
DA1D
  0
LINE
  5
DA1E
330
2
100
AcDbEntity
  8
0
100
AcDbLine
 10
309.3431687645664
 20
139.3033497044805
 30
0.0
 11
295.147177248455
 21
156.436436862683
 31
0.0
1001
AcDbBlockRepETag
1070
     1
1071
       11
1005
DA1E
  0
LINE
  5
DA1F
330
2
100
AcDbEntity
  8
0
100
AcDbLine
 10
304.8431458763849
 20
156.8033497044809
 30
0.0
 11
327.7346864037247
 21
147.0622913548719
 31
0.0
1001
AcDbBlockRepETag
1070
     1
1071
       12
1005
DA1F
  0
ARC
  5
DA20
330
2
100
AcDbEntity
  8
ALH
 48
0.5
100
AcDbCircle
 10
296.0629334740372
 20
157.8033191869034
 30
0.0
 40
1.000000000000001
100
AcDbArc
 50
168.6900623293337
 51
270.0000043257074
1001
AcDbBlockRepETag
1070
     1
1071
       13
1005
DA20
  0
ARC
  5
DA21
330
2
100
AcDbEntity
  8
0
100
AcDbCircle
 10
295.9171815209155
 20
157.0744373509652
 30
0.0
 40
0.9999999999999936
100
AcDbArc
 50
168.6900623293337
 51
219.6441751225592
1001
AcDbBlockRepETag
1070
     1
1071
       14
1005
DA21
  0
LINE
  5
DA22
330
2
100
AcDbEntity
  8
ALH
100
AcDbLine
 10
303.6232972435705
 20
156.8033191869029
 30
0.0
 11
296.0629334740397
 21
156.8033191869021
 31
0.0
1001
AcDbBlockRepETag
1070
     1
1071
       15
1005
DA22
  0
ARC
  5
DA23
330
2
100
AcDbEntity
  8
ALH
 48
0.5
100
AcDbCircle
 10
303.6232972435707
 20
157.8033191869023
 30
0.0
 40
0.9999999999999948
100
AcDbArc
 50
270.0000043257074
 51
11.30993778434459
1001
AcDbBlockRepETag
1070
     1
1071
       16
1005
DA23
  0
LINE
  5
DA24
330
2
100
AcDbEntity
  8
0
100
AcDbLine
 10
297.6823640160294
 20
170.9994861790903
 30
0.0
 11
294.9365907006026
 21
157.2706043431522
 31
0.0
1001
AcDbBlockRepETag
1070
     1
1071
       17
1005
DA24
  0
LINE
  5
DA25
330
2
100
AcDbEntity
  8
0
100
AcDbLine
 10
304.843145876382
 20
156.8033191869027
 30
0.0
 11
302.0039277367346
 21
170.9994251439337
 31
0.0
1001
AcDbBlockRepETag
1070
     1
1071
       18
1005
DA25
  0
ARC
  5
DA26
330
2
100
AcDbEntity
  8
0
100
AcDbCircle
 10
298.6629090599773
 20
170.8033497044808
 30
0.0
 40
0.9999999999999996
100
AcDbArc
 50
89.9999956742665
 51
168.690072347235
1001
AcDbBlockRepETag
1070
     1
1071
       19
1005
DA26
  0
ARC
  5
DA27
330
2
100
AcDbEntity
  8
0
100
AcDbCircle
 10
301.0233216576324
 20
170.8033497044799
 30
0.0
 40
1.000000000000001
100
AcDbArc
 50
11.30992753907932
 51
89.9999956742665
1001
AcDbBlockRepETag
1070
     1
1071
       20
1005
DA27
  0
LINE
  5
DA28
330
2
100
AcDbEntity
  8
0
100
AcDbLine
 10
301.0233216576342
 20
171.8033497044802
 30
0.0
 11
298.6629090599748
 21
171.8033497044806
 31
0.0
1001
AcDbBlockRepETag
1070
     1
1071
       21
1005
DA28
  0
LINE
  5
DA29
330
2
100
AcDbEntity
  8
0
100
AcDbLine
 10
309.3431535057762
 20
88.80331918690208
 30
0.0
 11
328.3431535057776
 21
88.80331918690231
 31
0.0
1001
AcDbBlockRepETag
1070
     1
1071
        0
1005
DA29
  0
LINE
  5
DA2A
330
2
100
AcDbEntity
  8
0
100
AcDbLine
 10
310.3431535057769
 20
97.30331918690158
 30
0.0
 11
327.3431535057762
 21
97.30331918690277
 31
0.0
1001
AcDbBlockRepETag
1070
     1
1071
        3
1005
DA2A
  0
LINE
  5
DA2B
330
2
100
AcDbEntity
  8
0
100
AcDbLine
 10
309.3431535057783
 20
101.3033191869024
 30
0.0
 11
328.3431535057762
 21
101.3033191869017
 31
0.0
1001
AcDbBlockRepETag
1070
     1
1071
        4
1005
DA2B
  0
LINE
  5
DA2C
330
2
100
AcDbEntity
  8
0
100
AcDbLine
 10
309.3431535057783
 20
101.3033191869024
 30
0.0
 11
309.3431535057762
 21
88.80331918690208
 31
0.0
1001
AcDbBlockRepETag
1070
     1
1071
        5
1005
DA2C
  0
ARC
  5
DA2D
330
2
100
AcDbEntity
  8
0
100
AcDbCircle
 10
310.3431535057775
 20
98.30331918690191
 30
0.0
 40
0.9999999999999971
100
AcDbArc
 50
179.999991348572
 51
270.0000006832365
1001
AcDbBlockRepETag
1070
     1
1071
        6
1005
DA2D
  0
LINE
  5
DA2E
330
2
100
AcDbEntity
  8
0
100
AcDbLine
 10
328.3431535057762
 20
101.3033191869017
 30
0.0
 11
328.3431535057776
 21
88.80331918690231
 31
0.0
1001
AcDbBlockRepETag
1070
     1
1071
        7
1005
DA2E
  0
ARC
  5
DA2F
330
2
100
AcDbEntity
  8
0
100
AcDbCircle
 10
327.3431535057769
 20
98.30331918690214
 30
0.0
 40
1.000000000000001
100
AcDbArc
 50
269.9999974955508
 51
0.0000086514018535
1001
AcDbBlockRepETag
1070
     1
1071
        8
1005
DA2F
  0
ARC
  5
DA30
330
2
100
AcDbEntity
  8
0
100
AcDbCircle
 10
327.3431535057771
 20
81.96454355213646
 30
0.0
 40
1.000000000000001
100
AcDbArc
 50
293.0513190386012
 51
359.9999913485721
1001
AcDbBlockRepETag
1070
     1
1071
        9
1005
DA30
  0
LINE
  5
DA31
330
2
100
AcDbEntity
  8
0
100
AcDbLine
 10
328.3431535057762
 20
101.3033191869017
 30
0.0
 11
328.3431535057762
 21
81.96454355213578
 31
0.0
1001
AcDbBlockRepETag
1070
     1
1071
       10
1005
DA31
  0
LINE
  5
DA32
330
2
100
AcDbEntity
  8
0
100
AcDbLine
 10
309.3431687645664
 20
88.8032886693243
 30
0.0
 11
295.147177248455
 21
71.67020151112175
 31
0.0
1001
AcDbBlockRepETag
1070
     1
1071
       11
1005
DA32
  0
LINE
  5
DA33
330
2
100
AcDbEntity
  8
0
100
AcDbLine
 10
304.8431458763849
 20
71.30328866932384
 30
0.0
 11
327.7346864037247
 21
81.04434701893282
 31
0.0
1001
AcDbBlockRepETag
1070
     1
1071
       12
1005
DA33
  0
ARC
  5
DA34
330
2
100
AcDbEntity
  8
ALH
 48
0.5
100
AcDbCircle
 10
296.0629334740372
 20
70.30331918690134
 30
0.0
 40
1.000000000000001
100
AcDbArc
 50
89.99999567429256
 51
191.3099376706663
1001
AcDbBlockRepETag
1070
     1
1071
       13
1005
DA34
  0
ARC
  5
DA35
330
2
100
AcDbEntity
  8
0
100
AcDbCircle
 10
295.9171815209155
 20
71.03220102283953
 30
0.0
 40
0.9999999999999936
100
AcDbArc
 50
140.3558248774408
 51
191.3099376706663
1001
AcDbBlockRepETag
1070
     1
1071
       14
1005
DA35
  0
LINE
  5
DA36
330
2
100
AcDbEntity
  8
ALH
100
AcDbLine
 10
303.6232972435705
 20
71.30331918690192
 30
0.0
 11
296.0629334740397
 21
71.30331918690266
 31
0.0
1001
AcDbBlockRepETag
1070
     1
1071
       15
1005
DA36
  0
ARC
  5
DA37
330
2
100
AcDbEntity
  8
ALH
 48
0.5
100
AcDbCircle
 10
303.6232972435707
 20
70.30331918690248
 30
0.0
 40
0.9999999999999948
100
AcDbArc
 50
348.6900622156554
 51
89.99999567429256
1001
AcDbBlockRepETag
1070
     1
1071
       16
1005
DA37
  0
LINE
  5
DA38
330
2
100
AcDbEntity
  8
0
100
AcDbLine
 10
297.6823640160294
 20
57.10715219471447
 30
0.0
 11
294.9365907006026
 21
70.83603403065254
 31
0.0
1001
AcDbBlockRepETag
1070
     1
1071
       17
1005
DA38
  0
LINE
  5
DA39
330
2
100
AcDbEntity
  8
0
100
AcDbLine
 10
304.843145876382
 20
71.30331918690209
 30
0.0
 11
302.0039277367346
 21
57.10721322987106
 31
0.0
1001
AcDbBlockRepETag
1070
     1
1071
       18
1005
DA39
  0
ARC
  5
DA3A
330
2
100
AcDbEntity
  8
0
100
AcDbCircle
 10
298.6629090599773
 20
57.30328866932402
 30
0.0
 40
0.9999999999999996
100
AcDbArc
 50
191.3099276527649
 51
270.0000043257335
1001
AcDbBlockRepETag
1070
     1
1071
       19
1005
DA3A
  0
ARC
  5
DA3B
330
2
100
AcDbEntity
  8
0
100
AcDbCircle
 10
301.0233216576324
 20
57.30328866932487
 30
0.0
 40
1.000000000000001
100
AcDbArc
 50
270.0000043257335
 51
348.6900724609207
1001
AcDbBlockRepETag
1070
     1
1071
       20
1005
DA3B
  0
LINE
  5
DA3C
330
2
100
AcDbEntity
  8
0
100
AcDbLine
 10
301.0233216576342
 20
56.30328866932453
 30
0.0
 11
298.6629090599748
 21
56.30328866932419
 31
0.0
1001
AcDbBlockRepETag
1070
     1
1071
       21
1005
DA3C
  0
LINE
  5
DA3D
330
2
100
AcDbEntity
  8
0
100
AcDbLine
 10
335.8437397443804
 20
143.3033191869029
 30
0.0
 11
353.3437397443777
 21
143.3033191869031
 31
0.0
  0
LINE
  5
DA3E
330
2
100
AcDbEntity
  8
0
100
AcDbLine
 10
367.8437397443806
 20
141.3033191869023
 30
0.0
 11
365.5128109797278
 21
141.0045364997967
 31
0.0
  0
LINE
  5
DA3F
330
2
100
AcDbEntity
  8
0
100
AcDbLine
 10
367.8437397443806
 20
141.9033191869022
 30
0.0
 11
365.456907513374
 21
141.2987268440565
 31
0.0
  0
ARC
  5
DA40
330
2
100
AcDbEntity
  8
0
100
AcDbCircle
 10
365.4937397443806
 20
141.1533191869023
 30
0.0
 40
0.15
100
AcDbArc
 50
104.2142333460408
 51
277.3044455606132
  0
LINE
  5
DA41
330
2
100
AcDbEntity
  8
0
100
AcDbLine
 10
368.8437397443804
 20
146.3033191869023
 30
0.0
 11
369.3437397443804
 21
146.3033191869023
 31
0.0
  0
LINE
  5
DA42
330
2
100
AcDbEntity
  8
0
100
AcDbLine
 10
335.8437397443803
 20
143.3033191869029
 30
0.0
 11
335.8437397443803
 21
136.6033191869027
 31
0.0
  0
LINE
  5
DA43
330
2
100
AcDbEntity
  8
0
100
AcDbLine
 10
335.8437397443803
 20
136.6033191869027
 30
0.0
 11
341.8437397443803
 21
136.6033191869024
 31
0.0
  0
ARC
  5
DA44
330
2
100
AcDbEntity
  8
0
100
AcDbCircle
 10
341.8437397443803
 20
136.1033191869024
 30
0.0
 40
0.5
100
AcDbArc
 50
0.0
 51
90.0
  0
LINE
  5
DA45
330
2
100
AcDbEntity
  8
0
100
AcDbLine
 10
342.3437397443803
 20
136.1033191869024
 30
0.0
 11
342.3437397443803
 21
132.3033191869024
 31
0.0
  0
ARC
  5
DA46
330
2
100
AcDbEntity
  8
0
100
AcDbCircle
 10
341.8437397443803
 20
132.3033191869024
 30
0.0
 40
0.5
100
AcDbArc
 50
270.0
 51
0.0
  0
ARC
  5
DA47
330
2
100
AcDbEntity
  8
0
100
AcDbCircle
 10
333.8437397443803
 20
145.8033191869024
 30
0.0
 40
0.5
100
AcDbArc
 50
90.0
 51
180.0
  0
LINE
  5
DA48
330
2
100
AcDbEntity
  8
0
100
AcDbLine
 10
333.8437397443803
 20
146.3033191869024
 30
0.0
 11
369.3437397443804
 21
146.3033191869023
 31
0.0
  0
LINE
  5
DA49
330
2
100
AcDbEntity
  8
0
100
AcDbLine
 10
369.3437397443803
 20
145.6836170886428
 30
0.0
 11
369.3437397443804
 21
142.8033191869022
 31
0.0
  0
LINE
  5
DA4A
330
2
100
AcDbEntity
  8
0
100
AcDbLine
 10
369.8437397443804
 20
142.3033191869023
 30
0.0
 11
370.3437397443804
 21
142.3033191869023
 31
0.0
  0
LINE
  5
DA4B
330
2
100
AcDbEntity
  8
0
100
AcDbLine
 10
370.3437397443804
 20
142.3033191869023
 30
0.0
 11
370.3437397443804
 21
141.8033191869023
 31
0.0
  0
LINE
  5
DA4C
330
2
100
AcDbEntity
  8
0
100
AcDbLine
 10
369.8437397443804
 20
141.3033191869023
 30
0.0
 11
367.8437397443806
 21
141.3033191869023
 31
0.0
  0
LINE
  5
DA4D
330
2
100
AcDbEntity
  8
0
100
AcDbLine
 10
367.8437397443806
 20
141.9033191869022
 30
0.0
 11
367.8437397443806
 21
144.7033191869023
 31
0.0
  0
LINE
  5
DA4E
330
2
100
AcDbEntity
  8
0
100
AcDbLine
 10
367.8437397443806
 20
144.7033191869023
 30
0.0
 11
354.9437397443777
 21
144.7033191869024
 31
0.0
  0
LINE
  5
DA4F
330
2
100
AcDbEntity
  8
0
100
AcDbLine
 10
370.3437397443804
 20
101.3033191869024
 30
0.0
 11
370.3437397443804
 21
100.3033191869024
 31
0.0
  0
LINE
  5
DA50
330
2
100
AcDbEntity
  8
0
100
AcDbLine
 10
370.3437397443804
 20
100.3033191869024
 30
0.0
 11
369.8437397443804
 21
100.3033191869024
 31
0.0
  0
ARC
  5
DA51
330
2
100
AcDbEntity
  8
0
100
AcDbCircle
 10
369.8437397443804
 20
99.80331918690241
 30
0.0
 40
0.5
100
AcDbArc
 50
90.0
 51
180.0
  0
LINE
  5
DA52
330
2
100
AcDbEntity
  8
0
100
AcDbLine
 10
369.3437397443791
 20
99.80331918690199
 30
0.0
 11
369.3437397443804
 21
96.92302128516185
 31
0.0
  0
LINE
  5
DA53
330
2
100
AcDbEntity
  8
0
100
AcDbLine
 10
369.3437397443824
 20
140.3040670918552
 30
0.0
 11
369.3437397443824
 21
140.3033191869022
 31
0.0
  0
LINE
  5
DA54
330
2
100
AcDbEntity
  8
0
100
AcDbLine
 10
369.3437397443824
 20
140.3033191869022
 30
0.0
 11
366.3437397443825
 21
141.3033191869022
 31
0.0
  0
LINE
  5
DA55
330
2
100
AcDbEntity
  8
0
100
AcDbLine
 10
366.3437397443825
 20
141.3033191869022
 30
0.0
 11
356.3126641228057
 21
140.4234002727284
 31
0.0
  0
LINE
  5
DA56
330
2
100
AcDbEntity
  8
0
100
AcDbLine
 10
370.3437397443804
 20
101.3033191869014
 30
0.0
 11
360.7437397443807
 21
101.3033191869014
 31
0.0
  0
LINE
  5
DA57
330
2
100
AcDbEntity
  8
0
100
AcDbLine
 10
360.7437397443807
 20
101.3033191869014
 30
0.0
 11
360.7437397443807
 21
104.103319186901
 31
0.0
  0
LINE
  5
DA58
330
2
100
AcDbEntity
  8
0
100
AcDbLine
 10
360.7437397443807
 20
104.103319186901
 30
0.0
 11
369.8437397443845
 21
104.103319186901
 31
0.0
  0
ARC
  5
DA59
330
2
100
AcDbEntity
  8
0
100
AcDbCircle
 10
369.8437397443845
 20
104.603319186901
 30
0.0
 40
0.4999999999999716
100
AcDbArc
 50
269.9999999999935
 51
0.0000000000065138
  0
LINE
  5
DA5A
330
2
100
AcDbEntity
  8
0
100
AcDbLine
 10
370.3437397443845
 20
104.6033191869011
 30
0.0
 11
370.3437397443843
 21
106.603319186901
 31
0.0
  0
LINE
  5
DA5B
330
2
100
AcDbEntity
  8
0
100
AcDbLine
 10
370.3437397443843
 20
106.603319186901
 30
0.0
 11
369.8437397443845
 21
106.603319186901
 31
0.0
  0
ARC
  5
DA5C
330
2
100
AcDbEntity
  8
0
100
AcDbCircle
 10
369.8437397443845
 20
106.1033191869011
 30
0.0
 40
0.5
100
AcDbArc
 50
90.0
 51
180.0
  0
LINE
  5
DA5D
330
2
100
AcDbEntity
  8
0
100
AcDbLine
 10
369.3437397443845
 20
106.1033191869011
 30
0.0
 11
369.3437397443845
 21
105.603319186901
 31
0.0
  0
LINE
  5
DA5E
330
2
100
AcDbEntity
  8
0
100
AcDbLine
 10
369.3437397443845
 20
105.603319186901
 30
0.0
 11
359.2437397443807
 21
105.603319186901
 31
0.0
  0
LINE
  5
DA5F
330
2
100
AcDbEntity
  8
0
100
AcDbLine
 10
359.2437397443807
 20
105.603319186901
 30
0.0
 11
359.2437397443807
 21
101.3033191869029
 31
0.0
  0
LINE
  5
DA60
330
2
100
AcDbEntity
  8
0
100
AcDbLine
 10
359.2437397443807
 20
101.3033191869029
 30
0.0
 11
356.443739744381
 21
101.3033191869029
 31
0.0
  0
LINE
  5
DA61
330
2
100
AcDbEntity
  8
0
100
AcDbLine
 10
356.443739744381
 20
101.3033191869029
 30
0.0
 11
356.4437397443794
 21
129.4033191869021
 31
0.0
  0
LINE
  5
DA62
330
2
100
AcDbEntity
  8
0
100
AcDbLine
 10
356.4437397443794
 20
129.4033191869021
 30
0.0
 11
359.2437397443807
 21
129.4033191869021
 31
0.0
  0
LINE
  5
DA63
330
2
100
AcDbEntity
  8
0
100
AcDbLine
 10
359.2437397443807
 20
129.4033191869021
 30
0.0
 11
359.2437397443807
 21
125.0033191869021
 31
0.0
  0
LINE
  5
DA64
330
2
100
AcDbEntity
  8
0
100
AcDbLine
 10
359.2437397443807
 20
125.0033191869021
 30
0.0
 11
369.8437397443825
 21
125.0033191869021
 31
0.0
  0
ARC
  5
DA65
330
2
100
AcDbEntity
  8
0
100
AcDbCircle
 10
369.8437397443825
 20
125.5033191869021
 30
0.0
 40
0.5000000000000142
100
AcDbArc
 50
270.0
 51
0.0000000000016284
  0
LINE
  5
DA66
330
2
100
AcDbEntity
  8
0
100
AcDbLine
 10
370.3437397443825
 20
125.5033191869021
 30
0.0
 11
370.3437397443822
 21
127.5033191869021
 31
0.0
  0
LINE
  5
DA67
330
2
100
AcDbEntity
  8
0
100
AcDbLine
 10
370.3437397443822
 20
127.5033191869021
 30
0.0
 11
369.8437397443825
 21
127.5033191869021
 31
0.0
  0
ARC
  5
DA68
330
2
100
AcDbEntity
  8
0
100
AcDbCircle
 10
369.8437397443825
 20
127.0033191869021
 30
0.0
 40
0.5
100
AcDbArc
 50
90.0
 51
180.0
  0
LINE
  5
DA69
330
2
100
AcDbEntity
  8
0
100
AcDbLine
 10
369.3437397443824
 20
127.0033191869021
 30
0.0
 11
369.3437397443824
 21
126.5033191869021
 31
0.0
  0
LINE
  5
DA6A
330
2
100
AcDbEntity
  8
0
100
AcDbLine
 10
369.3437397443824
 20
126.5033191869021
 30
0.0
 11
360.7437397443807
 21
126.5033191869021
 31
0.0
  0
LINE
  5
DA6B
330
2
100
AcDbEntity
  8
0
100
AcDbLine
 10
360.7437397443807
 20
126.5033191869021
 30
0.0
 11
360.7437397443809
 21
130.4033191869021
 31
0.0
  0
ARC
  5
DA6C
330
2
100
AcDbEntity
  8
0
100
AcDbCircle
 10
360.2437397443809
 20
130.4033191869021
 30
0.0
 40
0.5
100
AcDbArc
 50
0.0
 51
90.0
  0
LINE
  5
DA6D
330
2
100
AcDbEntity
  8
0
100
AcDbLine
 10
360.2437397443809
 20
130.9033191869021
 30
0.0
 11
356.4437397443805
 21
130.9033191869021
 31
0.0
  0
LINE
  5
DA6E
330
2
100
AcDbEntity
  8
0
100
AcDbLine
 10
356.4437397443782
 20
130.9033191869021
 30
0.0
 11
356.4437397443779
 21
138.9291381868046
 31
0.0
  0
LINE
  5
DA6F
330
2
100
AcDbEntity
  8
0
100
AcDbLine
 10
356.4437397443779
 20
138.9291381868046
 30
0.0
 11
366.1647148981625
 21
139.781855305558
 31
0.0
  0
LINE
  5
DA70
330
2
100
AcDbEntity
  8
0
100
AcDbLine
 10
366.1647148981625
 20
139.781855305558
 30
0.0
 11
369.6856258613739
 21
138.6082183178209
 31
0.0
  0
LINE
  5
DA71
330
2
100
AcDbEntity
  8
0
100
AcDbLine
 10
370.3437397443822
 20
139.0825599668461
 30
0.0
 11
370.3437397443825
 21
140.8033191869022
 31
0.0
  0
LINE
  5
DA72
330
2
100
AcDbEntity
  8
0
100
AcDbLine
 10
370.3437397443825
 20
140.8033191869022
 30
0.0
 11
369.8437397443825
 21
140.8033191869023
 31
0.0
  0
LINE
  5
DA73
330
2
100
AcDbEntity
  8
0
100
AcDbLine
 10
369.3437397443823
 20
140.3033191869023
 30
0.0
 11
369.3437397443824
 21
140.3033191869022
 31
0.0
  0
LINE
  5
DA74
330
2
100
AcDbEntity
  8
0
100
AcDbLine
 10
368.8437397443804
 20
146.3033191869019
 30
0.0
 11
369.3437397443804
 21
146.3033191869019
 31
0.0
  0
LINE
  5
DA75
330
2
100
AcDbEntity
  8
0
100
AcDbLine
 10
369.3437397443824
 20
140.3040670918548
 30
0.0
 11
369.3437397443824
 21
140.3033191869018
 31
0.0
  0
ARC
  5
DA76
330
2
100
AcDbEntity
  8
0
100
AcDbCircle
 10
356.4437397443779
 20
138.9291381868045
 30
0.0
 40
1.500000000000009
100
AcDbArc
 50
95.01311375503631
 51
179.9999999999967
  0
LINE
  5
DA77
330
2
100
AcDbEntity
  8
0
100
AcDbLine
 10
354.9437397443782
 20
144.7033191869024
 30
0.0
 11
354.9437397443779
 21
138.9291381868045
 31
0.0
  0
ARC
  5
DA78
330
2
100
AcDbEntity
  8
0
100
AcDbCircle
 10
369.8437397443822
 20
139.0825599668457
 30
0.0
 40
0.4999999999999673
100
AcDbArc
 50
251.565051177079
 51
359.9999999999919
  0
ARC
  5
DA79
330
2
100
AcDbEntity
  8
0
100
AcDbCircle
 10
369.8437397443822
 20
140.3033191869019
 30
0.0
 40
0.5000000000000142
100
AcDbArc
 50
89.99999999998046
 51
179.9999999999967
  0
LINE
  5
DA7A
330
2
100
AcDbEntity
  8
0
100
AcDbLine
 10
369.3437397443822
 20
140.3033191869019
 30
0.0
 11
369.3437397443824
 21
140.3033191869018
 31
0.0
  0
ARC
  5
DA7B
330
2
100
AcDbEntity
  8
0
100
AcDbCircle
 10
369.8437397443803
 20
142.8033191869019
 30
0.0
 40
0.5
100
AcDbArc
 50
179.9999999999984
 51
269.9999999999935
  0
ARC
  5
DA7C
330
2
100
AcDbEntity
  8
0
100
AcDbCircle
 10
369.8437397443802
 20
141.8033191869018
 30
0.0
 40
0.5
100
AcDbArc
 50
269.9999999999935
 51
359.9999999999968
  0
LINE
  5
DA7D
330
2
100
AcDbEntity
  8
0
100
AcDbLine
 10
353.3437397443781
 20
96.80331918690246
 30
0.0
 11
353.3437397443777
 21
143.3033191869032
 31
0.0
  0
LINE
  5
DA7E
330
2
100
AcDbEntity
  8
0
100
AcDbLine
 10
369.3437397443795
 20
96.30331918690202
 30
0.0
 11
353.843739744377
 21
96.30331918690245
 31
0.0
  0
ARC
  5
DA7F
330
2
100
AcDbEntity
  8
0
100
AcDbCircle
 10
353.843739744377
 20
96.80331918690246
 30
0.0
 40
0.5
100
AcDbArc
 50
179.9999999999984
 51
269.9999999999935
  0
LINE
  5
DA80
330
2
100
AcDbEntity
  8
0
 48
2.0
100
AcDbLine
 10
333.34373974438
 20
128.1371779086734
 30
0.0
 11
333.34373974438
 21
145.8033191869024
 31
0.0
  0
ARC
  5
DA81
330
2
100
AcDbEntity
  8
0
 48
2.0
100
AcDbCircle
 10
335.34373974438
 20
128.1371779086734
 30
0.0
 40
2.0
100
AcDbArc
 50
180.0
 51
247.4009727453426
  0
LINE
  5
DA82
330
2
100
AcDbEntity
  8
0
 48
2.0
100
AcDbLine
 10
340.4865576818518
 20
123.8301933274142
 30
0.0
 11
334.5751804469753
 21
126.2907444258821
 31
0.0
  0
ARC
  5
DA83
330
2
100
AcDbEntity
  8
0
 48
2.0
100
AcDbCircle
 10
340.6210555588976
 20
124.1533191869027
 30
0.0
 40
0.3500000000000013
100
AcDbArc
 50
247.4009727453426
 51
67.40097274534267
  0
LINE
  5
DA84
330
2
100
AcDbEntity
  8
0
 48
2.0
100
AcDbLine
 10
334.8441762010671
 20
126.9369961448591
 30
0.0
 11
340.7555534359434
 21
124.4764450463911
 31
0.0
  0
ARC
  5
DA85
330
2
100
AcDbEntity
  8
0
 48
2.0
100
AcDbCircle
 10
335.34373974438
 20
128.1371779086734
 30
0.0
 40
1.299999999999997
100
AcDbArc
 50
180.0
 51
247.4009727453426
  0
LINE
  5
DA86
330
2
100
AcDbEntity
  8
0
 48
2.0
100
AcDbLine
 10
334.04373974438
 20
129.7033191869027
 30
0.0
 11
334.04373974438
 21
128.1371779086734
 31
0.0
  0
ARC
  5
DA87
330
2
100
AcDbEntity
  8
0
 48
2.0
100
AcDbCircle
 10
335.04373974438
 20
129.7033191869027
 30
0.0
 40
1.0
100
AcDbArc
 50
90.0
 51
180.0
  0
LINE
  5
DA88
330
2
100
AcDbEntity
  8
0
 48
2.0
100
AcDbLine
 10
341.1437397443799
 20
130.7033191869027
 30
0.0
 11
335.04373974438
 21
130.7033191869027
 31
0.0
  0
LINE
  5
DA89
330
2
100
AcDbEntity
  8
0
 48
2.0
100
AcDbLine
 10
341.1437397443799
 20
130.0533191869027
 30
0.0
 11
341.1437397443799
 21
130.7033191869027
 31
0.0
  0
LINE
  5
DA8A
330
2
100
AcDbEntity
  8
0
 48
2.0
100
AcDbLine
 10
341.84373974438
 20
131.8033191869028
 30
0.0
 11
341.84373974438
 21
130.0533191869027
 31
0.0
  0
LINE
  5
DA8B
330
2
100
AcDbEntity
  8
0
 48
2.0
100
AcDbLine
 10
341.4937397443799
 20
129.7033191869027
 30
0.0
 11
341.4937397443799
 21
129.7033191869027
 31
0.0
  0
ARC
  5
DA8C
330
2
100
AcDbEntity
  8
0
100
AcDbCircle
 10
371.0346941367526
 20
143.6033191869018
 30
0.0
 40
0.3000000000000107
100
AcDbArc
 50
174.8720091168925
 51
354.8720091168909
  0
ARC
  5
DA8D
330
2
100
AcDbEntity
  8
0
100
AcDbCircle
 10
368.7837397443801
 20
143.8053199875425
 30
0.0
 40
1.960000000000029
100
AcDbArc
 50
354.8720091169038
 51
73.39845040097704
  0
ARC
  5
DA8E
330
2
100
AcDbEntity
  8
0
100
AcDbCircle
 10
368.7837397443802
 20
143.8053199875425
 30
0.0
 40
2.560000000000035
100
AcDbArc
 50
354.8720091169006
 51
77.36437490697873
  0
ARC
  5
DA8F
330
2
100
AcDbEntity
  8
0
100
AcDbCircle
 10
371.0346941367512
 20
99.00331918690184
 30
0.0
 40
0.3000000000000647
100
AcDbArc
 50
5.127990883102636
 51
185.1279908831026
  0
ARC
  5
DA90
330
2
100
AcDbEntity
  8
0
100
AcDbCircle
 10
368.7837397443788
 20
98.80131838626128
 30
0.0
 40
1.960000000000074
100
AcDbArc
 50
286.601549599023
 51
5.127990883092905
  0
ARC
  5
DA91
330
2
100
AcDbEntity
  8
0
100
AcDbCircle
 10
368.7837397443789
 20
98.80131838626127
 30
0.0
 40
2.559999999999996
100
AcDbArc
 50
282.6356250930213
 51
5.127990883096149
  0
ARC
  5
DA92
330
2
100
AcDbEntity
  8
0
 48
2.0
100
AcDbCircle
 10
341.4937397443799
 20
130.0533191869027
 30
0.0
 40
0.35
100
AcDbArc
 50
180.0
 51
0.0
  0
LINE
  5
DB3B
330
2
100
AcDbEntity
  8
0
100
AcDbLine
 10
46.59719144851718
 20
254.7679281192824
 30
0.0
 11
84.39682121521583
 21
254.7679281192824
 31
0.0
  0
ARC
  5
DB3C
330
2
100
AcDbEntity
  8
0
100
AcDbCircle
 10
84.39682121521583
 20
256.7679281192824
 30
0.0
 40
2.0
100
AcDbArc
 50
270.0
 51
2.204227503972018
  0
ENDSEC
  0
SECTION
  2
OBJECTS
  0
DICTIONARY
  5
9
330
0
100
AcDbDictionary
281
     1
  3
ACAD_CIP_PREVIOUS_PRODUCT_INFO
350
6543
  3
ACAD_COLOR
350
FE
  3
ACAD_DETAILVIEWSTYLE
350
653C
  3
ACAD_GROUP
350
23
  3
ACAD_LAYOUT
350
D
  3
ACAD_MATERIAL
350
FD
  3
ACAD_MLEADERSTYLE
350
6537
  3
ACAD_MLINESTYLE
350
24
  3
ACAD_PLOTSETTINGS
350
25
  3
ACAD_PLOTSTYLENAME
350
8
  3
ACAD_SCALELIST
350
6525
  3
ACAD_SECTIONVIEWSTYLE
350
6539
  3
ACAD_TABLESTYLE
350
C85
  3
ACAD_VISUALSTYLE
350
C74
  3
AcadDim
350
2EE6
  3
ACDB_RECOMPOSE_DATA
350
DB62
  3
AcDbVariableDictionary
350
21E
  0
DICTIONARY
  5
E64
330
1D
100
AcDbDictionary
280
     1
281
     1
  0
DICTIONARY
  5
115
330
14
100
AcDbDictionary
280
     1
281
     1
  3
ACAD_LAYERFILTERS
360
1762
  3
ACAD_LAYERSTATES
360
116
  3
ACLYDICTIONARY
360
1761
  0
DICTIONARY
  5
6544
330
6
100
AcDbDictionary
280
     1
281
     1
  3
ADSK_XREC_LAYER_RECONCILED
360
6545
  0
DICTIONARY
  5
6546
330
26
100
AcDbDictionary
280
     1
281
     1
  3
ADSK_XREC_LAYER_RECONCILED
360
6547
  0
DICTIONARY
  5
654E
330
111
100
AcDbDictionary
280
     1
281
     1
  3
ADSK_XREC_LAYER_RECONCILED
360
654F
  0
DICTIONARY
  5
6554
330
E15
100
AcDbDictionary
280
     1
281
     1
  3
ADSK_XREC_LAYER_RECONCILED
360
6555
  0
DICTIONARY
  5
655E
330
14E0
100
AcDbDictionary
280
     1
281
     1
  3
ADSK_XREC_LAYER_RECONCILED
360
655F
  0
DICTIONARY
  5
3
330
2
100
AcDbDictionary
280
     1
281
     1
  3
ACAD_LAYOUTSELFREF
360
648E
  3
ACAD_SORTENTS
360
D1D
  0
DICTIONARY
  5
F
330
E
100
AcDbDictionary
280
     1
281
     1
  3
ACAD_LAYOUTSELFREF
360
6497
  0
XRECORD
  5
6543
102
{ACAD_REACTORS
330
9
102
}
330
9
100
AcDbXrecord
280
     1
300
ACDLT
300
2013
300
ACDLT_F_S
  0
DICTIONARY
  5
FE
102
{ACAD_REACTORS
330
9
102
}
330
9
100
AcDbDictionary
281
     1
  0
DICTIONARY
  5
653C
102
{ACAD_REACTORS
330
9
102
}
330
9
100
AcDbDictionary
281
     1
  3
Imperial24
350
653D
  0
DICTIONARY
  5
23
102
{ACAD_REACTORS
330
9
102
}
330
9
100
AcDbDictionary
281
     1
  0
DICTIONARY
  5
D
102
{ACAD_REACTORS
330
9
102
}
330
9
100
AcDbDictionary
281
     1
  3
Model
350
C
  3
ﾚｲｱｳﾄ1
350
13
  0
DICTIONARY
  5
FD
102
{ACAD_REACTORS
330
9
102
}
330
9
100
AcDbDictionary
281
     1
  3
ByBlock
350
C72
  3
ByLayer
350
C71
  3
Global
350
C73
  0
DICTIONARY
  5
6537
102
{ACAD_REACTORS
330
9
102
}
330
9
100
AcDbDictionary
281
     1
  3
Standard
350
6538
  0
DICTIONARY
  5
24
102
{ACAD_REACTORS
330
9
102
}
330
9
100
AcDbDictionary
281
     1
  3
STANDARD
350
27
  0
DICTIONARY
  5
25
102
{ACAD_REACTORS
330
9
102
}
330
9
100
AcDbDictionary
281
     1
  0
ACDBDICTIONARYWDFLT
  5
8
102
{ACAD_REACTORS
330
9
102
}
330
9
100
AcDbDictionary
281
     1
  3
Normal
350
7
100
AcDbDictionaryWithDefault
340
7
  0
DICTIONARY
  5
6525
102
{ACAD_REACTORS
330
9
102
}
330
9
100
AcDbDictionary
281
     1
  3
A0
350
6526
  3
A1
350
6527
  3
A2
350
6528
  3
A3
350
6529
  3
A4
350
652A
  3
A5
350
652B
  3
A6
350
652C
  3
A7
350
652D
  3
A8
350
652E
  3
A9
350
652F
  3
B0
350
6530
  3
B1
350
6531
  3
B2
350
6532
  3
B3
350
6533
  3
B4
350
6534
  3
B5
350
6535
  3
B6
350
6536
  0
DICTIONARY
  5
6539
102
{ACAD_REACTORS
330
9
102
}
330
9
100
AcDbDictionary
281
     1
  3
Imperial24
350
653B
  0
DICTIONARY
  5
C85
102
{ACAD_REACTORS
330
9
102
}
330
9
100
AcDbDictionary
281
     1
  3
Standard
350
C86
  0
DICTIONARY
  5
C74
102
{ACAD_REACTORS
330
9
102
}
330
9
100
AcDbDictionary
281
     1
  3
2dWireframe
350
C7A
  3
3D Hidden
350
C7C
  3
3dWireframe
350
C7B
  3
Basic
350
C79
  3
Brighten
350
C80
  3
ColorChange
350
C84
  3
Conceptual
350
C7D
  3
Dim
350
C7F
  3
EdgeColorOff
350
6524
  3
Facepattern
350
C83
  3
Flat
350
C75
  3
FlatWithEdges
350
C76
  3
Gouraud
350
C77
  3
GouraudWithEdges
350
C78
  3
Hidden
350
651C
  3
JitterOff
350
6522
  3
Linepattern
350
C82
  3
OverhangOff
350
6523
  3
Realistic
350
C7E
  3
Shaded
350
6521
  3
Shaded with edges
350
6520
  3
Shades of Gray
350
651D
  3
Sketchy
350
651E
  3
Thicken
350
C81
  3
Wireframe
350
651B
  3
X-Ray
350
651F
  0
XRECORD
  5
2EE6
102
{ACAD_REACTORS
330
9
102
}
330
9
100
AcDbXrecord
280
     1
 90
   990106
  3

 60
     0
 61
     0
 62
     4
 63
     4
 64
     1
 65
     0
 66
     0
 67
     3
 68
     1
 69
     0
 70
     0
 71
     0
 72
     0
 40
0.0
170
     2
340
0
  0
XRECORD
  5
DB62
102
{ACAD_REACTORS
330
9
102
}
330
9
100
AcDbXrecord
280
     1
 90
        1
330
C86
  0
DICTIONARY
  5
21E
102
{ACAD_REACTORS
330
9
102
}
330
9
100
AcDbDictionary
281
     1
  3
CANNOSCALE
350
656B
  3
CMLEADERSTYLE
350
6567
  3
CTABLESTYLE
350
E8E
  3
CVIEWDETAILSTYLE
350
6568
  3
CVIEWSECTIONSTYLE
350
6569
  3
DIMASSOC
350
21F
  3
INDEXCTL
350
E90
  3
LAYEREVAL
350
656D
  3
LAYERNOTIFY
350
656E
  3
LIGHTINGUNITS
350
656C
  3
MSLTSCALE
350
656A
  3
PROJECTNAME
350
220
  3
SORTENTS
350
E8F
  0
DICTIONARY
  5
1762
102
{ACAD_REACTORS
330
115
102
}
330
115
100
AcDbDictionary
281
     1
  0
DICTIONARY
  5
116
102
{ACAD_REACTORS
330
115
102
}
330
115
100
AcDbDictionary
281
     1
  0
DICTIONARY
  5
1761
102
{ACAD_REACTORS
330
115
102
}
330
115
100
AcDbDictionary
281
     1
1001
ACAD
1000
<All
  0
XRECORD
  5
6545
102
{ACAD_REACTORS
330
6544
102
}
330
6544
100
AcDbXrecord
280
     1
290
     1
  0
XRECORD
  5
6547
102
{ACAD_REACTORS
330
6546
102
}
330
6546
100
AcDbXrecord
280
     1
290
     1
  0
XRECORD
  5
654F
102
{ACAD_REACTORS
330
654E
102
}
330
654E
100
AcDbXrecord
280
     1
290
     1
  0
XRECORD
  5
6555
102
{ACAD_REACTORS
330
6554
102
}
330
6554
100
AcDbXrecord
280
     1
290
     1
  0
XRECORD
  5
655F
102
{ACAD_REACTORS
330
655E
102
}
330
655E
100
AcDbXrecord
280
     1
290
     1
  0
XRECORD
  5
648E
102
{ACAD_REACTORS
330
3
102
}
330
3
100
AcDbXrecord
280
     1
340
2
  0
SORTENTSTABLE
  5
D1D
102
{ACAD_REACTORS
330
3
102
}
330
3
100
AcDbSortentsTable
330
2
331
C80C
  5
D910
331
C7D5
  5
D8D9
331
C796
  5
D89A
331
C75F
  5
D844
331
C814
  5
D918
331
C7DD
  5
D8E1
331
C79E
  5
D8A2
331
C728
  5
C733
331
C81C
  5
D920
331
C7E5
  5
D8E9
331
C7A6
  5
D8AA
331
C76F
  5
D873
331
C730
  5
C73B
331
D828
  5
D961
331
DA08
  5
D860
331
D9D1
  5
DA5C
331
D95B
  5
C7BC
331
D91C
  5
C77D
331
D8E5
  5
C84F
331
D8A6
  5
D9DF
331
D86F
  5
D9A8
331
C824
  5
D928
331
C7AE
  5
D8B2
331
D830
  5
D969
331
D992
  5
DA1D
331
DA86
  5
C821
331
DA4F
  5
C7EA
331
DA10
  5
D868
331
D9D9
  5
DA64
331
D963
  5
C7C5
331
D924
  5
C785
331
D8ED
  5
D6B3
331
D8AE
  5
D9E7
331
D877
  5
D9B0
331
D838
  5
D971
331
D99A
  5
DA25
331
DA8E
  5
C82B
331
DA57
  5
C7F2
331
DA18
  5
C760
331
D96B
  5
C7CD
331
D92C
  5
C78D
331
D8B6
  5
D9EF
331
D87F
  5
D9B8
331
D840
  5
D979
331
D8F5
  5
D81C
331
D9A2
  5
DA2D
331
D9E1
  5
DA6C
331
DA5F
  5
C7FA
331
DA20
  5
C76A
331
D934
  5
C795
331
D8BE
  5
D9F7
331
D9AA
  5
DA35
331
C738
  5
C743
331
C82C
  5
D930
331
C7ED
  5
D8F1
331
C7B6
  5
D8BA
331
C740
  5
C74E
331
C777
  5
D87B
331
C834
  5
D938
331
C7F5
  5
D8F9
331
C7BE
  5
D8C2
331
C77F
  5
D883
331
C748
  5
C756
331
C83C
  5
D940
331
C7FD
  5
D901
331
C7C6
  5
D8CA
331
C787
  5
D88B
331
D848
  5
D981
331
DA28
  5
C772
331
D9E9
  5
DA74
331
D9B2
  5
DA3D
331
D93C
  5
C79D
331
D8FD
  5
D824
331
D8C6
  5
D9FF
331
D887
  5
D9C0
331
C805
  5
D909
331
C7CE
  5
D8D2
331
C78F
  5
D893
331
D850
  5
D989
331
D973
  5
C7D5
331
DA67
  5
C802
331
DA30
  5
DA86
331
D9F1
  5
DA7C
331
D9BA
  5
DA45
331
D944
  5
C7A5
331
D905
  5
D82C
331
D8CE
  5
C838
331
D88F
  5
D9C8
331
D858
  5
D991
331
D4EE
  5
D951
331
D819
  5
D952
331
D97B
  5
DA06
331
DA6F
  5
C80A
331
DA38
  5
DA8E
331
D9F9
  5
D851
331
D9C2
  5
DA4D
331
D94C
  5
C7AD
331
D90D
  5
D834
331
D8D6
  5
C840
331
D897
  5
D9D0
331
D860
  5
D999
331
D821
  5
D95A
331
D983
  5
DA0E
331
DA77
  5
C812
331
DA40
  5
C7DB
331
DA01
  5
D859
331
D9CA
  5
DA55
331
D954
  5
C7B5
331
D915
  5
C776
331
D8DE
  5
C848
331
D89F
  5
D9D8
331
D98B
  5
DA16
331
DA7F
  5
C81A
331
C758
  5
D83D
331
C80D
  5
D911
331
C7D6
  5
D8DA
331
C797
  5
D89B
331
C760
  5
D845
331
C815
  5
D919
331
C7DE
  5
D8E2
331
C79F
  5
D8A3
331
C729
  5
C734
331
C81D
  5
D921
331
C7E6
  5
D8EA
331
C7A7
  5
D8AB
331
C731
  5
C73C
331
D829
  5
D962
331
DA48
  5
C7E3
331
DA09
  5
D861
331
D9D2
  5
DA5D
331
D95C
  5
C7BD
331
D91D
  5
C77E
331
D8E6
  5
C850
331
D8A7
  5
D9E0
331
D870
  5
D9A9
331
C825
  5
D929
331
D6CE
  5
C746
331
C7AF
  5
D8B3
331
D831
  5
D96A
331
D993
  5
DA1E
331
DA87
  5
C822
331
DA50
  5
C7EB
331
DA11
  5
D869
331
D9DA
  5
DA65
331
D964
  5
C7C6
331
D925
  5
C786
331
D8EE
  5
D6B4
331
D8AF
  5
D9E8
331
D839
  5
D972
331
D878
  5
D9B1
331
D99B
  5
DA26
331
DA8F
  5
C82C
331
DA19
  5
C763
331
D9A3
  5
DA2E
331
D92D
  5
C78E
331
D8B7
  5
D9F0
331
D841
  5
D97A
331
D8F6
  5
D81D
331
D96C
  5
C7CE
331
D9E2
  5
DA6D
331
DA58
  5
C7F3
331
DA21
  5
C76B
331
D935
  5
C796
331
D8BF
  5
D9F8
331
D9AB
  5
DA36
331
C739
  5
C744
331
C770
  5
D874
331
C82D
  5
D931
331
C7EE
  5
D8F2
331
C7B7
  5
D8BB
331
C741
  5
C74F
331
C778
  5
D87C
331
C835
  5
D939
331
C7F6
  5
D8FA
331
D4D7
  5
D948
331
C7BF
  5
D8C3
331
C780
  5
D884
331
C749
  5
C757
331
D880
  5
D9B9
331
C83D
  5
D941
331
C7FE
  5
D902
331
C7C7
  5
D8CB
331
C788
  5
D88C
331
D849
  5
D982
331
DA60
  5
C7FB
331
DA29
  5
DA7F
331
D9EA
  5
DA75
331
D9B3
  5
DA3E
331
D93D
  5
C79E
331
D8FE
  5
D825
331
D8C7
  5
C831
331
D888
  5
D9C1
331
C806
  5
D90A
331
D4E7
  5
D94A
331
C7CF
  5
D8D3
331
D851
  5
D98A
331
D974
  5
C7D6
331
DA68
  5
C803
331
DA31
  5
DA87
331
D9F2
  5
DA7D
331
D9BB
  5
DA46
331
D945
  5
C7A6
331
D906
  5
D82D
331
D8CF
  5
C839
331
D890
  5
D9C9
331
D859
  5
D992
331
D81A
  5
D953
331
D97C
  5
DA07
331
DA70
  5
C80B
331
DA39
  5
DA8F
331
D9FA
  5
D852
331
D9C3
  5
DA4E
331
D94D
  5
C7AE
331
D90E
  5
D835
331
D8D7
  5
C841
331
D898
  5
D9D1
331
D861
  5
D99A
331
D822
  5
D95B
331
D984
  5
DA0F
331
DA78
  5
C813
331
DA41
  5
C7DC
331
DA02
  5
D85A
331
D9CB
  5
DA56
331
D955
  5
C7B6
331
D916
  5
C777
331
D8DF
  5
C849
331
D98C
  5
DA17
331
C790
  5
D894
331
C759
  5
D83E
331
C7D7
  5
D8DB
331
C798
  5
D89C
331
C761
  5
D846
331
C80E
  5
D912
331
C7DF
  5
D8E3
331
C7A0
  5
D8A4
331
C769
  5
D86D
331
C72A
  5
C735
331
C816
  5
D91A
331
D8A0
  5
D9D9
331
D869
  5
D9A2
331
D82A
  5
D963
331
C7E7
  5
D8EB
331
C7A8
  5
D8AC
331
C732
  5
C73D
331
C81E
  5
D922
331
DA80
  5
C81B
331
DA49
  5
C7E4
331
DA0A
  5
D862
331
D9D3
  5
DA5E
331
D95D
  5
C7BE
331
D91E
  5
C77F
331
D8E7
  5
D1DE
331
D8A8
  5
D9E1
331
D871
  5
D9AA
331
D832
  5
D96B
331
D994
  5
DA1F
331
C826
  5
D92A
331
DA88
  5
C825
331
DA51
  5
C7EC
331
DA12
  5
D86A
331
D9DB
  5
DA66
331
D965
  5
C7C7
331
D926
  5
C787
331
D8EF
  5
D6B5
331
D8B0
  5
D9E9
331
D83A
  5
D973
331
D879
  5
D9B2
331
D99C
  5
DA27
331
DA90
  5
C82D
331
DA1A
  5
C764
331
D9A4
  5
DA2F
331
D92E
  5
C78F
331
D8F7
  5
D81E
331
D8B8
  5
D9F1
331
D842
  5
D97B
331
D96D
  5
C7CF
331
D9E3
  5
DA6E
331
DA59
  5
C7F4
331
DA22
  5
C76C
331
D936
  5
C797
331
D9AC
  5
DA37
331
C7B0
  5
D8B4
331
C73A
  5
C747
331
C771
  5
D875
331
C82E
  5
D932
331
C7B8
  5
D8BC
331
C742
  5
C750
331
C779
  5
D87D
331
C7EF
  5
D8F3
331
D4D8
  5
D949
331
C836
  5
D93A
331
C7C0
  5
D8C4
331
C781
  5
D885
331
C7F7
  5
D8FB
331
D8C0
  5
D9F9
331
D881
  5
D9BA
331
D84A
  5
D983
331
C83E
  5
D942
331
C7C8
  5
D8CC
331
C789
  5
D88D
331
C752
  5
C830
331
C7FF
  5
D903
331
DA61
  5
C7FC
331
DA2A
  5
DA80
331
D9EB
  5
DA76
331
D9B4
  5
DA3F
331
D93E
  5
C79F
331
D8FF
  5
D826
331
D8C8
  5
C832
331
D889
  5
D9C2
331
D852
  5
D98B
331
D975
  5
DA00
331
C807
  5
D90B
331
D4E8
  5
D94B
331
DA69
  5
C804
331
DA32
  5
DA88
331
D9F3
  5
DA7E
331
D9BC
  5
DA47
331
D946
  5
C7A7
331
D907
  5
D82E
331
D8D0
  5
C83A
331
D891
  5
D9CA
331
D85A
  5
D993
331
D81B
  5
D954
331
D97D
  5
DA08
331
DA71
  5
C80C
331
DA3A
  5
DA90
331
D9FB
  5
D853
331
D9C4
  5
DA4F
331
D94E
  5
C7AF
331
D90F
  5
D836
331
D8D8
  5
C842
331
D899
  5
D9D2
331
D823
  5
D95C
331
D985
  5
DA10
331
DA79
  5
C814
331
DA42
  5
C7DD
331
DA03
  5
D85B
331
D9CC
  5
DA57
331
D956
  5
C7B7
331
D917
  5
C778
331
D98D
  5
DA18
331
C7D0
  5
D8D4
331
C791
  5
D895
331
C75A
  5
D83F
331
C7D8
  5
D8DC
331
C799
  5
D89D
331
C762
  5
D847
331
C80F
  5
D913
331
C7E0
  5
D8E4
331
C7A1
  5
D8A5
331
C76A
  5
D86E
331
C72B
  5
C736
331
C817
  5
D91B
331
D8E0
  5
C84A
331
D8A1
  5
D9DA
331
D86A
  5
D9A3
331
D82B
  5
D964
331
C7A9
  5
D8AD
331
C733
  5
C73E
331
C81F
  5
D923
331
DA81
  5
C81C
331
DA4A
  5
C7E5
331
DA0B
  5
D863
331
D9D4
  5
DA5F
331
D95E
  5
C7BF
331
D91F
  5
C780
331
D8E8
  5
D4EC
331
D8A9
  5
D9E2
331
D872
  5
D9AB
331
D833
  5
D96C
331
D995
  5
DA20
331
C827
  5
D92B
331
DA89
  5
C826
331
DA52
  5
C7ED
331
DA13
  5
D86B
331
D9DC
  5
DA67
331
D966
  5
C7C8
331
D927
  5
C788
331
D8B1
  5
D9EA
331
D83B
  5
D974
331
D87A
  5
D9B3
331
D8F0
  5
D6B6
331
D99D
  5
DA28
331
DA91
  5
C82E
331
DA1B
  5
C765
331
D9A5
  5
DA30
331
D92F
  5
C790
331
D8B9
  5
D9F2
331
D843
  5
D97C
331
D96E
  5
C7D0
331
D9E4
  5
DA6F
331
DA5A
  5
C7F5
331
DA23
  5
C76D
331
D937
  5
C798
331
D9AD
  5
DA38
331
C7B1
  5
D8B5
331
C73B
  5
C748
331
C772
  5
D876
331
C7E8
  5
D8EC
331
C82F
  5
D933
331
C7B9
  5
D8BD
331
C743
  5
C751
331
C77A
  5
D87E
331
C7F0
  5
D8F4
331
C837
  5
D93B
331
C7C1
  5
D8C5
331
C782
  5
D886
331
C7F8
  5
D8FC
331
D8F8
  5
D81F
331
D8C1
  5
D9FA
331
D882
  5
D9BB
331
D84B
  5
D984
331
C83F
  5
D943
331
C7C9
  5
D8CD
331
C78A
  5
D88E
331
C800
  5
D904
331
DA62
  5
C7FD
331
DA2B
  5
DA81
331
D9EC
  5
DA77
331
D9B5
  5
DA40
331
D93F
  5
C7A0
331
D900
  5
D827
331
D8C9
  5
C833
331
D88A
  5
D9C3
331
D853
  5
D98C
331
D976
  5
DA01
331
D4E9
  5
D94C
331
DA6A
  5
C805
331
DA33
  5
DA89
331
D9F4
  5
D84C
331
D9BD
  5
DA48
331
D947
  5
C7A8
331
D908
  5
D82F
331
D8D1
  5
C83B
331
D892
  5
D9CB
331
D85B
  5
D994
331
D81C
  5
D955
331
D97E
  5
DA09
331
DA72
  5
C80D
331
DA3B
  5
DA91
331
D9FC
  5
D854
331
D9C5
  5
DA50
331
D94F
  5
C7B0
331
D910
  5
D837
331
D8D9
  5
C843
331
D89A
  5
D9D3
331
D824
  5
D95D
331
D986
  5
DA11
331
DA7A
  5
C815
331
DA43
  5
C7DE
331
DA04
  5
D85C
331
D9CD
  5
DA58
331
D957
  5
C7B8
331
D98E
  5
DA19
331
C7D1
  5
D8D5
331
C792
  5
D896
331
C75B
  5
D840
331
C808
  5
D90C
331
C7D9
  5
D8DD
331
C79A
  5
D89E
331
C763
  5
D848
331
C810
  5
D914
331
D6B9
  5
C74A
331
C7E1
  5
D8E5
331
C7A2
  5
D8A6
331
C76B
  5
D86F
331
C72C
  5
C737
331
C818
  5
D91C
331
D918
  5
C779
331
D8E1
  5
C84B
331
D8A2
  5
D9DB
331
D86B
  5
D9A4
331
D82C
  5
D965
331
C7AA
  5
D8AE
331
C734
  5
C73F
331
C820
  5
D924
331
DA82
  5
C81D
331
DA4B
  5
C7E6
331
DA0C
  5
D864
331
D9D5
  5
DA60
331
D95F
  5
C7C0
331
D920
  5
C781
331
D8E9
  5
D4ED
331
D8AA
  5
D9E3
331
D873
  5
D9AC
331
D834
  5
D96D
331
D996
  5
DA21
331
DA8A
  5
C827
331
DA53
  5
C7EE
331
DA14
  5
D86C
331
D9DD
  5
DA68
331
D967
  5
C7C9
331
D928
  5
C789
331
D8B2
  5
D9EB
331
D83C
  5
D975
331
D87B
  5
D9B4
331
D8F1
  5
D6B7
331
D99E
  5
DA29
331
DA92
  5
C82F
331
DA1C
  5
C766
331
D9A6
  5
DA31
331
D930
  5
C791
331
D8BA
  5
D9F3
331
D844
  5
D97D
331
D96F
  5
C7D1
331
D9E5
  5
DA70
331
DA5B
  5
C7F6
331
DA24
  5
C76E
331
D9AE
  5
DA39
331
C828
  5
D92C
331
C7B2
  5
D8B6
331
C73C
  5
C749
331
C773
  5
D877
331
C7E9
  5
D8ED
331
C830
  5
D934
331
C7BA
  5
D8BE
331
C744
  5
C752
331
C77B
  5
D87F
331
C7F1
  5
D8F5
331
C838
  5
D93C
331
C7C2
  5
D8C6
331
C783
  5
D887
331
C7F9
  5
D8FD
331
D938
  5
C799
331
D8F9
  5
D820
331
D8C2
  5
D9FB
331
D883
  5
D9BC
331
D84C
  5
D985
331
C840
  5
D944
331
C7CA
  5
D8CE
331
C78B
  5
D88F
331
C801
  5
D905
331
DA63
  5
C7FE
331
DA2C
  5
DA82
331
D9ED
  5
DA78
331
D9B6
  5
DA41
331
D940
  5
C7A1
331
D901
  5
D828
331
D8CA
  5
C834
331
D88B
  5
D9C4
331
D854
  5
D98D
331
D977
  5
DA02
331
D4EA
  5
D94D
331
DA6B
  5
C806
331
DA34
  5
DA8A
331
D9F5
  5
D84D
331
D9BE
  5
DA49
331
D948
  5
C7A9
331
D909
  5
D830
331
D8D2
  5
C83C
331
D893
  5
D9CC
331
D85C
  5
D995
331
D81D
  5
D956
331
D97F
  5
DA0A
331
DA73
  5
C80E
331
DA3C
  5
DA92
331
D9FD
  5
D855
331
D9C6
  5
DA51
331
D987
  5
DA12
331
D950
  5
C7B1
331
D911
  5
D838
331
D8DA
  5
C844
331
D89B
  5
D9D4
331
D825
  5
D95E
331
DA7B
  5
C816
331
DA44
  5
C7DF
331
DA05
  5
D85D
331
D9CE
  5
DA59
331
D98F
  5
DA1A
331
C7D2
  5
D8D6
331
C793
  5
D897
331
C75C
  5
D841
331
C809
  5
D90D
331
C7DA
  5
D8DE
331
C79B
  5
D89F
331
C764
  5
D849
331
C811
  5
D915
331
C7E2
  5
D8E6
331
C7A3
  5
D8A7
331
C76C
  5
D870
331
C72D
  5
C738
331
C819
  5
D91D
331
D958
  5
C7B9
331
D919
  5
C77A
331
D8E2
  5
C84C
331
D8A3
  5
D9DC
331
D86C
  5
D9A5
331
D82D
  5
D966
331
C7AB
  5
D8AF
331
C735
  5
C740
331
C821
  5
D925
331
DA83
  5
C81E
331
DA4C
  5
C7E7
331
DA0D
  5
D865
331
D9D6
  5
DA61
331
D960
  5
C7C1
331
D921
  5
C782
331
D8EA
  5
D6B0
331
D8AB
  5
D9E4
331
D874
  5
D9AD
331
D835
  5
D96E
331
D997
  5
DA22
331
DA8B
  5
C828
331
DA54
  5
C7EF
331
DA15
  5
C75B
331
D9DE
  5
DA69
331
D968
  5
C7CA
331
D929
  5
C78A
331
D8B3
  5
D9EC
331
D83D
  5
D976
331
D87C
  5
D9B5
331
D8F2
  5
D819
331
D99F
  5
DA2A
331
DA1D
  5
C767
331
D9A7
  5
DA32
331
D931
  5
C792
331
D8BB
  5
D9F4
331
D845
  5
D97E
331
D9E6
  5
DA71
331
DA5C
  5
C7F7
331
DB3B
  5
DB3B
331
DA25
  5
C76F
331
D9AF
  5
DA3A
331
C829
  5
D92D
331
C7B3
  5
D8B7
331
C73D
  5
C74B
331
C774
  5
D878
331
C7EA
  5
D8EE
331
C831
  5
D935
331
C7BB
  5
D8BF
331
C745
  5
C753
331
C77C
  5
D880
331
C7F2
  5
D8F6
331
C839
  5
D93D
331
C7C3
  5
D8C7
331
C784
  5
D888
331
C74D
  5
C773
331
C7FA
  5
D8FE
331
D939
  5
C79A
331
D8FA
  5
D821
331
D8C3
  5
D9FC
331
D884
  5
D9BD
331
D84D
  5
D986
331
D970
  5
C7D2
331
C841
  5
D945
331
C7CB
  5
D8CF
331
C78C
  5
D890
331
C755
  5
D83A
331
C802
  5
D906
331
DA64
  5
C7FF
331
DA2D
  5
DA83
331
D9EE
  5
DA79
331
D9B7
  5
DA42
331
D941
  5
C7A2
331
D902
  5
D829
331
D8CB
  5
C835
331
D88C
  5
D9C5
331
D855
  5
D98E
331
D978
  5
DA03
331
D4EB
  5
D94E
331
DA6C
  5
C807
331
DA35
  5
DA8B
331
D9F6
  5
D84E
331
D9BF
  5
DA4A
331
D949
  5
C7AA
331
D90A
  5
D831
331
D8D3
  5
C83D
331
D894
  5
D9CD
331
D85D
  5
D996
331
D81E
  5
D957
331
D980
  5
DA0B
331
DA74
  5
C80F
331
DA3D
  5
C7D8
331
D9FE
  5
D856
331
D988
  5
DA13
331
D951
  5
C7B2
331
D912
  5
D839
331
D8DB
  5
C845
331
D89C
  5
D9D5
331
D826
  5
D95F
331
D9C7
  5
DA52
331
DA7C
  5
C817
331
DA45
  5
C7E0
331
DA06
  5
D85E
331
D9CF
  5
DA5A
331
C8E9
  5
D947
331
C7D3
  5
D8D7
331
C794
  5
D898
331
C75D
  5
D842
331
C80A
  5
D90E
331
C7DB
  5
D8DF
331
C79C
  5
D8A0
331
C765
  5
D84A
331
C812
  5
D916
331
C7E3
  5
D8E7
331
C7A4
  5
D8A8
331
C76D
  5
D871
331
C72E
  5
C739
331
C81A
  5
D91E
331
D959
  5
C7BA
331
D91A
  5
C77B
331
D8E3
  5
C84D
331
D8A4
  5
D9DD
331
D86D
  5
D9A6
331
D82E
  5
D967
331
D990
  5
DA1B
331
C7AC
  5
D8B0
331
C736
  5
C741
331
C822
  5
D926
331
DA84
  5
C81F
331
DA4D
  5
C7E8
331
DA0E
  5
D866
331
D9D7
  5
DA62
331
D961
  5
C7C3
331
D922
  5
C783
331
D8EB
  5
D6B1
331
D8AC
  5
D9E5
331
D875
  5
D9AE
331
D836
  5
D96F
331
D998
  5
DA23
331
DA8C
  5
C829
331
DA55
  5
C7F0
331
DA16
  5
C75E
331
D9DF
  5
DA6A
331
D969
  5
C7CB
331
D92A
  5
C78B
331
D8B4
  5
D9ED
331
D83E
  5
D977
331
D87D
  5
D9B6
331
D8F3
  5
D81A
331
D9A0
  5
DA2B
331
DA1E
  5
C768
331
D9A8
  5
DA33
331
D932
  5
C793
331
D8BC
  5
D9F5
331
D846
  5
D97F
331
D9E7
  5
DA72
331
DA5D
  5
C7F8
331
DA26
  5
C770
331
DB3C
  5
DB3C
331
C82A
  5
D92E
331
C7B4
  5
D8B8
331
C73E
  5
C74C
331
C775
  5
D879
331
C7EB
  5
D8EF
331
C832
  5
D936
331
C7BC
  5
D8C0
331
C746
  5
C754
331
C77D
  5
D881
331
C7F3
  5
D8F7
331
C83A
  5
D93E
331
C7C4
  5
D8C8
331
C785
  5
D889
331
C7FB
  5
D8FF
331
D9B0
  5
DA3B
331
D93A
  5
C79B
331
D8FB
  5
D822
331
D8C4
  5
D9FD
331
D885
  5
D9BE
331
D84E
  5
D987
331
D971
  5
C7D3
331
C842
  5
D946
331
C7CC
  5
D8D0
331
C78D
  5
D891
331
C756
  5
D83B
331
C803
  5
D907
331
DA65
  5
C800
331
DA2E
  5
DA84
331
D9EF
  5
DA7A
331
D9B8
  5
DA43
331
D942
  5
C7A3
331
D903
  5
D82A
331
D8CC
  5
C836
331
D88D
  5
D9C6
331
D856
  5
D98F
331
D979
  5
DA04
331
D4EC
  5
D94F
331
DA6D
  5
C808
331
DA36
  5
DA8C
331
D9F7
  5
D84F
331
D9C0
  5
DA4B
331
D94A
  5
C7AB
331
D90B
  5
D832
331
D8D4
  5
C83E
331
D895
  5
D9CE
331
D85E
  5
D997
331
D81F
  5
D958
331
D981
  5
DA0C
331
DA75
  5
C810
331
DA3E
  5
C7D9
331
D9C8
  5
DA53
331
D989
  5
DA14
331
D952
  5
C7B3
331
D913
  5
C774
331
D8DC
  5
C846
331
D89D
  5
D9D6
331
D827
  5
D960
331
D9FF
  5
D857
331
DA7D
  5
C818
331
DA46
  5
C7E1
331
DA07
  5
D85F
331
C7D4
  5
D8D8
331
C795
  5
D899
331
C75E
  5
D843
331
C80B
  5
D90F
331
C7DC
  5
D8E0
331
C79D
  5
D8A1
331
C766
  5
D84B
331
C813
  5
D917
331
C7E4
  5
D8E8
331
C7A5
  5
D8A9
331
C76E
  5
D872
331
C72F
  5
C73A
331
C81B
  5
D91F
331
D9D0
  5
DA5B
331
D95A
  5
C7BB
331
D91B
  5
C77C
331
D8E4
  5
C84E
331
D8A5
  5
D9DE
331
D86E
  5
D9A7
331
D82F
  5
D968
331
D991
  5
DA1C
331
C7AD
  5
D8B1
331
C737
  5
C742
331
C823
  5
D927
331
DA85
  5
C820
331
DA4E
  5
C7E9
331
DA0F
  5
D867
331
D9D8
  5
DA63
331
D962
  5
C7C4
331
D923
  5
C784
331
D8EC
  5
D6B2
331
D8AD
  5
D9E6
331
D876
  5
D9AF
331
D837
  5
D970
331
D999
  5
DA24
331
DA8D
  5
C82A
331
DA56
  5
C7F1
331
DA17
  5
C75F
331
D96A
  5
C7CC
331
D92B
  5
C78C
331
D8B5
  5
D9EE
331
D83F
  5
D978
331
D87E
  5
D9B7
331
D8F4
  5
D81B
331
D9A1
  5
DA2C
331
D9E0
  5
DA6B
331
D9A9
  5
DA34
331
D933
  5
C794
331
D8BD
  5
D9F6
331
D847
  5
D980
331
DA1F
  5
C769
331
DA5E
  5
C7F9
331
DA27
  5
C771
331
C82B
  5
D92F
331
C7B5
  5
D8B9
331
C73F
  5
C74D
331
C776
  5
D87A
331
C7EC
  5
D8F0
331
C833
  5
D937
331
C7BD
  5
D8C1
331
C747
  5
C755
331
C77E
  5
D882
331
C7F4
  5
D8F8
331
C83B
  5
D93F
331
C7C5
  5
D8C9
331
C786
  5
D88A
331
C7FC
  5
D900
331
D9E8
  5
DA73
331
D9B1
  5
DA3C
331
D93B
  5
C79C
331
D8FC
  5
D823
331
D8C5
  5
D9FE
331
D886
  5
D9BF
331
D84F
  5
D988
331
D972
  5
C7D4
331
C7CD
  5
D8D1
331
C78E
  5
D892
331
C757
  5
D83C
331
C804
  5
D908
331
DA66
  5
C801
331
DA2F
  5
DA85
331
D9F0
  5
DA7B
331
D9B9
  5
DA44
331
D943
  5
C7A4
331
D904
  5
D82B
331
D8CD
  5
C837
331
D88E
  5
D9C7
331
D857
  5
D990
331
D97A
  5
DA05
331
D4ED
  5
D950
331
DA6E
  5
C809
331
DA37
  5
DA8D
331
D9F8
  5
D850
331
D9C1
  5
DA4C
331
D94B
  5
C7AC
331
D90C
  5
D833
331
D8D5
  5
C83F
331
D896
  5
D9CF
331
D85F
  5
D998
331
D820
  5
D959
331
D982
  5
DA0D
331
DA76
  5
C811
331
DA3F
  5
C7DA
331
DA00
  5
D858
331
D98A
  5
DA15
331
D953
  5
C7B4
331
D914
  5
C775
331
D8DD
  5
C847
331
D89E
  5
D9D7
331
D9C9
  5
DA54
331
DA7E
  5
C819
331
DA47
  5
C7E2
  0
XRECORD
  5
6497
102
{ACAD_REACTORS
330
F
102
}
330
F
100
AcDbXrecord
280
     1
340
E
  0
ACDBDETAILVIEWSTYLE
  5
653D
102
{ACAD_REACTORS
330
653C
102
}
330
653C
100
AcDbModelDocViewStyle
 70
     0
  3
Imperial24
290
     1
100
AcDbDetailViewStyle
 70
     0
 71
     0
 90
        3
 71
     1
340
16
 62
   256
 40
0.24
340
0
 62
   256
 40
0.24
300

 40
0.36
280
     3
 71
     2
340
A
 90
       25
 62
   256
 71
     3
340
16
 62
   256
 40
0.24
 90
        1
 40
0.75
 90
        1
300
%<\AcVar ViewType \f "%tc1">% %<\AcVar ViewDetailId>%\PSCALE %<\AcVar ViewScale \f "%sn">%
 71
     4
340
A
 90
       25
 62
   256
340
A
 90
       25
 62
   256
280
     0
  0
LAYOUT
  5
C
102
{ACAD_REACTORS
330
D
102
}
330
D
100
AcDbPlotSettings
  1

  2
Canon LBP-830
  4
A3
  6

 40
5.873749732971191
 41
5.873747825622558
 42
5.873748779296875
 43
5.873748779296875
 44
296.9259948730469
 45
419.9466552734374
 46
0.0
 47
0.0
 48
3.04025694931704
 49
-23.99575925119666
140
137.2216949342541
141
75.89725909520268
142
1.0
143
1.0
 70
 11952
 72
     1
 73
     1
 74
     1
  7
CanonLBP-830 light.ctb
 75
    16
147
1.0
 76
     0
 77
     2
 78
   300
148
0.0265742595820484
149
0.0168511432175365
100
AcDbLayout
  1
Model
 70
     1
 71
     0
 10
0.0
 20
0.0
 11
12.0
 21
9.0
 12
0.0
 22
0.0
 32
0.0
 14
0.0
 24
0.0
 34
0.0
 15
0.0
 25
0.0
 35
0.0
146
0.0
 13
0.0
 23
0.0
 33
0.0
 16
1.0
 26
0.0
 36
0.0
 17
0.0
 27
1.0
 37
0.0
 76
     0
330
2
331
C33
  0
LAYOUT
  5
13
102
{ACAD_REACTORS
330
D
102
}
330
D
100
AcDbPlotSettings
  1

  2
Canon LBP-830 LIPS4
  4

  6

 40
0.0
 41
0.0
 42
0.0
 43
0.0
 44
0.0
 45
0.0
 46
0.0
 47
0.0
 48
0.0
 49
0.0
140
0.0
141
0.0
142
1.0
143
1.0
 70
   688
 72
     0
 73
     0
 74
     5
  7
CanonLBP-830 light.ctb
 75
    16
147
1.0
 76
     0
 77
     2
 78
   300
148
0.0
149
0.0
100
AcDbLayout
  1
ﾚｲｱｳﾄ1
 70
     1
 71
     1
 10
0.0
 20
0.0
 11
12.0
 21
9.0
 12
0.0
 22
0.0
 32
0.0
 14
1.000000000000000E+20
 24
1.000000000000000E+20
 34
1.000000000000000E+20
 15
-1.000000000000000E+20
 25
-1.000000000000000E+20
 35
-1.000000000000000E+20
146
0.0
 13
0.0
 23
0.0
 33
0.0
 16
1.0
 26
0.0
 36
0.0
 17
0.0
 27
1.0
 37
0.0
 76
     0
330
E
  0
MATERIAL
  5
C72
102
{ACAD_REACTORS
330
FD
102
}
330
FD
100
AcDbMaterial
  1
ByBlock
 73
     1
 78
     1
172
     1
176
     1
270
     1
274
     1
 94
       63
  0
MATERIAL
  5
C71
102
{ACAD_REACTORS
330
FD
102
}
330
FD
100
AcDbMaterial
  1
ByLayer
 73
     1
 78
     1
172
     1
176
     1
270
     1
274
     1
 94
       63
  0
MATERIAL
  5
C73
102
{ACAD_REACTORS
330
FD
102
}
330
FD
100
AcDbMaterial
  1
Global
 73
     1
 78
     1
172
     1
176
     1
270
     1
274
     1
 94
       63
  0
MLEADERSTYLE
  5
6538
102
{ACAD_REACTORS
330
6537
102
}
330
6537
100
AcDbMLeaderStyle
179
     2
170
     2
171
     1
172
     0
 90
        2
 40
0.0
 41
0.0
173
     1
 91
-1056964608
340
19
 92
       -2
290
     1
 42
0.09
291
     1
 43
0.36
  3
Standard
 44
0.18
300

342
16
174
     1
178
     6
175
     1
176
     0
 93
-1056964608
 45
0.18
292
     0
297
     0
 46
0.18
 94
-1056964608
 47
1.0
 49
1.0
140
1.0
293
     1
141
0.0
294
     1
177
     0
142
1.0
295
     1
296
     0
143
0.125
271
     0
272
     9
273
     9
298
     1
  0
MLINESTYLE
  5
27
102
{ACAD_REACTORS
330
24
102
}
330
24
100
AcDbMlineStyle
  2
STANDARD
 70
     0
  3

 62
     0
 51
90.0
 52
90.0
 71
     2
 49
0.5
 62
   256
  6
BYLAYER
 49
-0.5
 62
   256
  6
BYLAYER
  0
ACDBPLACEHOLDER
  5
7
102
{ACAD_REACTORS
330
8
102
}
330
8
  0
SCALE
  5
6526
102
{ACAD_REACTORS
330
6525
102
}
330
6525
100
AcDbScale
 70
     0
300
1:1
140
1.0
141
1.0
290
     1
  0
SCALE
  5
6527
102
{ACAD_REACTORS
330
6525
102
}
330
6525
100
AcDbScale
 70
     0
300
1/128" = 1'-0"
140
0.0078125
141
12.0
290
     0
  0
SCALE
  5
6528
102
{ACAD_REACTORS
330
6525
102
}
330
6525
100
AcDbScale
 70
     0
300
1/64" = 1'-0"
140
0.015625
141
12.0
290
     0
  0
SCALE
  5
6529
102
{ACAD_REACTORS
330
6525
102
}
330
6525
100
AcDbScale
 70
     0
300
1/32" = 1'-0"
140
0.03125
141
12.0
290
     0
  0
SCALE
  5
652A
102
{ACAD_REACTORS
330
6525
102
}
330
6525
100
AcDbScale
 70
     0
300
1/16" = 1'-0"
140
0.0625
141
12.0
290
     0
  0
SCALE
  5
652B
102
{ACAD_REACTORS
330
6525
102
}
330
6525
100
AcDbScale
 70
     0
300
3/32" = 1'-0"
140
0.09375
141
12.0
290
     0
  0
SCALE
  5
652C
102
{ACAD_REACTORS
330
6525
102
}
330
6525
100
AcDbScale
 70
     0
300
1/8" = 1'-0"
140
0.125
141
12.0
290
     0
  0
SCALE
  5
652D
102
{ACAD_REACTORS
330
6525
102
}
330
6525
100
AcDbScale
 70
     0
300
3/16" = 1'-0"
140
0.1875
141
12.0
290
     0
  0
SCALE
  5
652E
102
{ACAD_REACTORS
330
6525
102
}
330
6525
100
AcDbScale
 70
     0
300
1/4" = 1'-0"
140
0.25
141
12.0
290
     0
  0
SCALE
  5
652F
102
{ACAD_REACTORS
330
6525
102
}
330
6525
100
AcDbScale
 70
     0
300
3/8" = 1'-0"
140
0.375
141
12.0
290
     0
  0
SCALE
  5
6530
102
{ACAD_REACTORS
330
6525
102
}
330
6525
100
AcDbScale
 70
     0
300
1/2" = 1'-0"
140
0.5
141
12.0
290
     0
  0
SCALE
  5
6531
102
{ACAD_REACTORS
330
6525
102
}
330
6525
100
AcDbScale
 70
     0
300
3/4" = 1'-0"
140
0.75
141
12.0
290
     0
  0
SCALE
  5
6532
102
{ACAD_REACTORS
330
6525
102
}
330
6525
100
AcDbScale
 70
     0
300
1" = 1'-0"
140
1.0
141
12.0
290
     0
  0
SCALE
  5
6533
102
{ACAD_REACTORS
330
6525
102
}
330
6525
100
AcDbScale
 70
     0
300
1-1/2" = 1'-0"
140
1.5
141
12.0
290
     0
  0
SCALE
  5
6534
102
{ACAD_REACTORS
330
6525
102
}
330
6525
100
AcDbScale
 70
     0
300
3" = 1'-0"
140
3.0
141
12.0
290
     0
  0
SCALE
  5
6535
102
{ACAD_REACTORS
330
6525
102
}
330
6525
100
AcDbScale
 70
     0
300
6" = 1'-0"
140
6.0
141
12.0
290
     0
  0
SCALE
  5
6536
102
{ACAD_REACTORS
330
6525
102
}
330
6525
100
AcDbScale
 70
     0
300
1'-0" = 1'-0"
140
12.0
141
12.0
290
     0
  0
ACDBSECTIONVIEWSTYLE
  5
653B
102
{ACAD_REACTORS
330
6539
102
}
330
6539
100
AcDbModelDocViewStyle
 70
     0
  3
Imperial24
290
     1
100
AcDbSectionViewStyle
 70
     0
 71
     0
 90
       78
 71
     1
340
16
 62
   256
 40
0.24
340
0
340
0
 62
   256
 40
0.24
300
I, O, Q, S, X, Z
 40
0.48
 90
        3
 40
0.18
 90
        1
 71
     2
340
653A
 90
       25
 62
   256
340
A
 90
       50
 62
   256
 40
0.24
 40
0.0
 40
0.24
 71
     3
340
16
 62
   256
 40
0.24
 90
        1
 40
0.75
 90
        1
300
%<\AcVar ViewType \f "%tc1">% %<\AcVar ViewSectionStartId>%-%<\AcVar ViewSectionEndId>%\PSCALE %<\AcVar ViewScale \f "%sn">%
 71
     4
 62
   256
 62
   257
300
ANSI31
 40
1.0
 90
        0
290
     0
290
     0
 90
        6
 40
0.0
 40
1.570796326794896
 40
0.2617993877991494
 40
1.308996938995747
 40
-0.2617993877991494
 40
1.832595714594046
  0
TABLESTYLE
  5
C86
102
{ACAD_XDICTIONARY
360
DB60
102
}
102
{ACAD_REACTORS
330
C85
102
}
330
C85
100
AcDbTableStyle
280
     0
  3
Standard
 70
     0
 71
     0
 40
0.06
 41
0.06
280
     0
281
     0
  7
STANDARD
140
0.18
170
     2
 62
     0
 63
     7
283
     0
 90
      512
 91
        0
  1

274
    -2
284
     1
 64
     0
275
    -2
285
     1
 65
     0
276
    -2
286
     1
 66
     0
277
    -2
287
     1
 67
     0
278
    -2
288
     1
 68
     0
279
    -2
289
     1
 69
     0
  7
STANDARD
140
0.25
170
     5
 62
     0
 63
     7
283
     0
 90
      512
 91
        0
  1

274
    -2
284
     1
 64
     0
275
    -2
285
     1
 65
     0
276
    -2
286
     1
 66
     0
277
    -2
287
     1
 67
     0
278
    -2
288
     1
 68
     0
279
    -2
289
     1
 69
     0
  7
STANDARD
140
0.18
170
     5
 62
     0
 63
     7
283
     0
 90
      512
 91
        0
  1

274
    -2
284
     1
 64
     0
275
    -2
285
     1
 65
     0
276
    -2
286
     1
 66
     0
277
    -2
287
     1
 67
     0
278
    -2
288
     1
 68
     0
279
    -2
289
     1
 69
     0
  0
VISUALSTYLE
  5
C7A
102
{ACAD_REACTORS
330
C74
102
}
330
C74
100
AcDbVisualStyle
  2
2dWireframe
 70
     4
177
     3
291
     0
 70
    58
 90
        0
176
     1
 90
        2
176
     1
 90
        0
176
     1
 90
        0
176
     1
 40
0.6
176
     1
 40
30.0
176
     1
 62
     7
176
     1
 90
        1
176
     1
 90
        4
176
     1
 62
     7
176
     1
 62
   257
176
     1
 90
        1
176
     1
 90
        1
176
     1
 40
1.0
176
     1
 90
        0
176
     1
 62
   257
176
     1
 40
1.0
176
     1
 90
        1
176
     1
 90
        6
176
     1
 90
        2
176
     1
 62
     7
176
     1
 90
        5
176
     1
 90
        0
176
     1
 90
        0
176
     1
290
     0
176
     1
 90
        1
176
     1
 40
0.0
176
     1
 90
        0
176
     1
290
     1
176
     1
290
     1
176
     1
290
     0
176
     1
290
     0
176
     1
290
     0
176
     1
290
     0
176
     1
290
     0
176
     1
290
     0
176
     1
290
     0
176
     1
 90
       50
176
     1
 40
0.0
176
     1
 40
1.0
176
     1
 90
        0
176
     1
 62
    18
420
        0
176
     1
 90
       50
176
     1
 90
        3
176
     1
 62
     5
420
      255
176
     1
290
     0
176
     1
 90
       50
176
     1
 90
       50
176
     1
 90
       50
176
     1
290
     0
176
     1
 90
       50
176
     1
 62
   256
176
     0
 40
1.0
176
     0
 90
        2
176
     1
  1
strokes_ogs.tif
176
     1
290
     0
176
     1
 40
1.0
176
     1
 40
1.0
176
     1
  0
VISUALSTYLE
  5
C7C
102
{ACAD_REACTORS
330
C74
102
}
330
C74
100
AcDbVisualStyle
  2
3D Hidden
 70
     6
177
     3
291
     0
 70
    58
 90
        1
176
     1
 90
        2
176
     1
 90
        2
176
     1
 90
        0
176
     1
 40
0.6
176
     1
 40
30.0
176
     1
 62
     7
176
     1
 90
        2
176
     1
 90
        2
176
     1
 62
     7
176
     1
 62
   257
176
     1
 90
        2
176
     1
 90
        1
176
     1
 40
40.0
176
     1
 90
        0
176
     1
 62
   257
176
     1
 40
1.0
176
     1
 90
        1
176
     1
 90
        6
176
     1
 90
        2
176
     1
 62
     7
176
     1
 90
        3
176
     1
 90
        0
176
     1
 90
        0
176
     1
290
     0
176
     1
 90
        1
176
     1
 40
0.0
176
     1
 90
        0
176
     1
290
     0
176
     1
290
     1
176
     1
290
     1
176
     1
290
     0
176
     1
290
     0
176
     1
290
     0
176
     1
290
     0
176
     1
290
     0
176
     1
290
     0
176
     1
 90
       50
176
     1
 40
0.0
176
     1
 40
1.0
176
     1
 90
        0
176
     1
 62
    18
420
        0
176
     1
 90
       50
176
     1
 90
        3
176
     1
 62
     5
420
      255
176
     1
290
     0
176
     1
 90
       50
176
     1
 90
       50
176
     1
 90
       50
176
     1
290
     0
176
     1
 90
       50
176
     1
 62
   256
176
     0
 40
1.0
176
     0
 90
        2
176
     1
  1
strokes_ogs.tif
176
     1
290
     0
176
     1
 40
1.0
176
     1
 40
1.0
176
     1
  0
VISUALSTYLE
  5
C7B
102
{ACAD_REACTORS
330
C74
102
}
330
C74
100
AcDbVisualStyle
  2
3dWireframe
 70
     5
177
     3
291
     0
 70
    58
 90
        0
176
     1
 90
        2
176
     1
 90
        0
176
     1
 90
        0
176
     1
 40
0.6
176
     1
 40
30.0
176
     1
 62
     7
176
     1
 90
        1
176
     1
 90
        4
176
     1
 62
     7
176
     1
 62
   257
176
     1
 90
        1
176
     1
 90
        1
176
     1
 40
1.0
176
     1
 90
        0
176
     1
 62
   257
176
     1
 40
1.0
176
     1
 90
        1
176
     1
 90
        6
176
     1
 90
        2
176
     1
 62
     7
176
     1
 90
        5
176
     1
 90
        0
176
     1
 90
        0
176
     1
290
     0
176
     1
 90
        1
176
     1
 40
0.0
176
     1
 90
        0
176
     1
290
     0
176
     1
290
     1
176
     1
290
     1
176
     1
290
     0
176
     1
290
     0
176
     1
290
     0
176
     1
290
     0
176
     1
290
     0
176
     1
290
     0
176
     1
 90
       50
176
     1
 40
0.0
176
     1
 40
1.0
176
     1
 90
        0
176
     1
 62
    18
420
        0
176
     1
 90
       50
176
     1
 90
        3
176
     1
 62
     5
420
      255
176
     1
290
     0
176
     1
 90
       50
176
     1
 90
       50
176
     1
 90
       50
176
     1
290
     0
176
     1
 90
       50
176
     1
 62
   256
176
     0
 40
1.0
176
     0
 90
        2
176
     1
  1
strokes_ogs.tif
176
     1
290
     0
176
     1
 40
1.0
176
     1
 40
1.0
176
     1
  0
VISUALSTYLE
  5
C79
102
{ACAD_REACTORS
330
C74
102
}
330
C74
100
AcDbVisualStyle
  2
Basic
 70
     7
177
     3
291
     1
 70
    58
 90
        1
176
     1
 90
        0
176
     1
 90
        1
176
     1
 90
        0
176
     1
 40
0.6
176
     1
 40
30.0
176
     1
 62
     7
176
     1
 90
        0
176
     1
 90
        4
176
     1
 62
     7
176
     1
 62
   257
176
     1
 90
        1
176
     1
 90
        1
176
     1
 40
1.0
176
     1
 90
        8
176
     1
 62
     7
176
     1
 40
1.0
176
     1
 90
        1
176
     1
 90
        6
176
     1
 90
        2
176
     1
 62
     7
176
     1
 90
        5
176
     1
 90
        0
176
     1
 90
        0
176
     1
290
     0
176
     1
 90
        1
176
     1
 40
0.0
176
     1
 90
        0
176
     1
290
     0
176
     1
290
     1
176
     1
290
     1
176
     1
290
     0
176
     1
290
     0
176
     1
290
     0
176
     1
290
     0
176
     1
290
     0
176
     1
290
     0
176
     1
 90
       50
176
     1
 40
0.0
176
     1
 40
1.0
176
     1
 90
        0
176
     1
 62
    18
420
        0
176
     1
 90
       50
176
     1
 90
        3
176
     1
 62
     5
420
      255
176
     1
290
     0
176
     1
 90
       50
176
     1
 90
       50
176
     1
 90
       50
176
     1
290
     0
176
     1
 90
       50
176
     1
 62
   256
176
     0
 40
1.0
176
     0
 90
        2
176
     1
  1
strokes_ogs.tif
176
     1
290
     0
176
     1
 40
1.0
176
     1
 40
1.0
176
     1
  0
VISUALSTYLE
  5
C80
102
{ACAD_REACTORS
330
C74
102
}
330
C74
100
AcDbVisualStyle
  2
Brighten
 70
    12
177
     3
291
     1
 70
    58
 90
        2
176
     1
 90
        2
176
     1
 90
        0
176
     1
 90
        0
176
     1
 40
0.6
176
     1
 40
30.0
176
     1
 62
     7
176
     1
 90
        1
176
     1
 90
        4
176
     1
 62
     7
176
     1
 62
   257
176
     1
 90
        1
176
     1
 90
        1
176
     1
 40
1.0
176
     1
 90
        8
176
     1
 62
     7
176
     1
 40
1.0
176
     1
 90
        1
176
     1
 90
        6
176
     1
 90
        2
176
     1
 62
     7
176
     1
 90
        5
176
     1
 90
        0
176
     1
 90
        0
176
     1
290
     0
176
     1
 90
        1
176
     1
 40
50.0
176
     1
 90
        0
176
     1
290
     0
176
     1
290
     1
176
     1
290
     1
176
     1
290
     0
176
     1
290
     0
176
     1
290
     0
176
     1
290
     0
176
     1
290
     0
176
     1
290
     0
176
     1
 90
       50
176
     1
 40
0.0
176
     1
 40
1.0
176
     1
 90
        0
176
     1
 62
    18
420
        0
176
     1
 90
       50
176
     1
 90
        3
176
     1
 62
     5
420
      255
176
     1
290
     0
176
     1
 90
       50
176
     1
 90
       50
176
     1
 90
       50
176
     1
290
     0
176
     1
 90
       50
176
     1
 62
   256
176
     0
 40
1.0
176
     0
 90
        2
176
     1
  1
strokes_ogs.tif
176
     1
290
     0
176
     1
 40
1.0
176
     1
 40
1.0
176
     1
  0
VISUALSTYLE
  5
C84
102
{ACAD_REACTORS
330
C74
102
}
330
C74
100
AcDbVisualStyle
  2
ColorChange
 70
    16
177
     3
291
     1
 70
    58
 90
        2
176
     1
 90
        2
176
     1
 90
        3
176
     1
 90
        0
176
     1
 40
0.6
176
     1
 40
30.0
176
     1
 62
     8
176
     1
 90
        1
176
     1
 90
        4
176
     1
 62
     7
176
     1
 62
   257
176
     1
 90
        1
176
     1
 90
        1
176
     1
 40
1.0
176
     1
 90
        8
176
     1
 62
     8
176
     1
 40
1.0
176
     1
 90
        1
176
     1
 90
        6
176
     1
 90
        2
176
     1
 62
     7
176
     1
 90
        5
176
     1
 90
        0
176
     1
 90
        0
176
     1
290
     0
176
     1
 90
        1
176
     1
 40
0.0
176
     1
 90
        0
176
     1
290
     0
176
     1
290
     1
176
     1
290
     1
176
     1
290
     0
176
     1
290
     0
176
     1
290
     0
176
     1
290
     0
176
     1
290
     0
176
     1
290
     0
176
     1
 90
       50
176
     1
 40
0.0
176
     1
 40
1.0
176
     1
 90
        0
176
     1
 62
    18
420
        0
176
     1
 90
       50
176
     1
 90
        3
176
     1
 62
     5
420
      255
176
     1
290
     0
176
     1
 90
       50
176
     1
 90
       50
176
     1
 90
       50
176
     1
290
     0
176
     1
 90
       50
176
     1
 62
   256
176
     0
 40
1.0
176
     0
 90
        2
176
     1
  1
strokes_ogs.tif
176
     1
290
     0
176
     1
 40
1.0
176
     1
 40
1.0
176
     1
  0
VISUALSTYLE
  5
C7D
102
{ACAD_REACTORS
330
C74
102
}
330
C74
100
AcDbVisualStyle
  2
Conceptual
 70
     9
177
     3
291
     0
 70
    58
 90
        3
176
     1
 90
        2
176
     1
 90
        0
176
     1
 90
        0
176
     1
 40
0.6
176
     1
 40
30.0
176
     1
 62
     7
176
     1
 90
        2
176
     1
 90
        2
176
     1
 62
     7
176
     1
 62
   257
176
     1
 90
        1
176
     1
 90
        1
176
     1
 40
40.0
176
     1
 90
        8
176
     1
 62
     7
176
     1
 40
1.0
176
     1
 90
        1
176
     1
 90
        6
176
     1
 90
        2
176
     1
 62
     7
176
     1
 90
        3
176
     1
 90
        0
176
     1
 90
        0
176
     1
290
     0
176
     1
 90
        1
176
     1
 40
0.0
176
     1
 90
        0
176
     1
290
     0
176
     1
290
     1
176
     1
290
     1
176
     1
290
     0
176
     1
290
     0
176
     1
290
     0
176
     1
290
     0
176
     1
290
     0
176
     1
290
     0
176
     1
 90
       50
176
     1
 40
0.0
176
     1
 40
1.0
176
     1
 90
        0
176
     1
 62
    18
420
        0
176
     1
 90
       50
176
     1
 90
        3
176
     1
 62
     5
420
      255
176
     1
290
     0
176
     1
 90
       50
176
     1
 90
       50
176
     1
 90
       50
176
     1
290
     0
176
     1
 90
       50
176
     1
 62
   256
176
     0
 40
1.0
176
     0
 90
        2
176
     1
  1
strokes_ogs.tif
176
     1
290
     0
176
     1
 40
1.0
176
     1
 40
1.0
176
     1
  0
VISUALSTYLE
  5
C7F
102
{ACAD_REACTORS
330
C74
102
}
330
C74
100
AcDbVisualStyle
  2
Dim
 70
    11
177
     3
291
     1
 70
    58
 90
        2
176
     1
 90
        2
176
     1
 90
        0
176
     1
 90
        0
176
     1
 40
0.6
176
     1
 40
30.0
176
     1
 62
     7
176
     1
 90
        1
176
     1
 90
        4
176
     1
 62
     7
176
     1
 62
   257
176
     1
 90
        1
176
     1
 90
        1
176
     1
 40
1.0
176
     1
 90
        8
176
     1
 62
     7
176
     1
 40
1.0
176
     1
 90
        1
176
     1
 90
        6
176
     1
 90
        2
176
     1
 62
     7
176
     1
 90
        5
176
     1
 90
        0
176
     1
 90
        0
176
     1
290
     0
176
     1
 90
        1
176
     1
 40
-50.0
176
     1
 90
        0
176
     1
290
     0
176
     1
290
     1
176
     1
290
     1
176
     1
290
     0
176
     1
290
     0
176
     1
290
     0
176
     1
290
     0
176
     1
290
     0
176
     1
290
     0
176
     1
 90
       50
176
     1
 40
0.0
176
     1
 40
1.0
176
     1
 90
        0
176
     1
 62
    18
420
        0
176
     1
 90
       50
176
     1
 90
        3
176
     1
 62
     5
420
      255
176
     1
290
     0
176
     1
 90
       50
176
     1
 90
       50
176
     1
 90
       50
176
     1
290
     0
176
     1
 90
       50
176
     1
 62
   256
176
     0
 40
1.0
176
     0
 90
        2
176
     1
  1
strokes_ogs.tif
176
     1
290
     0
176
     1
 40
1.0
176
     1
 40
1.0
176
     1
  0
VISUALSTYLE
  5
6524
102
{ACAD_REACTORS
330
C74
102
}
330
C74
100
AcDbVisualStyle
  2
EdgeColorOff
 70
    22
177
     3
291
     1
 70
    58
 90
        2
176
     0
 90
        2
176
     0
 90
        0
176
     0
 90
        0
176
     0
 40
0.6
176
     0
 40
30.0
176
     0
 62
     7
420
 16777215
176
     0
 90
        1
176
     0
 90
        4
176
     0
 62
     7
176
     0
 62
   257
176
     0
 90
        1
176
     0
 90
        1
176
     0
 40
1.0
176
     0
 90
        8
176
     2
 62
     7
176
     0
 40
1.0
176
     0
 90
        1
176
     0
 90
        6
176
     0
 90
        2
176
     0
 62
     7
176
     0
 90
        5
176
     0
 90
        0
176
     0
 90
        0
176
     0
290
     0
176
     0
 90
        1
176
     0
 40
0.0
176
     0
 90
        0
176
     0
290
     0
176
     0
290
     1
176
     0
290
     1
176
     0
290
     0
176
     0
290
     0
176
     0
290
     0
176
     0
290
     0
176
     0
290
     0
176
     0
290
     0
176
     0
 90
       50
176
     0
 40
0.0
176
     0
 40
1.0
176
     0
 90
        0
176
     0
 62
    18
420
        0
176
     0
 90
       50
176
     0
 90
        3
176
     0
 62
     5
420
      255
176
     0
290
     0
176
     0
 90
       50
176
     0
 90
       50
176
     0
 90
       50
176
     0
290
     0
176
     0
 90
       50
176
     0
 62
   256
176
     0
 40
1.0
176
     0
 90
        2
176
     0
  1
strokes_ogs.tif
176
     0
290
     0
176
     0
 40
1.0
176
     0
 40
1.0
176
     0
  0
VISUALSTYLE
  5
C83
102
{ACAD_REACTORS
330
C74
102
}
330
C74
100
AcDbVisualStyle
  2
Facepattern
 70
    15
177
     3
291
     1
 70
    58
 90
        2
176
     1
 90
        2
176
     1
 90
        0
176
     1
 90
        0
176
     1
 40
0.6
176
     1
 40
30.0
176
     1
 62
     7
176
     1
 90
        1
176
     1
 90
        4
176
     1
 62
     7
176
     1
 62
   257
176
     1
 90
        1
176
     1
 90
        1
176
     1
 40
1.0
176
     1
 90
        8
176
     1
 62
     7
176
     1
 40
1.0
176
     1
 90
        1
176
     1
 90
        6
176
     1
 90
        2
176
     1
 62
     7
176
     1
 90
        5
176
     1
 90
        0
176
     1
 90
        0
176
     1
290
     0
176
     1
 90
        1
176
     1
 40
0.0
176
     1
 90
        0
176
     1
290
     0
176
     1
290
     1
176
     1
290
     1
176
     1
290
     0
176
     1
290
     0
176
     1
290
     0
176
     1
290
     0
176
     1
290
     0
176
     1
290
     0
176
     1
 90
       50
176
     1
 40
0.0
176
     1
 40
1.0
176
     1
 90
        0
176
     1
 62
    18
420
        0
176
     1
 90
       50
176
     1
 90
        3
176
     1
 62
     5
420
      255
176
     1
290
     0
176
     1
 90
       50
176
     1
 90
       50
176
     1
 90
       50
176
     1
290
     0
176
     1
 90
       50
176
     1
 62
   256
176
     0
 40
1.0
176
     0
 90
        2
176
     1
  1
strokes_ogs.tif
176
     1
290
     0
176
     1
 40
1.0
176
     1
 40
1.0
176
     1
  0
VISUALSTYLE
  5
C75
102
{ACAD_REACTORS
330
C74
102
}
330
C74
100
AcDbVisualStyle
  2
Flat
 70
     0
177
     3
291
     1
 70
    58
 90
        2
176
     1
 90
        1
176
     1
 90
        1
176
     1
 90
        2
176
     1
 40
0.6
176
     1
 40
30.0
176
     1
 62
     7
176
     1
 90
        0
176
     1
 90
        4
176
     1
 62
     7
176
     1
 62
   257
176
     1
 90
        1
176
     1
 90
        1
176
     1
 40
1.0
176
     1
 90
        8
176
     1
 62
     7
176
     1
 40
1.0
176
     1
 90
        1
176
     1
 90
        6
176
     1
 90
        2
176
     1
 62
     7
176
     1
 90
        5
176
     1
 90
        0
176
     1
 90
        0
176
     1
290
     0
176
     1
 90
       13
176
     1
 40
0.0
176
     1
 90
        0
176
     1
290
     0
176
     1
290
     1
176
     1
290
     1
176
     1
290
     0
176
     1
290
     0
176
     1
290
     0
176
     1
290
     0
176
     1
290
     0
176
     1
290
     0
176
     1
 90
       50
176
     1
 40
0.0
176
     1
 40
1.0
176
     1
 90
        0
176
     1
 62
    18
420
        0
176
     1
 90
       50
176
     1
 90
        3
176
     1
 62
     5
420
      255
176
     1
290
     0
176
     1
 90
       50
176
     1
 90
       50
176
     1
 90
       50
176
     1
290
     0
176
     1
 90
       50
176
     1
 62
   256
176
     0
 40
1.0
176
     0
 90
        2
176
     1
  1
strokes_ogs.tif
176
     1
290
     0
176
     1
 40
1.0
176
     1
 40
1.0
176
     1
  0
VISUALSTYLE
  5
C76
102
{ACAD_REACTORS
330
C74
102
}
330
C74
100
AcDbVisualStyle
  2
FlatWithEdges
 70
     1
177
     3
291
     1
 70
    58
 90
        2
176
     1
 90
        1
176
     1
 90
        1
176
     1
 90
        2
176
     1
 40
0.6
176
     1
 40
30.0
176
     1
 62
     7
176
     1
 90
        1
176
     1
 90
        4
176
     1
 62
     7
176
     1
 62
   257
176
     1
 90
        1
176
     1
 90
        1
176
     1
 40
1.0
176
     1
 90
        0
176
     1
 62
   257
176
     1
 40
1.0
176
     1
 90
        1
176
     1
 90
        6
176
     1
 90
        2
176
     1
 62
     7
176
     1
 90
        5
176
     1
 90
        0
176
     1
 90
        0
176
     1
290
     0
176
     1
 90
       13
176
     1
 40
0.0
176
     1
 90
        0
176
     1
290
     0
176
     1
290
     1
176
     1
290
     1
176
     1
290
     0
176
     1
290
     0
176
     1
290
     0
176
     1
290
     0
176
     1
290
     0
176
     1
290
     0
176
     1
 90
       50
176
     1
 40
0.0
176
     1
 40
1.0
176
     1
 90
        0
176
     1
 62
    18
420
        0
176
     1
 90
       50
176
     1
 90
        3
176
     1
 62
     5
420
      255
176
     1
290
     0
176
     1
 90
       50
176
     1
 90
       50
176
     1
 90
       50
176
     1
290
     0
176
     1
 90
       50
176
     1
 62
   256
176
     0
 40
1.0
176
     0
 90
        2
176
     1
  1
strokes_ogs.tif
176
     1
290
     0
176
     1
 40
1.0
176
     1
 40
1.0
176
     1
  0
VISUALSTYLE
  5
C77
102
{ACAD_REACTORS
330
C74
102
}
330
C74
100
AcDbVisualStyle
  2
Gouraud
 70
     2
177
     3
291
     1
 70
    58
 90
        2
176
     1
 90
        2
176
     1
 90
        1
176
     1
 90
        2
176
     1
 40
0.6
176
     1
 40
30.0
176
     1
 62
     7
176
     1
 90
        0
176
     1
 90
        4
176
     1
 62
     7
176
     1
 62
   257
176
     1
 90
        1
176
     1
 90
        1
176
     1
 40
1.0
176
     1
 90
        0
176
     1
 62
     7
176
     1
 40
1.0
176
     1
 90
        1
176
     1
 90
        6
176
     1
 90
        2
176
     1
 62
     7
176
     1
 90
        5
176
     1
 90
        0
176
     1
 90
        0
176
     1
290
     0
176
     1
 90
       13
176
     1
 40
0.0
176
     1
 90
        0
176
     1
290
     0
176
     1
290
     1
176
     1
290
     1
176
     1
290
     0
176
     1
290
     0
176
     1
290
     0
176
     1
290
     0
176
     1
290
     0
176
     1
290
     0
176
     1
 90
       50
176
     1
 40
0.0
176
     1
 40
1.0
176
     1
 90
        0
176
     1
 62
    18
420
        0
176
     1
 90
       50
176
     1
 90
        3
176
     1
 62
     5
420
      255
176
     1
290
     0
176
     1
 90
       50
176
     1
 90
       50
176
     1
 90
       50
176
     1
290
     0
176
     1
 90
       50
176
     1
 62
   256
176
     0
 40
1.0
176
     0
 90
        2
176
     1
  1
strokes_ogs.tif
176
     1
290
     0
176
     1
 40
1.0
176
     1
 40
1.0
176
     1
  0
VISUALSTYLE
  5
C78
102
{ACAD_REACTORS
330
C74
102
}
330
C74
100
AcDbVisualStyle
  2
GouraudWithEdges
 70
     3
177
     3
291
     1
 70
    58
 90
        2
176
     1
 90
        2
176
     1
 90
        1
176
     1
 90
        2
176
     1
 40
0.6
176
     1
 40
30.0
176
     1
 62
     7
176
     1
 90
        1
176
     1
 90
        4
176
     1
 62
     7
176
     1
 62
   257
176
     1
 90
        1
176
     1
 90
        1
176
     1
 40
1.0
176
     1
 90
        0
176
     1
 62
   257
176
     1
 40
1.0
176
     1
 90
        1
176
     1
 90
        6
176
     1
 90
        2
176
     1
 62
     7
176
     1
 90
        5
176
     1
 90
        0
176
     1
 90
        0
176
     1
290
     0
176
     1
 90
       13
176
     1
 40
0.0
176
     1
 90
        0
176
     1
290
     0
176
     1
290
     1
176
     1
290
     1
176
     1
290
     0
176
     1
290
     0
176
     1
290
     0
176
     1
290
     0
176
     1
290
     0
176
     1
290
     0
176
     1
 90
       50
176
     1
 40
0.0
176
     1
 40
1.0
176
     1
 90
        0
176
     1
 62
    18
420
        0
176
     1
 90
       50
176
     1
 90
        3
176
     1
 62
     5
420
      255
176
     1
290
     0
176
     1
 90
       50
176
     1
 90
       50
176
     1
 90
       50
176
     1
290
     0
176
     1
 90
       50
176
     1
 62
   256
176
     0
 40
1.0
176
     0
 90
        2
176
     1
  1
strokes_ogs.tif
176
     1
290
     0
176
     1
 40
1.0
176
     1
 40
1.0
176
     1
  0
VISUALSTYLE
  5
651C
102
{ACAD_REACTORS
330
C74
102
}
330
C74
100
AcDbVisualStyle
  2
Hidden
 70
     6
177
     3
291
     0
 70
    58
 90
        1
176
     1
 90
        2
176
     1
 90
        2
176
     1
 90
        0
176
     1
 40
0.6
176
     1
 40
30.0
176
     1
 62
     7
420
 16777215
176
     1
 90
        2
176
     1
 90
        2
176
     1
 62
     7
176
     1
 62
   257
176
     1
 90
        2
176
     1
 90
        1
176
     1
 40
40.0
176
     1
 90
        0
176
     1
 62
   257
176
     1
 40
1.0
176
     1
 90
        1
176
     1
 90
        6
176
     1
 90
        2
176
     1
 62
     7
176
     1
 90
        3
176
     1
 90
        0
176
     1
 90
        0
176
     1
290
     0
176
     1
 90
        1
176
     1
 40
0.0
176
     1
 90
        0
176
     1
290
     0
176
     1
290
     1
176
     1
290
     1
176
     1
290
     0
176
     1
290
     0
176
     1
290
     0
176
     1
290
     0
176
     1
290
     0
176
     1
290
     0
176
     1
 90
       50
176
     1
 40
0.0
176
     1
 40
1.0
176
     1
 90
        0
176
     1
 62
    18
420
        0
176
     1
 90
       50
176
     1
 90
        3
176
     1
 62
     5
420
      255
176
     1
290
     0
176
     1
 90
       50
176
     1
 90
       50
176
     1
 90
       50
176
     1
290
     0
176
     1
 90
       50
176
     1
 62
   256
176
     0
 40
1.0
176
     0
 90
        2
176
     1
  1
strokes_ogs.tif
176
     1
290
     0
176
     1
 40
1.0
176
     1
 40
1.0
176
     1
  0
VISUALSTYLE
  5
6522
102
{ACAD_REACTORS
330
C74
102
}
330
C74
100
AcDbVisualStyle
  2
JitterOff
 70
    20
177
     3
291
     1
 70
    58
 90
        2
176
     0
 90
        2
176
     0
 90
        0
176
     0
 90
        0
176
     0
 40
0.6
176
     0
 40
30.0
176
     0
 62
     7
420
 16777215
176
     0
 90
        1
176
     0
 90
        4
176
     0
 62
     7
176
     0
 62
   257
176
     0
 90
        1
176
     0
 90
        1
176
     0
 40
1.0
176
     0
 90
       10
176
     2
 62
     7
176
     0
 40
1.0
176
     0
 90
        1
176
     0
 90
        6
176
     0
 90
        2
176
     0
 62
     7
176
     0
 90
        5
176
     0
 90
        0
176
     0
 90
        0
176
     0
290
     0
176
     0
 90
        1
176
     0
 40
0.0
176
     0
 90
        0
176
     0
290
     0
176
     0
290
     1
176
     0
290
     1
176
     0
290
     0
176
     0
290
     0
176
     0
290
     0
176
     0
290
     0
176
     0
290
     0
176
     0
290
     0
176
     0
 90
       50
176
     0
 40
0.0
176
     0
 40
1.0
176
     0
 90
        0
176
     0
 62
    18
420
        0
176
     0
 90
       50
176
     0
 90
        3
176
     0
 62
     5
420
      255
176
     0
290
     0
176
     0
 90
       50
176
     0
 90
       50
176
     0
 90
       50
176
     0
290
     0
176
     0
 90
       50
176
     0
 62
   256
176
     0
 40
1.0
176
     0
 90
        2
176
     0
  1
strokes_ogs.tif
176
     0
290
     0
176
     0
 40
1.0
176
     0
 40
1.0
176
     0
  0
VISUALSTYLE
  5
C82
102
{ACAD_REACTORS
330
C74
102
}
330
C74
100
AcDbVisualStyle
  2
Linepattern
 70
    14
177
     3
291
     1
 70
    58
 90
        2
176
     1
 90
        2
176
     1
 90
        0
176
     1
 90
        0
176
     1
 40
0.6
176
     1
 40
30.0
176
     1
 62
     7
176
     1
 90
        1
176
     1
 90
        4
176
     1
 62
     7
176
     1
 62
   257
176
     1
 90
        7
176
     1
 90
        7
176
     1
 40
1.0
176
     1
 90
        8
176
     1
 62
     7
176
     1
 40
1.0
176
     1
 90
        1
176
     1
 90
        6
176
     1
 90
        2
176
     1
 62
     7
176
     1
 90
        5
176
     1
 90
        0
176
     1
 90
        0
176
     1
290
     0
176
     1
 90
        1
176
     1
 40
0.0
176
     1
 90
        0
176
     1
290
     0
176
     1
290
     1
176
     1
290
     1
176
     1
290
     0
176
     1
290
     0
176
     1
290
     0
176
     1
290
     0
176
     1
290
     0
176
     1
290
     0
176
     1
 90
       50
176
     1
 40
0.0
176
     1
 40
1.0
176
     1
 90
        0
176
     1
 62
    18
420
        0
176
     1
 90
       50
176
     1
 90
        3
176
     1
 62
     5
420
      255
176
     1
290
     0
176
     1
 90
       50
176
     1
 90
       50
176
     1
 90
       50
176
     1
290
     0
176
     1
 90
       50
176
     1
 62
   256
176
     0
 40
1.0
176
     0
 90
        2
176
     1
  1
strokes_ogs.tif
176
     1
290
     0
176
     1
 40
1.0
176
     1
 40
1.0
176
     1
  0
VISUALSTYLE
  5
6523
102
{ACAD_REACTORS
330
C74
102
}
330
C74
100
AcDbVisualStyle
  2
OverhangOff
 70
    21
177
     3
291
     1
 70
    58
 90
        2
176
     0
 90
        2
176
     0
 90
        0
176
     0
 90
        0
176
     0
 40
0.6
176
     0
 40
30.0
176
     0
 62
     7
420
 16777215
176
     0
 90
        1
176
     0
 90
        4
176
     0
 62
     7
176
     0
 62
   257
176
     0
 90
        1
176
     0
 90
        1
176
     0
 40
1.0
176
     0
 90
        9
176
     2
 62
     7
176
     0
 40
1.0
176
     0
 90
        1
176
     0
 90
        6
176
     0
 90
        2
176
     0
 62
     7
176
     0
 90
        5
176
     0
 90
        0
176
     0
 90
        0
176
     0
290
     0
176
     0
 90
        1
176
     0
 40
0.0
176
     0
 90
        0
176
     0
290
     0
176
     0
290
     1
176
     0
290
     1
176
     0
290
     0
176
     0
290
     0
176
     0
290
     0
176
     0
290
     0
176
     0
290
     0
176
     0
290
     0
176
     0
 90
       50
176
     0
 40
0.0
176
     0
 40
1.0
176
     0
 90
        0
176
     0
 62
    18
420
        0
176
     0
 90
       50
176
     0
 90
        3
176
     0
 62
     5
420
      255
176
     0
290
     0
176
     0
 90
       50
176
     0
 90
       50
176
     0
 90
       50
176
     0
290
     0
176
     0
 90
       50
176
     0
 62
   256
176
     0
 40
1.0
176
     0
 90
        2
176
     0
  1
strokes_ogs.tif
176
     0
290
     0
176
     0
 40
1.0
176
     0
 40
1.0
176
     0
  0
VISUALSTYLE
  5
C7E
102
{ACAD_REACTORS
330
C74
102
}
330
C74
100
AcDbVisualStyle
  2
Realistic
 70
     8
177
     3
291
     0
 70
    58
 90
        2
176
     1
 90
        2
176
     1
 90
        0
176
     1
 90
        0
176
     1
 40
0.6
176
     1
 40
30.0
176
     1
 62
     7
176
     1
 90
        1
176
     1
 90
        0
176
     1
 62
     7
176
     1
 62
   257
176
     1
 90
        1
176
     1
 90
        1
176
     1
 40
1.0
176
     1
 90
        8
176
     1
 62
     8
176
     1
 40
1.0
176
     1
 90
        1
176
     1
 90
        6
176
     1
 90
        2
176
     1
 62
     7
176
     1
 90
        5
176
     1
 90
        0
176
     1
 90
        0
176
     1
290
     0
176
     1
 90
       13
176
     1
 40
0.0
176
     1
 90
        0
176
     1
290
     0
176
     1
290
     1
176
     1
290
     1
176
     1
290
     0
176
     1
290
     0
176
     1
290
     0
176
     1
290
     0
176
     1
290
     0
176
     1
290
     0
176
     1
 90
       50
176
     1
 40
0.0
176
     1
 40
1.0
176
     1
 90
        0
176
     1
 62
    18
420
        0
176
     1
 90
       50
176
     1
 90
        3
176
     1
 62
     5
420
      255
176
     1
290
     0
176
     1
 90
       50
176
     1
 90
       50
176
     1
 90
       50
176
     1
290
     0
176
     1
 90
       50
176
     1
 62
   256
176
     0
 40
1.0
176
     0
 90
        2
176
     1
  1
strokes_ogs.tif
176
     1
290
     0
176
     1
 40
1.0
176
     1
 40
1.0
176
     1
  0
VISUALSTYLE
  5
6521
102
{ACAD_REACTORS
330
C74
102
}
330
C74
100
AcDbVisualStyle
  2
Shaded
 70
    27
177
     3
291
     0
 70
    58
 90
        2
176
     1
 90
        2
176
     1
 90
        1
176
     1
 90
        2
176
     1
 40
0.6
176
     1
 40
30.0
176
     1
 62
     7
420
 16777215
176
     1
 90
        0
176
     1
 90
        4
176
     1
 62
     7
176
     1
 62
   257
176
     1
 90
        1
176
     1
 90
        1
176
     1
 40
1.0
176
     1
 90
        8
176
     1
 62
   257
176
     1
 40
1.0
176
     1
 90
        1
176
     1
 90
        6
176
     1
 90
        2
176
     1
 62
     8
420
  7895160
176
     1
 90
        3
176
     1
 90
        0
176
     1
 90
        0
176
     1
290
     0
176
     1
 90
        5
176
     1
 40
0.0
176
     1
 90
        0
176
     1
290
     0
176
     1
290
     1
176
     1
290
     1
176
     1
290
     0
176
     1
290
     0
176
     1
290
     0
176
     1
290
     0
176
     1
290
     0
176
     1
290
     0
176
     1
 90
       50
176
     1
 40
0.0
176
     1
 40
1.0
176
     1
 90
        0
176
     1
 62
    18
420
        0
176
     1
 90
       50
176
     1
 90
        3
176
     1
 62
     5
420
      255
176
     1
290
     0
176
     1
 90
       50
176
     1
 90
       50
176
     1
 90
       50
176
     1
290
     0
176
     1
 90
       50
176
     1
 62
   256
176
     0
 40
1.0
176
     0
 90
        2
176
     1
  1
strokes_ogs.tif
176
     1
290
     0
176
     1
 40
1.0
176
     1
 40
1.0
176
     1
  0
VISUALSTYLE
  5
6520
102
{ACAD_REACTORS
330
C74
102
}
330
C74
100
AcDbVisualStyle
  2
Shaded with edges
 70
    26
177
     3
291
     0
 70
    58
 90
        2
176
     1
 90
        2
176
     1
 90
        1
176
     1
 90
        2
176
     1
 40
0.6
176
     1
 40
30.0
176
     1
 62
     7
420
 16777215
176
     1
 90
        1
176
     1
 90
       10
176
     1
 62
     7
176
     1
 62
   257
176
     1
 90
        2
176
     1
 90
        1
176
     1
 40
1.0
176
     1
 90
        8
176
     1
 62
   257
176
     1
 40
1.0
176
     1
 90
        1
176
     1
 90
        6
176
     1
 90
        2
176
     1
 62
     7
176
     1
 90
        3
176
     1
 90
        0
176
     1
 90
        0
176
     1
290
     0
176
     1
 90
        5
176
     1
 40
0.0
176
     1
 90
        0
176
     1
290
     0
176
     1
290
     1
176
     1
290
     1
176
     1
290
     0
176
     1
290
     0
176
     1
290
     0
176
     1
290
     0
176
     1
290
     0
176
     1
290
     0
176
     1
 90
       50
176
     1
 40
0.0
176
     1
 40
1.0
176
     1
 90
        0
176
     1
 62
    18
420
        0
176
     1
 90
       50
176
     1
 90
        3
176
     1
 62
     5
420
      255
176
     1
290
     0
176
     1
 90
       50
176
     1
 90
       50
176
     1
 90
       50
176
     1
290
     0
176
     1
 90
       50
176
     1
 62
   256
176
     0
 40
1.0
176
     0
 90
        2
176
     1
  1
strokes_ogs.tif
176
     1
290
     0
176
     1
 40
1.0
176
     1
 40
1.0
176
     1
  0
VISUALSTYLE
  5
651D
102
{ACAD_REACTORS
330
C74
102
}
330
C74
100
AcDbVisualStyle
  2
Shades of Gray
 70
    23
177
     3
291
     0
 70
    58
 90
        2
176
     1
 90
        2
176
     1
 90
        3
176
     1
 90
        0
176
     1
 40
0.6
176
     1
 40
30.0
176
     1
 62
     7
420
 16777215
176
     1
 90
        2
176
     1
 90
        2
176
     1
 62
     7
176
     1
 62
     7
176
     1
 90
        1
176
     1
 90
        1
176
     1
 40
40.0
176
     1
 90
        8
176
     1
 62
     7
176
     1
 40
1.0
176
     1
 90
        1
176
     1
 90
        6
176
     1
 90
        2
176
     1
 62
     7
176
     1
 90
        3
176
     1
 90
        0
176
     1
 90
        0
176
     1
290
     0
176
     1
 90
        1
176
     1
 40
0.0
176
     1
 90
        0
176
     1
290
     0
176
     1
290
     1
176
     1
290
     1
176
     1
290
     0
176
     1
290
     0
176
     1
290
     0
176
     1
290
     0
176
     1
290
     0
176
     1
290
     0
176
     1
 90
       50
176
     1
 40
0.0
176
     1
 40
1.0
176
     1
 90
        0
176
     1
 62
    18
420
        0
176
     1
 90
       50
176
     1
 90
        3
176
     1
 62
     5
420
      255
176
     1
290
     0
176
     1
 90
       50
176
     1
 90
       50
176
     1
 90
       50
176
     1
290
     0
176
     1
 90
       50
176
     1
 62
   256
176
     0
 40
1.0
176
     0
 90
        2
176
     1
  1
strokes_ogs.tif
176
     1
290
     0
176
     1
 40
1.0
176
     1
 40
1.0
176
     1
  0
VISUALSTYLE
  5
651E
102
{ACAD_REACTORS
330
C74
102
}
330
C74
100
AcDbVisualStyle
  2
Sketchy
 70
    24
177
     3
291
     0
 70
    58
 90
        1
176
     1
 90
        2
176
     1
 90
        2
176
     1
 90
        0
176
     1
 40
0.6
176
     1
 40
30.0
176
     1
 62
     7
420
 16777215
176
     1
 90
        2
176
     1
 90
        2
176
     1
 62
     7
176
     1
 62
     7
176
     1
 90
        1
176
     1
 90
        1
176
     1
 40
40.0
176
     1
 90
       11
176
     1
 62
     7
176
     1
 40
1.0
176
     1
 90
        1
176
     1
 90
        6
176
     1
 90
        2
176
     1
 62
     7
176
     1
 90
        6
176
     1
 90
        0
176
     1
 90
        0
176
     1
290
     0
176
     1
 90
        1
176
     1
 40
0.0
176
     1
 90
        0
176
     1
290
     0
176
     1
290
     1
176
     1
290
     1
176
     1
290
     0
176
     1
290
     0
176
     1
290
     0
176
     1
290
     0
176
     1
290
     0
176
     1
290
     0
176
     1
 90
       50
176
     1
 40
0.0
176
     1
 40
1.0
176
     1
 90
        0
176
     1
 62
    18
420
        0
176
     1
 90
       50
176
     1
 90
        3
176
     1
 62
     5
420
      255
176
     1
290
     0
176
     1
 90
       50
176
     1
 90
       50
176
     1
 90
       50
176
     1
290
     0
176
     1
 90
       50
176
     1
 62
   256
176
     0
 40
1.0
176
     0
 90
        2
176
     1
  1
strokes_ogs.tif
176
     1
290
     0
176
     1
 40
1.0
176
     1
 40
1.0
176
     1
  0
VISUALSTYLE
  5
C81
102
{ACAD_REACTORS
330
C74
102
}
330
C74
100
AcDbVisualStyle
  2
Thicken
 70
    13
177
     3
291
     1
 70
    58
 90
        2
176
     1
 90
        2
176
     1
 90
        0
176
     1
 90
        0
176
     1
 40
0.6
176
     1
 40
30.0
176
     1
 62
     7
176
     1
 90
        1
176
     1
 90
        4
176
     1
 62
     7
176
     1
 62
   257
176
     1
 90
        1
176
     1
 90
        1
176
     1
 40
1.0
176
     1
 90
       12
176
     1
 62
     7
176
     1
 40
1.0
176
     1
 90
        1
176
     1
 90
        6
176
     1
 90
        2
176
     1
 62
     7
176
     1
 90
        5
176
     1
 90
        0
176
     1
 90
        0
176
     1
290
     0
176
     1
 90
        1
176
     1
 40
0.0
176
     1
 90
        0
176
     1
290
     0
176
     1
290
     1
176
     1
290
     1
176
     1
290
     0
176
     1
290
     0
176
     1
290
     0
176
     1
290
     0
176
     1
290
     0
176
     1
290
     0
176
     1
 90
       50
176
     1
 40
0.0
176
     1
 40
1.0
176
     1
 90
        0
176
     1
 62
    18
420
        0
176
     1
 90
       50
176
     1
 90
        3
176
     1
 62
     5
420
      255
176
     1
290
     0
176
     1
 90
       50
176
     1
 90
       50
176
     1
 90
       50
176
     1
290
     0
176
     1
 90
       50
176
     1
 62
   256
176
     0
 40
1.0
176
     0
 90
        2
176
     1
  1
strokes_ogs.tif
176
     1
290
     0
176
     1
 40
1.0
176
     1
 40
1.0
176
     1
  0
VISUALSTYLE
  5
651B
102
{ACAD_REACTORS
330
C74
102
}
330
C74
100
AcDbVisualStyle
  2
Wireframe
 70
     5
177
     3
291
     0
 70
    58
 90
        0
176
     1
 90
        2
176
     1
 90
        0
176
     1
 90
        0
176
     1
 40
0.6
176
     1
 40
30.0
176
     1
 62
     7
420
 16777215
176
     1
 90
        1
176
     1
 90
        4
176
     1
 62
     7
176
     1
 62
   257
176
     1
 90
        1
176
     1
 90
        1
176
     1
 40
1.0
176
     1
 90
        0
176
     1
 62
   257
176
     1
 40
1.0
176
     1
 90
        1
176
     1
 90
        6
176
     1
 90
        2
176
     1
 62
     7
176
     1
 90
        3
176
     1
 90
        0
176
     1
 90
        0
176
     1
290
     0
176
     1
 90
        1
176
     1
 40
0.0
176
     1
 90
        0
176
     1
290
     0
176
     1
290
     1
176
     1
290
     1
176
     1
290
     0
176
     1
290
     0
176
     1
290
     0
176
     1
290
     0
176
     1
290
     0
176
     1
290
     0
176
     1
 90
       50
176
     1
 40
0.0
176
     1
 40
1.0
176
     1
 90
        0
176
     1
 62
    18
420
        0
176
     1
 90
       50
176
     1
 90
        3
176
     1
 62
     5
420
      255
176
     1
290
     0
176
     1
 90
       50
176
     1
 90
       50
176
     1
 90
       50
176
     1
290
     0
176
     1
 90
       50
176
     1
 62
   256
176
     0
 40
1.0
176
     0
 90
        2
176
     1
  1
strokes_ogs.tif
176
     1
290
     0
176
     1
 40
1.0
176
     1
 40
1.0
176
     1
  0
VISUALSTYLE
  5
651F
102
{ACAD_REACTORS
330
C74
102
}
330
C74
100
AcDbVisualStyle
  2
X-Ray
 70
    25
177
     3
291
     0
 70
    58
 90
        2
176
     1
 90
        2
176
     1
 90
        1
176
     1
 90
        1
176
     1
 40
0.5
176
     1
 40
30.0
176
     1
 62
     7
420
 16777215
176
     1
 90
        1
176
     1
 90
        0
176
     1
 62
     7
176
     1
 62
   257
176
     1
 90
        1
176
     1
 90
        1
176
     1
 40
1.0
176
     1
 90
        8
176
     1
 62
     7
176
     1
 40
1.0
176
     1
 90
        1
176
     1
 90
        6
176
     1
 90
        2
176
     1
 62
     7
176
     1
 90
        3
176
     1
 90
        0
176
     1
 90
        0
176
     1
290
     0
176
     1
 90
       13
176
     1
 40
0.0
176
     1
 90
        0
176
     1
290
     0
176
     1
290
     1
176
     1
290
     1
176
     1
290
     0
176
     1
290
     0
176
     1
290
     0
176
     1
290
     0
176
     1
290
     0
176
     1
290
     0
176
     1
 90
       50
176
     1
 40
0.0
176
     1
 40
1.0
176
     1
 90
        0
176
     1
 62
    18
420
        0
176
     1
 90
       50
176
     1
 90
        3
176
     1
 62
     5
420
      255
176
     1
290
     0
176
     1
 90
       50
176
     1
 90
       50
176
     1
 90
       50
176
     1
290
     0
176
     1
 90
       50
176
     1
 62
   256
176
     0
 40
1.0
176
     0
 90
        2
176
     1
  1
strokes_ogs.tif
176
     1
290
     0
176
     1
 40
1.0
176
     1
 40
1.0
176
     1
  0
DICTIONARYVAR
  5
656B
102
{ACAD_REACTORS
330
21E
102
}
330
21E
100
DictionaryVariables
280
     0
  1
1:1
  0
DICTIONARYVAR
  5
6567
102
{ACAD_REACTORS
330
21E
102
}
330
21E
100
DictionaryVariables
280
     0
  1
STANDARD
  0
DICTIONARYVAR
  5
E8E
102
{ACAD_REACTORS
330
21E
102
}
330
21E
100
DictionaryVariables
280
     0
  1
STANDARD
  0
DICTIONARYVAR
  5
6568
102
{ACAD_REACTORS
330
21E
102
}
330
21E
100
DictionaryVariables
280
     0
  1
Imperial24
  0
DICTIONARYVAR
  5
6569
102
{ACAD_REACTORS
330
21E
102
}
330
21E
100
DictionaryVariables
280
     0
  1
Imperial24
  0
DICTIONARYVAR
  5
21F
102
{ACAD_REACTORS
330
21E
102
}
330
21E
100
DictionaryVariables
280
     0
  1
1
  0
DICTIONARYVAR
  5
E90
102
{ACAD_REACTORS
330
21E
102
}
330
21E
100
DictionaryVariables
280
     0
  1
0
  0
DICTIONARYVAR
  5
656D
102
{ACAD_REACTORS
330
21E
102
}
330
21E
100
DictionaryVariables
280
     0
  1
1
  0
DICTIONARYVAR
  5
656E
102
{ACAD_REACTORS
330
21E
102
}
330
21E
100
DictionaryVariables
280
     0
  1
15
  0
DICTIONARYVAR
  5
656C
102
{ACAD_REACTORS
330
21E
102
}
330
21E
100
DictionaryVariables
280
     0
  1
0
  0
DICTIONARYVAR
  5
656A
102
{ACAD_REACTORS
330
21E
102
}
330
21E
100
DictionaryVariables
280
     0
  1
0
  0
DICTIONARYVAR
  5
220
102
{ACAD_REACTORS
330
21E
102
}
330
21E
100
DictionaryVariables
280
     0
  1

  0
DICTIONARYVAR
  5
E8F
102
{ACAD_REACTORS
330
21E
102
}
330
21E
100
DictionaryVariables
280
     0
  1
127
  0
DICTIONARY
  5
DB60
330
C86
100
AcDbDictionary
280
     1
281
     1
  3
ACAD_ROUNDTRIP_2008_TABLESTYLE_CELLSTYLEMAP
360
DB61
  0
CELLSTYLEMAP
  5
DB61
102
{ACAD_REACTORS
330
DB60
102
}
330
DB60
100
AcDbCellStyleMap
 90
        3
300
CELLSTYLE
  1
TABLEFORMAT_BEGIN
 90
        5
170
     1
 91
        0
 92
    32768
 62
   257
 93
        1
300
CONTENTFORMAT
  1
CONTENTFORMAT_BEGIN
 90
        0
 91
        0
 92
      512
 93
        0
300

 40
0.0
140
1.0
 94
        5
 62
     0
340
16
144
0.25
309
CONTENTFORMAT_END
171
     0
 94
        6
 95
        1
302
GRIDFORMAT
  1
GRIDFORMAT_BEGIN
 90
        0
 91
        1
 62
     0
 92
       -2
340
0
 93
        0
 40
0.045
309
GRIDFORMAT_END
 95
        2
302
GRIDFORMAT
  1
GRIDFORMAT_BEGIN
 90
        0
 91
        1
 62
     0
 92
       -2
340
0
 93
        0
 40
0.045
309
GRIDFORMAT_END
 95
        4
302
GRIDFORMAT
  1
GRIDFORMAT_BEGIN
 90
        0
 91
        1
 62
     0
 92
       -2
340
0
 93
        0
 40
0.045
309
GRIDFORMAT_END
 95
        8
302
GRIDFORMAT
  1
GRIDFORMAT_BEGIN
 90
        0
 91
        1
 62
     0
 92
       -2
340
0
 93
        0
 40
0.045
309
GRIDFORMAT_END
 95
       16
302
GRIDFORMAT
  1
GRIDFORMAT_BEGIN
 90
        0
 91
        1
 62
     0
 92
       -2
340
0
 93
        0
 40
0.045
309
GRIDFORMAT_END
 95
       32
302
GRIDFORMAT
  1
GRIDFORMAT_BEGIN
 90
        0
 91
        1
 62
     0
 92
       -2
340
0
 93
        0
 40
0.045
309
GRIDFORMAT_END
309
TABLEFORMAT_END
  1
CELLSTYLE_BEGIN
 90
        1
 91
        1
300
_TITLE
309
CELLSTYLE_END
300
CELLSTYLE
  1
TABLEFORMAT_BEGIN
 90
        5
170
     1
 91
        0
 92
        0
 62
   257
 93
        1
300
CONTENTFORMAT
  1
CONTENTFORMAT_BEGIN
 90
        0
 91
        0
 92
      512
 93
        0
300

 40
0.0
140
1.0
 94
        5
 62
     0
340
16
144
0.18
309
CONTENTFORMAT_END
171
     0
 94
        6
 95
        1
302
GRIDFORMAT
  1
GRIDFORMAT_BEGIN
 90
        0
 91
        1
 62
     0
 92
       -2
340
0
 93
        0
 40
0.045
309
GRIDFORMAT_END
 95
        2
302
GRIDFORMAT
  1
GRIDFORMAT_BEGIN
 90
        0
 91
        1
 62
     0
 92
       -2
340
0
 93
        0
 40
0.045
309
GRIDFORMAT_END
 95
        4
302
GRIDFORMAT
  1
GRIDFORMAT_BEGIN
 90
        0
 91
        1
 62
     0
 92
       -2
340
0
 93
        0
 40
0.045
309
GRIDFORMAT_END
 95
        8
302
GRIDFORMAT
  1
GRIDFORMAT_BEGIN
 90
        0
 91
        1
 62
     0
 92
       -2
340
0
 93
        0
 40
0.045
309
GRIDFORMAT_END
 95
       16
302
GRIDFORMAT
  1
GRIDFORMAT_BEGIN
 90
        0
 91
        1
 62
     0
 92
       -2
340
0
 93
        0
 40
0.045
309
GRIDFORMAT_END
 95
       32
302
GRIDFORMAT
  1
GRIDFORMAT_BEGIN
 90
        0
 91
        1
 62
     0
 92
       -2
340
0
 93
        0
 40
0.045
309
GRIDFORMAT_END
309
TABLEFORMAT_END
  1
CELLSTYLE_BEGIN
 90
        2
 91
        1
300
_HEADER
309
CELLSTYLE_END
300
CELLSTYLE
  1
TABLEFORMAT_BEGIN
 90
        5
170
     1
 91
        0
 92
        0
 62
   257
 93
        1
300
CONTENTFORMAT
  1
CONTENTFORMAT_BEGIN
 90
        0
 91
        0
 92
      512
 93
        0
300

 40
0.0
140
1.0
 94
        2
 62
     0
340
16
144
0.18
309
CONTENTFORMAT_END
171
     0
 94
        6
 95
        1
302
GRIDFORMAT
  1
GRIDFORMAT_BEGIN
 90
        0
 91
        1
 62
     0
 92
       -2
340
0
 93
        0
 40
0.045
309
GRIDFORMAT_END
 95
        2
302
GRIDFORMAT
  1
GRIDFORMAT_BEGIN
 90
        0
 91
        1
 62
     0
 92
       -2
340
0
 93
        0
 40
0.045
309
GRIDFORMAT_END
 95
        4
302
GRIDFORMAT
  1
GRIDFORMAT_BEGIN
 90
        0
 91
        1
 62
     0
 92
       -2
340
0
 93
        0
 40
0.045
309
GRIDFORMAT_END
 95
        8
302
GRIDFORMAT
  1
GRIDFORMAT_BEGIN
 90
        0
 91
        1
 62
     0
 92
       -2
340
0
 93
        0
 40
0.045
309
GRIDFORMAT_END
 95
       16
302
GRIDFORMAT
  1
GRIDFORMAT_BEGIN
 90
        0
 91
        1
 62
     0
 92
       -2
340
0
 93
        0
 40
0.045
309
GRIDFORMAT_END
 95
       32
302
GRIDFORMAT
  1
GRIDFORMAT_BEGIN
 90
        0
 91
        1
 62
     0
 92
       -2
340
0
 93
        0
 40
0.045
309
GRIDFORMAT_END
309
TABLEFORMAT_END
  1
CELLSTYLE_BEGIN
 90
        3
 91
        2
300
_DATA
309
CELLSTYLE_END
  0
ENDSEC
  0
SECTION
  2
ACDSDATA
 70
     2
 71
     7
  0
ACDSSCHEMA
 90
        0
  1
AcDb_Thumbnail_Schema
  2
AcDbDs::ID
280
    10
 91
        8
  2
Thumbnail_Data
280
    15
 91
        0
101
ACDSRECORD
 95
        0
 90
        1
  2
AcDbDs::TreatedAsObjectData
280
     1
291
     1
101
ACDSRECORD
 95
        0
 90
        2
  2
AcDbDs::Legacy
280
     1
291
     1
101
ACDSRECORD
  1
AcDbDs::ID
 90
        3
  2
AcDs:Indexable
280
     1
291
     1
101
ACDSRECORD
  1
AcDbDs::ID
 90
        4
  2
AcDbDs::HandleAttribute
280
     7
282
     1
  0
ACDSSCHEMA
 90
        1
  1
AcDbDs::TreatedAsObjectDataSchema
  2
AcDbDs::TreatedAsObjectData
280
     1
 91
        0
  0
ACDSSCHEMA
 90
        2
  1
AcDbDs::LegacySchema
  2
AcDbDs::Legacy
280
     1
 91
        0
  0
ACDSSCHEMA
 90
        3
  1
AcDbDs::IndexedPropertySchema
  2
AcDs:Indexable
280
     1
 91
        0
  0
ACDSSCHEMA
 90
        4
  1
AcDbDs::HandleAttributeSchema
  2
AcDbDs::HandleAttribute
280
     7
 91
        1
284
     1
  0
ACDSRECORD
 90
        0
  2
AcDbDs::ID
280
    10
320
C
  2
Thumbnail_Data
280
    15
 94
     3055
310
89504E470D0A1A0A0000000D49484452000001000000007808030000002AAADC4C00000300504C5445000000000000C8C8C80000000000000000000000000000000000000000000000000000330000660000990000CC0000FF0033000033330033660033990033CC0033FF0066000066330066660066990066CC0066FF0099
310
000099330099660099990099CC0099FF00CC0000CC3300CC6600CC9900CCCC00CCFF00FF0000FF3300FF6600FF9900FFCC00FFFF3300003300333300663300993300CC3300FF3333003333333333663333993333CC3333FF3366003366333366663366993366CC3366FF3399003399333399663399993399CC3399FF33CC00
310
33CC3333CC6633CC9933CCCC33CCFF33FF0033FF3333FF6633FF9933FFCC33FFFF6600006600336600666600996600CC6600FF6633006633336633666633996633CC6633FF6666006666336666666666996666CC6666FF6699006699336699666699996699CC6699FF66CC0066CC3366CC6666CC9966CCCC66CCFF66FF0066
310
FF3366FF6666FF9966FFCC66FFFF9900009900339900669900999900CC9900FF9933009933339933669933999933CC9933FF9966009966339966669966999966CC9966FF9999009999339999669999999999CC9999FF99CC0099CC3399CC6699CC9999CCCC99CCFF99FF0099FF3399FF6699FF9999FFCC99FFFFCC0000CC00
310
33CC0066CC0099CC00CCCC00FFCC3300CC3333CC3366CC3399CC33CCCC33FFCC6600CC6633CC6666CC6699CC66CCCC66FFCC9900CC9933CC9966CC9999CC99CCCC99FFCCCC00CCCC33CCCC66CCCC99CCCCCCCCCCFFCCFF00CCFF33CCFF66CCFF99CCFFCCCCFFFFFF0000FF0033FF0066FF0099FF00CCFF00FFFF3300FF3333
310
FF3366FF3399FF33CCFF33FFFF6600FF6633FF6666FF6699FF66CCFF66FFFF9900FF9933FF9966FF9999FF99CCFF99FFFFCC00FFCC33FFCC66FFCC99FFCCCCFFCCFFFFFF00FFFF33FFFF66FFFF99FFFFCCFFFFFF0000000D0D0D1A1A1A2828283535354343435050505D5D5D6B6B6B787878868686939393A1A1A1AEAEAEBB
310
BBBBC9C9C9D6D6D6E4E4E4F1F1F1FFFFFF00000000000000000000000000000000000000000000000000000000000008F1915C000003C94944415478DAED9D4D9683200C8073A1DC7FC799BAC97E1CAD10407ED40A48C27B33AD55113E931003084075A2172578223D93EB8B8AFA9F2B7EFF12D7E1E8714E003C1D0A9FDB3D
310
BD04385D5B3EB7AF5CFD4400800080FB4D88048807906B81A40298DF086295048801E0A3F05A49192A60DBBEFDFE4BB3011CC0D61C08368222017C3F8C59AB4E2014007CB55F2A8065C3802000D1F3A0DD2F4C02BEFF15800250000A4001280005A0003C0022E2010A2007406D800250000A401200231A800B8A4A9500A141
310
51950006C00807B0F70CA90A0805B07E51000A403A806088C4511E4F84090EB2EC08A070ED9901EC5BC99AE3F90134C139FE20684CE7D9A919CC490016B66BCE0A32CF64D903C0570BC402007A1C0005351B0C00B871224201EC83658402686004E9F3F9E46664F49780E78D20F0492903017083E5E14900E00FC9EF05009B
310
0188DC259B37914C002CF3E5521D00AC25BA04E0E2CC3E4C3BF94B69123315460570CC219F300D2EFA7139D8421B500582F25F950066068065E64DD518B319FC150016817C17005EEF1B36C0D5CDF340C37306F4043D00D545CC03887DA3BE12500440A74D21564D13F705AA1B002AAA802DF02D1BE019C17100109D3082F5
310
125098A96D6D407F2358B201418113863D2D01C7C70C03A01C143D6C0C8B6E22963CC808E8B39EE06F0044E5E3F3F073D3510F046C2400351D23270138CDB7744B003AAA40CDBCC122003FE2F10F91885F6A7800701B0047B8027099D6A8C06B01EC4D8897C306C06F682600907C10202EEF7B1E14793A513B38CCB3400E40
310
4D2C84E0FCAB915C8FC4008E502580CC0528E10865CEC2410098131290BECB175E9A8543C403CC92B2008A9E4EFDD3604014F9DB8CFA49001424A02A1C8AE95FD20F05681DE60641D11B2A805E3B780740F0897667CF9E21E7C594008041C900CC662DCC8F5540920410BC5C05C89068000884775A0182B70008E301B690A6
310
1E00CB03A3FABF1600DC004051F5070600F701C03100DF93789D0D80EB36E030A42C084038484A1E80C39A2900513680400128005900C257798F0BC0349080D449CD01447DF6CBBED2E4E96B00604C00E085B7D688E0922403A88F094E0B608F0A933800EC8DBA2500DB385BEF3139D8AA041066B1E5DB4D023889F4CC40AC
310
491900E7CE6FFD6EF1F0A81F054452373DDC83D1316D01F89D3E7900F5E9FC1CDBF61326E2AEAEF4020B1301C82EB070CF06DC4DED01B8182545F13A5D6445010800C086AF11818885968A6B6D4DBEC6886FD8E3C5D6A06BBD9B0240DE6FE37D451100AEB9F493A9C059877E5E00FCAE4B0230AA027455819E001C7FA98BAE
310
3E0D60CA6577FF009450427C75BF9DC90000000049454E44AE42608242608282E02E46A7BB0D6D1F6B199B8917597E1174E52EF20C1D1EB5F44674B998F03235DDDA5E6E5968631168B9AB4C5386DE892F0B9840801A2B1180B0D17C885B5C632C89EB994D667CCAD9F038D4C206F75D2C779300E7A1BF24A1060162FACD02
310
24BFA731D936672BEEAD6C1C634900193B22405EEE62DB5CF2E3403109EE1A93B3D0261EB27297FCA264BAB8817C4984BAC64A2C7216085B104F50EE17D9E6F8DBE19DB6B9ECF578A3F32B7B3DDEE23863B6B92DAEB1826D4EBEB23BFCBBC2CDFB12D436A7B6B91902B4C6F54C32CCB6E6EF2F202F15406D731A1A1A1A1A1A
310
1A1A1A1A1A1F1CFF00FB94E4F4EF7E04CD0000000049454E44AE4260825587C281B5C3FF7653D5FF00B12E573BDDCA1B350000000049454E44AE426082706899C962F66D12B9E1EB4C530EC54D7C5F079E00B079E32A00A0630071B95B364C517C3100AA012C7B012418275C6302C03FF06C38F60D560072C3B70160FB803E
310
00CC3E76CA3526BF5025353CCB3607F96CA30D807DC750659B73DF0DA0FC42C51600E601AC6D73EE1880341096B639EF8E0030F1B5B6B963F71A3DB7CDD5E27C547B36D86CB8E5B99BF37054B7CDB53E3C6B9B6B89CFB9C65A5A5CF2B5BAAFD9E6C262DD6C73BDB63932DB9CD9E6CC36F77DB6B9AD3638A41D135B58585858
310
58585858585858585858585834E23F1B4059B849F368280000000049454E44AE42608200725E0FDCA7CF8B005A1539775806D0A818F600601BA5494D13C9D3150056450600B50C8A2A4F03A03501D601F02AB3005895C701FC43003D0056650280AC6273347633043800B72ACD10500360556C0E470500F53E1DF60F470500
310
A28A5C3F80190254E689F479E0FF6CE040FD004945533F80F7805551F5809CF75DD40FA81BEDD70F70AE2E0E305A85408810497FCB74C897AEFD0734ADA141FA0FDACD0000000049454E44AE4260826A755807B05321BD10408AD02280ED6970F5C42E3EB8E897E9E94900143E300DD02BC8A5522A1AD4AEA90C610B60EBFC
310
B68A99B25CCE91717C701660CD291F04D0EC5A69CF67618029C5EBA0025405FB2500B17E1A4E83B9548A1703E026B0773ECAB22EAD779D43ADF1F5A0091CE9B7143BB03ED520A1EC5B3A62023138ABF1910680A708DA04306D0EE31AC0B45EF80039FE0F00A065AAF7631FC0CAFAA4F7CC0474003C7CE8C7D69B800AC098E1
310
5AE1560006BB3631119C9B1353D8AF44F1B5D799008DDFAB33821701289648A44DD10D0A5E1B72BCB9546DADFE2F00869D084A63BA1FDCD83D00972BC08500FAB0F2F8F9F583DB002E96AA82574482FF050053813B5BC4AF0D853500C36178B0C785CDAA5AB96F7CD8EA27C7C473A9B684DC10AB33DE06E00401A026B7E146
310
1A5EE0D83D0CF158B830BDCF4EBB0AC05E38B66AC0D6E56A7E30FC63AC0600C41F1BC1E632CDC1DA936C293700973BC1FDF34F6900FFF23F3FFFFCFC0C0148DCB62A223B0ED6AD3F5903AC68B3BC1CC096096C11C8B3A785F05400F889D246DAD005FA0480D71B32052805D65588DFC500764D00F634000A030960CB04BA5F
310
68D5AF02F49E2D7F65F36A13D817F9E77E725D8F1F89AFD33F7FF52C40EF593A03B6D66D07016C8B993265CA942953A64C993265CA9429536E91B92E95A3FEBB2B73D152FC1733135E28C5043001FC1DA13CEBDF0590D3BD725EF85B00FE742800030068A64C993265CA942953A6DC27FF02EB5F9BED4E895F5A0000000049
310
454E44AE426082
  0
ENDSEC
  0
EOF
