  0
SECTION
  2
HEADER
  9
$ACADVER
  1
AC1009
  9
$INSBASE
 10
0.0
 20
0.0
 30
0.0
  9
$EXTMIN
 10
-2979.535443274458
 20
-841.11853719998078
 30
-0.0000000349181948
  9
$EXTMAX
 10
-2419.3269307536152
 20
-440.996393742122
 30
0.0000000814935746
  9
$LIMMIN
 10
0.0
 20
0.0
  9
$LIMMAX
 10
395.0
 20
275.0
  9
$ORTHOMODE
 70
     1
  9
$REGENMODE
 70
     0
  9
$FILLMODE
 70
     1
  9
$QTEXTMODE
 70
     0
  9
$MIRRTEXT
 70
     1
  9
$DRAGMODE
 70
     2
  9
$LTSCALE
 40
5.0
  9
$OSMODE
 70
   175
  9
$ATTMODE
 70
     1
  9
$TEXTSIZE
 40
3.0
  9
$TRACEWID
 40
0.05
  9
$TEXTSTYLE
  7
STD
  9
$CLAYER
  8
ACL
  9
$CELTYPE
  6
BYLAYER
  9
$CECOLOR
 62
   256
  9
$DIMSCALE
 40
1.0
  9
$DIMASZ
 40
0.8
  9
$DIMEXO
 40
1.5
  9
$DIMDLI
 40
3.0
  9
$DIMRND
 40
0.0
  9
$DIMDLE
 40
0.0
  9
$DIMEXE
 40
1.1999999999999991
  9
$DIMTP
 40
0.0
  9
$DIMTM
 40
0.0
  9
$DIMTXT
 40
3.0
  9
$DIMCEN
 40
0.0
  9
$DIMTSZ
 40
0.0
  9
$DIMTOL
 70
     0
  9
$DIMLIM
 70
     0
  9
$DIMTIH
 70
     0
  9
$DIMTOH
 70
     0
  9
$DIMSE1
 70
     0
  9
$DIMSE2
 70
     0
  9
$DIMTAD
 70
     3
  9
$DIMZIN
 70
     8
  9
$DIMBLK
  1

  9
$DIMASO
 70
     1
  9
$DIMSHO
 70
     1
  9
$DIMPOST
  1

  9
$DIMAPOST
  1

  9
$DIMALT
 70
     0
  9
$DIMALTD
 70
     2
  9
$DIMALTF
 40
0.03937
  9
$DIMLFAC
 40
1.0
  9
$DIMTOFL
 70
     1
  9
$DIMTVP
 40
0.0
  9
$DIMTIX
 70
     0
  9
$DIMSOXD
 70
     0
  9
$DIMSAH
 70
     1
  9
$DIMBLK1
  1
DOT
  9
$DIMBLK2
  1
DOT
  9
$DIMSTYLE
  2
1
  9
$DIMCLRD
 70
     0
  9
$DIMCLRE
 70
     0
  9
$DIMCLRT
 70
     0
  9
$DIMTFAC
 40
1.0
  9
$DIMGAP
 40
1.0
  9
$LUNITS
 70
     2
  9
$LUPREC
 70
     8
  9
$SKETCHINC
 40
0.1
  9
$FILLETRAD
 40
0.5
  9
$AUNITS
 70
     0
  9
$AUPREC
 70
     8
  9
$MENU
  1
ACAD
  9
$ELEVATION
 40
0.0
  9
$PELEVATION
 40
0.0
  9
$THICKNESS
 40
0.0
  9
$LIMCHECK
 70
     0
  9
$BLIPMODE
 70
     0
  9
$CHAMFERA
 40
1.0
  9
$CHAMFERB
 40
1.0
  9
$SKPOLY
 70
     0
  9
$TDCREATE
 40
2450991.6305787042
  9
$TDUPDATE
 40
2457795.672662836
  9
$TDINDWG
 40
27.796186134300001
  9
$TDUSRTIMER
 40
27.796186134300001
  9
$USRTIMER
 70
     1
  9
$ANGBASE
 50
0.0
  9
$ANGDIR
 70
     0
  9
$PDMODE
 70
     0
  9
$PDSIZE
 40
0.0
  9
$PLINEWID
 40
0.0
  9
$COORDS
 70
     0
  9
$SPLFRAME
 70
     0
  9
$SPLINETYPE
 70
     6
  9
$SPLINESEGS
 70
     8
  9
$ATTDIA
 70
     1
  9
$ATTREQ
 70
     1
  9
$HANDLING
 70
     1
  9
$HANDSEED
  5
D4E3
  9
$SURFTAB1
 70
     6
  9
$SURFTAB2
 70
     6
  9
$SURFTYPE
 70
     6
  9
$SURFU
 70
     6
  9
$SURFV
 70
     6
  9
$UCSNAME
  2

  9
$UCSORG
 10
0.0
 20
0.0
 30
0.0
  9
$UCSXDIR
 10
1.0
 20
0.0
 30
0.0
  9
$UCSYDIR
 10
0.0
 20
1.0
 30
0.0
  9
$PUCSNAME
  2

  9
$PUCSORG
 10
0.0
 20
0.0
 30
0.0
  9
$PUCSXDIR
 10
1.0
 20
0.0
 30
0.0
  9
$PUCSYDIR
 10
0.0
 20
1.0
 30
0.0
  9
$USERI1
 70
     0
  9
$USERI2
 70
     0
  9
$USERI3
 70
     1
  9
$USERI4
 70
     0
  9
$USERI5
 70
    15
  9
$USERR1
 40
0.0
  9
$USERR2
 40
0.0
  9
$USERR3
 40
0.0
  9
$USERR4
 40
0.0
  9
$USERR5
 40
0.0
  9
$WORLDVIEW
 70
     1
  9
$SHADEDGE
 70
     3
  9
$SHADEDIF
 70
    70
  9
$TILEMODE
 70
     1
  9
$MAXACTVP
 70
    16
  9
$PLIMCHECK
 70
     0
  9
$PEXTMIN
 10
1.0000000000000000E+020
 20
1.0000000000000000E+020
 30
1.0000000000000000E+020
  9
$PEXTMAX
 10
-1.0000000000000000E+020
 20
-1.0000000000000000E+020
 30
-1.0000000000000000E+020
  9
$PLIMMIN
 10
0.0
 20
0.0
  9
$PLIMMAX
 10
12.0
 20
9.0
  9
$UNITMODE
 70
     0
  9
$VISRETAIN
 70
     0
  9
$PLINEGEN
 70
     0
  9
$PSLTSCALE
 70
     0
  0
ENDSEC
  0
SECTION
  2
TABLES
  0
TABLE
  2
VPORT
 70
     1
  0
VPORT
  2
*ACTIVE
 70
     0
 10
0.0
 20
0.0
 11
1.0
 21
1.0
 12
-2714.1493867463009
 22
-585.19890151558548
 13
0.0
 23
0.0
 14
7.0
 24
7.0
 15
10.0
 25
10.0
 16
0.0
 26
0.0
 36
1.0
 17
0.0
 27
0.0
 37
0.0
 40
373.86963632444917
 41
1.5787451984635079
 42
50.0
 43
0.0
 44
0.0
 50
0.0
 51
0.0
 71
     0
 72
   100
 73
     1
 74
     0
 75
     0
 76
     0
 77
     0
 78
     0
  0
ENDTAB
  0
TABLE
  2
LTYPE
 70
     4
  0
LTYPE
  2
CONTINUOUS
 70
     0
  3
Solid line
 72
    65
 73
     0
 40
0.0
  0
LTYPE
  2
CENTER
 70
     0
  3
____ _ ____ _ ____ _ ____ _ ____ _ ____ _ ____ 
 72
    65
 73
     4
 40
2.0
 49
1.25
 49
-0.25
 49
0.25
 49
-0.25
  0
LTYPE
  2
HIDDEN
 70
     0
  3
__ __ __ __ __ __ __ __ __ __ __ __ __ __ __ __
 72
    65
 73
     2
 40
0.375
 49
0.25
 49
-0.125
  0
ENDTAB
  0
TABLE
  2
LAYER
 70
     6
  0
LAYER
  2
0
 70
     0
 62
     7
  6
CONTINUOUS
  0
LAYER
  2
DEFPOINTS
 70
     0
 62
     7
  6
CONTINUOUS
  0
LAYER
  2
AHJ
 70
     0
 62
     1
  6
CONTINUOUS
  0
LAYER
  2
ACL
 70
     0
 62
     4
  6
CENTER
  0
LAYER
  2
WAKU
 70
     0
 62
     7
  6
CONTINUOUS
  0
LAYER
  2
ADM
 70
     0
 62
     4
  6
CONTINUOUS
  0
ENDTAB
  0
TABLE
  2
STYLE
 70
     3
  0
STYLE
  2
STANDARD
 70
     0
 40
0.0
 41
0.8
 50
0.0
 71
     0
 42
5.0
  3
romans.shx
  4
extfont.shx
  0
STYLE
  2
STD
 70
     0
 40
0.0
 41
1.0
 50
0.0
 71
     0
 42
3.0
  3
TXT
  4
BIGFONT.shx
  0
ENDTAB
  0
TABLE
  2
VIEW
 70
     0
  0
ENDTAB
  0
TABLE
  2
UCS
 70
     0
  0
ENDTAB
  0
TABLE
  2
APPID
 70
    22
  0
APPID
  2
ACAD
 70
     0
  0
APPID
  2
GENIUS_GENODEF_13
 70
     0
  0
APPID
  2
GENIUS_GENOBJ-N-FIL_13
 70
     0
  0
APPID
  2
ACAD_NAV_VCDISPLAY
 70
     0
  0
APPID
  2
GENIUS_GENOBJ-N-CEN_13
 70
     0
  0
APPID
  2
GENIUS_GENREC_14
 70
     0
  0
APPID
  2
GENIUS_GENOBJ-N-REC_13
 70
     0
  0
APPID
  2
ACDBBLOCKREPETAG
 70
     0
  0
APPID
  2
ACDBDYNAMICBLOCKGUID
 70
     0
  0
APPID
  2
ACAD_PSEXT
 70
     0
  0
APPID
  2
GRADIENTCOLOR1ACI
 70
     0
  0
APPID
  2
GRADIENTCOLOR2ACI
 70
     0
  0
APPID
  2
CONTENTBLOCKICON
 70
     0
  0
APPID
  2
ACAD_MLEADERVER
 70
     0
  0
APPID
  2
ACAD_EXEMPT_FROM_CAD_STANDARDS
 70
     0
  0
APPID
  2
ACAECLAYERSTANDARD
 70
     0
  0
APPID
  2
ACCMTRANSPARENCY
 70
     0
  0
APPID
  2
ACAD_DSTYLE_DIMRADIAL_EXTENSION
 70
     0
  0
APPID
  2
ACAD_DSTYLE_DIMJAG
 70
     0
  0
APPID
  2
ACAD_DSTYLE_DIMBREAK
 70
     0
  0
APPID
  2
ACAD_DSTYLE_DIMTALN
 70
     0
  0
APPID
  2
ACADANNOMONITORALERTICONDI
 70
     0
  0
ENDTAB
  0
TABLE
  2
DIMSTYLE
 70
     2
  0
DIMSTYLE
  2
1
 70
     0
  3

  4

  5

  6
DOT
  7
DOT
 40
1.0
 41
0.8
 42
1.5
 43
3.0
 44
1.1999999999999991
 45
0.0
 46
0.0
 47
0.0
 48
0.0
140
3.0
141
0.0
142
0.0
143
0.03937
144
1.0
145
0.0
146
1.0
147
1.0
 71
     0
 72
     0
 73
     0
 74
     0
 75
     0
 76
     0
 77
     3
 78
     8
170
     0
171
     2
172
     0
173
     1
174
     0
175
     0
176
     0
177
     0
178
     0
  0
ENDTAB
  0
ENDSEC
  0
SECTION
  2
BLOCKS
  0
BLOCK
  8
0
  2
$MODEL_SPACE
 70
     0
 10
0.0
 20
0.0
 30
0.0
  3
$MODEL_SPACE
  1

  0
ENDBLK
  5
10
  8
0
  0
BLOCK
 67
     1
  8
0
  2
$PAPER_SPACE
 70
     0
 10
0.0
 20
0.0
 30
0.0
  3
$PAPER_SPACE
  1

  0
ENDBLK
  5
18
 67
     1
  8
0
  0
BLOCK
  8
0
  2
_DOT
 70
     0
 10
0.0
 20
0.0
 30
0.0
  3
_DOT
  1

  0
POLYLINE
  5
D89
  8
0
  6
BYBLOCK
 62
     0
 66
     1
 10
0.0
 20
0.0
 30
0.0
 70
     1
 40
0.5
 41
0.5
  0
VERTEX
  5
D3C8
  8
0
  6
BYBLOCK
 62
     0
 10
-0.25
 20
0.0
 30
0.0
 42
1.0
  0
VERTEX
  5
D3C9
  8
0
  6
BYBLOCK
 62
     0
 10
0.25
 20
0.0
 30
0.0
 42
1.0
  0
SEQEND
  5
D3CA
  8
0
  6
BYBLOCK
 62
     0
  0
LINE
  5
D8A
  8
0
  6
BYBLOCK
 62
     0
 10
-0.5
 20
0.0
 30
0.0
 11
-1.0
 21
0.0
 31
0.0
  0
ENDBLK
  5
D8B
  8
0
  0
BLOCK
  8
0
  2
DOT
 70
     0
 10
0.0
 20
0.0
 30
0.0
  3
DOT
  1

  0
POLYLINE
  5
D98
  8
AHJ
  6
BYBLOCK
 62
     0
 66
     1
 10
0.0
 20
0.0
 30
0.0
 70
     1
 40
0.5
 41
0.5
  0
VERTEX
  5
D3CF
  8
AHJ
  6
BYBLOCK
 62
     0
 10
-0.25
 20
0.0
 30
0.0
 42
1.0
  0
VERTEX
  5
D3D0
  8
AHJ
  6
BYBLOCK
 62
     0
 10
0.25
 20
0.0
 30
0.0
 42
1.0
  0
SEQEND
  5
D3D1
  8
AHJ
  6
BYBLOCK
 62
     0
  0
LINE
  5
D9C
  8
AHJ
  6
BYBLOCK
 62
     0
 10
-0.5
 20
0.0
 30
0.0
 11
-1.0
 21
0.0
 31
0.0
  0
ENDBLK
  5
D9D
  8
0
  0
BLOCK
  8
0
  2
*D2
 70
     1
 10
0.0
 20
0.0
 30
0.0
  3
*D2
  1

  0
LINE
  5
CA4E
  8
0
 62
     0
 10
-2763.2771841063641
 20
-723.78839250888814
 30
0.0
 11
-2763.2771841063641
 21
-744.48839250888886
 31
0.0
  0
LINE
  5
CA4F
  8
0
 62
     0
 10
-2750.2771841063641
 20
-723.78839250888814
 30
0.0
 11
-2750.2771841063641
 21
-744.48839250888886
 31
0.0
  0
LINE
  5
CA50
  8
0
 62
     0
 10
-2762.4771841063639
 20
-743.28839250888893
 30
0.0
 11
-2751.0771841063638
 21
-743.28839250888893
 31
0.0
  0
INSERT
  5
CA51
  8
0
 62
     0
  2
DOT
 10
-2763.2771841063641
 20
-743.28839250888893
 30
0.0
 41
0.8
 42
0.8
 43
0.8
 50
180.0
  0
INSERT
  5
CA52
  8
0
 62
     0
  2
DOT
 10
-2750.2771841063641
 20
-743.28839250888893
 30
0.0
 41
0.8
 42
0.8
 43
0.8
  0
INSERT
  5
CA53
  8
ACL
  2
*U33
 10
0.0
 20
0.0
 30
0.0
  0
POINT
  5
CA54
  8
DEFPOINTS
 62
     0
 10
-2763.2771841063641
 20
-722.28839250888814
 30
0.0
  0
POINT
  5
CA55
  8
DEFPOINTS
 62
     0
 10
-2750.2771841063641
 20
-722.28839250888814
 30
0.0
  0
POINT
  5
CA56
  8
DEFPOINTS
 62
     0
 10
-2750.2771841063641
 20
-743.28839250888893
 30
0.0
  0
ENDBLK
  5
90F4
  8
0
  0
BLOCK
  8
0
  2
*D3
 70
     1
 10
0.0
 20
0.0
 30
0.0
  3
*D3
  1

  0
LINE
  5
CA45
  8
0
 62
     0
 10
-2763.2771841063641
 20
-723.78839250888814
 30
0.0
 11
-2763.2771841063641
 21
-751.48839250888898
 31
0.0
  0
LINE
  5
CA46
  8
0
 62
     0
 10
-2463.2771841063641
 20
-723.78839250888814
 30
0.0
 11
-2463.2771841063641
 21
-751.48839250888898
 31
0.0
  0
LINE
  5
CA47
  8
0
 62
     0
 10
-2762.4771841063639
 20
-750.28839250888893
 30
0.0
 11
-2464.0771841063638
 21
-750.28839250888893
 31
0.0
  0
INSERT
  5
CA48
  8
0
 62
     0
  2
DOT
 10
-2763.2771841063641
 20
-750.28839250888893
 30
0.0
 41
0.8
 42
0.8
 43
0.8
 50
180.0
  0
INSERT
  5
CA49
  8
0
 62
     0
  2
DOT
 10
-2463.2771841063641
 20
-750.28839250888893
 30
0.0
 41
0.8
 42
0.8
 43
0.8
  0
INSERT
  5
CA4A
  8
ACL
  2
*U32
 10
0.0
 20
0.0
 30
0.0
  0
POINT
  5
CA4B
  8
DEFPOINTS
 62
     0
 10
-2763.2771841063641
 20
-722.28839250888814
 30
0.0
  0
POINT
  5
CA4C
  8
DEFPOINTS
 62
     0
 10
-2463.2771841063641
 20
-722.28839250888814
 30
0.0
  0
POINT
  5
CA4D
  8
DEFPOINTS
 62
     0
 10
-2463.2771841063641
 20
-750.28839250888893
 30
0.0
  0
ENDBLK
  5
916C
  8
0
  0
BLOCK
  8
0
  2
*D4
 70
     1
 10
0.0
 20
0.0
 30
0.0
  3
*D4
  1

  0
LINE
  5
C9EB
  8
0
 62
     0
 10
-2835.6598923832512
 20
-756.0
 30
0.0
 11
-2814.9598923832518
 21
-756.00000000000011
 31
0.0
  0
LINE
  5
C9EC
  8
0
 62
     0
 10
-2837.2598923832511
 20
-742.00000000000011
 30
0.0
 11
-2814.9598923832518
 21
-742.00000000000023
 31
0.0
  0
LINE
  5
C9ED
  8
0
 62
     0
 10
-2816.1598923832521
 20
-755.20000000000005
 30
0.0
 11
-2816.1598923832521
 21
-742.79999999999995
 31
0.0
  0
INSERT
  5
C9EE
  8
0
 62
     0
  2
DOT
 10
-2816.1598923832521
 20
-756.0
 30
0.0
 41
0.8
 42
0.8
 43
0.8
 50
270.0
  0
INSERT
  5
C9EF
  8
0
 62
     0
  2
DOT
 10
-2816.1598923832521
 20
-742.00000000000011
 30
0.0
 41
0.8
 42
0.8
 43
0.8
 50
90.0
  0
INSERT
  5
C9F0
  8
ACL
  2
*U30
 10
0.0
 20
0.0
 30
0.0
  0
POINT
  5
C9F1
  8
DEFPOINTS
 62
     0
 10
-2837.1598923832512
 20
-756.0
 30
0.0
  0
POINT
  5
C9F2
  8
DEFPOINTS
 62
     0
 10
-2838.7598923832511
 20
-742.00000000000011
 30
0.0
  0
POINT
  5
C9F3
  8
DEFPOINTS
 62
     0
 10
-2816.1598923832521
 20
-742.00000000000011
 30
0.0
  0
ENDBLK
  5
9178
  8
0
  0
BLOCK
  8
0
  2
*D5
 70
     1
 10
0.0
 20
0.0
 30
0.0
  3
*D5
  1

  0
LINE
  5
C9E2
  8
0
 62
     0
 10
-2838.7598923832511
 20
-757.5
 30
0.0
 11
-2838.7598923832511
 21
-778.20000000000005
 31
0.0
  0
LINE
  5
C9E3
  8
0
 62
     0
 10
-2864.5598785047709
 20
-761.10830962408079
 30
0.0
 11
-2864.5598785047709
 21
-778.20000000000005
 31
0.0
  0
LINE
  5
C9E4
  8
0
 62
     0
 10
-2839.5598923832508
 20
-777.0
 30
0.0
 11
-2863.7598785047712
 21
-777.0
 31
0.0
  0
INSERT
  5
C9E5
  8
0
 62
     0
  2
DOT
 10
-2838.7598923832511
 20
-777.0
 30
0.0
 41
0.8
 42
0.8
 43
0.8
  0
INSERT
  5
C9E6
  8
0
 62
     0
  2
DOT
 10
-2864.5598785047709
 20
-777.0
 30
0.0
 41
0.8
 42
0.8
 43
0.8
 50
180.0
  0
INSERT
  5
C9E7
  8
ACL
  2
*U29
 10
0.0
 20
0.0
 30
0.0
  0
POINT
  5
C9E8
  8
DEFPOINTS
 62
     0
 10
-2838.7598923832511
 20
-756.0
 30
0.0
  0
POINT
  5
C9E9
  8
DEFPOINTS
 62
     0
 10
-2864.5598785047709
 20
-759.6083096240809
 30
0.0
  0
POINT
  5
C9EA
  8
DEFPOINTS
 62
     0
 10
-2864.5598785047709
 20
-777.0
 30
0.0
  0
ENDBLK
  5
9282
  8
0
  0
BLOCK
  8
0
  2
*D6
 70
     1
 10
0.0
 20
0.0
 30
0.0
  3
*D6
  1

  0
LINE
  5
C9D9
  8
0
 62
     0
 10
-2864.5598785047709
 20
-761.10830962408079
 30
0.0
 11
-2864.5598785047709
 21
-778.20000000000005
 31
0.0
  0
LINE
  5
C9DA
  8
0
 62
     0
 10
-2905.159878504785
 20
-761.10830962408079
 30
0.0
 11
-2905.159878504785
 21
-778.20000000000005
 31
0.0
  0
LINE
  5
C9DB
  8
0
 62
     0
 10
-2865.3598785047711
 20
-777.0
 30
0.0
 11
-2904.3598785047848
 21
-777.0
 31
0.0
  0
INSERT
  5
C9DC
  8
0
 62
     0
  2
DOT
 10
-2864.5598785047709
 20
-777.0
 30
0.0
 41
0.8
 42
0.8
 43
0.8
  0
INSERT
  5
C9DD
  8
0
 62
     0
  2
DOT
 10
-2905.159878504785
 20
-777.0
 30
0.0
 41
0.8
 42
0.8
 43
0.8
 50
180.0
  0
INSERT
  5
C9DE
  8
ACL
  2
*U28
 10
0.0
 20
0.0
 30
0.0
  0
POINT
  5
C9DF
  8
DEFPOINTS
 62
     0
 10
-2864.5598785047709
 20
-759.6083096240809
 30
0.0
  0
POINT
  5
C9E0
  8
DEFPOINTS
 62
     0
 10
-2905.159878504785
 20
-759.6083096240809
 30
0.0
  0
POINT
  5
C9E1
  8
DEFPOINTS
 62
     0
 10
-2905.159878504785
 20
-777.0
 30
0.0
  0
ENDBLK
  5
928E
  8
0
  0
BLOCK
  8
0
  2
*D7
 70
     1
 10
0.0
 20
0.0
 30
0.0
  3
*D7
  1

  0
LINE
  5
C9D0
  8
0
 62
     0
 10
-2838.7598923832511
 20
-757.5
 30
0.0
 11
-2838.7598923832511
 21
-785.20000000000005
 31
0.0
  0
LINE
  5
C9D1
  8
0
 62
     0
 10
-2920.4598923832491
 20
-757.0
 30
0.0
 11
-2920.4598923832491
 21
-785.20000000000005
 31
0.0
  0
LINE
  5
C9D2
  8
0
 62
     0
 10
-2839.5598923832508
 20
-784.0
 30
0.0
 11
-2919.6598923832489
 21
-784.0
 31
0.0
  0
INSERT
  5
C9D3
  8
0
 62
     0
  2
DOT
 10
-2838.7598923832511
 20
-784.0
 30
0.0
 41
0.8
 42
0.8
 43
0.8
  0
INSERT
  5
C9D4
  8
0
 62
     0
  2
DOT
 10
-2920.4598923832491
 20
-784.0
 30
0.0
 41
0.8
 42
0.8
 43
0.8
 50
180.0
  0
INSERT
  5
C9D5
  8
ACL
  2
*U27
 10
0.0
 20
0.0
 30
0.0
  0
POINT
  5
C9D6
  8
DEFPOINTS
 62
     0
 10
-2838.7598923832511
 20
-756.0
 30
0.0
  0
POINT
  5
C9D7
  8
DEFPOINTS
 62
     0
 10
-2920.4598923832491
 20
-755.49999999999989
 30
0.0
  0
POINT
  5
C9D8
  8
DEFPOINTS
 62
     0
 10
-2920.4598923832491
 20
-784.0
 30
0.0
  0
ENDBLK
  5
92A6
  8
0
  0
BLOCK
  8
0
  2
*D8
 70
     1
 10
0.0
 20
0.0
 30
0.0
  3
*D8
  1

  0
LINE
  5
C991
  8
0
 62
     0
 10
-2837.1598923832512
 20
-504.49999999999989
 30
0.0
 11
-2837.1598923832512
 21
-483.80000000000081
 31
0.0
  0
LINE
  5
C992
  8
0
 62
     0
 10
-2922.1598923832521
 20
-505.00000000000011
 30
0.0
 11
-2922.1598923832521
 21
-483.80000000000081
 31
0.0
  0
LINE
  5
C993
  8
0
 62
     0
 10
-2837.9598923832509
 20
-485.0000000000008
 30
0.0
 11
-2921.3598923832519
 21
-485.0000000000008
 31
0.0
  0
INSERT
  5
C994
  8
0
 62
     0
  2
DOT
 10
-2837.1598923832512
 20
-485.0000000000008
 30
0.0
 41
0.8
 42
0.8
 43
0.8
  0
INSERT
  5
C995
  8
0
 62
     0
  2
DOT
 10
-2922.1598923832521
 20
-485.0000000000008
 30
0.0
 41
0.8
 42
0.8
 43
0.8
 50
180.0
  0
INSERT
  5
C996
  8
ACL
  2
*U26
 10
0.0
 20
0.0
 30
0.0
  0
POINT
  5
C997
  8
DEFPOINTS
 62
     0
 10
-2837.1598923832512
 20
-506.0
 30
0.0
  0
POINT
  5
C998
  8
DEFPOINTS
 62
     0
 10
-2922.1598923832521
 20
-506.50000000000011
 30
0.0
  0
POINT
  5
C999
  8
DEFPOINTS
 62
     0
 10
-2922.1598923832521
 20
-485.0000000000008
 30
0.0
  0
ENDBLK
  5
92E4
  8
0
  0
BLOCK
  8
0
  2
*D9
 70
     1
 10
0.0
 20
0.0
 30
0.0
  3
*D9
  1

  0
LINE
  5
CA3C
  8
0
 62
     0
 10
-2463.2771841063641
 20
-723.78839250888814
 30
0.0
 11
-2463.2771841063641
 21
-744.48839250888886
 31
0.0
  0
LINE
  5
CA3D
  8
0
 62
     0
 10
-2476.2771841063641
 20
-723.78839250888814
 30
0.0
 11
-2476.2771841063641
 21
-744.48839250888886
 31
0.0
  0
LINE
  5
CA3E
  8
0
 62
     0
 10
-2464.0771841063638
 20
-743.28839250888893
 30
0.0
 11
-2475.4771841063639
 21
-743.28839250888893
 31
0.0
  0
INSERT
  5
CA3F
  8
0
 62
     0
  2
DOT
 10
-2463.2771841063641
 20
-743.28839250888893
 30
0.0
 41
0.8
 42
0.8
 43
0.8
  0
INSERT
  5
CA40
  8
0
 62
     0
  2
DOT
 10
-2476.2771841063641
 20
-743.28839250888893
 30
0.0
 41
0.8
 42
0.8
 43
0.8
 50
180.0
  0
INSERT
  5
CA41
  8
ACL
  2
*U31
 10
0.0
 20
0.0
 30
0.0
  0
POINT
  5
CA42
  8
DEFPOINTS
 62
     0
 10
-2463.2771841063641
 20
-722.28839250888814
 30
0.0
  0
POINT
  5
CA43
  8
DEFPOINTS
 62
     0
 10
-2476.2771841063641
 20
-722.28839250888814
 30
0.0
  0
POINT
  5
CA44
  8
DEFPOINTS
 62
     0
 10
-2476.2771841063641
 20
-743.28839250888893
 30
0.0
  0
ENDBLK
  5
9338
  8
0
  0
BLOCK
  8
0
  2
*D10
 70
     1
 10
0.0
 20
0.0
 30
0.0
  3
*D10
  1

  0
LINE
  5
D41D
  8
0
 62
     0
 10
-2631.277203001523
 20
-716.58838938572114
 30
0.0
 11
-2631.277203001523
 21
-744.48839250888886
 31
0.0
  0
LINE
  5
D41E
  8
0
 62
     0
 10
-2595.2774458165718
 20
-718.33516248632657
 30
0.0
 11
-2595.2774458165718
 21
-744.48839250888886
 31
0.0
  0
LINE
  5
D41F
  8
0
 62
     0
 10
-2630.4772030015229
 20
-743.28839250888893
 30
0.0
 11
-2596.077445816572
 21
-743.28839250888893
 31
0.0
  0
INSERT
  5
D420
  8
0
 62
     0
  2
DOT
 10
-2631.277203001523
 20
-743.28839250888893
 30
0.0
 41
0.8
 42
0.8
 43
0.8
 50
180.0
  0
INSERT
  5
D421
  8
0
 62
     0
  2
DOT
 10
-2595.2774458165718
 20
-743.28839250888893
 30
0.0
 41
0.8
 42
0.8
 43
0.8
  0
TEXT
  8
0
  40
3
  5
D4D5
  62
0
  72
0
  71
0
 10
-2619.28
 20
-746.098
 30
0.000000
  1
36
  0
POINT
  5
D423
  8
DEFPOINTS
 62
     0
 10
-2631.277203001523
 20
-715.08838938572114
 30
0.0
  0
POINT
  5
D424
  8
DEFPOINTS
 62
     0
 10
-2595.2774458165718
 20
-716.83516248632668
 30
0.0
  0
POINT
  5
D425
  8
DEFPOINTS
 62
     0
 10
-2595.2774458165718
 20
-743.28839250888893
 30
0.0
  0
ENDBLK
  5
A1BE
  8
0
  0
BLOCK
  8
0
  2
*D11
 70
     1
 10
0.0
 20
0.0
 30
0.0
  3
*D11
  1

  0
LINE
  5
D426
  8
0
 62
     0
 10
-2505.277184106365
 20
-718.28839250888836
 30
0.0
 11
-2505.277184106365
 21
-744.48839250888886
 31
0.0
  0
LINE
  5
D427
  8
0
 62
     0
 10
-2476.2771841063641
 20
-723.78839250888802
 30
0.0
 11
-2476.2771841063641
 21
-744.48839250888886
 31
0.0
  0
LINE
  5
D428
  8
0
 62
     0
 10
-2504.4771841063648
 20
-743.28839250888893
 30
0.0
 11
-2477.0771841063638
 21
-743.28839250888893
 31
0.0
  0
INSERT
  5
D429
  8
0
 62
     0
  2
DOT
 10
-2505.277184106365
 20
-743.28839250888893
 30
0.0
 41
0.8
 42
0.8
 43
0.8
 50
180.0
  0
INSERT
  5
D42A
  8
0
 62
     0
  2
DOT
 10
-2476.2771841063641
 20
-743.28839250888893
 30
0.0
 41
0.8
 42
0.8
 43
0.8
  0
TEXT
  8
0
  40
3
  5
D4D6
  62
0
  72
0
  71
0
 10
-2496.78
 20
-746.098
 30
0.000000
  1
29
  0
POINT
  5
D42C
  8
DEFPOINTS
 62
     0
 10
-2505.277184106365
 20
-716.78839250888825
 30
0.0
  0
POINT
  5
D42D
  8
DEFPOINTS
 62
     0
 10
-2476.2771841063641
 20
-722.28839250888802
 30
0.0
  0
POINT
  5
D42E
  8
DEFPOINTS
 62
     0
 10
-2476.2771841063641
 20
-743.28839250888893
 30
0.0
  0
ENDBLK
  5
A1CB
  8
0
  0
BLOCK
  8
0
  2
*D12
 70
     1
 10
0.0
 20
0.0
 30
0.0
  3
*D12
  1

  0
LINE
  5
D42F
  8
0
 62
     0
 10
-2763.2771841063641
 20
-637.09979995034587
 30
0.0
 11
-2763.2771841063641
 21
-615.08839250889025
 31
0.0
  0
LINE
  5
D430
  8
0
 62
     0
 10
-2757.2771841063632
 20
-639.38839250889248
 30
0.0
 11
-2757.2771841063632
 21
-615.08839250889025
 31
0.0
  0
LINE
  5
D431
  8
0
 62
     0
 10
-2762.4771841063639
 20
-616.2883925088903
 30
0.0
 11
-2758.0771841063638
 21
-616.2883925088903
 31
0.0
  0
INSERT
  5
D432
  8
0
 62
     0
  2
DOT
 10
-2763.2771841063641
 20
-616.2883925088903
 30
0.0
 41
0.8
 42
0.8
 43
0.8
 50
180.0
  0
INSERT
  5
D433
  8
0
 62
     0
  2
DOT
 10
-2757.2771841063632
 20
-616.2883925088903
 30
0.0
 41
0.8
 42
0.8
 43
0.8
  0
TEXT
  8
0
  40
3
  5
D4D7
  62
0
  72
0
  71
0
 10
-2766.28
 20
-619.098
 30
0.000000
  1
6
  0
POINT
  5
D435
  8
DEFPOINTS
 62
     0
 10
-2763.2771841063641
 20
-638.59979995034598
 30
0.0
  0
POINT
  5
D436
  8
DEFPOINTS
 62
     0
 10
-2757.2771841063632
 20
-640.88839250889237
 30
0.0
  0
POINT
  5
D437
  8
DEFPOINTS
 62
     0
 10
-2757.2771841063632
 20
-616.2883925088903
 30
0.0
  0
ENDBLK
  5
A204
  8
0
  0
BLOCK
  8
0
  2
*D13
 70
     1
 10
0.0
 20
0.0
 30
0.0
  3
*D13
  1

  0
LINE
  5
D438
  8
0
 62
     0
 10
-2757.2767364028891
 20
-639.36723824133117
 30
0.0
 11
-2757.2767364028891
 21
-615.08839250889025
 31
0.0
  0
LINE
  5
D439
  8
0
 62
     0
 10
-2721.2771841063632
 20
-639.28839250889234
 30
0.0
 11
-2721.2771841063632
 21
-615.08839250889025
 31
0.0
  0
LINE
  5
D43A
  8
0
 62
     0
 10
-2756.4767364028889
 20
-616.2883925088903
 30
0.0
 11
-2722.0771841063629
 21
-616.2883925088903
 31
0.0
  0
INSERT
  5
D43B
  8
0
 62
     0
  2
DOT
 10
-2757.2767364028891
 20
-616.2883925088903
 30
0.0
 41
0.8
 42
0.8
 43
0.8
 50
180.0
  0
INSERT
  5
D43C
  8
0
 62
     0
  2
DOT
 10
-2721.2771841063632
 20
-616.2883925088903
 30
0.0
 41
0.8
 42
0.8
 43
0.8
  0
TEXT
  8
0
  40
3
  5
D4D8
  62
0
  72
0
  71
0
 10
-2745.28
 20
-619.098
 30
0.000000
  1
36
  0
POINT
  5
D43E
  8
DEFPOINTS
 62
     0
 10
-2757.2767364028891
 20
-640.86723824133105
 30
0.0
  0
POINT
  5
D43F
  8
DEFPOINTS
 62
     0
 10
-2721.2771841063632
 20
-640.78839250889234
 30
0.0
  0
POINT
  5
D440
  8
DEFPOINTS
 62
     0
 10
-2721.2771841063632
 20
-616.2883925088903
 30
0.0
  0
ENDBLK
  5
A21E
  8
0
  0
BLOCK
  8
0
  2
*D14
 70
     1
 10
0.0
 20
0.0
 30
0.0
  3
*D14
  1

  0
LINE
  5
D441
  8
0
 62
     0
 10
-2631.2771841063632
 20
-639.28839250889132
 30
0.0
 11
-2631.2771841063632
 21
-615.08839250889025
 31
0.0
  0
LINE
  5
D442
  8
0
 62
     0
 10
-2595.2771841063641
 20
-638.88839250889134
 30
0.0
 11
-2595.2771841063641
 21
-615.08839250889025
 31
0.0
  0
LINE
  5
D443
  8
0
 62
     0
 10
-2630.477184106363
 20
-616.2883925088903
 30
0.0
 11
-2596.0771841063638
 21
-616.2883925088903
 31
0.0
  0
INSERT
  5
D444
  8
0
 62
     0
  2
DOT
 10
-2631.2771841063632
 20
-616.2883925088903
 30
0.0
 41
0.8
 42
0.8
 43
0.8
 50
180.0
  0
INSERT
  5
D445
  8
0
 62
     0
  2
DOT
 10
-2595.2771841063641
 20
-616.2883925088903
 30
0.0
 41
0.8
 42
0.8
 43
0.8
  0
TEXT
  8
0
  40
3
  5
D4D9
  62
0
  72
0
  71
0
 10
-2619.28
 20
-619.098
 30
0.000000
  1
36
  0
POINT
  5
D447
  8
DEFPOINTS
 62
     0
 10
-2631.2771841063632
 20
-640.78839250889132
 30
0.0
  0
POINT
  5
D448
  8
DEFPOINTS
 62
     0
 10
-2595.2771841063641
 20
-640.38839250889134
 30
0.0
  0
POINT
  5
D449
  8
DEFPOINTS
 62
     0
 10
-2595.2771841063641
 20
-616.2883925088903
 30
0.0
  0
ENDBLK
  5
A22B
  8
0
  0
BLOCK
  8
0
  2
*D15
 70
     1
 10
0.0
 20
0.0
 30
0.0
  3
*D15
  1

  0
LINE
  5
D44A
  8
0
 62
     0
 10
-2923.6598923832498
 20
-756.0
 30
0.0
 11
-2942.7369276311952
 21
-756.0
 31
0.0
  0
LINE
  5
D44B
  8
0
 62
     0
 10
-2920.559878504786
 20
-749.00000000000034
 30
0.0
 11
-2942.7369276311952
 21
-749.00000000000034
 31
0.0
  0
LINE
  5
D44C
  8
0
 62
     0
 10
-2941.5369276311949
 20
-755.20000000000005
 30
0.0
 11
-2941.5369276311949
 21
-749.80000000000018
 31
0.0
  0
INSERT
  5
D44D
  8
0
 62
     0
  2
DOT
 10
-2941.5369276311949
 20
-756.0
 30
0.0
 41
0.8
 42
0.8
 43
0.8
 50
270.0
  0
INSERT
  5
D44E
  8
0
 62
     0
  2
DOT
 10
-2941.5369276311949
 20
-749.00000000000034
 30
0.0
 41
0.8
 42
0.8
 43
0.8
 50
90.0
  0
TEXT
  8
0
  40
3
  5
D4DA
  62
0
  72
0
  71
0
 10
-2950.04
 20
-757.810
 30
0.000000
  1
7
  0
POINT
  5
D450
  8
DEFPOINTS
 62
     0
 10
-2922.1598923832498
 20
-756.0
 30
0.0
  0
POINT
  5
D451
  8
DEFPOINTS
 62
     0
 10
-2919.059878504786
 20
-749.00000000000034
 30
0.0
  0
POINT
  5
D452
  8
DEFPOINTS
 62
     0
 10
-2941.5369276311949
 20
-749.00000000000034
 30
0.0
  0
ENDBLK
  5
A272
  8
0
  0
BLOCK
  8
0
  2
*D16
 70
     1
 10
0.0
 20
0.0
 30
0.0
  3
*D16
  1

  0
LINE
  5
D453
  8
0
 62
     0
 10
-2920.559878504786
 20
-749.00000000000034
 30
0.0
 11
-2942.7369276311952
 21
-749.00000000000034
 31
0.0
  0
LINE
  5
D454
  8
0
 62
     0
 10
-2919.6598785047859
 20
-695.00000000000023
 30
0.0
 11
-2942.7369276311952
 21
-695.00000000000023
 31
0.0
  0
LINE
  5
D455
  8
0
 62
     0
 10
-2941.5369276311949
 20
-748.20000000000027
 30
0.0
 11
-2941.5369276311949
 21
-695.80000000000007
 31
0.0
  0
INSERT
  5
D456
  8
0
 62
     0
  2
DOT
 10
-2941.5369276311949
 20
-749.00000000000034
 30
0.0
 41
0.8
 42
0.8
 43
0.8
 50
270.0
  0
INSERT
  5
D457
  8
0
 62
     0
  2
DOT
 10
-2941.5369276311949
 20
-695.00000000000023
 30
0.0
 41
0.8
 42
0.8
 43
0.8
 50
90.0
  0
TEXT
  8
0
  40
3
  5
D4DB
  62
0
  72
0
  71
0
 10
-2950.04
 20
-727.310
 30
0.000000
  1
54
  0
POINT
  5
D459
  8
DEFPOINTS
 62
     0
 10
-2919.059878504786
 20
-749.00000000000034
 30
0.0
  0
POINT
  5
D45A
  8
DEFPOINTS
 62
     0
 10
-2918.1598785047859
 20
-695.00000000000023
 30
0.0
  0
POINT
  5
D45B
  8
DEFPOINTS
 62
     0
 10
-2941.5369276311949
 20
-695.00000000000023
 30
0.0
  0
ENDBLK
  5
A27F
  8
0
  0
BLOCK
  8
0
  2
*D17
 70
     1
 10
0.0
 20
0.0
 30
0.0
  3
*D17
  1

  0
LINE
  5
D45C
  8
0
 62
     0
 10
-2919.6598785047859
 20
-695.00000000000023
 30
0.0
 11
-2942.7369276311952
 21
-695.00000000000023
 31
0.0
  0
LINE
  5
D45D
  8
0
 62
     0
 10
-2919.65987850479
 20
-555.00000000000034
 30
0.0
 11
-2942.7369276311952
 21
-555.00000000000034
 31
0.0
  0
LINE
  5
D45E
  8
0
 62
     0
 10
-2941.5369276311949
 20
-694.20000000000016
 30
0.0
 11
-2941.5369276311949
 21
-555.8000000000003
 31
0.0
  0
INSERT
  5
D45F
  8
0
 62
     0
  2
DOT
 10
-2941.5369276311949
 20
-695.00000000000023
 30
0.0
 41
0.8
 42
0.8
 43
0.8
 50
270.0
  0
INSERT
  5
D460
  8
0
 62
     0
  2
DOT
 10
-2941.5369276311949
 20
-555.00000000000034
 30
0.0
 41
0.8
 42
0.8
 43
0.8
 50
90.0
  0
TEXT
  8
0
  40
3
  5
D4DC
  62
0
  72
0
  71
0
 10
-2950.04
 20
-630.310
 30
0.000000
  1
H-110
  0
POINT
  5
D462
  8
DEFPOINTS
 62
     0
 10
-2918.1598785047859
 20
-695.00000000000023
 30
0.0
  0
POINT
  5
D463
  8
DEFPOINTS
 62
     0
 10
-2918.15987850479
 20
-555.00000000000034
 30
0.0
  0
POINT
  5
D464
  8
DEFPOINTS
 62
     0
 10
-2941.5369276311949
 20
-555.00000000000034
 30
0.0
  0
ENDBLK
  5
A28C
  8
0
  0
BLOCK
  8
0
  2
*D18
 70
     1
 10
0.0
 20
0.0
 30
0.0
  3
*D18
  1

  0
LINE
  5
D465
  8
0
 62
     0
 10
-2919.65987850479
 20
-555.00000000000034
 30
0.0
 11
-2942.7369276311952
 21
-555.00000000000034
 31
0.0
  0
LINE
  5
D466
  8
0
 62
     0
 10
-2923.6598923832489
 20
-533.29999999999961
 30
0.0
 11
-2942.7369276311952
 21
-533.29999999999961
 31
0.0
  0
LINE
  5
D467
  8
0
 62
     0
 10
-2941.5369276311949
 20
-554.20000000000039
 30
0.0
 11
-2941.5369276311949
 21
-534.09999999999945
 31
0.0
  0
INSERT
  5
D468
  8
0
 62
     0
  2
DOT
 10
-2941.5369276311949
 20
-555.00000000000034
 30
0.0
 41
0.8
 42
0.8
 43
0.8
 50
270.0
  0
INSERT
  5
D469
  8
0
 62
     0
  2
DOT
 10
-2941.5369276311949
 20
-533.29999999999961
 30
0.0
 41
0.8
 42
0.8
 43
0.8
 50
90.0
  0
TEXT
  8
0
  40
3
  5
D4DD
  62
0
  72
0
  71
0
 10
-2950.04
 20
-549.460
 30
0.000000
  1
21.7
  0
POINT
  5
D46B
  8
DEFPOINTS
 62
     0
 10
-2918.15987850479
 20
-555.00000000000034
 30
0.0
  0
POINT
  5
D46C
  8
DEFPOINTS
 62
     0
 10
-2922.1598923832489
 20
-533.29999999999961
 30
0.0
  0
POINT
  5
D46D
  8
DEFPOINTS
 62
     0
 10
-2941.5369276311949
 20
-533.29999999999961
 30
0.0
  0
ENDBLK
  5
A299
  8
0
  0
BLOCK
  8
0
  2
*D19
 70
     1
 10
0.0
 20
0.0
 30
0.0
  3
*D19
  1

  0
LINE
  5
D46E
  8
0
 62
     0
 10
-2923.6598923832489
 20
-533.29999999999961
 30
0.0
 11
-2942.7369276311952
 21
-533.29999999999961
 31
0.0
  0
LINE
  5
D46F
  8
0
 62
     0
 10
-2922.373275485043
 20
-506.00000000000091
 30
0.0
 11
-2942.7369276311952
 21
-506.00000000000091
 31
0.0
  0
LINE
  5
D470
  8
0
 62
     0
 10
-2941.5369276311949
 20
-532.49999999999955
 30
0.0
 11
-2941.5369276311949
 21
-506.80000000000092
 31
0.0
  0
INSERT
  5
D471
  8
0
 62
     0
  2
DOT
 10
-2941.5369276311949
 20
-533.29999999999961
 30
0.0
 41
0.8
 42
0.8
 43
0.8
 50
270.0
  0
INSERT
  5
D472
  8
0
 62
     0
  2
DOT
 10
-2941.5369276311949
 20
-506.00000000000091
 30
0.0
 41
0.8
 42
0.8
 43
0.8
 50
90.0
  0
TEXT
  8
0
  40
3
  5
D4DE
  62
0
  72
0
  71
0
 10
-2950.04
 20
-524.960
 30
0.000000
  1
27.3
  0
POINT
  5
D474
  8
DEFPOINTS
 62
     0
 10
-2922.1598923832489
 20
-533.29999999999961
 30
0.0
  0
POINT
  5
D475
  8
DEFPOINTS
 62
     0
 10
-2920.873275485043
 20
-506.00000000000091
 30
0.0
  0
POINT
  5
D476
  8
DEFPOINTS
 62
     0
 10
-2941.5369276311949
 20
-506.00000000000091
 30
0.0
  0
ENDBLK
  5
A2A6
  8
0
  0
BLOCK
  8
0
  2
*D20
 70
     1
 10
0.0
 20
0.0
 30
0.0
  3
*D20
  1

  0
LINE
  5
D47F
  8
0
 62
     0
 10
-2750.2771841063641
 20
-723.78839250888814
 30
0.0
 11
-2750.2771841063641
 21
-744.48839250888886
 31
0.0
  0
LINE
  5
D480
  8
0
 62
     0
 10
-2631.273671633654
 20
-716.70719066092124
 30
0.0
 11
-2631.273671633654
 21
-744.48839250888886
 31
0.0
  0
LINE
  5
D481
  8
0
 62
     0
 10
-2749.4771841063639
 20
-743.28839250888893
 30
0.0
 11
-2632.0736716336542
 21
-743.28839250888893
 31
0.0
  0
INSERT
  5
D482
  8
0
 62
     0
  2
DOT
 10
-2750.2771841063641
 20
-743.28839250888893
 30
0.0
 41
0.8
 42
0.8
 43
0.8
 50
180.0
  0
INSERT
  5
D483
  8
0
 62
     0
  2
DOT
 10
-2631.273671633654
 20
-743.28839250888893
 30
0.0
 41
0.8
 42
0.8
 43
0.8
  0
TEXT
  8
0
  40
3
  5
D4DF
  62
0
  72
0
  71
0
 10
-2696.78
 20
-745.313
 30
0.000000
  1
W/2-31
  0
POINT
  5
D485
  8
DEFPOINTS
 62
     0
 10
-2750.2771841063641
 20
-722.28839250888814
 30
0.0
  0
POINT
  5
D486
  8
DEFPOINTS
 62
     0
 10
-2631.273671633654
 20
-715.20719066092124
 30
0.0
  0
POINT
  5
D487
  8
DEFPOINTS
 62
     0
 10
-2631.273671633654
 20
-743.28839250888893
 30
0.0
  0
ENDBLK
  5
A62A
  8
0
  0
BLOCK
  8
0
  2
*D21
 70
     1
 10
0.0
 20
0.0
 30
0.0
  3
*D21
  1

  0
LINE
  5
D488
  8
0
 62
     0
 10
-2595.277203001524
 20
-718.3283925088881
 30
0.0
 11
-2595.277203001524
 21
-744.48839250888886
 31
0.0
  0
LINE
  5
D489
  8
0
 62
     0
 10
-2505.277184106365
 20
-718.28839250888836
 30
0.0
 11
-2505.277184106365
 21
-744.48839250888886
 31
0.0
  0
LINE
  5
D48A
  8
0
 62
     0
 10
-2594.4772030015238
 20
-743.28839250888893
 30
0.0
 11
-2506.0771841063652
 21
-743.28839250888893
 31
0.0
  0
INSERT
  5
D48B
  8
0
 62
     0
  2
DOT
 10
-2595.277203001524
 20
-743.28839250888893
 30
0.0
 41
0.8
 42
0.8
 43
0.8
 50
180.0
  0
INSERT
  5
D48C
  8
0
 62
     0
  2
DOT
 10
-2505.277184106365
 20
-743.28839250888893
 30
0.0
 41
0.8
 42
0.8
 43
0.8
  0
TEXT
  8
0
  40
3
  5
D4E0
  62
0
  72
0
  71
0
 10
-2556.28
 20
-745.313
 30
0.000000
  1
W/2-60
  0
POINT
  5
D48E
  8
DEFPOINTS
 62
     0
 10
-2595.277203001524
 20
-716.82839250888799
 30
0.0
  0
POINT
  5
D48F
  8
DEFPOINTS
 62
     0
 10
-2505.277184106365
 20
-716.78839250888825
 30
0.0
  0
POINT
  5
D490
  8
DEFPOINTS
 62
     0
 10
-2505.277184106365
 20
-743.28839250888893
 30
0.0
  0
ENDBLK
  5
A64B
  8
0
  0
BLOCK
  8
0
  2
*D22
 70
     1
 10
0.0
 20
0.0
 30
0.0
  3
*D22
  1

  0
LINE
  5
D491
  8
0
 62
     0
 10
-2922.3495360833431
 20
-505.97578643858537
 30
0.0
 11
-2949.7369276311952
 21
-505.97578643858537
 31
0.0
  0
LINE
  5
D492
  8
0
 62
     0
 10
-2923.6598923832498
 20
-756.0
 30
0.0
 11
-2949.7369276311952
 21
-756.0
 31
0.0
  0
LINE
  5
D493
  8
0
 62
     0
 10
-2948.5369276311949
 20
-506.77578643858538
 30
0.0
 11
-2948.5369276311949
 21
-755.20000000000005
 31
0.0
  0
INSERT
  5
D494
  8
0
 62
     0
  2
DOT
 10
-2948.5369276311949
 20
-505.97578643858537
 30
0.0
 41
0.8
 42
0.8
 43
0.8
 50
90.0
  0
INSERT
  5
D495
  8
0
 62
     0
  2
DOT
 10
-2948.5369276311949
 20
-756.0
 30
0.0
 41
0.8
 42
0.8
 43
0.8
 50
270.0
  0
TEXT
  8
0
  40
3
  5
D4E1
  62
0
  72
0
  71
0
 10
-2957.04
 20
-636.298
 30
0.000000
  1
H
  0
POINT
  5
D497
  8
DEFPOINTS
 62
     0
 10
-2920.8495360833431
 20
-505.97578643858537
 30
0.0
  0
POINT
  5
D498
  8
DEFPOINTS
 62
     0
 10
-2922.1598923832498
 20
-756.0
 30
0.0
  0
POINT
  5
D499
  8
DEFPOINTS
 62
     0
 10
-2948.5369276311949
 20
-756.0
 30
0.0
  0
ENDBLK
  5
A67E
  8
0
  0
BLOCK
  8
0
  2
*D23
 70
     1
 10
0.0
 20
0.0
 30
0.0
  3
*D23
  1

  0
LINE
  5
D49A
  8
0
 62
     0
 10
-2763.7771841063641
 20
-637.2883925088903
 30
0.0
 11
-2785.4769662225449
 21
-637.2883925088903
 31
0.0
  0
LINE
  5
D49B
  8
0
 62
     0
 10
-2763.7771841063641
 20
-722.28839250888927
 30
0.0
 11
-2785.4769662225449
 21
-722.28839250888927
 31
0.0
  0
LINE
  5
D49C
  8
0
 62
     0
 10
-2784.2769662225451
 20
-638.08839250889025
 30
0.0
 11
-2784.2769662225451
 21
-721.48839250888943
 31
0.0
  0
INSERT
  5
D49D
  8
0
 62
     0
  2
DOT
 10
-2784.2769662225451
 20
-637.2883925088903
 30
0.0
 41
0.8
 42
0.8
 43
0.8
 50
90.0
  0
INSERT
  5
D49E
  8
0
 62
     0
  2
DOT
 10
-2784.2769662225451
 20
-722.28839250888927
 30
0.0
 41
0.8
 42
0.8
 43
0.8
 50
270.0
  0
TEXT
  8
0
  40
3
  5
D4E2
  62
0
  72
0
  71
0
 10
-2792.78
 20
-685.098
 30
0.000000
  1
85
  0
POINT
  5
D4A0
  8
DEFPOINTS
 62
     0
 10
-2762.2771841063641
 20
-637.2883925088903
 30
0.0
  0
POINT
  5
D4A1
  8
DEFPOINTS
 62
     0
 10
-2762.2771841063641
 20
-722.28839250888927
 30
0.0
  0
POINT
  5
D4A2
  8
DEFPOINTS
 62
     0
 10
-2784.2769662225451
 20
-722.28839250888927
 30
0.0
  0
ENDBLK
  5
A6C1
  8
0
  0
BLOCK
  8
0
  2
*U25
 70
     1
 10
0.0
 20
0.0
 30
0.0
  3
*U25
  1

  0
TEXT
  5
D4B2
  8
ADM
 10
-2821.4616228255049
 20
-484.00000000000063
 30
0.0
 40
3.0
  1
35
 41
0.8
  0
ENDBLK
  5
D4B4
  8
0
  0
BLOCK
  8
0
  2
*U26
 70
     1
 10
0.0
 20
0.0
 30
0.0
  3
*U26
  1

  0
TEXT
  5
D4B6
  8
0
 62
     0
 10
-2881.9456066689659
 20
-484.0000000000008
 30
0.0
 40
3.0
  1
85
 41
0.8
  0
ENDBLK
  5
D4B8
  8
0
  0
BLOCK
  8
0
  2
*U27
 70
     1
 10
0.0
 20
0.0
 30
0.0
  3
*U27
  1

  0
TEXT
  5
D4BA
  8
0
 62
     0
 10
-2883.6098923832501
 20
-783.0
 30
0.0
 40
3.0
  1
81.7
 41
0.8
  0
ENDBLK
  5
D4BC
  8
0
  0
BLOCK
  8
0
  2
*U28
 70
     1
 10
0.0
 20
0.0
 30
0.0
  3
*U28
  1

  0
TEXT
  5
D4BE
  8
0
 62
     0
 10
-2888.859878504778
 20
-776.0
 30
0.0
 40
3.0
  1
40.6
 41
0.8
  0
ENDBLK
  5
D4C0
  8
0
  0
BLOCK
  8
0
  2
*U29
 70
     1
 10
0.0
 20
0.0
 30
0.0
  3
*U29
  1

  0
TEXT
  5
D4C2
  8
0
 62
     0
 10
-2855.6598854440108
 20
-776.0
 30
0.0
 40
3.0
  1
25.8
 41
0.8
  0
ENDBLK
  5
D4C4
  8
0
  0
BLOCK
  8
0
  2
*U30
 70
     1
 10
0.0
 20
0.0
 30
0.0
  3
*U30
  1

  0
TEXT
  5
D4C6
  8
0
 62
     0
 10
-2817.1598923832512
 20
-751.51428571428619
 30
0.0
 40
3.0
  1
14
 50
90.0
 41
0.8
  0
ENDBLK
  5
D4C8
  8
0
  0
BLOCK
  8
0
  2
*U31
 70
     1
 10
0.0
 20
0.0
 30
0.0
  3
*U31
  1

  0
TEXT
  5
D4CA
  8
0
 62
     0
 10
-2472.2343269635071
 20
-742.28839250888893
 30
0.0
 40
3.0
  1
13
 41
0.8
  0
ENDBLK
  5
D4CC
  8
0
  0
BLOCK
  8
0
  2
*U32
 70
     1
 10
0.0
 20
0.0
 30
0.0
  3
*U32
  1

  0
TEXT
  5
D4CE
  8
0
 62
     0
 10
-2614.6486126777932
 20
-749.28839250888893
 30
0.0
 40
3.0
  1
W
 41
0.8
  0
ENDBLK
  5
D4D0
  8
0
  0
BLOCK
  8
0
  2
*U33
 70
     1
 10
0.0
 20
0.0
 30
0.0
  3
*U33
  1

  0
TEXT
  5
D4D2
  8
0
 62
     0
 10
-2759.234326963508
 20
-742.28839250888893
 30
0.0
 40
3.0
  1
13
 41
0.8
  0
ENDBLK
  5
D4D4
  8
0
  0
ENDSEC
  0
SECTION
  2
ENTITIES
  0
LINE
  5
8E90
  8
0
 10
-2893.1598785047859
 20
-632.0
 30
0.0
 11
-2893.1598785047859
 21
-708.00000811047573
 31
0.0
  0
LINE
  5
8E91
  8
0
 10
-2896.1598785047868
 20
-632.0
 30
0.0
 11
-2896.1598785047859
 21
-708.00000811047573
 31
0.0
  0
LINE
  5
8E92
  8
0
 10
-2912.1598785047859
 20
-632.0
 30
0.0
 11
-2912.1598785047859
 21
-708.00000811047573
 31
0.0
  0
LINE
  5
8E93
  8
0
 10
-2915.1598785047859
 20
-632.0
 30
0.0
 11
-2915.1598785047859
 21
-708.00000811047573
 31
0.0
  0
LINE
  5
8E94
  8
0
 10
-2915.1598785047859
 20
-708.00000811047573
 30
0.0
 11
-2893.1598785047859
 21
-708.00000811047573
 31
0.0
  0
LINE
  5
8E99
  8
0
 10
-2837.1598923832512
 20
-756.0
 30
0.0
 11
-2837.1598923832512
 21
-506.0
 31
0.0
  0
LINE
  5
8E9A
  8
0
 10
-2839.6598923832512
 20
-742.0
 30
0.0
 11
-2839.6598923832512
 21
-533.29999999999973
 31
0.0
  0
LINE
  5
8E9C
  8
0
 10
-2839.6598923832512
 20
-741.99999999999989
 30
0.0
 11
-2838.7598923832511
 21
-742.00000000000011
 31
0.0
  0
LINE
  5
8E9D
  8
0
 10
-2838.7598923832511
 20
-756.0
 30
0.0
 11
-2838.7598923832511
 21
-742.00000000000011
 31
0.0
  0
LINE
  5
8E9E
  8
0
 10
-2837.1598923832512
 20
-756.0
 30
0.0
 11
-2838.9198923832519
 21
-756.0
 31
0.0
  0
LINE
  5
8E9F
  8
0
 10
-2837.1598923832512
 20
-506.0
 30
0.0
 11
-2838.759892383252
 21
-505.99999999999989
 31
0.0
  0
LINE
  5
8EB2
  8
0
 10
-2893.1598785047859
 20
-631.20000000000005
 30
0.0
 11
-2893.1598785047859
 21
-543.10000000000036
 31
0.0
  0
LINE
  5
8EB3
  8
0
 10
-2896.1598785047868
 20
-631.20000000000005
 30
0.0
 11
-2896.1598785047859
 21
-543.10000000000036
 31
0.0
  0
LINE
  5
8EB4
  8
0
 10
-2912.1598785047859
 20
-631.20000000000005
 30
0.0
 11
-2912.1598785047859
 21
-543.10000000000036
 31
0.0
  0
LINE
  5
8EB5
  8
0
 10
-2915.1598785047859
 20
-631.20000000000005
 30
0.0
 11
-2915.1598785047859
 21
-543.10000000000036
 31
0.0
  0
LINE
  5
8EB6
  8
0
 10
-2915.1598785047859
 20
-543.10000000000036
 30
0.0
 11
-2893.1598785047859
 21
-543.10000000000036
 31
0.0
  0
LINE
  5
8EBC
  8
0
 10
-2878.459878504772
 20
-530.00000000000057
 30
0.0
 11
-2878.4598785047729
 21
-749.00000000000034
 31
0.0
  0
LINE
  5
8EBD
  8
0
 10
-2877.6598785047722
 20
-530.00000000000057
 30
0.0
 11
-2877.6598785047722
 21
-749.00000000000011
 31
0.0
  0
LINE
  5
8EBE
  8
0
 10
-2843.3598785047711
 20
-530.00000000000057
 30
0.0
 11
-2843.3598785047711
 21
-749.00000000000011
 31
0.0
  0
LINE
  5
8EBF
  8
0
 10
-2842.3598785047711
 20
-530.00000000000057
 30
0.0
 11
-2842.3598785047711
 21
-749.00000000000045
 31
0.0
  0
LINE
  5
8EC1
  8
ACL
 10
-2864.5598785047709
 20
-759.6083096240809
 30
0.0
 11
-2864.5598785047709
 21
-521.04766505953648
 31
0.0
  0
LINE
  5
8EC2
  8
ACL
 10
-2905.159878504785
 20
-759.6083096240809
 30
0.0
 11
-2905.159878504785
 21
-521.04766505953648
 31
0.0
  0
LINE
  5
8ECD
  8
0
 10
-2852.5598785047719
 20
-631.20000000000005
 30
0.0
 11
-2852.5598785047732
 21
-543.10000000000036
 31
0.0
  0
LINE
  5
8ECE
  8
0
 10
-2855.5598785047732
 20
-631.20000000000005
 30
0.0
 11
-2855.5598785047732
 21
-543.10000000000036
 31
0.0
  0
LINE
  5
8ECF
  8
0
 10
-2871.5598785047732
 20
-631.20000000000005
 30
0.0
 11
-2871.5598785047732
 21
-543.10000000000036
 31
0.0
  0
LINE
  5
8ED0
  8
0
 10
-2874.5598785047732
 20
-631.20000000000005
 30
0.0
 11
-2874.5598785047732
 21
-543.10000000000036
 31
0.0
  0
LINE
  5
8ED1
  8
0
 10
-2874.5598785047732
 20
-543.10000000000036
 30
0.0
 11
-2852.5598785047732
 21
-543.10000000000036
 31
0.0
  0
LINE
  5
8ED6
  8
0
 10
-2877.5598785047719
 20
-530.00000000000057
 30
0.0
 11
-2878.459878504772
 21
-530.00000000000057
 31
0.0
  0
LINE
  5
8ED8
  8
0
 10
-2919.059878504786
 20
-530.00000000000057
 30
0.0
 11
-2919.059878504786
 21
-749.00000000000034
 31
0.0
  0
LINE
  5
8ED9
  8
0
 10
-2918.2598785047849
 20
-530.00000000000057
 30
0.0
 11
-2918.2598785047858
 21
-749.00000000000011
 31
0.0
  0
LINE
  5
8EDA
  8
0
 10
-2883.9598785047838
 20
-530.00000000000057
 30
0.0
 11
-2883.9598785047838
 21
-749.00000000000011
 31
0.0
  0
LINE
  5
8EDB
  8
0
 10
-2882.9598785047838
 20
-530.00000000000057
 30
0.0
 11
-2882.9598785047838
 21
-749.00000000000034
 31
0.0
  0
LINE
  5
8EDC
  8
0
 10
-2919.059878504786
 20
-749.00000000000034
 30
0.0
 11
-2918.2598785047858
 21
-749.00000000000011
 31
0.0
  0
LINE
  5
8EDD
  8
0
 10
-2919.059878504786
 20
-530.00000000000057
 30
0.0
 11
-2918.159878504784
 21
-530.00000000000057
 31
0.0
  0
LINE
  5
8F32
  8
0
 10
-2715.7771841063641
 20
-696.88839250888793
 30
0.0
 11
-2683.3379767150218
 21
-696.88839250888805
 31
0.0
  0
LINE
  5
8F33
  8
0
 10
-2681.7670035237388
 20
-696.88839250888805
 30
0.0
 11
-2661.1809850860482
 21
-696.88839250888793
 31
0.0
  0
LINE
  5
8F34
  8
0
 10
-2715.7771841063641
 20
-692.88839250888793
 30
0.0
 11
-2683.3379767150218
 21
-692.88839250888793
 31
0.0
  0
LINE
  5
8F35
  8
0
 10
-2681.7670035237388
 20
-692.88839250888793
 30
0.0
 11
-2661.691448992146
 21
-692.88839250888793
 31
0.0
  0
LINE
  5
8F39
  8
0
 10
-2750.2771841063641
 20
-720.68839250888811
 30
0.0
 11
-2476.2771841063641
 21
-720.68839250888811
 31
0.0
  0
LINE
  5
8F3A
  8
0
 10
-2757.5771841063638
 20
-638.98839250888796
 30
0.0
 11
-2468.9771841063639
 21
-638.98839250888796
 31
0.0
  0
LINE
  5
8F3B
  8
0
 10
-2750.2771841063641
 20
-718.88839250888805
 30
0.0
 11
-2468.9771841063639
 21
-718.88839250888805
 31
0.0
  0
LINE
  5
8F4F
  8
0
 10
-2683.3379767150218
 20
-666.28839250889223
 30
0.0
 11
-2735.2771841063632
 21
-666.28839250889223
 31
0.0
  0
LINE
  5
8F50
  8
0
 10
-2683.3379767150218
 20
-663.28839250889223
 30
0.0
 11
-2735.2771841063632
 21
-663.28839250889223
 31
0.0
  0
LINE
  5
8F51
  8
0
 10
-2683.3379767150218
 20
-647.28839250889223
 30
0.0
 11
-2735.2771841063632
 21
-647.28839250889223
 31
0.0
  0
LINE
  5
8F52
  8
0
 10
-2683.3379767150218
 20
-644.28839250889268
 30
0.0
 11
-2735.2771841063632
 21
-644.28839250889223
 31
0.0
  0
LINE
  5
8F53
  8
0
 10
-2735.2771841063632
 20
-644.28839250889223
 30
0.0
 11
-2735.2771841063632
 21
-666.28839250889223
 31
0.0
  0
LINE
  5
8F60
  8
0
 10
-2681.7670035237379
 20
-666.28839250889075
 30
0.0
 11
-2617.2771841063632
 21
-666.28839250889098
 31
0.0
  0
LINE
  5
8F61
  8
0
 10
-2681.7670035237379
 20
-663.28839250889098
 30
0.0
 11
-2617.2771841063632
 21
-663.28839250889098
 31
0.0
  0
LINE
  5
8F62
  8
0
 10
-2681.7670035237379
 20
-647.28839250889075
 30
0.0
 11
-2617.2771841063632
 21
-647.28839250889087
 31
0.0
  0
LINE
  5
8F63
  8
0
 10
-2681.7670035237379
 20
-644.28839250889155
 30
0.0
 11
-2617.2771841063632
 21
-644.28839250889087
 31
0.0
  0
LINE
  5
8F64
  8
0
 10
-2617.2771841063632
 20
-644.28839250889087
 30
0.0
 11
-2617.2771841063632
 21
-666.28839250889098
 31
0.0
  0
LINE
  5
8F71
  8
0
 10
-2543.2163914977059
 20
-706.8883925088877
 30
0.0
 11
-2491.277184106365
 21
-706.8883925088877
 31
0.0
  0
LINE
  5
8F72
  8
0
 10
-2543.2163914977059
 20
-703.88839250888759
 30
0.0
 11
-2491.277184106365
 21
-703.88839250888759
 31
0.0
  0
LINE
  5
8F73
  8
0
 10
-2543.2163914977059
 20
-687.8883925088877
 30
0.0
 11
-2491.277184106365
 21
-687.8883925088877
 31
0.0
  0
LINE
  5
8F74
  8
0
 10
-2543.2163914977059
 20
-684.88839250888805
 30
0.0
 11
-2491.277184106365
 21
-684.8883925088877
 31
0.0
  0
LINE
  5
8F75
  8
0
 10
-2491.277184106365
 20
-684.8883925088877
 30
0.0
 11
-2491.277184106365
 21
-706.8883925088877
 31
0.0
  0
LINE
  5
8F80
  8
0
 10
-2545.337995610184
 20
-706.8883925088877
 30
0.0
 11
-2609.277203001524
 21
-706.8883925088877
 31
0.0
  0
LINE
  5
8F81
  8
0
 10
-2545.337995610184
 20
-703.88839250888759
 30
0.0
 11
-2609.277203001524
 21
-703.88839250888759
 31
0.0
  0
LINE
  5
8F82
  8
0
 10
-2545.337995610184
 20
-687.8883925088877
 30
0.0
 11
-2609.277203001524
 21
-687.8883925088877
 31
0.0
  0
LINE
  5
8F83
  8
0
 10
-2545.337995610184
 20
-684.88839250888805
 30
0.0
 11
-2609.277203001524
 21
-684.8883925088877
 31
0.0
  0
LINE
  5
8F84
  8
0
 10
-2609.277203001524
 20
-684.8883925088877
 30
0.0
 11
-2609.277203001524
 21
-706.8883925088877
 31
0.0
  0
LINE
  5
8F8F
  8
0
 10
-2593.4771841071029
 20
-656.28839250889132
 30
0.0
 11
-2481.7771841063641
 21
-656.28839250889132
 31
0.0
  0
LINE
  5
8F90
  8
0
 10
-2593.4771841071029
 20
-652.28839250889121
 30
0.0
 11
-2481.7771841063641
 21
-652.28839250889132
 31
0.0
  0
LINE
  5
8F97
  8
0
 10
-2593.4771841071029
 20
-654.33839250889105
 30
0.0
 11
-2593.4771841071029
 21
-648.83839250889241
 31
0.0
  0
LINE
  5
8F98
  8
0
 10
-2593.4771841071029
 20
-654.33839250889105
 30
0.0
 11
-2593.4771841071019
 21
-659.83839250888957
 31
0.0
  0
LINE
  5
8F99
  8
0
 10
-2595.2771841063641
 20
-660.33839250888968
 30
0.0
 11
-2593.977184107101
 21
-660.33839250888968
 31
0.0
  0
ARC
  5
8F9A
  8
0
 10
-2593.977184107101
 20
-659.83839250888968
 30
0.0
 40
0.5
 50
270.0
 51
0.0000000000195483
  0
LINE
  5
8F9B
  8
0
 10
-2595.2771841063641
 20
-648.33839250889196
 30
0.0
 11
-2593.9771841071029
 21
-648.33839250889196
 31
0.0
  0
ARC
  5
8F9C
  8
0
 10
-2593.9771841071029
 20
-648.83839250889241
 30
0.0
 40
0.5
 50
0.000000000000007
 51
90.0
  0
LINE
  5
8F9D
  8
0
 10
-2593.4771841071029
 20
-648.83839250942106
 30
0.0
 11
-2593.4771841071029
 21
-659.83839250836104
 31
0.0
  0
LINE
  5
8F9E
  8
0
 10
-2593.9771841078632
 20
-660.33839250912104
 30
0.0
 11
-2595.2771841063641
 21
-660.33839250912104
 31
0.0
  0
LINE
  5
8F9F
  8
0
 10
-2595.2771841063632
 20
-648.33839250866106
 30
0.0
 11
-2593.9771841078632
 21
-648.33839250866106
 31
0.0
  0
ARC
  5
8FA0
  8
0
 10
-2593.9771841078632
 20
-648.83839250942106
 30
0.0
 40
0.5000000007599965
 50
0.000000000000007
 51
90.0
  0
ARC
  5
8FA1
  8
0
 10
-2593.9771841078632
 20
-659.83839250836104
 30
0.0
 40
0.500000000760025
 50
270.0
 51
0.000000000000007
  0
DIMENSION
  5
8FC6
  8
0
 62
     4
  2
*D2
 10
-2750.2771841063641
 20
-743.28839250888893
 30
0.0
 11
-2756.7771841063641
 21
-740.78839250888893
 31
0.0
 70
     0
 13
-2763.2771841063641
 23
-722.28839250888814
 33
0.0
 14
-2750.2771841063641
 24
-722.28839250888814
 34
0.0
1001
ACAD
1000
DSTYLE
1002
{
1070
    79
1070
     1
1070
    90
1070
     1
1070
   172
1070
     1
1070
   271
1070
     3
1070
   272
1070
     3
1070
     6
1000
DOT
1070
     7
1000
DOT
1002
}
  0
DIMENSION
  5
8FD1
  8
0
 62
     4
  2
*D3
 10
-2463.2771841063641
 20
-750.28839250888893
 30
0.0
 11
-2613.2771841063641
 21
-747.78839250888893
 31
0.0
 70
     0
  1
W
 13
-2763.2771841063641
 23
-722.28839250888814
 33
0.0
 14
-2463.2771841063641
 24
-722.28839250888814
 34
0.0
1001
ACAD
1000
DSTYLE
1002
{
1070
    79
1070
     1
1070
    90
1070
     1
1070
   172
1070
     1
1070
   271
1070
     3
1070
   272
1070
     3
1070
     6
1000
DOT
1070
     7
1000
DOT
1002
}
  0
DIMENSION
  5
8FD2
  8
0
 62
     4
  2
*D4
 10
-2816.1598923832521
 20
-742.00000000000011
 30
0.0
 11
-2818.6598923832512
 21
-749.00000000000045
 31
0.0
 70
     0
 13
-2837.1598923832512
 23
-756.0
 33
0.0
 14
-2838.7598923832511
 24
-742.00000000000011
 34
0.0
 50
90.0
1001
ACAD
1000
DSTYLE
1002
{
1070
    79
1070
     1
1070
    90
1070
     1
1070
   172
1070
     1
1070
   271
1070
     3
1070
   272
1070
     3
1070
     6
1000
DOT
1070
     7
1000
DOT
1002
}
  0
DIMENSION
  5
8FE7
  8
0
 62
     4
  2
*D5
 10
-2864.5598785047709
 20
-777.0
 30
0.0
 11
-2851.6598854440108
 21
-774.5
 31
0.0
 70
     0
 13
-2838.7598923832511
 23
-756.0
 33
0.0
 14
-2864.5598785047709
 24
-759.6083096240809
 34
0.0
1001
ACAD
1000
DSTYLE
1002
{
1070
    79
1070
     1
1070
    90
1070
     1
1070
   172
1070
     1
1070
   271
1070
     3
1070
   272
1070
     3
1070
     6
1000
DOT
1070
     7
1000
DOT
1002
}
  0
DIMENSION
  5
8FE8
  8
0
 62
     4
  2
*D6
 10
-2905.159878504785
 20
-777.0
 30
0.0
 11
-2884.859878504778
 21
-774.5
 31
0.0
 70
     0
 13
-2864.5598785047709
 23
-759.6083096240809
 33
0.0
 14
-2905.159878504785
 24
-759.6083096240809
 34
0.0
1001
ACAD
1000
DSTYLE
1002
{
1070
    79
1070
     1
1070
    90
1070
     1
1070
   172
1070
     1
1070
   271
1070
     3
1070
   272
1070
     3
1070
     6
1000
DOT
1070
     7
1000
DOT
1002
}
  0
DIMENSION
  5
8FEA
  8
0
 62
     4
  2
*D7
 10
-2920.4598923832491
 20
-784.0
 30
0.0
 11
-2879.6098923832501
 21
-781.5
 31
0.0
 70
     0
 13
-2838.7598923832511
 23
-756.0
 33
0.0
 14
-2920.4598923832491
 24
-755.49999999999989
 34
0.0
1001
ACAD
1000
DSTYLE
1002
{
1070
    79
1070
     1
1070
    90
1070
     1
1070
   172
1070
     1
1070
   271
1070
     3
1070
   272
1070
     3
1070
     6
1000
DOT
1070
     7
1000
DOT
1002
}
  0
DIMENSION
  5
8FEF
  8
0
 62
     4
  2
*D8
 10
-2922.1598923832521
 20
-485.0000000000008
 30
0.0
 11
-2879.6598923832521
 21
-482.50000000000091
 31
0.0
 70
     0
 13
-2837.1598923832512
 23
-506.0
 33
0.0
 14
-2922.1598923832521
 24
-506.50000000000011
 34
0.0
1001
ACAD
1000
DSTYLE
1002
{
1070
    79
1070
     1
1070
    90
1070
     1
1070
   172
1070
     1
1070
   271
1070
     3
1070
   272
1070
     3
1070
     6
1000
DOT
1070
     7
1000
DOT
1002
}
  0
DIMENSION
  5
902A
  8
0
 62
     4
  2
*D9
 10
-2476.2771841063641
 20
-743.28839250888893
 30
0.0
 11
-2469.7771841063641
 21
-740.78839250888893
 31
0.0
 70
     0
 13
-2463.2771841063641
 23
-722.28839250888814
 33
0.0
 14
-2476.2771841063641
 24
-722.28839250888814
 34
0.0
1001
ACAD
1000
DSTYLE
1002
{
1070
    79
1070
     1
1070
    90
1070
     1
1070
   172
1070
     1
1070
   271
1070
     3
1070
   272
1070
     3
1070
     6
1000
DOT
1070
     7
1000
DOT
1002
}
  0
LINE
  5
9054
  8
0
 10
-2922.1598923832521
 20
-506.80000000000001
 30
0.0
 11
-2922.1598923832498
 21
-756.0
 31
0.0
  0
LINE
  5
9055
  8
0
 10
-2919.8598923832492
 20
-533.29999999999961
 30
0.0
 11
-2919.8598923832492
 21
-756.0
 31
0.0
  0
LINE
  5
905D
  8
0
 10
-2852.5598785047719
 20
-632.0
 30
0.0
 11
-2852.5598785047732
 21
-708.00000811047573
 31
0.0
  0
LINE
  5
905E
  8
0
 10
-2855.5598785047732
 20
-632.0
 30
0.0
 11
-2855.5598785047732
 21
-708.00000811047573
 31
0.0
  0
LINE
  5
905F
  8
0
 10
-2871.5598785047732
 20
-632.0
 30
0.0
 11
-2871.5598785047732
 21
-708.00000811047573
 31
0.0
  0
LINE
  5
9060
  8
0
 10
-2874.5598785047732
 20
-632.0
 30
0.0
 11
-2874.5598785047732
 21
-708.00000811047573
 31
0.0
  0
LINE
  5
9061
  8
0
 10
-2874.5598785047732
 20
-708.00000811047573
 30
0.0
 11
-2852.5598785047732
 21
-708.00000811047573
 31
0.0
  0
LINE
  5
909E
  8
0
  6
HIDDEN
 10
-2476.2771841063641
 20
-720.68839250888811
 30
0.0
 11
-2468.9771841063639
 21
-720.68839250888823
 31
0.0
  0
LINE
  5
909F
  8
0
 10
-2922.1598923832489
 20
-533.29999999999961
 30
0.0
 11
-2919.8598923832492
 21
-533.29999999999961
 31
0.0
  0
LINE
  5
97BA
  8
0
 10
-2884.959878504786
 20
-529.00000000000068
 30
0.0
 11
-2883.7598785047858
 21
-529.00000000000068
 31
0.0
  0
LINE
  5
97BB
  8
0
 10
-2883.7598785047858
 20
-529.00000000000068
 30
0.0
 11
-2883.7598785047858
 21
-528.15000000000089
 31
0.0
  0
ARC
  5
97BC
  8
0
 10
-2883.3598785047861
 20
-528.15000000000055
 30
0.0
 40
0.400000000000091
 50
0.0
 51
180.00000000003249
  0
LINE
  5
97BD
  8
0
 10
-2882.959878504786
 20
-528.15000000000055
 30
0.0
 11
-2882.959878504786
 21
-529.5000000000008
 31
0.0
  0
ARC
  5
97BE
  8
0
 10
-2883.4598785047851
 20
-529.50000000000125
 30
0.0
 40
0.4999999999995453
 50
270.00000000005213
 51
0.0000000000390827
  0
LINE
  5
97E5
  8
0
 10
-2918.1598785047859
 20
-555.00000000000034
 30
0.0
 11
-2918.159878504784
 21
-530.00000000000057
 31
0.0
  0
ARC
  5
97E7
  8
0
 10
-2918.5598785047841
 20
-529.50000000000068
 30
0.0
 40
0.4999999999998864
 50
180.00000000001299
 51
270.0
  0
LINE
  5
97E8
  8
0
 10
-2919.0598785047841
 20
-529.5000000000008
 30
0.0
 11
-2919.0598785047841
 21
-528.15000000000055
 31
0.0
  0
ARC
  5
97E9
  8
0
 10
-2918.659878504784
 20
-528.15000000000055
 30
0.0
 40
0.400000000000091
 50
359.99999999996749
 51
180.0
  0
LINE
  5
97EA
  8
0
 10
-2918.259878504784
 20
-528.15000000000089
 30
0.0
 11
-2918.259878504784
 21
-529.00000000000068
 31
0.0
  0
LINE
  5
97EB
  8
0
 10
-2918.259878504784
 20
-529.00000000000068
 30
0.0
 11
-2917.059878504785
 21
-529.00000000000068
 31
0.0
  0
LINE
  5
97EC
  8
0
 10
-2917.059878504785
 20
-529.00000000000068
 30
0.0
 11
-2917.059878504785
 21
-524.00000000000045
 31
0.0
  0
LINE
  5
97ED
  8
0
 10
-2917.059878504785
 20
-524.00000000000045
 30
0.0
 11
-2918.259878504784
 21
-524.00000000000045
 31
0.0
  0
LINE
  5
97EE
  8
0
 10
-2918.259878504784
 20
-524.00000000000045
 30
0.0
 11
-2918.259878504784
 21
-524.85000000000025
 31
0.0
  0
ARC
  5
97EF
  8
0
 10
-2918.659878504784
 20
-524.85000000000059
 30
0.0
 40
0.400000000000091
 50
180.0
 51
0.0000000000325689
  0
LINE
  5
97F0
  8
0
 10
-2919.0598785047841
 20
-524.85000000000059
 30
0.0
 11
-2919.0598785047841
 21
-523.50000000000034
 31
0.0
  0
ARC
  5
97F1
  8
0
 10
-2918.5598785047841
 20
-523.50000000000045
 30
0.0
 40
0.5
 50
90.0
 51
179.99999999998701
  0
LINE
  5
97F2
  8
0
 10
-2918.5598785047841
 20
-523.00000000000045
 30
0.0
 11
-2883.4598785047851
 21
-523.00000000000045
 31
0.0
  0
ARC
  5
97F3
  8
0
 10
-2916.5598785047841
 20
-523.50000000000057
 30
0.0
 40
0.5
 50
0.0
 51
90.0
  0
LINE
  5
97F4
  8
0
 10
-2916.0598785047841
 20
-523.50000000000057
 30
0.0
 11
-2916.0598785047841
 21
-529.50000000000068
 31
0.0
  0
ARC
  5
97F5
  8
0
 10
-2916.5598785047841
 20
-529.50000000000068
 30
0.0
 40
0.5
 50
270.0
 51
0.0
  0
LINE
  5
97F6
  8
0
 10
-2916.5598785047841
 20
-530.00000000000057
 30
0.0
 11
-2917.159878504785
 21
-530.00000000000057
 31
0.0
  0
LINE
  5
97F7
  8
0
 10
-2917.159878504785
 20
-530.00000000000057
 30
0.0
 11
-2917.159878504785
 21
-539.60000000000025
 31
0.0
  0
LINE
  5
97F8
  8
0
 10
-2917.159878504785
 20
-539.60000000000025
 30
0.0
 11
-2908.1615447087461
 21
-539.60000000000059
 31
0.0
  0
ARC
  5
97F9
  8
0
 10
-2908.1615447087461
 20
-539.10000000000036
 30
0.0
 40
0.5000000000001137
 50
270.0
 51
30.949723078872481
  0
ARC
  5
97FA
  8
0
 10
-2905.1598785047859
 20
-537.30000000000075
 30
0.0
 40
2.9999999999997522
 50
138.1896851042134
 51
210.949723078852
  0
ARC
  5
9800
  8
0
 10
-2905.159878504785
 20
-537.30000000000052
 30
0.0
 40
2.999999999999944
 50
329.05027692114038
 51
41.810314895781488
  0
ARC
  5
9801
  8
0
 10
-2902.1582123008238
 20
-539.10000000000025
 30
0.0
 40
0.4999999999999393
 50
149.05027692115061
 51
270.0
  0
LINE
  5
9802
  8
0
 10
-2902.1582123008238
 20
-539.60000000000025
 30
0.0
 11
-2889.959878504786
 21
-539.60000000000059
 31
0.0
  0
LINE
  5
9803
  8
0
 10
-2889.959878504786
 20
-539.60000000000059
 30
0.0
 11
-2889.959878504786
 21
-529.50000000000068
 31
0.0
  0
ARC
  5
9804
  8
0
 10
-2889.4598785047851
 20
-529.50000000000068
 30
0.0
 40
0.5
 50
90.0
 51
180.0
  0
LINE
  5
9805
  8
0
 10
-2889.4598785047851
 20
-529.00000000000068
 30
0.0
 11
-2885.959878504786
 21
-529.00000000000068
 31
0.0
  0
LINE
  5
9806
  8
0
 10
-2885.959878504786
 20
-529.00000000000068
 30
0.0
 11
-2885.959878504786
 21
-523.50000000000057
 31
0.0
  0
ARC
  5
9807
  8
0
 10
-2885.459878504786
 20
-523.50000000000057
 30
0.0
 40
0.5
 50
90.0
 51
180.0
  0
ARC
  5
9809
  8
0
 10
-2883.4598785047851
 20
-523.50000000000045
 30
0.0
 40
0.4999999999998864
 50
0.0000000000130276
 51
90.0
  0
LINE
  5
980A
  8
0
 10
-2882.959878504786
 20
-523.50000000000034
 30
0.0
 11
-2882.959878504786
 21
-524.85000000000059
 31
0.0
  0
ARC
  5
980B
  8
0
 10
-2883.3598785047861
 20
-524.85000000000059
 30
0.0
 40
0.400000000000091
 50
179.9999999999674
 51
0.0
  0
LINE
  5
980C
  8
0
 10
-2883.7598785047858
 20
-524.85000000000025
 30
0.0
 11
-2883.7598785047858
 21
-524.00000000000045
 31
0.0
  0
LINE
  5
980D
  8
0
 10
-2883.7598785047858
 20
-524.00000000000045
 30
0.0
 11
-2884.959878504786
 21
-524.00000000000045
 31
0.0
  0
LINE
  5
980E
  8
0
 10
-2884.959878504786
 20
-524.00000000000045
 30
0.0
 11
-2884.959878504786
 21
-529.00000000000068
 31
0.0
  0
LINE
  5
980F
  8
0
 10
-2918.1598785047859
 20
-555.00000000000034
 30
0.0
 11
-2915.1598785047859
 21
-555.00000000000023
 31
0.0
  0
LINE
  5
9810
  8
0
 10
-2884.0598785047841
 20
-555.00000000000034
 30
0.0
 11
-2884.0598785047841
 21
-530.00000000000068
 31
0.0
  0
LINE
  5
9819
  8
0
 10
-2881.6098785047889
 20
-525.00000000000057
 30
0.0
 11
-2881.6098785047889
 21
-528.50000000000045
 31
0.0
  0
LINE
  5
981C
  8
0
 10
-2884.009878504789
 20
-525.35000000000059
 30
0.0
 11
-2881.6098785047889
 21
-525.00000000000057
 31
0.0
  0
LINE
  5
981D
  8
0
 10
-2882.959878504786
 20
-528.30312500000116
 30
0.0
 11
-2881.6098785047889
 21
-528.50000000000045
 31
0.0
  0
LINE
  5
9825
  8
0
 10
-2879.80987850477
 20
-525.00000000000057
 30
0.0
 11
-2879.80987850477
 21
-528.50000000000045
 31
0.0
  0
LINE
  5
9828
  8
0
 10
-2877.409878504769
 20
-525.35000000000059
 30
0.0
 11
-2879.80987850477
 21
-525.00000000000057
 31
0.0
  0
LINE
  5
982B
  8
0
 10
-2878.459878504771
 20
-528.30312500000082
 30
0.0
 11
-2879.80987850477
 21
-528.50000000000045
 31
0.0
  0
LINE
  5
9832
  8
0
 10
-2920.4098785047831
 20
-525.00000000000057
 30
0.0
 11
-2920.4098785047831
 21
-528.50000000000045
 31
0.0
  0
LINE
  5
9835
  8
0
 10
-2918.0098785047821
 20
-525.35000000000059
 30
0.0
 11
-2920.4098785047831
 21
-525.00000000000057
 31
0.0
  0
LINE
  5
9836
  8
0
 10
-2919.0598785047841
 20
-528.30312500000093
 30
0.0
 11
-2920.4098785047831
 21
-528.50000000000045
 31
0.0
  0
POLYLINE
  5
983E
  8
0
 66
     1
 10
0.0
 20
0.0
 30
0.0
  0
VERTEX
  5
D40B
  8
0
 10
-2922.1598923832521
 20
-506.80000000000001
 30
0.0
 42
-0.3589467863354162
  0
VERTEX
  5
D40C
  8
0
 10
-2919.2330781176811
 20
-504.81024635200311
 30
0.0
 42
-0.9999998454724096
  0
VERTEX
  5
D40D
  8
0
 10
-2919.2867066488238
 20
-505.40784486325288
 30
0.0
 42
0.2271492336372148
  0
VERTEX
  5
D40E
  8
0
 10
-2920.873275485043
 20
-506.00000000000091
 30
0.0
 42
0.2271492336372148
  0
SEQEND
  5
D40F
  8
0
  0
ARC
  5
9841
  8
0
 10
-2921.4098923832489
 20
-532.2999999999995
 30
0.0
 40
1.0
 50
270.0
 51
0.0
  0
LINE
  5
9842
  8
0
 10
-2920.4098923832489
 20
-532.2999999999995
 30
0.0
 11
-2920.4098923832489
 21
-511.3000000000003
 31
0.0
  0
ARC
  5
9843
  8
0
 10
-2917.9098923832498
 20
-511.30000000000001
 30
0.0
 40
2.4999999999990901
 50
89.999999999986969
 51
180.00000000000779
  0
LINE
  5
9844
  8
0
 10
-2917.9098923832489
 20
-508.80000000000052
 30
0.0
 11
-2884.1098923832501
 21
-508.80000000000001
 31
0.0
  0
ARC
  5
9847
  8
0
 10
-2884.1098923832501
 20
-511.29999999999978
 30
0.0
 40
2.4999999999997722
 50
0.0000000000039083
 51
90.000000000013031
  0
LINE
  5
9848
  8
0
 10
-2881.609892383251
 20
-511.29999999999973
 30
0.0
 11
-2881.609892383251
 21
-528.89999999999998
 31
0.0
  0
ARC
  5
9849
  8
0
 10
-2880.70989238325
 20
-528.89999999999998
 30
0.0
 40
0.9000000000005456
 50
180.0
 51
359.99998239990612
  0
LINE
  5
984B
  8
0
 10
-2879.8098923832499
 20
-528.89999999999998
 30
0.0
 11
-2879.8098923832508
 21
-511.3000000000003
 31
0.0
  0
ARC
  5
984C
  8
0
 10
-2877.3098923832499
 20
-511.3000000000003
 30
0.0
 40
2.5
 50
90.0
 51
180.0
  0
LINE
  5
984D
  8
0
 10
-2877.3098923832499
 20
-508.80000000000041
 30
0.0
 11
-2843.509892383252
 21
-508.80000000000041
 31
0.0
  0
ARC
  5
9850
  8
0
 10
-2843.509892383252
 20
-511.3000000000003
 30
0.0
 40
2.5
 50
0.0
 51
90.0
  0
LINE
  5
9851
  8
0
 10
-2841.009892383252
 20
-511.3000000000003
 30
0.0
 11
-2841.009892383252
 21
-532.2999999999995
 31
0.0
  0
ARC
  5
9852
  8
0
 10
-2840.009892383252
 20
-532.2999999999995
 30
0.0
 40
1.0
 50
180.0
 51
270.0
  0
LINE
  5
9853
  8
0
 10
-2840.009892383252
 20
-533.29999999999961
 30
0.0
 11
-2838.7598923832511
 21
-533.30000000000007
 31
0.0
  0
LINE
  5
9859
  8
0
 10
-2838.7598923832511
 20
-533.30000000000007
 30
0.0
 11
-2838.7598923832511
 21
-506.80000000000001
 31
0.0
  0
ARC
  5
9879
  8
0
 10
-2841.4305733319461
 20
-507.58095418423312
 30
0.0
 40
2.7825215484508972
 50
16.299850226376389
 51
95.281598766800329
  0
ARC
  5
987A
  8
0
 10
-2841.6598923832498
 20
-505.10904560762782
 30
0.0
 40
0.299999999999954
 50
95.127990883105838
 51
275.12797339029538
  0
ARC
  5
987C
  8
0
 10
-2841.45789158261
 20
-507.36000000000092
 30
0.0
 40
1.960000000000238
 50
43.937839885739173
 51
95.127990883105838
  0
LINE
  5
987D
  8
0
 10
-2840.0465092814588
 20
-506.00000000000068
 30
0.0
 11
-2920.873275485043
 21
-506.00000000000068
 31
0.0
  0
LINE
  5
9882
  8
ACL
 10
-2900.2256850294998
 20
-537.30000000000075
 30
0.0
 11
-2910.0940719800692
 21
-537.30000000000075
 31
0.0
  0
LINE
  5
9883
  8
0
 10
-2893.1598785047859
 20
-555.00000000000034
 30
0.0
 11
-2884.0598785047841
 21
-555.00000000000034
 31
0.0
  0
LINE
  5
98A4
  8
0
 10
-2843.4098785047759
 20
-525.35000000000059
 30
0.0
 11
-2841.0098785047762
 21
-525.00000000000057
 31
0.0
  0
LINE
  5
98A8
  8
0
 10
-2842.359878504773
 20
-528.30312500000105
 30
0.0
 11
-2841.0098785047762
 21
-528.50000000000045
 31
0.0
  0
LINE
  5
98A9
  8
0
 10
-2844.359878504773
 20
-529.00000000000068
 30
0.0
 11
-2843.1598785047731
 21
-529.00000000000068
 31
0.0
  0
LINE
  5
98AA
  8
0
 10
-2843.1598785047731
 20
-529.00000000000068
 30
0.0
 11
-2843.1598785047731
 21
-528.15000000000089
 31
0.0
  0
ARC
  5
98AB
  8
0
 10
-2842.759878504773
 20
-528.15000000000055
 30
0.0
 40
0.400000000000091
 50
0.0
 51
180.00000000003249
  0
LINE
  5
98AC
  8
0
 10
-2842.359878504773
 20
-528.15000000000055
 30
0.0
 11
-2842.359878504773
 21
-529.5000000000008
 31
0.0
  0
ARC
  5
98AD
  8
0
 10
-2842.859878504772
 20
-529.50000000000125
 30
0.0
 40
0.4999999999995453
 50
270.00000000005213
 51
0.0000000000390827
  0
LINE
  5
98D3
  8
0
 10
-2843.459878504771
 20
-555.00000000000034
 30
0.0
 11
-2852.5598785047719
 21
-555.00000000000034
 31
0.0
  0
LINE
  5
98D4
  8
0
 10
-2877.5598785047732
 20
-555.00000000000034
 30
0.0
 11
-2877.5598785047719
 21
-530.00000000000057
 31
0.0
  0
ARC
  5
98D6
  8
0
 10
-2877.959878504771
 20
-529.50000000000068
 30
0.0
 40
0.4999999999998864
 50
180.00000000001299
 51
270.0
  0
LINE
  5
98D7
  8
0
 10
-2878.459878504771
 20
-529.5000000000008
 30
0.0
 11
-2878.459878504771
 21
-528.15000000000055
 31
0.0
  0
ARC
  5
98D8
  8
0
 10
-2878.0598785047709
 20
-528.15000000000055
 30
0.0
 40
0.400000000000091
 50
359.99999999996749
 51
180.0
  0
LINE
  5
98D9
  8
0
 10
-2877.6598785047709
 20
-528.15000000000089
 30
0.0
 11
-2877.6598785047709
 21
-529.00000000000068
 31
0.0
  0
LINE
  5
98DA
  8
0
 10
-2877.6598785047709
 20
-529.00000000000068
 30
0.0
 11
-2876.459878504771
 21
-529.00000000000068
 31
0.0
  0
LINE
  5
98DB
  8
0
 10
-2876.459878504771
 20
-529.00000000000068
 30
0.0
 11
-2876.459878504771
 21
-524.00000000000045
 31
0.0
  0
LINE
  5
98DC
  8
0
 10
-2876.459878504771
 20
-524.00000000000045
 30
0.0
 11
-2877.6598785047709
 21
-524.00000000000045
 31
0.0
  0
LINE
  5
98DD
  8
0
 10
-2877.6598785047709
 20
-524.00000000000045
 30
0.0
 11
-2877.6598785047709
 21
-524.85000000000025
 31
0.0
  0
ARC
  5
98DE
  8
0
 10
-2878.0598785047709
 20
-524.85000000000059
 30
0.0
 40
0.400000000000091
 50
180.0
 51
0.0000000000325689
  0
LINE
  5
98DF
  8
0
 10
-2878.459878504771
 20
-524.85000000000059
 30
0.0
 11
-2878.459878504771
 21
-523.50000000000034
 31
0.0
  0
ARC
  5
98E0
  8
0
 10
-2877.959878504771
 20
-523.50000000000045
 30
0.0
 40
0.5
 50
90.0
 51
179.99999999998701
  0
LINE
  5
98E1
  8
0
 10
-2877.959878504771
 20
-523.00000000000045
 30
0.0
 11
-2842.859878504773
 21
-523.00000000000045
 31
0.0
  0
ARC
  5
98E2
  8
0
 10
-2875.959878504771
 20
-523.50000000000057
 30
0.0
 40
0.5
 50
0.0
 51
90.0
  0
LINE
  5
98E3
  8
0
 10
-2875.459878504771
 20
-523.50000000000057
 30
0.0
 11
-2875.459878504771
 21
-529.50000000000068
 31
0.0
  0
ARC
  5
98E4
  8
0
 10
-2875.959878504771
 20
-529.50000000000068
 30
0.0
 40
0.5
 50
270.0
 51
0.0
  0
LINE
  5
98E5
  8
0
 10
-2875.959878504771
 20
-530.00000000000057
 30
0.0
 11
-2876.5598785047719
 21
-530.00000000000057
 31
0.0
  0
LINE
  5
98E6
  8
0
 10
-2876.5598785047719
 20
-530.00000000000057
 30
0.0
 11
-2876.5598785047719
 21
-539.60000000000025
 31
0.0
  0
LINE
  5
98E7
  8
0
 10
-2876.5598785047719
 20
-539.60000000000025
 30
0.0
 11
-2867.561544708733
 21
-539.60000000000059
 31
0.0
  0
ARC
  5
98E8
  8
0
 10
-2867.561544708733
 20
-539.10000000000036
 30
0.0
 40
0.5000000000001137
 50
270.0
 51
30.949723078872481
  0
ARC
  5
98E9
  8
0
 10
-2864.5598785047732
 20
-537.30000000000075
 30
0.0
 40
2.9999999999997522
 50
138.1896851042134
 51
210.949723078852
  0
ARC
  5
98EF
  8
0
 10
-2864.5598785047719
 20
-537.30000000000052
 30
0.0
 40
2.999999999999944
 50
329.05027692114038
 51
41.810314895781488
  0
ARC
  5
98F0
  8
0
 10
-2861.5582123008121
 20
-539.10000000000025
 30
0.0
 40
0.4999999999999393
 50
149.05027692115061
 51
270.0
  0
LINE
  5
98F1
  8
0
 10
-2861.5582123008121
 20
-539.60000000000025
 30
0.0
 11
-2849.359878504772
 21
-539.60000000000059
 31
0.0
  0
LINE
  5
98F2
  8
0
 10
-2849.359878504772
 20
-539.60000000000059
 30
0.0
 11
-2849.359878504772
 21
-529.50000000000068
 31
0.0
  0
ARC
  5
98F3
  8
0
 10
-2848.859878504772
 20
-529.50000000000068
 30
0.0
 40
0.5
 50
90.0
 51
180.0
  0
LINE
  5
98F4
  8
0
 10
-2848.859878504772
 20
-529.00000000000068
 30
0.0
 11
-2845.359878504773
 21
-529.00000000000068
 31
0.0
  0
LINE
  5
98F5
  8
0
 10
-2845.359878504773
 20
-529.00000000000068
 30
0.0
 11
-2845.359878504773
 21
-523.50000000000057
 31
0.0
  0
ARC
  5
98F6
  8
0
 10
-2844.859878504772
 20
-523.50000000000057
 30
0.0
 40
0.5
 50
90.0
 51
180.0
  0
ARC
  5
98F8
  8
0
 10
-2842.859878504773
 20
-523.50000000000045
 30
0.0
 40
0.4999999999998864
 50
0.0000000000130276
 51
90.0
  0
LINE
  5
98F9
  8
0
 10
-2842.359878504773
 20
-523.50000000000034
 30
0.0
 11
-2842.359878504773
 21
-524.85000000000059
 31
0.0
  0
ARC
  5
98FA
  8
0
 10
-2842.759878504773
 20
-524.85000000000059
 30
0.0
 40
0.400000000000091
 50
179.9999999999674
 51
0.0
  0
LINE
  5
98FB
  8
0
 10
-2843.1598785047731
 20
-524.85000000000025
 30
0.0
 11
-2843.1598785047731
 21
-524.00000000000045
 31
0.0
  0
LINE
  5
98FC
  8
0
 10
-2843.1598785047731
 20
-524.00000000000045
 30
0.0
 11
-2844.359878504773
 21
-524.00000000000045
 31
0.0
  0
LINE
  5
98FD
  8
0
 10
-2844.359878504773
 20
-524.00000000000045
 30
0.0
 11
-2844.359878504773
 21
-529.00000000000068
 31
0.0
  0
LINE
  5
998F
  8
ACL
 10
-2859.6256850294872
 20
-537.30000000000075
 30
0.0
 11
-2869.494071980057
 21
-537.30000000000075
 31
0.0
  0
LINE
  5
9990
  8
0
 10
-2884.0598785047841
 20
-530.00000000000068
 30
0.0
 11
-2882.9598785047838
 21
-530.00000000000057
 31
0.0
  0
LINE
  5
9991
  8
0
 10
-2843.459878504771
 20
-555.00000000000034
 30
0.0
 11
-2843.459878504771
 21
-530.00000000000068
 31
0.0
  0
LINE
  5
9992
  8
0
 10
-2843.459878504771
 20
-530.00000000000068
 30
0.0
 11
-2842.3598785047711
 21
-530.00000000000057
 31
0.0
  0
LINE
  5
9993
  8
0
 10
-2874.5598785047732
 20
-555.00000000000034
 30
0.0
 11
-2877.5598785047732
 21
-555.00000000000034
 31
0.0
  0
LINE
  5
9A00
  8
0
 10
-2912.9598785047829
 20
-741.50000000000023
 30
0.0
 11
-2910.9598785047829
 21
-741.50000000000034
 31
0.0
  0
LINE
  5
9A01
  8
0
 10
-2910.9598785047829
 20
-741.50000000000034
 30
0.0
 11
-2910.9598785047829
 21
-743.85000000000025
 31
0.0
  0
ARC
  5
9A02
  8
0
 10
-2911.359878504783
 20
-743.85000000000025
 30
0.0
 40
0.400000000000091
 50
180.0
 51
0.0
  0
LINE
  5
9A03
  8
0
 10
-2911.759878504783
 20
-743.85000000000025
 30
0.0
 11
-2911.759878504783
 21
-742.40000000000032
 31
0.0
  0
LINE
  5
9A04
  8
0
 10
-2911.759878504783
 20
-742.40000000000032
 30
0.0
 11
-2912.959878504782
 21
-742.40000000000032
 31
0.0
  0
LINE
  5
9A05
  8
0
 10
-2912.959878504782
 20
-742.40000000000032
 30
0.0
 11
-2912.959878504782
 21
-748.20000000000016
 31
0.0
  0
LINE
  5
9A06
  8
0
 10
-2912.959878504782
 20
-748.20000000000016
 30
0.0
 11
-2911.7598785047821
 21
-748.20000000000027
 31
0.0
  0
LINE
  5
9A07
  8
0
 10
-2911.7598785047821
 20
-748.20000000000027
 30
0.0
 11
-2911.7598785047821
 21
-747.15000000000032
 31
0.0
  0
ARC
  5
9A08
  8
0
 10
-2911.359878504783
 20
-747.15000000000032
 30
0.0
 40
0.3999999999996362
 50
0.0000000000162844
 51
180.0
  0
LINE
  5
9A09
  8
0
 10
-2910.9598785047829
 20
-747.1500000000002
 30
0.0
 11
-2910.9598785047829
 21
-749.00000000000034
 31
0.0
  0
LINE
  5
9A0B
  8
0
 10
-2910.9598785047829
 20
-749.00000000000034
 30
0.0
 11
-2918.1598785047818
 21
-749.00000000000011
 31
0.0
  0
LINE
  5
9A0D
  8
0
 10
-2918.1598785047818
 20
-749.00000000000011
 30
0.0
 11
-2918.1598785047859
 21
-695.00000000000023
 31
0.0
  0
LINE
  5
9A0E
  8
0
 10
-2918.1598785047859
 20
-695.00000000000023
 30
0.0
 11
-2915.1598785047859
 21
-695.00000000000023
 31
0.0
  0
LINE
  5
9A14
  8
0
 10
-2916.8598785047848
 20
-695.00000000000023
 30
0.0
 11
-2916.8598785047848
 21
-710.40000000000043
 31
0.0
  0
LINE
  5
9A15
  8
0
 10
-2916.8598785047848
 20
-710.40000000000043
 30
0.0
 11
-2891.4598785047851
 21
-710.4000000000085
 31
0.0
  0
ARC
  5
9A16
  8
0
 10
-2913.659878504784
 20
-710.90000000000146
 30
0.0
 40
0.5
 50
270.0
 51
90.0
  0
LINE
  5
9A17
  8
0
 10
-2913.659878504784
 20
-711.40000000000146
 30
0.0
 11
-2915.659878504784
 21
-711.4000000000018
 31
0.0
  0
ARC
  5
9A18
  8
0
 10
-2915.659878504785
 20
-712.40000000000191
 30
0.0
 40
1.000000000000113
 50
89.999999999973952
 51
179.99999999999349
  0
LINE
  5
9A19
  8
0
 10
-2916.659878504784
 20
-712.4000000000018
 30
0.0
 11
-2916.659878504784
 21
-714.50000000000034
 31
0.0
  0
LINE
  5
9A1A
  8
0
 10
-2916.659878504784
 20
-714.50000000000034
 30
0.0
 11
-2908.3047155434879
 21
-714.50000000000034
 31
0.0
  0
ARC
  5
9A1B
  8
0
 10
-2908.3047155434879
 20
-714.20000000000027
 30
0.0
 40
0.2999999999999545
 50
270.0
 51
17.639701394231839
  0
ARC
  5
9A1C
  8
0
 10
-2905.159878504785
 20
-713.20000000000039
 30
0.0
 40
2.9999999999999138
 50
152.96430821058561
 51
197.63970139423569
  0
ARC
  5
9A1D
  8
0
 10
-2908.0992661961241
 20
-711.70000000000016
 30
0.0
 40
0.2999999999998792
 50
332.96430821055333
 51
90.0
  0
LINE
  5
9A1E
  8
0
 10
-2908.0992661961241
 20
-711.40000000000032
 30
0.0
 11
-2908.659878504785
 21
-711.40000000000032
 31
0.0
  0
LINE
  5
9A1F
  8
0
 10
-2908.659878504785
 20
-711.40000000000032
 30
0.0
 11
-2908.659878504785
 21
-710.40000000000032
 31
0.0
  0
LINE
  5
9A29
  8
0
 10
-2901.659878504785
 20
-710.40000000000009
 30
0.0
 11
-2901.659878504785
 21
-711.4000000000002
 31
0.0
  0
LINE
  5
9A2A
  8
0
 10
-2901.659878504785
 20
-711.4000000000002
 30
0.0
 11
-2902.2204908134449
 21
-711.4000000000002
 31
0.0
  0
ARC
  5
9A2B
  8
0
 10
-2902.2204908134449
 20
-711.70000000000016
 30
0.0
 40
0.3000000000000682
 50
90.0
 51
207.03569178938821
  0
ARC
  5
9A2C
  8
0
 10
-2905.159878504784
 20
-713.20000000000073
 30
0.0
 40
2.9999999999997491
 50
342.3602986057698
 51
27.035691789423669
  0
ARC
  5
9A2D
  8
0
 10
-2902.0150414660811
 20
-714.20000000000039
 30
0.0
 40
0.3000000000002096
 50
162.3602986057474
 51
269.9999999999153
  0
LINE
  5
9A2E
  8
0
 10
-2902.0150414660811
 20
-714.50000000000034
 30
0.0
 11
-2891.3598785047839
 21
-714.50000000000034
 31
0.0
  0
LINE
  5
9A2F
  8
0
 10
-2891.3598785047839
 20
-714.50000000000034
 30
0.0
 11
-2891.3598785047839
 21
-712.40000000000032
 31
0.0
  0
ARC
  5
9A30
  8
0
 10
-2892.3598785047839
 20
-712.40000000000032
 30
0.0
 40
1.0
 50
0.0
 51
90.0
  0
LINE
  5
9A31
  8
0
 10
-2892.3598785047839
 20
-711.40000000000032
 30
0.0
 11
-2894.659878504784
 21
-711.40000000000043
 31
0.0
  0
ARC
  5
9A32
  8
0
 10
-2894.659878504784
 20
-710.90000000000043
 30
0.0
 40
0.5
 50
90.0
 51
270.0
  0
LINE
  5
9A56
  8
0
 10
-2870.3598785047689
 20
-749.00000000000011
 30
0.0
 11
-2898.859878504782
 21
-748.99999999999955
 31
0.0
  0
ARC
  5
9A57
  8
0
 10
-2898.859878504782
 20
-748.49999999999955
 30
0.0
 40
0.5
 50
180.0
 51
270.0
  0
LINE
  5
9A58
  8
0
 10
-2899.359878504782
 20
-748.49999999999955
 30
0.0
 11
-2899.359878504783
 21
-747.14999999999952
 31
0.0
  0
ARC
  5
9A59
  8
0
 10
-2898.9598785047829
 20
-747.14999999999952
 30
0.0
 40
0.400000000000091
 50
0.0
 51
180.0
  0
LINE
  5
9A5A
  8
0
 10
-2898.5598785047819
 20
-747.14999999999952
 30
0.0
 11
-2898.5598785047819
 21
-748.19999999999948
 31
0.0
  0
LINE
  5
9A5B
  8
0
 10
-2898.5598785047819
 20
-748.19999999999948
 30
0.0
 11
-2897.359878504782
 21
-748.19999999999925
 31
0.0
  0
LINE
  5
9A5C
  8
0
 10
-2897.359878504782
 20
-748.19999999999925
 30
0.0
 11
-2897.359878504783
 21
-742.39999999999941
 31
0.0
  0
LINE
  5
9A5D
  8
0
 10
-2897.359878504783
 20
-742.39999999999941
 30
0.0
 11
-2898.5598785047828
 21
-742.39999999999952
 31
0.0
  0
LINE
  5
9A5E
  8
0
 10
-2898.5598785047828
 20
-742.39999999999952
 30
0.0
 11
-2898.5598785047819
 21
-743.84999999999945
 31
0.0
  0
ARC
  5
9A5F
  8
0
 10
-2898.9598785047829
 20
-743.84999999999945
 30
0.0
 40
0.400000000000091
 50
180.0000000000162
 51
0.0
  0
LINE
  5
9A60
  8
0
 10
-2899.359878504783
 20
-743.84999999999945
 30
0.0
 11
-2899.359878504783
 21
-741.49999999999955
 31
0.0
  0
LINE
  5
9A61
  8
0
 10
-2899.359878504783
 20
-741.49999999999955
 30
0.0
 11
-2897.359878504783
 21
-741.4999999999992
 31
0.0
  0
LINE
  5
9A62
  8
0
 10
-2897.359878504783
 20
-741.4999999999992
 30
0.0
 11
-2897.359878504783
 21
-740.49999999999932
 31
0.0
  0
ARC
  5
9A63
  8
0
 10
-2896.859878504783
 20
-740.49999999999932
 30
0.0
 40
0.5
 50
0.0000000000130276
 51
180.0
  0
LINE
  5
9A64
  8
0
 10
-2896.359878504783
 20
-740.4999999999992
 30
0.0
 11
-2896.359878504783
 21
-747.09999999999911
 31
0.0
  0
ARC
  5
9A65
  8
0
 10
-2895.859878504783
 20
-747.09999999999889
 30
0.0
 40
0.5
 50
180.00000000002601
 51
270.00000000005213
  0
LINE
  5
9A90
  8
0
 10
-2916.759878504783
 20
-716.00000000000034
 30
0.0
 11
-2916.7598785047821
 21
-747.10000000000014
 31
0.0
  0
ARC
  5
9A91
  8
0
 10
-2916.2598785047821
 20
-747.10000000000014
 30
0.0
 40
0.5
 50
180.0
 51
270.0
  0
LINE
  5
9A92
  8
0
 10
-2916.2598785047821
 20
-747.60000000000014
 30
0.0
 11
-2914.459878504782
 21
-747.60000000000025
 31
0.0
  0
ARC
  5
9A93
  8
0
 10
-2914.459878504782
 20
-747.10000000000014
 30
0.0
 40
0.5000000000001137
 50
270.0
 51
0.0
  0
LINE
  5
9A94
  8
0
 10
-2913.959878504782
 20
-747.10000000000014
 30
0.0
 11
-2913.9598785047829
 21
-740.50000000000034
 31
0.0
  0
ARC
  5
9A95
  8
0
 10
-2913.4598785047829
 20
-740.50000000000023
 30
0.0
 40
0.5
 50
0.0
 51
180.00000000001299
  0
LINE
  5
9A96
  8
0
 10
-2912.9598785047829
 20
-740.50000000000023
 30
0.0
 11
-2912.9598785047829
 21
-741.50000000000023
 31
0.0
  0
LINE
  5
9A97
  8
ACL
 10
-2900.2256850294998
 20
-713.20000000000039
 30
0.0
 11
-2910.0940719800692
 21
-713.20000000000039
 31
0.0
  0
LINE
  5
9AC8
  8
0
 10
-2899.1521184418671
 20
-746.79922399370776
 30
0.0
 11
-2903.15987850478
 21
-747.19999999999936
 31
0.0
  0
LINE
  5
9AC9
  8
0
 10
-2899.359878504783
 20
-743.77999999999929
 30
0.0
 11
-2903.15987850478
 21
-743.3999999999993
 31
0.0
  0
ARC
  5
9ACA
  8
0
 10
-2910.359878504783
 20
-748.70000799999855
 30
0.0
 40
0.5
 50
180.0
 51
270.0
  0
ARC
  5
9ACB
  8
0
 10
-2910.759878504783
 20
-746.15000799999848
 30
0.0
 40
0.5
 50
0.0
 51
90.0
  0
LINE
  5
9ACC
  8
0
 10
-2906.703812487608
 20
-748.2439419828205
 30
0.0
 11
-2907.6598785047859
 21
-749.20000799999855
 31
0.0
  0
ARC
  5
9ACD
  8
0
 10
-2906.809878504786
 20
-748.13787596564248
 30
0.0
 40
0.1500000000000123
 50
315.00000000003928
 51
135.0000000000025
  0
LINE
  5
9ACE
  8
0
 10
-2907.584142573498
 20
-748.70000799999855
 30
0.0
 11
-2906.9159445219639
 21
-748.03180994846446
 31
0.0
  0
LINE
  5
9ACF
  8
0
 10
-2910.259878504783
 20
-748.70000799999855
 30
0.0
 11
-2907.584142573498
 21
-748.70000799999855
 31
0.0
  0
LINE
  5
9AD0
  8
0
 10
-2910.359878504783
 20
-749.20000799999855
 30
0.0
 11
-2907.6598785047859
 21
-749.20000799999855
 31
0.0
  0
LINE
  5
9AD1
  8
0
 10
-2910.859878504783
 20
-746.25000799999839
 30
0.0
 11
-2910.859878504783
 21
-748.70000799999855
 31
0.0
  0
ARC
  5
9AD3
  8
0
 10
-2912.5598785047828
 20
-747.80000799999846
 30
0.0
 40
0.4000000000000057
 50
180.00000000001299
 51
0.0000000000260551
  0
LINE
  5
9AD4
  8
0
 10
-2912.1598785047818
 20
-746.25000799999839
 30
0.0
 11
-2912.1598785047818
 21
-747.80000799999823
 31
0.0
  0
LINE
  5
9AD5
  8
0
 10
-2912.1598785047818
 20
-746.25000799999839
 30
0.0
 11
-2910.859878504783
 21
-746.25000799999839
 31
0.0
  0
LINE
  5
9AD6
  8
0
 10
-2910.259878504783
 20
-746.15000799999848
 30
0.0
 11
-2910.259878504783
 21
-748.70000799999855
 31
0.0
  0
LINE
  5
9AD7
  8
0
 10
-2912.1598785047818
 20
-745.65000799999837
 30
0.0
 11
-2910.759878504783
 21
-745.65000799999837
 31
0.0
  0
LINE
  5
9AD8
  8
0
 10
-2912.1598785047818
 20
-744.1000079999983
 30
0.0
 11
-2912.1598785047818
 21
-745.65000799999837
 31
0.0
  0
ARC
  5
9AD9
  8
0
 10
-2912.5598785047828
 20
-744.10000799999852
 30
0.0
 40
0.4000000000000342
 50
0.0000000000260551
 51
180.00000000001299
  0
ARC
  5
9AE9
  8
0
 10
-2841.2578915826111
 20
-754.94000000000017
 30
0.0
 40
2.5600000000005392
 50
264.87200911692679
 51
347.36437490698802
  0
ARC
  5
9AEB
  8
0
 10
-2841.4598923832509
 20
-757.19095439237276
 30
0.0
 40
0.3000000000001641
 50
84.872009117031496
 51
264.8720288574537
  0
ARC
  5
9AEC
  8
0
 10
-2841.2578915826111
 20
-754.94000000000017
 30
0.0
 40
1.959999999999896
 50
264.87200911692679
 51
327.26077296506321
  0
ARC
  5
9AEE
  8
0
 10
-2917.7598923832502
 20
-757.19095439237276
 30
0.0
 40
0.3000000000004699
 50
275.12799088312539
 51
95.127993238138146
  0
ARC
  5
9AF0
  8
0
 10
-2917.9618931838891
 20
-754.94000000000017
 30
0.0
 40
1.9599999999998301
 50
212.73922703528231
 51
275.1279908830731
  0
LINE
  5
9B0F
  8
0
 10
-2920.4598923832491
 20
-755.49999999999989
 30
0.0
 11
-2920.45989238325
 21
-754.00000000000023
 31
0.0
  0
ARC
  5
9B10
  8
0
 10
-2919.95989238325
 20
-754.0
 30
0.0
 40
0.5
 50
90.0
 51
180.00000000002601
  0
LINE
  5
9B11
  8
0
 10
-2919.95989238325
 20
-753.5
 30
0.0
 11
-2908.6598785047781
 21
-753.5
 31
0.0
  0
LINE
  5
9B12
  8
0
 10
-2908.6598785047781
 20
-753.5
 30
0.0
 11
-2907.159878504785
 21
-752.00000000000773
 31
0.0
  0
LINE
  5
9B30
  8
0
 10
-2862.5598785047719
 20
-752.00000000000671
 30
0.0
 11
-2861.0598785047791
 21
-753.50000000000034
 31
0.0
  0
LINE
  5
9B31
  8
0
 10
-2861.0598785047791
 20
-753.50000000000034
 30
0.0
 11
-2842.0598923832508
 21
-753.5
 31
0.0
  0
ARC
  5
9B32
  8
0
 10
-2841.9980410493099
 20
-751.96777700091343
 30
0.0
 40
1.5334708691201711
 50
267.68839301481779
 51
339.69174203718472
  0
LINE
  5
9B33
  8
0
 10
-2840.5598923832522
 20
-752.49999999999977
 30
0.0
 11
-2840.5598923832508
 21
-742.79999999999995
 31
0.0
  0
ARC
  5
9B35
  8
0
 10
-2839.6598923832512
 20
-742.90624999999977
 30
0.0
 40
0.9062499999998863
 50
6.7329213268650916
 51
173.26707820570149
  0
LINE
  5
9B36
  8
0
 62
     3
 10
-2908.6598785047781
 20
-753.5
 30
0.0
 11
-2907.1598785047781
 21
-752.0
 31
0.0
  0
LINE
  5
9B52
  8
0
 62
     3
 10
-2862.5598785047782
 20
-752.0
 30
0.0
 11
-2861.0598785047791
 21
-753.50000000000034
 31
0.0
  0
LINE
  5
9B53
  8
0
 62
     3
 10
-2861.0598785047791
 20
-753.50000000000034
 30
0.0
 11
-2842.0598923832522
 21
-753.5
 31
0.0
  0
ARC
  5
9B54
  8
0
 62
     3
 10
-2841.998041049309
 20
-751.96777700091297
 30
0.0
 40
1.5334708691205481
 50
267.68839301478522
 51
339.69174203716318
  0
LINE
  5
9B55
  8
0
 62
     3
 10
-2840.5598923832522
 20
-752.5
 30
0.0
 11
-2840.5598923832522
 21
-742.79999999999995
 31
0.0
  0
ARC
  5
9B57
  8
0
 62
     3
 10
-2839.6598923832512
 20
-742.90624999999977
 30
0.0
 40
0.9062499999998863
 50
6.7329213268650916
 51
173.26707820570149
  0
LINE
  5
9B58
  8
0
 62
     3
 10
-2838.7598923832511
 20
-742.79999999999984
 30
0.0
 11
-2838.7598923832511
 21
-755.49999999999977
 31
0.0
  0
LINE
  5
9B70
  8
0
 62
     3
 10
-2920.4598923832491
 20
-755.49999999999989
 30
0.0
 11
-2920.4598923832491
 21
-754.00000000000023
 31
0.0
  0
ARC
  5
9B71
  8
0
 62
     3
 10
-2919.95989238325
 20
-754.0
 30
0.0
 40
0.5
 50
90.0
 51
180.00000000002601
  0
LINE
  5
9B72
  8
0
 62
     3
 10
-2919.95989238325
 20
-753.5
 30
0.0
 11
-2908.6598785047781
 21
-753.5
 31
0.0
  0
ARC
  5
9B74
  8
0
 10
-2917.9618931838891
 20
-754.94000000000051
 30
0.0
 40
2.5600000000002909
 50
192.63562509300809
 51
275.12799088308623
  0
LINE
  5
9B7A
  8
0
 10
-2903.159878504784
 20
-752.00000000000125
 30
0.0
 11
-2901.659878504785
 21
-753.50000000000125
 31
0.0
  0
LINE
  5
9B7B
  8
0
 10
-2901.659878504785
 20
-753.50000000000125
 30
0.0
 11
-2868.0598785047709
 21
-753.49999999999989
 31
0.0
  0
LINE
  5
9B7C
  8
0
 10
-2868.0598785047709
 20
-753.49999999999989
 30
0.0
 11
-2866.5598785047719
 21
-752.00000000000125
 31
0.0
  0
LINE
  5
9B81
  8
0
 10
-2866.5598785047719
 20
-752.00000000000125
 30
0.0
 11
-2866.5598785047719
 21
-742.26393202250063
 31
0.0
  0
ARC
  5
9B82
  8
0
 10
-2864.5598785047709
 20
-744.50000000000034
 30
0.0
 40
2.999999999999944
 50
48.18968510422323
 51
131.8103148957774
  0
LINE
  5
9B83
  8
0
 10
-2862.5598785047719
 20
-742.2639320225004
 30
0.0
 11
-2862.5598785047719
 21
-752.00000000000671
 31
0.0
  0
LINE
  5
9B9F
  8
0
 10
-2907.159878504785
 20
-752.00000000000773
 30
0.0
 11
-2907.159878504785
 21
-742.2639320225004
 31
0.0
  0
ARC
  5
9BA0
  8
0
 10
-2905.159878504785
 20
-744.50000000000034
 30
0.0
 40
3.000000000000028
 50
48.189685104222598
 51
131.81031489577671
  0
LINE
  5
9BA1
  8
0
 10
-2903.159878504784
 20
-742.26393202250063
 30
0.0
 11
-2903.159878504784
 21
-752.00000000000125
 31
0.0
  0
LINE
  5
9BA5
  8
0
 10
-2922.1598923832498
 20
-756.0
 30
0.0
 11
-2919.8598923832492
 21
-756.0
 31
0.0
  0
LINE
  5
9BA6
  8
0
 10
-2839.609255782927
 20
-756.0
 30
0.0
 11
-2919.6105289835518
 21
-756.0
 31
0.0
  0
ARC
  5
9BB9
  8
0
 10
-2869.7598785047699
 20
-748.70000799999855
 30
0.0
 40
0.5
 50
180.0
 51
270.0
  0
ARC
  5
9BBA
  8
0
 10
-2870.1598785047699
 20
-746.15000799999848
 30
0.0
 40
0.5
 50
0.0
 51
90.0
  0
LINE
  5
9BBB
  8
0
 10
-2866.103812487594
 20
-748.2439419828205
 30
0.0
 11
-2867.0598785047732
 21
-749.20000799999855
 31
0.0
  0
ARC
  5
9BBC
  8
0
 10
-2866.2098785047729
 20
-748.13787596564248
 30
0.0
 40
0.1500000000000123
 50
315.00000000003928
 51
135.0000000000025
  0
LINE
  5
9BBD
  8
0
 10
-2866.984142573484
 20
-748.70000799999855
 30
0.0
 11
-2866.3159445219512
 21
-748.03180994846446
 31
0.0
  0
LINE
  5
9BBE
  8
0
 10
-2869.6598785047699
 20
-748.70000799999855
 30
0.0
 11
-2866.984142573484
 21
-748.70000799999855
 31
0.0
  0
LINE
  5
9BBF
  8
0
 10
-2869.7598785047699
 20
-749.20000799999855
 30
0.0
 11
-2867.0598785047732
 21
-749.20000799999855
 31
0.0
  0
LINE
  5
9BC0
  8
0
 10
-2870.2598785047699
 20
-746.25000799999839
 30
0.0
 11
-2870.2598785047699
 21
-748.70000799999855
 31
0.0
  0
ARC
  5
9BC2
  8
0
 10
-2871.9598785047701
 20
-747.80000799999846
 30
0.0
 40
0.4000000000000057
 50
180.00000000001299
 51
0.0000000000260551
  0
LINE
  5
9BC3
  8
0
 10
-2871.55987850477
 20
-744.1000079999983
 30
0.0
 11
-2871.55987850477
 21
-747.80000799999823
 31
0.0
  0
LINE
  5
9BC4
  8
0
 10
-2871.55987850477
 20
-746.25000799999839
 30
0.0
 11
-2870.2598785047699
 21
-746.25000799999839
 31
0.0
  0
LINE
  5
9BC5
  8
0
 10
-2869.6598785047699
 20
-746.15000799999848
 30
0.0
 11
-2869.6598785047699
 21
-748.70000799999855
 31
0.0
  0
LINE
  5
9BC6
  8
0
 10
-2871.55987850477
 20
-745.65000799999837
 30
0.0
 11
-2870.1598785047699
 21
-745.65000799999837
 31
0.0
  0
ARC
  5
9BC8
  8
0
 10
-2871.9598785047701
 20
-744.10000799999852
 30
0.0
 40
0.4000000000000342
 50
0.0000000000260551
 51
180.00000000001299
  0
LINE
  5
9BCB
  8
0
 10
-2858.7598785047699
 20
-743.77999999999929
 30
0.0
 11
-2862.5598785047669
 21
-743.3999999999993
 31
0.0
  0
LINE
  5
9BCC
  8
0
 10
-2858.552118441854
 20
-746.79922399370776
 30
0.0
 11
-2862.5598785047669
 21
-747.19999999999936
 31
0.0
  0
LINE
  5
9BCE
  8
0
 10
-2872.3598785047702
 20
-741.50000000000023
 30
0.0
 11
-2870.3598785047702
 21
-741.50000000000034
 31
0.0
  0
LINE
  5
9BCF
  8
0
 10
-2870.3598785047702
 20
-741.50000000000034
 30
0.0
 11
-2870.3598785047689
 21
-743.85000000000025
 31
0.0
  0
ARC
  5
9BD0
  8
0
 10
-2870.7598785047689
 20
-743.85000000000025
 30
0.0
 40
0.400000000000091
 50
180.0
 51
0.0
  0
LINE
  5
9BD1
  8
0
 10
-2871.1598785047699
 20
-743.85000000000025
 30
0.0
 11
-2871.1598785047699
 21
-742.40000000000032
 31
0.0
  0
LINE
  5
9BD2
  8
0
 10
-2871.1598785047699
 20
-742.40000000000032
 30
0.0
 11
-2872.3598785047702
 21
-742.40000000000032
 31
0.0
  0
LINE
  5
9BD3
  8
0
 10
-2872.3598785047702
 20
-742.40000000000032
 30
0.0
 11
-2872.3598785047702
 21
-748.20000000000016
 31
0.0
  0
LINE
  5
9BD4
  8
0
 10
-2872.3598785047702
 20
-748.20000000000016
 30
0.0
 11
-2871.159878504769
 21
-748.20000000000027
 31
0.0
  0
LINE
  5
9BD5
  8
0
 10
-2871.159878504769
 20
-748.20000000000027
 30
0.0
 11
-2871.159878504769
 21
-747.15000000000032
 31
0.0
  0
ARC
  5
9BD6
  8
0
 10
-2870.7598785047689
 20
-747.15000000000032
 30
0.0
 40
0.3999999999996362
 50
0.0000000000162844
 51
180.0
  0
LINE
  5
9BD7
  8
0
 10
-2870.3598785047689
 20
-747.1500000000002
 30
0.0
 11
-2870.3598785047689
 21
-749.00000000000011
 31
0.0
  0
LINE
  5
9BDB
  8
0
 10
-2877.5598785047691
 20
-749.00000000000011
 30
0.0
 11
-2877.5598785047732
 21
-695.00000000000023
 31
0.0
  0
LINE
  5
9BDC
  8
0
 10
-2877.5598785047732
 20
-695.00000000000023
 30
0.0
 11
-2874.5598785047732
 21
-695.00000000000023
 31
0.0
  0
LINE
  5
9BE2
  8
0
 10
-2876.2598785047721
 20
-695.00000000000023
 30
0.0
 11
-2876.2598785047721
 21
-710.40000000000043
 31
0.0
  0
ARC
  5
9BE4
  8
0
 10
-2873.0598785047719
 20
-710.90000000000146
 30
0.0
 40
0.5
 50
270.0
 51
90.0
  0
LINE
  5
9BE5
  8
0
 10
-2873.0598785047719
 20
-711.40000000000146
 30
0.0
 11
-2875.0598785047709
 21
-711.4000000000018
 31
0.0
  0
ARC
  5
9BE6
  8
0
 10
-2875.0598785047709
 20
-712.40000000000191
 30
0.0
 40
1.000000000000113
 50
89.999999999973952
 51
179.99999999999349
  0
LINE
  5
9BE7
  8
0
 10
-2876.0598785047719
 20
-712.4000000000018
 30
0.0
 11
-2876.0598785047709
 21
-714.50000000000034
 31
0.0
  0
LINE
  5
9BE8
  8
0
 10
-2876.0598785047709
 20
-714.50000000000034
 30
0.0
 11
-2867.7047155434748
 21
-714.50000000000034
 31
0.0
  0
ARC
  5
9BE9
  8
0
 10
-2867.7047155434748
 20
-714.20000000000027
 30
0.0
 40
0.2999999999999545
 50
270.0
 51
17.639701394231839
  0
ARC
  5
9BEA
  8
0
 10
-2864.5598785047709
 20
-713.20000000000039
 30
0.0
 40
2.9999999999999138
 50
152.96430821058561
 51
197.63970139423569
  0
ARC
  5
9BEB
  8
0
 10
-2867.499266196111
 20
-711.70000000000016
 30
0.0
 40
0.2999999999998792
 50
332.96430821055333
 51
90.0
  0
LINE
  5
9BEC
  8
0
 10
-2867.499266196111
 20
-711.40000000000032
 30
0.0
 11
-2868.0598785047719
 21
-711.40000000000032
 31
0.0
  0
LINE
  5
9BED
  8
0
 10
-2868.0598785047719
 20
-711.40000000000032
 30
0.0
 11
-2868.0598785047719
 21
-710.40000000000032
 31
0.0
  0
LINE
  5
9BF7
  8
0
 10
-2861.0598785047719
 20
-710.40000000000009
 30
0.0
 11
-2861.0598785047719
 21
-711.4000000000002
 31
0.0
  0
LINE
  5
9BF8
  8
0
 10
-2861.0598785047719
 20
-711.4000000000002
 30
0.0
 11
-2861.6204908134309
 21
-711.4000000000002
 31
0.0
  0
ARC
  5
9BF9
  8
0
 10
-2861.6204908134309
 20
-711.70000000000016
 30
0.0
 40
0.3000000000000682
 50
90.0
 51
207.03569178938821
  0
ARC
  5
9BFA
  8
0
 10
-2864.5598785047709
 20
-713.20000000000073
 30
0.0
 40
2.9999999999997491
 50
342.3602986057698
 51
27.035691789423669
  0
ARC
  5
9BFB
  8
0
 10
-2861.415041466068
 20
-714.20000000000039
 30
0.0
 40
0.3000000000002096
 50
162.3602986057474
 51
269.9999999999153
  0
LINE
  5
9BFC
  8
0
 10
-2861.415041466068
 20
-714.50000000000034
 30
0.0
 11
-2850.7598785047712
 21
-714.50000000000034
 31
0.0
  0
LINE
  5
9BFD
  8
0
 10
-2850.7598785047712
 20
-714.50000000000034
 30
0.0
 11
-2850.7598785047712
 21
-712.40000000000032
 31
0.0
  0
ARC
  5
9BFE
  8
0
 10
-2851.7598785047721
 20
-712.40000000000032
 30
0.0
 40
1.0
 50
0.0
 51
90.0
  0
LINE
  5
9BFF
  8
0
 10
-2851.7598785047721
 20
-711.40000000000032
 30
0.0
 11
-2854.0598785047709
 21
-711.40000000000043
 31
0.0
  0
ARC
  5
9C00
  8
0
 10
-2854.0598785047709
 20
-710.90000000000043
 30
0.0
 40
0.5
 50
90.0
 51
270.0
  0
LINE
  5
9C24
  8
0
 10
-2842.3598785047711
 20
-749.00000000000045
 30
0.0
 11
-2858.2598785047689
 21
-748.99999999999955
 31
0.0
  0
ARC
  5
9C25
  8
0
 10
-2858.2598785047689
 20
-748.49999999999955
 30
0.0
 40
0.5
 50
180.0
 51
270.0
  0
LINE
  5
9C26
  8
0
 10
-2858.7598785047689
 20
-748.49999999999955
 30
0.0
 11
-2858.7598785047699
 21
-747.14999999999952
 31
0.0
  0
ARC
  5
9C27
  8
0
 10
-2858.3598785047689
 20
-747.14999999999952
 30
0.0
 40
0.400000000000091
 50
0.0
 51
180.0
  0
LINE
  5
9C28
  8
0
 10
-2857.9598785047701
 20
-747.14999999999952
 30
0.0
 11
-2857.9598785047701
 21
-748.19999999999948
 31
0.0
  0
LINE
  5
9C29
  8
0
 10
-2857.9598785047701
 20
-748.19999999999948
 30
0.0
 11
-2856.7598785047689
 21
-748.19999999999925
 31
0.0
  0
LINE
  5
9C2A
  8
0
 10
-2856.7598785047689
 20
-748.19999999999925
 30
0.0
 11
-2856.7598785047699
 21
-742.39999999999941
 31
0.0
  0
LINE
  5
9C2B
  8
0
 10
-2856.7598785047699
 20
-742.39999999999941
 30
0.0
 11
-2857.9598785047701
 21
-742.39999999999952
 31
0.0
  0
LINE
  5
9C2C
  8
0
 10
-2857.9598785047701
 20
-742.39999999999952
 30
0.0
 11
-2857.9598785047701
 21
-743.84999999999945
 31
0.0
  0
ARC
  5
9C2D
  8
0
 10
-2858.3598785047689
 20
-743.84999999999945
 30
0.0
 40
0.400000000000091
 50
180.0000000000162
 51
0.0
  0
LINE
  5
9C2E
  8
0
 10
-2858.7598785047699
 20
-743.84999999999945
 30
0.0
 11
-2858.7598785047699
 21
-741.49999999999955
 31
0.0
  0
LINE
  5
9C2F
  8
0
 10
-2858.7598785047699
 20
-741.49999999999955
 30
0.0
 11
-2856.7598785047699
 21
-741.4999999999992
 31
0.0
  0
LINE
  5
9C30
  8
0
 10
-2856.7598785047699
 20
-741.4999999999992
 30
0.0
 11
-2856.7598785047699
 21
-740.49999999999932
 31
0.0
  0
ARC
  5
9C31
  8
0
 10
-2856.2598785047689
 20
-740.49999999999932
 30
0.0
 40
0.5
 50
0.0000000000130276
 51
180.0
  0
LINE
  5
9C32
  8
0
 10
-2855.7598785047699
 20
-740.4999999999992
 30
0.0
 11
-2855.7598785047699
 21
-747.09999999999911
 31
0.0
  0
ARC
  5
9C33
  8
0
 10
-2855.2598785047689
 20
-747.09999999999889
 30
0.0
 40
0.5
 50
180.00000000002601
 51
270.00000000005213
  0
LINE
  5
9C34
  8
0
 10
-2855.2598785047689
 20
-747.59999999999911
 30
0.0
 11
-2851.159878504769
 21
-747.59999999999843
 31
0.0
  0
ARC
  5
9C35
  8
0
 10
-2851.159878504769
 20
-747.09999999999843
 30
0.0
 40
0.5
 50
270.0
 51
0.0
  0
LINE
  5
9C36
  8
0
 10
-2850.659878504769
 20
-747.09999999999843
 30
0.0
 11
-2850.6598785047709
 21
-716.00000000000034
 31
0.0
  0
LINE
  5
9C4A
  8
0
 10
-2850.6598785047709
 20
-716.00000000000034
 30
0.0
 11
-2876.1598785047699
 21
-716.00000000000034
 31
0.0
  0
LINE
  5
9C5E
  8
0
 10
-2876.1598785047699
 20
-716.00000000000034
 30
0.0
 11
-2876.159878504769
 21
-747.10000000000014
 31
0.0
  0
ARC
  5
9C5F
  8
0
 10
-2875.659878504769
 20
-747.10000000000014
 30
0.0
 40
0.5
 50
180.0
 51
270.0
  0
LINE
  5
9C60
  8
0
 10
-2875.659878504769
 20
-747.60000000000014
 30
0.0
 11
-2873.8598785047689
 21
-747.60000000000025
 31
0.0
  0
ARC
  5
9C61
  8
0
 10
-2873.8598785047689
 20
-747.10000000000014
 30
0.0
 40
0.5000000000001137
 50
270.0
 51
0.0
  0
LINE
  5
9C62
  8
0
 10
-2873.3598785047702
 20
-747.10000000000014
 30
0.0
 11
-2873.3598785047702
 21
-740.50000000000034
 31
0.0
  0
ARC
  5
9C63
  8
0
 10
-2872.8598785047702
 20
-740.50000000000023
 30
0.0
 40
0.5
 50
0.0
 51
180.00000000001299
  0
LINE
  5
9C64
  8
0
 10
-2872.3598785047702
 20
-740.50000000000023
 30
0.0
 11
-2872.3598785047702
 21
-741.50000000000023
 31
0.0
  0
LINE
  5
9C65
  8
0
 10
-2843.459878504771
 20
-749.00000000000011
 30
0.0
 11
-2843.459878504772
 21
-695.00000000000023
 31
0.0
  0
LINE
  5
9CD1
  8
0
 10
-2876.2598785047721
 20
-710.40000000000043
 30
0.0
 11
-2850.6598785047709
 21
-710.40000000000043
 31
0.0
  0
LINE
  5
9CD2
  8
ACL
 10
-2859.6256850294872
 20
-713.19999999999663
 30
0.0
 11
-2869.494071980057
 21
-713.19999999999663
 31
0.0
  0
LINE
  5
9CDE
  8
0
 10
-2895.859878504782
 20
-747.59999999999889
 30
0.0
 11
-2891.259878504783
 21
-747.59999999999854
 31
0.0
  0
LINE
  5
9CE0
  8
0
 10
-2891.259878504784
 20
-716.00000000000034
 30
0.0
 11
-2916.759878504783
 21
-716.00000000000034
 31
0.0
  0
LINE
  5
9CE1
  8
0
 10
-2884.0598785047841
 20
-749.00000000000011
 30
0.0
 11
-2884.059878504785
 21
-695.00000000000023
 31
0.0
  0
LINE
  5
9CEE
  8
0
 10
-2850.6598785047709
 20
-710.40000000000043
 30
0.0
 11
-2850.6598785047709
 21
-695.00000000000023
 31
0.0
  0
LINE
  5
9D5E
  8
0
 10
-2722.7771841063632
 20
-641.18839250889255
 30
0.0
 11
-2722.7771841063632
 21
-644.28839250889223
 31
0.0
  0
LINE
  5
9D63
  8
0
 10
-2722.7771841063632
 20
-667.98839250889239
 30
0.0
 11
-2737.1771841063628
 21
-667.98839250889239
 31
0.0
  0
LINE
  5
9D64
  8
0
 10
-2737.1771841063628
 20
-667.98839250889239
 30
0.0
 11
-2737.1771841063628
 21
-663.48839250889353
 31
0.0
  0
ARC
  5
9D65
  8
0
 10
-2737.6771841063628
 20
-663.48839250889353
 30
0.0
 40
0.5
 50
0.0
 51
90.0
  0
LINE
  5
9D66
  8
0
 10
-2737.6771841063628
 20
-662.98839250889353
 30
0.0
 11
-2737.7771841063632
 21
-662.98839250889353
 31
0.0
  0
LINE
  5
9D67
  8
0
 10
-2737.7771841063632
 20
-662.98839250889353
 30
0.0
 11
-2737.7771841063632
 21
-647.08839250889355
 31
0.0
  0
LINE
  5
9D68
  8
0
 10
-2737.7771841063632
 20
-647.08839250889355
 30
0.0
 11
-2737.6771841063628
 21
-647.08839250889355
 31
0.0
  0
ARC
  5
9D69
  8
0
 10
-2737.6771841063628
 20
-646.58839250889355
 30
0.0
 40
0.5
 50
270.0
 51
0.0
  0
LINE
  5
9D6A
  8
0
 10
-2737.1771841063628
 20
-646.58839250889355
 30
0.0
 11
-2737.1771841063651
 21
-642.58839250889241
 31
0.0
  0
LINE
  5
9D6B
  8
0
 10
-2737.1771841063651
 20
-642.58839250889241
 30
0.0
 11
-2722.7771841063632
 21
-642.58839250889241
 31
0.0
  0
LINE
  5
9D71
  8
0
 10
-2722.7771841063632
 20
-641.18839250889255
 30
0.0
 11
-2721.6771841063628
 21
-641.18839250889255
 31
0.0
  0
ARC
  5
9D72
  8
0
 10
-2721.6771841063628
 20
-640.78839250889234
 30
0.0
 40
0.400000000000091
 50
269.99999999996737
 51
90.000000000032571
  0
LINE
  5
9D73
  8
0
 10
-2721.6771841063628
 20
-640.38839250889248
 30
0.0
 11
-2756.7771841063632
 21
-640.38839250889237
 31
0.0
  0
ARC
  5
9D7A
  8
0
 10
-2756.7771841063632
 20
-640.88839250889237
 30
0.0
 40
0.5
 50
90.0
 51
180.0
  0
LINE
  5
9D7B
  8
0
 10
-2757.2771841063632
 20
-640.88839250889237
 30
0.0
 11
-2757.2771841063632
 21
-643.38839250889384
 31
0.0
  0
ARC
  5
9D7C
  8
0
 10
-2756.7771841063632
 20
-643.38839250889384
 30
0.0
 40
0.5
 50
180.0
 51
0.0
  0
LINE
  5
9D7D
  8
0
 10
-2756.2771841063632
 20
-643.38839250889384
 30
0.0
 11
-2756.2771841063632
 21
-642.98839250889239
 31
0.0
  0
LINE
  5
9D7E
  8
0
 10
-2756.2771841063632
 20
-642.98839250889239
 30
0.0
 11
-2751.8771841063622
 21
-642.98839250889239
 31
0.0
  0
LINE
  5
9D7F
  8
0
 10
-2751.8771841063622
 20
-642.98839250889239
 30
0.0
 11
-2751.8771841063622
 21
-662.4883925088925
 31
0.0
  0
LINE
  5
9D83
  8
0
 10
-2751.8771841063622
 20
-662.4883925088925
 30
0.0
 11
-2756.2771841063632
 21
-662.4883925088925
 31
0.0
  0
LINE
  5
9D84
  8
0
 10
-2756.2771841063632
 20
-662.4883925088925
 30
0.0
 11
-2756.2771841063632
 21
-661.8883925088935
 31
0.0
  0
ARC
  5
9D85
  8
0
 10
-2756.7771841063632
 20
-661.8883925088935
 30
0.0
 40
0.4999999999997727
 50
0.0
 51
180.0
  0
LINE
  5
9D86
  8
0
 10
-2757.2771841063618
 20
-661.8883925088935
 30
0.0
 11
-2757.2771841063632
 21
-674.48839250889262
 31
0.0
  0
POLYLINE
  5
9DA9
  8
0
 66
     1
 10
0.0
 20
0.0
 30
0.0
  0
VERTEX
  5
D410
  8
0
 10
-2750.8771841063649
 20
-680.53839250888939
 30
0.0
  0
VERTEX
  5
D411
  8
0
 10
-2750.8771841063649
 20
-678.18343433057657
 30
0.0
 42
0.2945408340461451
  0
VERTEX
  5
D412
  8
0
 10
-2751.1122438542511
 20
-677.81902424120915
 30
0.0
  0
VERTEX
  5
D413
  8
0
 10
-2757.1008892954492
 20
-675.10383986195745
 30
0.0
 42
-0.9999998915195204
  0
VERTEX
  5
D414
  8
0
 10
-2756.8534789172832
 20
-674.55722472790399
 30
0.0
  0
VERTEX
  5
D415
  8
0
 10
-2750.864833476081
 20
-677.27240910715796
 30
0.0
 42
-0.2945408340578595
  0
VERTEX
  5
D416
  8
0
 10
-2750.2771841063641
 20
-678.18343433061989
 30
0.0
  0
SEQEND
  5
D417
  8
0
  0
POLYLINE
  5
9DAB
  8
0
 66
     1
 10
0.0
 20
0.0
 30
0.0
  0
VERTEX
  5
D418
  8
0
 10
-2759.2771841063641
 20
-640.88839250888918
 30
0.0
 42
-0.3966277858007638
  0
VERTEX
  5
D419
  8
0
 10
-2755.925625519345
 20
-646.86737726425258
 30
0.0
 42
-0.9713730731218312
  0
VERTEX
  5
D41A
  8
0
 10
-2756.5087949261292
 20
-646.72619609765547
 30
0.0
 42
0.3844485603994672
  0
VERTEX
  5
D41B
  8
0
 10
-2759.2771841063641
 20
-641.52166493998379
 30
0.0
  0
SEQEND
  5
D41C
  8
0
  0
LINE
  5
9DBE
  8
0
 10
-2759.2771841063641
 20
-640.65705805859295
 30
0.0
 11
-2759.2771841063641
 21
-657.03839250888939
 31
0.0
  0
ARC
  5
9DBF
  8
0
 10
-2758.7771841063641
 20
-657.03839250888939
 30
0.0
 40
0.5
 50
180.0
 51
270.0
  0
LINE
  5
9DC0
  8
0
 10
-2758.7771841063641
 20
-657.53839250888927
 30
0.0
 11
-2755.7771841063641
 21
-657.53839250888927
 31
0.0
  0
ARC
  5
9DC1
  8
0
 10
-2755.7771841063641
 20
-658.03839250888927
 30
0.0
 40
0.5
 50
0.0
 51
90.0
  0
LINE
  5
9DC2
  8
0
 10
-2755.2771841063641
 20
-658.03839250888927
 30
0.0
 11
-2755.2771841063641
 21
-658.17236710510485
 31
0.0
  0
ARC
  5
9DC3
  8
0
 10
-2755.7771841063641
 20
-658.17236710510474
 30
0.0
 40
0.5
 50
300.00000000000659
 51
359.99999999998698
  0
LINE
  5
9DC4
  8
0
 10
-2755.527184106365
 20
-658.60537980699678
 30
0.0
 11
-2756.2771841063641
 21
-659.03839250888927
 31
0.0
  0
LINE
  5
9DC5
  8
0
 10
-2756.2771841063641
 20
-659.03839250888927
 30
0.0
 11
-2758.7771841063641
 21
-659.03839250888927
 31
0.0
  0
ARC
  5
9DC6
  8
0
 10
-2758.7771841063641
 20
-659.53839250888939
 30
0.0
 40
0.5
 50
90.0
 51
180.0
  0
LINE
  5
9DC7
  8
0
 10
-2759.2771841063641
 20
-659.53839250888939
 30
0.0
 11
-2759.2771841063641
 21
-680.53839250888939
 31
0.0
  0
LINE
  5
9DC8
  8
0
 10
-2759.2771841063641
 20
-680.53839250888939
 30
0.0
 11
-2750.2771841063641
 21
-680.53839250888939
 31
0.0
  0
LINE
  5
9DCA
  8
0
 10
-2750.2771841063641
 20
-678.18343433061989
 30
0.0
 11
-2750.2771841063641
 21
-722.28839250888893
 31
0.0
  0
LINE
  5
9E06
  8
0
 10
-2762.2771841063641
 20
-637.2883925088903
 30
0.0
 11
-2757.5771841063638
 21
-637.2883925088903
 31
0.0
  0
LINE
  5
9E07
  8
0
 10
-2757.5771841063638
 20
-637.2883925088903
 30
0.0
 11
-2757.5771841063638
 21
-639.58839250889139
 31
0.0
  0
LINE
  5
9E08
  8
0
 10
-2757.5771841063638
 20
-639.58839250889139
 30
0.0
 11
-2759.2771841063641
 21
-640.65705805859295
 31
0.0
  0
LINE
  5
9E24
  8
0
 10
-2750.2771841063641
 20
-722.28839250888893
 30
0.0
 11
-2762.2771841063641
 21
-722.28839250888893
 31
0.0
  0
ARC
  5
9E29
  8
0
 10
-2761.7171841063641
 20
-639.78639170825011
 30
0.0
 40
1.9600000000001361
 50
142.7420839994156
 51
185.1279908830754
  0
ARC
  5
9E2B
  8
0
 10
-2761.7171841063641
 20
-639.78639170825033
 30
0.0
 40
2.5600000000006502
 50
102.6356250930145
 51
185.12799088308711
  0
ARC
  5
9E2C
  8
0
 10
-2763.9681384987371
 20
-639.98839250889
 30
0.0
 40
0.3000000000004012
 50
185.12799088320989
 51
5.1280119621065259
  0
LINE
  5
9E47
  8
0
 10
-2727.7771841063641
 20
-688.18839250888811
 30
0.0
 11
-2748.777184106365
 21
-688.188392508888
 31
0.0
  0
LINE
  5
9E48
  8
0
 10
-2727.7771841063641
 20
-707.48837863041365
 30
0.0
 11
-2748.777184106365
 21
-707.48837863041365
 31
0.0
  0
LINE
  5
9E64
  8
0
 10
-2715.7771841063641
 20
-690.18839250888823
 30
0.0
 11
-2715.7771841063641
 21
-705.48837863041365
 31
0.0
  0
LINE
  5
9E66
  8
0
 10
-2716.7771841063641
 20
-706.48837863041365
 30
0.0
 11
-2727.2771841063641
 21
-706.48837863041365
 31
0.0
  0
ARC
  5
9E7B
  8
0
 10
-2716.7771841063641
 20
-705.48837863041365
 30
0.0
 40
1.0
 50
270.0
 51
0.0
  0
LINE
  5
9E7C
  8
0
 10
-2727.2771841063641
 20
-689.18839250888823
 30
0.0
 11
-2716.7771841063641
 21
-689.18839250888823
 31
0.0
  0
ARC
  5
9E7E
  8
0
 10
-2716.7771841063641
 20
-690.18839250888823
 30
0.0
 40
1.0
 50
0.0
 51
90.0
  0
LINE
  5
9E85
  8
0
 10
-2763.2771841063641
 20
-638.59979995034598
 30
0.0
 11
-2763.2771841063641
 21
-720.97698506746519
 31
0.0
  0
ARC
  5
9E86
  8
0
 10
-2761.7171841063641
 20
-719.79039330952958
 30
0.0
 40
1.9600000000001441
 50
174.87200911691141
 51
217.2579160013199
  0
ARC
  5
9E87
  8
0
 10
-2763.9681384987362
 20
-719.58839250888911
 30
0.0
 40
0.3000000000001239
 50
354.87200911689411
 51
174.87197268554851
  0
ARC
  5
9E89
  8
0
 10
-2761.7171841063641
 20
-719.79039330953003
 30
0.0
 40
2.5599999999999721
 50
174.87200911690641
 51
257.36437490697892
  0
LINE
  5
9E8B
  8
0
 10
-2727.2771841063641
 20
-706.48837863041365
 30
0.0
 11
-2727.2771841063641
 21
-706.98837863041365
 31
0.0
  0
LINE
  5
9E8C
  8
0
 10
-2727.2771841063641
 20
-689.18839250888823
 30
0.0
 11
-2727.2771841063641
 21
-688.68839250888811
 31
0.0
  0
LINE
  5
9E8F
  8
0
 10
-2755.2771841063632
 20
-676.48839250889262
 30
0.0
 11
-2739.7771841063632
 21
-676.48839250889296
 31
0.0
  0
LINE
  5
9EA7
  8
0
 10
-2722.7771841063632
 20
-666.28839250889223
 30
0.0
 11
-2722.7771841063632
 21
-675.48839250889284
 31
0.0
  0
LINE
  5
9EA8
  8
0
 10
-2722.7771841063632
 20
-675.48839250889284
 30
0.0
 11
-2721.577184106362
 21
-675.48839250889284
 31
0.0
  0
ARC
  5
9EA9
  8
0
 10
-2721.5771841063629
 20
-675.78839250889291
 30
0.0
 40
0.2999999999999545
 50
0.0
 51
89.999999999954397
  0
LINE
  5
9EAA
  8
0
 10
-2721.2771841063632
 20
-675.78839250889291
 30
0.0
 11
-2721.2771841063632
 21
-676.18839250889289
 31
0.0
  0
ARC
  5
9EAB
  8
0
 10
-2721.577184106362
 20
-676.18839250889289
 30
0.0
 40
0.2999999999999545
 50
270.0
 51
0.0
  0
LINE
  5
9EAC
  8
0
 10
-2721.577184106362
 20
-676.48839250889296
 30
0.0
 11
-2726.7771841063632
 21
-676.48839250889296
 31
0.0
  0
LINE
  5
9EB2
  8
0
 10
-2727.2771841063632
 20
-675.98839250889284
 30
0.0
 11
-2727.2771841063618
 21
-670.68839250889255
 31
0.0
  0
LINE
  5
9EB3
  8
0
 10
-2727.2771841063618
 20
-670.68839250889255
 30
0.0
 11
-2739.2771841063632
 21
-670.68839250889255
 31
0.0
  0
LINE
  5
9EB8
  8
0
 10
-2739.2771841063632
 20
-670.68839250889255
 30
0.0
 11
-2739.2771841063632
 21
-675.98839250889284
 31
0.0
  0
ARC
  5
9EB9
  8
0
 10
-2739.7771841063632
 20
-675.98839250889284
 30
0.0
 40
0.5
 50
270.0
 51
0.0
  0
LINE
  5
9EBE
  8
0
 10
-2755.2771841063632
 20
-676.48839250889296
 30
0.0
 11
-2755.2771841063618
 21
-676.48839250889262
 31
0.0
  0
ARC
  5
9ED2
  8
0
 10
-2726.7771841063632
 20
-675.98839250889284
 30
0.0
 40
0.5
 50
179.9999999999977
 51
270.0
  0
ARC
  5
9ED3
  8
0
 10
-2755.2771841063632
 20
-674.48839250889262
 30
0.0
 40
2.0
 50
179.99999999999901
 51
270.0
  0
LINE
  5
9EE3
  8
0
 10
-2645.7771511765109
 20
-680.98836268528873
 30
0.0
 11
-2631.27715003298
 21
-680.98838514274553
 31
0.0
  0
ARC
  5
9EE5
  8
0
 10
-2645.7771519509051
 20
-681.48836268528805
 30
0.0
 40
0.5
 50
89.999911260875592
 51
179.99991126086911
1001
GENIUS_GENOBJ-N-FIL_13
1002
{
1000
OWNER
1000
GEN
1002
}
1001
GENIUS_GENODEF_13
1002
{
1000
HIER
1070
     0
1002
}
1002
{
1000
MANEDIT
1070
     0
1002
}
1002
{
1000
NOSEL
1070
     0
1002
}
1002
{
1000
BEHIND
1070
     0
1002
}
1002
{
1000
OTHER
1070
     0
1002
}
1002
{
1000
REACTOR
1002
}
  0
LINE
  5
9EEA
  8
0
 10
-2645.77718524989
 20
-702.98836268526225
 30
0.0
 11
-2640.977184106348
 21
-702.98837011945614
 31
0.0
  0
ARC
  5
9EEE
  8
0
 10
-2645.7771844754948
 20
-702.48836268526293
 30
0.0
 40
0.5
 50
179.99991126086911
 51
269.99991126087559
1001
GENIUS_GENOBJ-N-FIL_13
1002
{
1000
OWNER
1000
GEN
1002
}
1001
GENIUS_GENODEF_13
1002
{
1000
HIER
1070
     0
1002
}
1002
{
1000
MANEDIT
1070
     0
1002
}
1002
{
1000
NOSEL
1070
     0
1002
}
1002
{
1000
BEHIND
1070
     0
1002
}
1002
{
1000
OTHER
1070
     0
1002
}
1002
{
1000
REACTOR
1002
}
  0
LINE
  5
9EF3
  8
0
 10
-2649.2767211343562
 20
-680.91381240193755
 30
0.0
 11
-2649.276725246209
 21
-683.56869300409335
 31
0.0
  0
ARC
  5
9F05
  8
0
 10
-2631.2771632550562
 20
-691.98840447688724
 30
0.0
 40
30.0
 50
171.70730334188991
 51
188.29251917984641
  0
ARC
  5
9F06
  8
0
 10
-2659.9739574813711
 20
-696.17098754629205
 30
0.0
 40
1.0
 50
188.29251917984641
 51
261.9523344513359
1001
GENIUS_GENOBJ-N-FIL_13
1002
{
1000
OWNER
1000
GEN
1002
}
1001
GENIUS_GENODEF_13
1002
{
1000
HIER
1070
     0
1002
}
1002
{
1000
MANEDIT
1070
     0
1002
}
1002
{
1000
NOSEL
1070
     0
1002
}
1002
{
1000
BEHIND
1070
     0
1002
}
1002
{
1000
OTHER
1070
     0
1002
}
1002
{
1000
REACTOR
1002
}
  0
ARC
  5
9F07
  8
0
 10
-2659.9739445253481
 20
-687.80573251688668
 30
0.0
 40
1.0
 50
98.047488070414573
 51
171.70730334188991
1001
GENIUS_GENOBJ-N-FIL_13
1002
{
1000
OWNER
1000
GEN
1002
}
1001
GENIUS_GENODEF_13
1002
{
1000
HIER
1070
     0
1002
}
1002
{
1000
MANEDIT
1070
     0
1002
}
1002
{
1000
NOSEL
1070
     0
1002
}
1002
{
1000
BEHIND
1070
     0
1002
}
1002
{
1000
OTHER
1070
     0
1002
}
1002
{
1000
REACTOR
1002
}
  0
ARC
  5
9F0B
  8
0
 10
-2631.2771632550898
 20
-691.98846104272218
 30
0.0
 40
30.0
 50
171.4842067165508
 51
188.51561518105331
  0
ARC
  5
9F0D
  8
0
 10
-2641.1722539974362
 20
-651.02663205818862
 30
0.0
 40
50.0
 50
247.4573262802802
 51
262.40912688115401
  0
ARC
  5
9F0F
  8
0
 10
-2641.1723808799311
 20
-732.95025908322225
 30
0.0
 40
50.0
 50
99.328082357203385
 51
112.542496182253
  0
ARC
  5
9F10
  8
0
 10
-2659.9574540078588
 20
-696.2827505458406
 30
0.0
 40
1.0
 50
188.51561518105331
 51
247.4573262802802
1001
GENIUS_GENODEF_13
1002
{
1000
HIER
1070
     0
1002
}
1002
{
1000
MANEDIT
1070
     0
1002
}
1002
{
1000
NOSEL
1070
     0
1002
}
1002
{
1000
BEHIND
1070
     0
1002
}
1002
{
1000
OTHER
1070
     0
1002
}
1002
{
1000
REACTOR
1002
}
1001
GENIUS_GENOBJ-N-FIL_13
1002
{
1000
OWNER
1000
GEN
1002
}
  0
ARC
  5
9F11
  8
0
 10
-2659.9574406590382
 20
-687.69408238771052
 30
0.0
 40
1.0
 50
112.542496182253
 51
171.4842067165508
1001
GENIUS_GENOBJ-N-FIL_13
1002
{
1000
OWNER
1000
GEN
1002
}
1001
GENIUS_GENODEF_13
1002
{
1000
HIER
1070
     0
1002
}
1002
{
1000
MANEDIT
1070
     0
1002
}
1002
{
1000
NOSEL
1070
     0
1002
}
1002
{
1000
BEHIND
1070
     0
1002
}
1002
{
1000
OTHER
1070
     0
1002
}
1002
{
1000
REACTOR
1002
}
  0
LINE
  5
9F12
  8
0
 10
-2633.7871669745309
 20
-707.98838125528857
 30
0.0
 11
-2638.6672167260772
 21
-707.98837369711623
 31
0.0
  0
LINE
  5
9F14
  8
0
 10
-2640.977184106348
 20
-702.98837011945614
 30
0.0
 11
-2640.6572883171352
 21
-706.18737805295302
 31
0.0
  0
ARC
  5
9F15
  8
0
 10
-2638.6672136284969
 20
-705.9883736971185
 30
0.0
 40
2.0
 50
185.7105043983679
 51
269.99991126087559
1001
GENIUS_GENODEF_13
1002
{
1000
HIER
1070
     0
1002
}
1002
{
1000
MANEDIT
1070
     0
1002
}
1002
{
1000
NOSEL
1070
     0
1002
}
1002
{
1000
BEHIND
1070
     0
1002
}
1002
{
1000
OTHER
1070
     0
1002
}
1002
{
1000
REACTOR
1002
}
1001
GENIUS_GENOBJ-N-FIL_13
1002
{
1000
OWNER
1000
GEN
1002
}
  0
LINE
  5
9F16
  8
0
 10
-2631.4771841063589
 20
-702.9883848329614
 30
0.0
 11
-2631.7970898047538
 21
-706.18739177553982
 31
0.0
  0
ARC
  5
9F17
  8
0
 10
-2633.7871638769511
 20
-705.98838125529085
 30
0.0
 40
2.0
 50
269.99991126087559
 51
354.28931812337242
1001
GENIUS_GENODEF_13
1002
{
1000
HIER
1070
     0
1002
}
1002
{
1000
MANEDIT
1070
     0
1002
}
1002
{
1000
NOSEL
1070
     0
1002
}
1002
{
1000
BEHIND
1070
     0
1002
}
1002
{
1000
OTHER
1070
     0
1002
}
1002
{
1000
REACTOR
1002
}
1001
GENIUS_GENOBJ-N-FIL_13
1002
{
1000
OWNER
1000
GEN
1002
}
  0
LINE
  5
9F19
  8
0
 10
-2646.7764154856068
 20
-701.48843987769214
 30
0.0
 11
-2647.7771912170169
 21
-701.48843854704296
 31
0.0
  0
ARC
  5
9F1A
  8
0
 10
-2646.7767471845732
 20
-701.98843976766796
 30
0.0
 40
0.5
 50
2.3858616155229231
 51
89.999947467751525
1001
GENIUS_GENODEF_13
1002
{
1000
HIER
1070
     0
1002
}
1002
{
1000
MANEDIT
1070
     0
1002
}
1002
{
1000
NOSEL
1070
     0
1002
}
1002
{
1000
BEHIND
1070
     0
1002
}
1002
{
1000
OTHER
1070
     0
1002
}
1002
{
1000
REACTOR
1002
}
1001
GENIUS_GENOBJ-N-FIL_13
1002
{
1000
OWNER
1000
GEN
1002
}
  0
LINE
  5
9F1B
  8
0
 10
-2646.2767582301349
 20
-701.59362193646461
 30
0.0
 11
-2646.2771803717269
 21
-701.59362193590334
 31
0.0
  0
LINE
  5
9F1C
  8
0
 10
-2646.7763860263808
 20
-682.46762109061171
 30
0.0
 11
-2647.7771617577619
 21
-682.46761932127811
 31
0.0
  0
ARC
  5
9F1D
  8
0
 10
-2646.77671617653
 20
-681.96762119961068
 30
0.0
 40
0.5
 50
269.99987505399957
 51
357.6139609062156
1001
GENIUS_GENODEF_13
1002
{
1000
HIER
1070
     0
1002
}
1002
{
1000
MANEDIT
1070
     0
1002
}
1002
{
1000
NOSEL
1070
     0
1002
}
1002
{
1000
BEHIND
1070
     0
1002
}
1002
{
1000
OTHER
1070
     0
1002
}
1002
{
1000
REACTOR
1002
}
1001
GENIUS_GENOBJ-N-FIL_13
1002
{
1000
OWNER
1000
GEN
1002
}
  0
LINE
  5
9F1E
  8
0
 10
-2646.276728607977
 20
-682.46762197398698
 30
0.0
 11
-2646.2771512233612
 21
-682.4676219732396
 31
0.0
  0
LINE
  5
9F20
  8
0
 10
-2631.2771500329932
 20
-680.98839250888932
 30
0.0
 11
-2630.2771841063618
 21
-680.98839405762646
 31
0.0
  0
LINE
  5
9F23
  8
0
 10
-2631.27718410636
 20
-702.98838514271915
 30
0.0
 11
-2631.2771841063632
 21
-680.98838514271893
 31
0.0
1001
GENIUS_GENREC_14
1002
{
1000
PYDIR
1011
-2645.7771850969589
1021
0.0
1031
0.0
1021
-701.98838514272165
1031
0.0
1002
}
1002
{
1000
PXDIR
1011
-2631.2771841063632
1021
0.0
1031
0.0
1021
-682.48838514271915
1031
0.0
1002
}
1002
{
1000
PORI
1011
-2631.27718410636
1021
0.0
1031
0.0
1021
-701.48838514271915
1031
0.0
1002
}
1002
{
1000
PINS
1011
-2631.27718410636
1021
0.0
1031
0.0
1021
-701.48838514271915
1031
0.0
1002
}
1002
{
1000
PINS2
1011
-2645.777185096963
1021
0.0
1031
0.0
1021
-681.98837735871177
1031
0.0
1002
}
1002
{
1000
C
1070
     1
1002
}
1001
GENIUS_GENOBJ-N-REC_13
1002
{
1000
OWNER
1000
GEN
1002
}
1001
GENIUS_GENODEF_13
1002
{
1000
HIER
1070
     0
1002
}
1002
{
1000
MANEDIT
1070
     0
1002
}
1002
{
1000
NOSEL
1070
     0
1002
}
1002
{
1000
BEHIND
1070
     0
1002
}
1002
{
1000
OTHER
1070
     0
1002
}
1002
{
1000
REACTOR
1002
}
  0
LINE
  5
9F24
  8
0
 10
-2631.2771841063632
 20
-680.98838514271893
 30
0.0
 11
-2630.7771841063641
 21
-680.98838514271915
 31
0.0
  0
LINE
  5
9F35
  8
0
 10
-2649.2767553232138
 20
-678.87528967519177
 30
0.0
 11
-2649.2767553232138
 21
-683.61143953022668
 31
0.0
  0
LINE
  5
9F39
  8
0
 10
-2657.2797108496452
 20
-671.44768136001494
 30
0.0
 11
-2651.4475289302291
 21
-671.93369651996704
 31
0.0
  0
ARC
  5
9F3B
  8
0
 10
-2651.7767133998009
 20
-675.91987955294644
 30
0.0
 40
4.0
 50
359.16423417946169
 51
85.236358309269889
1001
GENIUS_GENODEF_13
1002
{
1000
HIER
1070
     0
1002
}
1002
{
1000
MANEDIT
1070
     0
1002
}
1002
{
1000
NOSEL
1070
     0
1002
}
1002
{
1000
BEHIND
1070
     0
1002
}
1002
{
1000
OTHER
1070
     0
1002
}
1002
{
1000
REACTOR
1002
}
1001
GENIUS_GENOBJ-N-FIL_13
1002
{
1000
OWNER
1000
GEN
1002
}
  0
LINE
  5
9F3D
  8
0
 10
-2649.2797108496438
 20
-678.84845533228804
 30
0.0
 11
-2654.4892050806729
 21
-678.84845533228827
 31
0.0
  0
LINE
  5
9F3F
  8
0
 10
-2656.830290106695
 20
-676.53197009257906
 30
0.0
 11
-2656.3097518050499
 21
-677.6764708057899
 31
0.0
  0
ARC
  5
9F40
  8
0
 10
-2652.2789232957521
 20
-674.46193140882451
 30
0.0
 40
5.0
 50
180.0
 51
204.4568444719751
1001
GENIUS_GENOBJ-N-FIL_13
1002
{
1000
OWNER
1000
GEN
1002
}
1001
GENIUS_GENODEF_13
1002
{
1000
HIER
1070
     0
1002
}
1002
{
1000
MANEDIT
1070
     0
1002
}
1002
{
1000
NOSEL
1070
     0
1002
}
1002
{
1000
BEHIND
1070
     0
1002
}
1002
{
1000
OTHER
1070
     0
1002
}
1002
{
1000
REACTOR
1002
}
  0
ARC
  5
9F41
  8
0
 10
-2654.4892050806729
 20
-676.84845533228815
 30
0.0
 40
2.0
 50
204.4568444719751
 51
270.0
1001
GENIUS_GENOBJ-N-FIL_13
1002
{
1000
OWNER
1000
GEN
1002
}
1001
GENIUS_GENODEF_13
1002
{
1000
HIER
1070
     0
1002
}
1002
{
1000
MANEDIT
1070
     0
1002
}
1002
{
1000
NOSEL
1070
     0
1002
}
1002
{
1000
BEHIND
1070
     0
1002
}
1002
{
1000
OTHER
1070
     0
1002
}
1002
{
1000
REACTOR
1002
}
  0
LINE
  5
9F50
  8
0
 10
-2631.4771841063589
 20
-702.9883848329614
 30
0.0
 11
-2631.27718410636
 21
-702.98838483296117
 31
0.0
  0
LINE
  5
9F51
  8
0
 10
-2647.7771786857402
 20
-700.5884618252768
 30
0.0
 11
-2647.7771912170169
 21
-701.48843854704296
 31
0.0
  0
LINE
  5
9F52
  8
0
 10
-2646.2771806180872
 20
-701.96762521389383
 30
0.0
 11
-2646.2771806180872
 21
-702.19853574128865
 31
0.0
  0
LINE
  5
9F53
  8
0
 10
-2646.2771806180872
 20
-702.19853574128865
 30
0.0
 11
-2646.2771844754939
 21
-702.48836191086775
 31
0.0
  0
LINE
  5
9F54
  8
0
 10
-2647.7771504185398
 20
-682.46761932129823
 30
0.0
 11
-2647.7771389455361
 21
-675.97822494518164
 31
0.0
  0
LINE
  5
9F55
  8
0
 10
-2646.2771496745199
 20
-681.98843730083217
 30
0.0
 11
-2646.2771519509051
 21
-681.48836191089299
 31
0.0
  0
LINE
  5
9F56
  8
0
 10
-2631.2772030015258
 20
-715.08839250888741
 30
0.0
 11
-2631.27718410636
 21
-702.98838514271915
 31
0.0
  0
LINE
  5
9F95
  8
0
 10
-2596.777203001524
 20
-706.8883925088877
 30
0.0
 11
-2596.777203001524
 21
-716.08839250888798
 31
0.0
  0
LINE
  5
9F96
  8
0
 10
-2596.777203001524
 20
-716.08839250888798
 30
0.0
 11
-2595.5772030015241
 21
-716.08839250888798
 31
0.0
  0
ARC
  5
9F97
  8
0
 10
-2595.5772030015241
 20
-716.38839250888782
 30
0.0
 40
0.2999999999998408
 50
0.0
 51
90.0
  0
LINE
  5
9F98
  8
0
 10
-2595.277203001524
 20
-716.38839250888782
 30
0.0
 11
-2595.277203001524
 21
-716.82839250888799
 31
0.0
  0
ARC
  5
9F99
  8
0
 10
-2595.5452647368852
 20
-716.82216742962567
 30
0.0
 40
0.2681340067509859
 50
263.15908191061789
 51
358.66968452946412
  0
LINE
  5
9FAE
  8
0
 10
-2596.7771841063618
 20
-681.78839250888825
 30
0.0
 11
-2596.7771841063618
 21
-684.88839250888793
 31
0.0
  0
LINE
  5
A01D
  8
0
 10
-2596.777203001524
 20
-708.58839250888718
 30
0.0
 11
-2611.1771841063619
 21
-708.58839250888707
 31
0.0
  0
LINE
  5
A01E
  8
0
 10
-2611.1771841063619
 20
-708.58839250888707
 30
0.0
 11
-2611.1771841063619
 21
-704.08839250888809
 31
0.0
  0
ARC
  5
A01F
  8
0
 10
-2611.6771841063619
 20
-704.08839250888809
 30
0.0
 40
0.5
 50
0.0
 51
90.0
  0
LINE
  5
A020
  8
0
 10
-2611.6771841063619
 20
-703.58839250888821
 30
0.0
 11
-2611.7771841063618
 21
-703.58839250888821
 31
0.0
  0
LINE
  5
A021
  8
0
 10
-2611.7771841063618
 20
-703.58839250888821
 30
0.0
 11
-2611.7771841063618
 21
-687.68839250888811
 31
0.0
  0
LINE
  5
A022
  8
0
 10
-2611.7771841063618
 20
-687.68839250888811
 30
0.0
 11
-2611.6771841063619
 21
-687.68839250888811
 31
0.0
  0
ARC
  5
A023
  8
0
 10
-2611.6771841063619
 20
-687.18839250888811
 30
0.0
 40
0.5
 50
270.0
 51
0.0
  0
LINE
  5
A024
  8
0
 10
-2611.1771841063619
 20
-687.18839250888811
 30
0.0
 11
-2611.1771841063619
 21
-683.18839250888698
 31
0.0
  0
LINE
  5
A025
  8
0
 10
-2611.1771841063619
 20
-683.18839250888698
 30
0.0
 11
-2596.7771841063618
 21
-683.18839250888698
 31
0.0
  0
LINE
  5
A02D
  8
0
 10
-2596.7771841063618
 20
-681.78839250888825
 30
0.0
 11
-2595.6771841063619
 21
-681.78839250888825
 31
0.0
  0
ARC
  5
A02E
  8
0
 10
-2595.6771841063619
 20
-681.38839250888816
 30
0.0
 40
0.3999999999999772
 50
269.99999999996737
 51
90.000000000032571
  0
LINE
  5
A02F
  8
0
 10
-2595.6771841063619
 20
-680.98839250888818
 30
0.0
 11
-2626.6694569612259
 21
-680.98839250888818
 31
0.0
  0
LINE
  5
A070
  8
0
 10
-2657.8541135138612
 20
-668.48839250889046
 30
0.0
 11
-2635.7558637628049
 21
-668.48839250889091
 31
0.0
  0
LINE
  5
A071
  8
0
 10
-2632.655863762805
 20
-673.08839250889116
 30
0.0
 11
-2629.7771841063632
 21
-673.08839250889105
 31
0.0
  0
LINE
  5
A078
  8
0
  6
HIDDEN
 10
-2645.2771841063659
 20
-668.48839250889091
 30
0.0
 11
-2638.2771841063659
 21
-668.48839250889091
 31
0.0
  0
LINE
  5
A07A
  8
0
 10
-2634.931619277907
 20
-671.97000608227415
 30
0.0
 11
-2645.777184106365
 21
-677.98839250889114
 31
0.0
  0
LINE
  5
A07B
  8
0
 10
-2647.2771841063659
 20
-677.98839250889114
 30
0.0
 11
-2647.2771841063659
 21
-668.48839250889057
 31
0.0
  0
ARC
  5
A07C
  8
0
 10
-2657.8541135138612
 20
-669.98839250889046
 30
0.0
 40
1.5
 50
90.0
 51
180.0
1001
GENIUS_GENOBJ-N-FIL_13
1002
{
1000
OWNER
1000
GEN
1002
}
1001
GENIUS_GENODEF_13
1002
{
1000
HIER
1070
     0
1002
}
1002
{
1000
MANEDIT
1070
     0
1002
}
1002
{
1000
NOSEL
1070
     0
1002
}
1002
{
1000
BEHIND
1070
     0
1002
}
1002
{
1000
OTHER
1070
     0
1002
}
1002
{
1000
REACTOR
1002
}
  0
LINE
  5
A07D
  8
0
 10
-2657.099763570021
 20
-675.78839250889041
 30
0.0
 11
-2657.8541135138612
 21
-675.78839250889041
 31
0.0
  0
LINE
  5
A080
  8
0
 10
-2657.8541135138612
 20
-669.98839250889046
 30
0.0
 11
-2647.2771841063659
 21
-669.98839250889057
 31
0.0
  0
ARC
  5
A081
  8
0
 10
-2657.8541135138612
 20
-674.28839250889041
 30
0.0
 40
1.5
 50
180.0
 51
270.0
1001
GENIUS_GENODEF_13
1002
{
1000
HIER
1070
     0
1002
}
1002
{
1000
MANEDIT
1070
     0
1002
}
1002
{
1000
NOSEL
1070
     0
1002
}
1002
{
1000
BEHIND
1070
     0
1002
}
1002
{
1000
OTHER
1070
     0
1002
}
1002
{
1000
REACTOR
1002
}
1001
GENIUS_GENOBJ-N-FIL_13
1002
{
1000
OWNER
1000
GEN
1002
}
  0
LINE
  5
A085
  8
0
 10
-2659.3541135138612
 20
-674.28839250889041
 30
0.0
 11
-2659.3541135138612
 21
-669.98839250889046
 31
0.0
  0
LINE
  5
A088
  8
0
 10
-2647.2771841063659
 20
-677.98839250889114
 30
0.0
 11
-2645.777184106365
 21
-677.98839250889114
 31
0.0
  0
LINE
  5
A089
  8
0
 10
-2632.655863762805
 20
-671.58839250889116
 30
0.0
 11
-2629.7771841063632
 21
-671.58839250889116
 31
0.0
  0
LINE
  5
A093
  8
0
 10
-2635.7558637628049
 20
-668.48839250889091
 30
0.0
 11
-2632.655863762805
 21
-671.58839250889116
 31
0.0
  0
ARC
  5
A09B
  8
0
 10
-2632.655863762805
 20
-671.58839250889116
 30
0.0
 40
1.5
 50
225.00000000000671
 51
270.0
1001
GENIUS_GENOBJ-N-FIL_13
1002
{
1000
OWNER
1000
GEN
1002
}
1001
GENIUS_GENODEF_13
1002
{
1000
HIER
1070
     0
1002
}
1002
{
1000
MANEDIT
1070
     0
1002
}
1002
{
1000
NOSEL
1070
     0
1002
}
1002
{
1000
BEHIND
1070
     0
1002
}
1002
{
1000
OTHER
1070
     0
1002
}
1002
{
1000
REACTOR
1002
}
  0
ARC
  5
A09E
  8
0
 10
-2635.0771841063638
 20
-671.70768780095113
 30
0.0
 40
0.3
 50
299.02663132421537
 51
0.0
  0
LINE
  5
A09F
  8
0
 10
-2634.7771841063641
 20
-671.70768780095113
 30
0.0
 11
-2634.7771841063641
 21
-669.46707216533184
 31
0.0
  0
LINE
  5
A0A0
  8
0
 10
-2634.7771841063641
 20
-671.58839250889173
 30
0.0
 11
-2633.7165239345841
 21
-672.64905268067116
 31
0.0
  0
LINE
  5
A0AE
  8
0
 10
-2657.2797108496452
 20
-671.44768136001494
 30
0.0
 11
-2657.2789231251618
 21
-674.46323751028081
 31
0.0
  0
LINE
  5
A0AF
  8
0
 10
-2657.2797108496452
 20
-671.44768136001494
 30
0.0
 11
-2657.8541135138612
 21
-669.98839250889046
 31
0.0
  0
LINE
  5
A0B0
  8
0
 10
-2629.7771841063632
 20
-675.4883925088908
 30
0.0
 11
-2629.7771841063632
 21
-666.28839250889075
 31
0.0
  0
LINE
  5
A0F8
  8
0
 10
-2629.7771841063632
 20
-675.4883925088908
 30
0.0
 11
-2630.977184106363
 21
-675.4883925088908
 31
0.0
  0
ARC
  5
A0F9
  8
0
 10
-2630.977184106363
 20
-675.78839250889064
 30
0.0
 40
0.2999999999998408
 50
90.0
 51
180.0
  0
LINE
  5
A0FA
  8
0
 10
-2631.2771841063632
 20
-675.78839250889064
 30
0.0
 11
-2631.2771841063632
 21
-676.22839250889092
 31
0.0
  0
ARC
  5
A0FB
  8
0
 10
-2631.0091223710028
 20
-676.22216742962848
 30
0.0
 40
0.2681340067509859
 50
181.33031547053579
 51
276.84091808938211
  0
LINE
  5
A0FC
  8
0
 10
-2630.977184106363
 20
-676.48839250889068
 30
0.0
 11
-2600.165184106364
 21
-676.48839250889068
 31
0.0
  0
ARC
  5
A113
  8
0
 10
-2629.2772030015249
 20
-715.08839250888775
 30
0.0
 40
2.0
 50
180.0
 51
270.0
  0
LINE
  5
A114
  8
0
 10
-2629.2772030015249
 20
-717.08839250888798
 30
0.0
 11
-2595.5772030015241
 21
-717.08839250888798
 31
0.0
  0
LINE
  5
A117
  8
0
 10
-2628.8258461239911
 20
-680.98839250888818
 30
0.0
 11
-2631.269456961224
 21
-677.42479337125371
 31
0.0
  0
LINE
  5
A118
  8
0
 10
-2631.269456961224
 20
-677.42479337125371
 30
0.0
 11
-2631.269456961224
 21
-675.17479337125371
 31
0.0
  0
ARC
  5
A119
  8
0
 10
-2631.0194569612249
 20
-675.17479337125383
 30
0.0
 40
0.25
 50
0.0000000000260551
 51
179.99999999997391
  0
LINE
  5
A11A
  8
0
 10
-2630.7694569612249
 20
-675.17479337125371
 30
0.0
 11
-2630.7694569612249
 21
-677.26983107234048
 31
0.0
  0
LINE
  5
A11B
  8
0
 10
-2630.7694569612249
 20
-677.26983107234048
 30
0.0
 11
-2628.6060542419709
 21
-680.42479337125428
 31
0.0
  0
LINE
  5
A11C
  8
0
 10
-2628.6060542419709
 20
-680.42479337125428
 30
0.0
 11
-2626.9694569612261
 21
-680.42479337125428
 31
0.0
  0
LINE
  5
A11D
  8
0
 10
-2626.9694569612261
 20
-680.42479337125428
 30
0.0
 11
-2626.9694569612261
 21
-676.5747933712538
 31
0.0
  0
ARC
  5
A11E
  8
0
 10
-2626.8194569612251
 20
-676.5747933712538
 30
0.0
 40
0.1500000000000909
 50
0.0
 51
180.0
  0
LINE
  5
A11F
  8
0
 10
-2626.6694569612259
 20
-676.5747933712538
 30
0.0
 11
-2626.6694569612259
 21
-680.98839250888818
 31
0.0
  0
LINE
  5
A125
  8
0
 10
-2630.2771841063632
 20
-680.98839250888818
 30
0.0
 11
-2628.8258461239911
 21
-680.98839250888818
 31
0.0
  0
LINE
  5
A12F
  8
0
 10
-2615.3771841063631
 20
-667.98839250889023
 30
0.0
 11
-2615.3771841063631
 21
-663.48839250889137
 31
0.0
  0
ARC
  5
A130
  8
0
 10
-2614.8771841063631
 20
-663.48839250889137
 30
0.0
 40
0.5
 50
90.0
 51
180.0
  0
LINE
  5
A131
  8
0
 10
-2614.8771841063631
 20
-662.98839250889125
 30
0.0
 11
-2614.7771841063632
 21
-662.98839250889125
 31
0.0
  0
LINE
  5
A132
  8
0
 10
-2614.7771841063632
 20
-662.98839250889125
 30
0.0
 11
-2614.7771841063632
 21
-647.08839250889116
 31
0.0
  0
LINE
  5
A133
  8
0
 10
-2614.7771841063632
 20
-647.08839250889116
 30
0.0
 11
-2614.8771841063631
 21
-647.08839250889116
 31
0.0
  0
ARC
  5
A134
  8
0
 10
-2614.8771841063631
 20
-646.58839250889116
 30
0.0
 40
0.5
 50
180.0
 51
270.0
  0
LINE
  5
A135
  8
0
 10
-2615.3771841063631
 20
-646.58839250889116
 30
0.0
 11
-2615.3771841063631
 21
-642.58839250889025
 31
0.0
  0
LINE
  5
A136
  8
0
 10
-2615.3771841063631
 20
-642.58839250889025
 30
0.0
 11
-2629.7771841063632
 21
-642.58839250889025
 31
0.0
  0
LINE
  5
A13E
  8
0
 10
-2629.7771841063632
 20
-641.18839250889141
 30
0.0
 11
-2630.8771841063631
 21
-641.18839250889141
 31
0.0
  0
ARC
  5
A13F
  8
0
 10
-2630.8771841063631
 20
-640.78839250889132
 30
0.0
 40
0.400000000000091
 50
89.999999999967429
 51
270.00000000003263
  0
LINE
  5
A140
  8
0
 10
-2630.8771841063631
 20
-640.38839250889134
 30
0.0
 11
-2595.2771841063641
 21
-640.38839250889134
 31
0.0
  0
LINE
  5
A149
  8
0
 10
-2595.2771841063641
 20
-640.38839250889134
 30
0.0
 11
-2595.2771841063641
 21
-674.4883925088908
 31
0.0
  0
ARC
  5
A14A
  8
0
 10
-2597.2771841063641
 20
-674.4883925088908
 30
0.0
 40
2.0
 50
270.0
 51
0.0
  0
LINE
  5
A14B
  8
0
 10
-2597.2771841063641
 20
-676.48839250889068
 30
0.0
 11
-2597.3891841063628
 21
-676.48839250889068
 31
0.0
  0
LINE
  5
A1B7
  8
0
 10
-2629.7771841063618
 20
-667.98839250889046
 30
0.0
 11
-2615.3771841063631
 21
-667.98839250889023
 31
0.0
  0
LINE
  5
A1B8
  8
0
 10
-2629.7771841063618
 20
-644.28839250889109
 30
0.0
 11
-2629.7771841063632
 21
-641.18839250889141
 31
0.0
  0
LINE
  5
A1B9
  8
0
 10
-2852.5598785047719
 20
-695.00000000000023
 30
0.0
 11
-2843.459878504772
 21
-695.00000000000023
 31
0.0
  0
LINE
  5
A1BA
  8
0
 10
-2893.1598785047859
 20
-695.00000000000023
 30
0.0
 11
-2884.059878504785
 21
-695.00000000000023
 31
0.0
  0
DIMENSION
  5
A1BB
  8
0
 62
     4
  2
*D10
 10
-2595.2774458165718
 20
-743.28839250888893
 30
0.0
 11
-2613.2773244090481
 21
-740.78839250888893
 31
0.0
 70
     0
 13
-2631.277203001523
 23
-715.08838938572114
 33
0.0
 14
-2595.2774458165718
 24
-716.83516248632668
 34
0.0
1001
ACAD
1000
DSTYLE
1002
{
1070
    79
1070
     1
1070
    90
1070
     1
1070
   172
1070
     1
1070
   271
1070
     3
1070
   272
1070
     3
1070
     6
1000
DOT
1070
     7
1000
DOT
1002
}
  0
DIMENSION
  5
A1C8
  8
0
 62
     4
  2
*D11
 10
-2476.2771841063641
 20
-743.28839250888893
 30
0.0
 11
-2490.777184106365
 21
-740.78839250888893
 31
0.0
 70
     0
 13
-2505.277184106365
 23
-716.78839250888825
 33
0.0
 14
-2476.2771841063641
 24
-722.28839250888802
 34
0.0
1001
ACAD
1000
DSTYLE
1002
{
1070
    79
1070
     1
1070
    90
1070
     1
1070
   172
1070
     1
1070
   271
1070
     3
1070
   272
1070
     3
1070
     6
1000
DOT
1070
     7
1000
DOT
1002
}
  0
DIMENSION
  5
A201
  8
0
 62
     4
  2
*D12
 10
-2757.2771841063632
 20
-616.2883925088903
 30
0.0
 11
-2760.2771841063641
 21
-613.78839250889018
 31
0.0
 70
     0
 13
-2763.2771841063641
 23
-638.59979995034598
 33
0.0
 14
-2757.2771841063632
 24
-640.88839250889237
 34
0.0
1001
ACAD
1000
DSTYLE
1002
{
1070
    79
1070
     1
1070
    90
1070
     1
1070
   172
1070
     1
1070
   271
1070
     3
1070
   272
1070
     3
1070
     6
1000
DOT
1070
     7
1000
DOT
1002
}
  0
DIMENSION
  5
A21B
  8
0
 62
     4
  2
*D13
 10
-2721.2771841063632
 20
-616.2883925088903
 30
0.0
 11
-2739.2769602546259
 21
-613.78839250889018
 31
0.0
 70
     0
 13
-2757.2767364028891
 23
-640.86723824133105
 33
0.0
 14
-2721.2771841063632
 24
-640.78839250889234
 34
0.0
1001
ACAD
1000
DSTYLE
1002
{
1070
    79
1070
     1
1070
    90
1070
     1
1070
   172
1070
     1
1070
   271
1070
     3
1070
   272
1070
     3
1070
     6
1000
DOT
1070
     7
1000
DOT
1002
}
  0
DIMENSION
  5
A228
  8
0
 62
     4
  2
*D14
 10
-2595.2771841063641
 20
-616.2883925088903
 30
0.0
 11
-2613.2771841063641
 21
-613.78839250889018
 31
0.0
 70
     0
 13
-2631.2771841063632
 23
-640.78839250889132
 33
0.0
 14
-2595.2771841063641
 24
-640.38839250889134
 34
0.0
1001
ACAD
1000
DSTYLE
1002
{
1070
    79
1070
     1
1070
    90
1070
     1
1070
   172
1070
     1
1070
   271
1070
     3
1070
   272
1070
     3
1070
     6
1000
DOT
1070
     7
1000
DOT
1002
}
  0
LINE
  5
A240
  8
0
 10
-2477.2771841063641
 20
-648.53839944812557
 30
0.0
 11
-2476.2771841063641
 21
-648.53839944812557
 31
0.0
  0
LINE
  5
A241
  8
0
 10
-2476.2771841063641
 20
-665.83838556965088
 30
0.0
 11
-2477.2771841063641
 21
-665.83838556965088
 31
0.0
  0
LINE
  5
A244
  8
0
 10
-2481.7771841063641
 20
-665.83838556965088
 30
0.0
 11
-2481.7771841063641
 21
-648.53839944812557
 31
0.0
  0
ARC
  5
A246
  8
0
 10
-2480.7771841063641
 20
-665.83838556965088
 30
0.0
 40
1.0
 50
180.0
 51
270.0
  0
LINE
  5
A247
  8
0
 10
-2477.7771841063641
 20
-666.838385569651
 30
0.0
 11
-2480.7771841063641
 21
-666.838385569651
 31
0.0
  0
ARC
  5
A248
  8
0
 10
-2477.7771841063641
 20
-666.33838556965088
 30
0.0
 40
0.5
 50
270.0
 51
0.0
  0
ARC
  5
A249
  8
0
 10
-2480.7771841063641
 20
-648.53839944812557
 30
0.0
 40
1.0
 50
90.0
 51
180.0
  0
LINE
  5
A24A
  8
0
 10
-2477.2771841063641
 20
-648.53839944812557
 30
0.0
 11
-2477.2771841063641
 21
-648.03839944812557
 31
0.0
  0
ARC
  5
A24B
  8
0
 10
-2477.7771841063641
 20
-648.03839944812557
 30
0.0
 40
0.5
 50
0.0
 51
90.0
  0
LINE
  5
A24C
  8
0
 10
-2477.7771841063641
 20
-647.53839944812546
 30
0.0
 11
-2480.7771841063641
 21
-647.53839944812546
 31
0.0
  0
LINE
  5
A269
  8
0
 10
-2891.4598785047851
 20
-539.60000000000059
 30
0.0
 11
-2891.4598785047851
 21
-555.00000000000034
 31
0.0
  0
LINE
  5
A26B
  8
0
 10
-2850.859878504772
 20
-539.60000000000048
 30
0.0
 11
-2850.859878504772
 21
-555.00000000000034
 31
0.0
  0
LINE
  5
A26C
  8
0
 10
-2876.2598785047721
 20
-554.99999999999648
 30
0.0
 11
-2876.259878504773
 21
-539.60000000000025
 31
0.0
  0
LINE
  5
A26E
  8
0
 10
-2891.4598785047851
 20
-710.4000000000085
 30
0.0
 11
-2891.4598785047851
 21
-695.00000000000023
 31
0.0
  0
DIMENSION
  5
A26F
  8
0
 62
     4
  2
*D15
 10
-2941.5369276311949
 20
-749.00000000000034
 30
0.0
 11
-2944.0369276311949
 21
-752.50000000000057
 31
0.0
 70
     0
 13
-2922.1598923832498
 23
-756.0
 33
0.0
 14
-2919.059878504786
 24
-749.00000000000034
 34
0.0
 50
90.0
1001
ACAD
1000
DSTYLE
1002
{
1070
    79
1070
     1
1070
    90
1070
     1
1070
   172
1070
     1
1070
   271
1070
     3
1070
   272
1070
     3
1070
     6
1000
DOT
1070
     7
1000
DOT
1002
}
  0
DIMENSION
  5
A27C
  8
0
 62
     4
  2
*D16
 10
-2941.5369276311949
 20
-695.00000000000023
 30
0.0
 11
-2944.0369276311949
 21
-722.00000000000057
 31
0.0
 70
     0
 13
-2919.059878504786
 23
-749.00000000000034
 33
0.0
 14
-2918.1598785047859
 24
-695.00000000000023
 34
0.0
 50
90.0
1001
ACAD
1000
DSTYLE
1002
{
1070
    79
1070
     1
1070
    90
1070
     1
1070
   172
1070
     1
1070
   271
1070
     3
1070
   272
1070
     3
1070
     6
1000
DOT
1070
     7
1000
DOT
1002
}
  0
DIMENSION
  5
A289
  8
0
 62
     4
  2
*D17
 10
-2941.5369276311949
 20
-555.00000000000034
 30
0.0
 11
-2944.0369276311949
 21
-625.00000000000068
 31
0.0
 70
     0
  1
H-110
 13
-2918.1598785047859
 23
-695.00000000000023
 33
0.0
 14
-2918.15987850479
 24
-555.00000000000034
 34
0.0
 50
90.0
1001
ACAD
1000
DSTYLE
1002
{
1070
    79
1070
     1
1070
    90
1070
     1
1070
   172
1070
     1
1070
   271
1070
     3
1070
   272
1070
     3
1070
     6
1000
DOT
1070
     7
1000
DOT
1002
}
  0
DIMENSION
  5
A296
  8
0
 62
     4
  2
*D18
 10
-2941.5369276311949
 20
-533.29999999999961
 30
0.0
 11
-2944.0369276311949
 21
-544.15000000000043
 31
0.0
 70
     0
 13
-2918.15987850479
 23
-555.00000000000034
 33
0.0
 14
-2922.1598923832489
 24
-533.29999999999961
 34
0.0
 50
90.0
1001
ACAD
1000
DSTYLE
1002
{
1070
    79
1070
     1
1070
    90
1070
     1
1070
   172
1070
     1
1070
   271
1070
     3
1070
   272
1070
     3
1070
     6
1000
DOT
1070
     7
1000
DOT
1002
}
  0
DIMENSION
  5
A2A3
  8
0
 62
     4
  2
*D19
 10
-2941.5369276311949
 20
-506.00000000000091
 30
0.0
 11
-2944.0369276311949
 21
-519.65000000000066
 31
0.0
 70
     0
 13
-2922.1598923832489
 23
-533.29999999999961
 33
0.0
 14
-2920.873275485043
 24
-506.00000000000091
 34
0.0
 50
90.0
1001
ACAD
1000
DSTYLE
1002
{
1070
    79
1070
     1
1070
    90
1070
     1
1070
   172
1070
     1
1070
   271
1070
     3
1070
   272
1070
     3
1070
     6
1000
DOT
1070
     7
1000
DOT
1002
}
  0
LINE
  5
A356
  8
0
 10
-2503.777184106365
 20
-708.58839250888684
 30
0.0
 11
-2489.377184106364
 21
-708.58839250888684
 31
0.0
  0
LINE
  5
A357
  8
0
 10
-2489.377184106364
 20
-708.58839250888684
 30
0.0
 11
-2489.377184106364
 21
-704.08839250888775
 31
0.0
  0
ARC
  5
A358
  8
0
 10
-2488.877184106364
 20
-704.08839250888775
 30
0.0
 40
0.5
 50
90.0
 51
180.0
  0
LINE
  5
A359
  8
0
 10
-2488.877184106364
 20
-703.58839250888775
 30
0.0
 11
-2488.777184106365
 21
-703.58839250888775
 31
0.0
  0
LINE
  5
A35A
  8
0
 10
-2488.777184106365
 20
-703.58839250888775
 30
0.0
 11
-2488.777184106365
 21
-687.68839250888777
 31
0.0
  0
LINE
  5
A35B
  8
0
 10
-2488.777184106365
 20
-687.68839250888777
 30
0.0
 11
-2488.877184106364
 21
-687.68839250888777
 31
0.0
  0
ARC
  5
A35C
  8
0
 10
-2488.877184106364
 20
-687.18839250888777
 30
0.0
 40
0.5
 50
180.0
 51
270.0
  0
LINE
  5
A35D
  8
0
 10
-2489.377184106364
 20
-687.18839250888777
 30
0.0
 11
-2489.3771841063622
 21
-683.18839250888675
 31
0.0
  0
LINE
  5
A35E
  8
0
 10
-2489.3771841063622
 20
-683.18839250888675
 30
0.0
 11
-2503.7771841063641
 21
-683.18839250888675
 31
0.0
  0
LINE
  5
A363
  8
0
 10
-2503.7771841063641
 20
-684.88839250888782
 30
0.0
 11
-2503.7771841063641
 21
-681.78839250888677
 31
0.0
  0
LINE
  5
A364
  8
0
 10
-2503.7771841063641
 20
-681.78839250888677
 30
0.0
 11
-2504.877184106364
 21
-681.78839250888677
 31
0.0
  0
ARC
  5
A365
  8
0
 10
-2504.877184106364
 20
-681.38839250888691
 30
0.0
 40
0.3999999999999772
 50
89.999999999967429
 51
270.00000000003263
  0
LINE
  5
A366
  8
0
 10
-2504.877184106364
 20
-680.98839250888682
 30
0.0
 11
-2488.777184106365
 21
-680.98839250888682
 31
0.0
  0
ARC
  5
A367
  8
0
 10
-2488.777184106365
 20
-681.48839250888705
 30
0.0
 40
0.5000000000002274
 50
359.99999999996089
 51
89.999999999973952
  0
LINE
  5
A368
  8
0
 10
-2488.2771841063641
 20
-681.48839250888727
 30
0.0
 11
-2488.2771841063641
 21
-685.08839250888764
 31
0.0
  0
LINE
  5
A369
  8
0
 10
-2488.2771841063641
 20
-685.08839250888764
 30
0.0
 11
-2476.2771841063682
 21
-685.08839250888798
 31
0.0
  0
LINE
  5
A36A
  8
0
 10
-2476.2771841063682
 20
-685.08839250888798
 30
0.0
 11
-2476.2771841063668
 21
-681.48839250888784
 31
0.0
  0
ARC
  5
A36B
  8
0
 10
-2475.7771841063668
 20
-681.48839250888773
 30
0.0
 40
0.5
 50
90.000000000026048
 51
180.00000000001299
  0
LINE
  5
A36C
  8
0
 10
-2475.7771841063682
 20
-680.98839250888784
 30
0.0
 11
-2469.7771841063641
 21
-680.98839250888682
 31
0.0
  0
ARC
  5
A36D
  8
0
 10
-2469.7771841063641
 20
-681.48839250888682
 30
0.0
 40
0.5
 50
0.0
 51
90.0
  0
LINE
  5
A36E
  8
0
 10
-2469.2771841063641
 20
-681.48839250888682
 30
0.0
 11
-2469.2771841063641
 21
-683.9883925088883
 31
0.0
  0
ARC
  5
A36F
  8
0
 10
-2469.7771841063641
 20
-683.9883925088883
 30
0.0
 40
0.5
 50
180.0
 51
0.0
  0
LINE
  5
A370
  8
0
 10
-2470.2771841063641
 20
-683.9883925088883
 30
0.0
 11
-2470.2771841063641
 21
-683.58839250888684
 31
0.0
  0
LINE
  5
A371
  8
0
 10
-2470.2771841063641
 20
-683.58839250888684
 30
0.0
 11
-2474.6771841063651
 21
-683.58839250888684
 31
0.0
  0
LINE
  5
A372
  8
0
 10
-2474.6771841063651
 20
-683.58839250888684
 30
0.0
 11
-2474.6771841063642
 21
-703.08839250888684
 31
0.0
  0
LINE
  5
A376
  8
0
 10
-2474.6771841063642
 20
-703.08839250888684
 30
0.0
 11
-2470.2771841063641
 21
-703.08839250888684
 31
0.0
  0
LINE
  5
A377
  8
0
 10
-2470.2771841063641
 20
-703.08839250888684
 30
0.0
 11
-2470.2771841063641
 21
-702.48839250888784
 31
0.0
  0
ARC
  5
A378
  8
0
 10
-2469.7771841063641
 20
-702.48839250888784
 30
0.0
 40
0.4999999999997727
 50
0.0
 51
180.0
  0
LINE
  5
A379
  8
0
 10
-2469.2771841063641
 20
-702.48839250888784
 30
0.0
 11
-2469.2771841063641
 21
-716.58839250888855
 31
0.0
  0
LINE
  5
A3AE
  8
0
 10
-2503.777184106365
 20
-706.88839250888759
 30
0.0
 11
-2503.777184106365
 21
-716.08839250888843
 31
0.0
  0
LINE
  5
A3AF
  8
0
 10
-2503.777184106365
 20
-716.08839250888843
 30
0.0
 11
-2504.9771841063648
 21
-716.08839250888843
 31
0.0
  0
ARC
  5
A3B0
  8
0
 10
-2504.9771841063648
 20
-716.38839250888827
 30
0.0
 40
0.2999999999999545
 50
90.000000000045588
 51
180.00000000002171
  0
LINE
  5
A3B1
  8
0
 10
-2505.277184106365
 20
-716.38839250888839
 30
0.0
 11
-2505.277184106365
 21
-716.78839250888825
 31
0.0
  0
ARC
  5
A3B2
  8
0
 10
-2504.9771841063648
 20
-716.78839250888848
 30
0.0
 40
0.3000000000001819
 50
179.99999999997829
 51
269.99999999995441
  0
ARC
  5
A3C0
  8
0
 10
-2486.777184106365
 20
-716.58839250888843
 30
0.0
 40
0.5
 50
180.0
 51
270.0
  0
LINE
  5
A3CE
  8
0
 10
-2504.9771841063648
 20
-717.08839250888866
 30
0.0
 11
-2499.777184106365
 21
-717.08839250888866
 31
0.0
  0
POLYLINE
  5
A3E1
  8
0
 66
     1
 10
0.0
 20
0.0
 30
0.0
  0
VERTEX
  5
D477
  8
0
 10
-2476.2771841063641
 20
-677.13839250888839
 30
0.0
  0
VERTEX
  5
D478
  8
0
 10
-2466.2771841063641
 20
-677.13839250888839
 30
0.0
  0
SEQEND
  5
D479
  8
0
  0
POLYLINE
  5
A3E3
  8
0
 66
     1
 10
0.0
 20
0.0
 30
0.0
  0
VERTEX
  5
D47A
  8
0
 10
-2467.2771841063641
 20
-716.78839250888859
 30
0.0
 42
-0.3966276855744562
  0
VERTEX
  5
D47B
  8
0
 10
-2470.6287426933841
 20
-710.80940775352519
 30
0.0
 42
-0.9713730731218312
  0
VERTEX
  5
D47C
  8
0
 10
-2470.0455732865989
 20
-710.9505889201223
 30
0.0
 42
0.3844485603994672
  0
VERTEX
  5
D47D
  8
0
 10
-2467.2771841063641
 20
-716.15512007779398
 30
0.0
  0
SEQEND
  5
D47E
  8
0
  0
LINE
  5
A428
  8
0
 10
-2464.2771841063641
 20
-637.28839250888939
 30
0.0
 11
-2468.9771841063639
 21
-637.28839250888939
 31
0.0
  0
LINE
  5
A429
  8
0
 10
-2468.9771841063639
 20
-637.28839250888939
 30
0.0
 11
-2468.9771841063639
 21
-639.58839250889037
 31
0.0
  0
LINE
  5
A42A
  8
0
 10
-2468.9771841063639
 20
-639.58839250889037
 30
0.0
 11
-2465.7771841063641
 21
-641.59999824950523
 31
0.0
  0
LINE
  5
A42E
  8
0
 10
-2465.7771841063641
 20
-641.59999824950523
 30
0.0
 11
-2465.7771841063641
 21
-676.63839250888839
 31
0.0
  0
LINE
  5
A43F
  8
0
 10
-2475.2771841063641
 20
-720.68839250888811
 30
0.0
 11
-2475.2771841063641
 21
-719.38839250888839
 31
0.0
  0
LINE
  5
A440
  8
0
 10
-2475.2771841063641
 20
-719.38839250888839
 30
0.0
 11
-2476.2771841063641
 21
-719.38839250888839
 31
0.0
  0
LINE
  5
A441
  8
0
 10
-2476.2771841063641
 20
-719.38839250888839
 30
0.0
 11
-2476.2771841063641
 21
-722.28839250888802
 31
0.0
  0
LINE
  5
A442
  8
0
 10
-2476.2771841063641
 20
-722.28839250888802
 30
0.0
 11
-2464.2771841063641
 21
-722.28839250888802
 31
0.0
  0
LINE
  5
A45A
  8
0
 10
-2467.2771841063641
 20
-717.21972695920886
 30
0.0
 11
-2467.2771841063641
 21
-700.6383925088885
 31
0.0
  0
ARC
  5
A45B
  8
0
 10
-2467.7771841063641
 20
-700.6383925088885
 30
0.0
 40
0.5
 50
0.0
 51
90.0
  0
LINE
  5
A45C
  8
0
 10
-2467.7771841063641
 20
-700.1383925088885
 30
0.0
 11
-2470.7771841063641
 21
-700.1383925088885
 31
0.0
  0
ARC
  5
A45D
  8
0
 10
-2470.7771841063641
 20
-699.6383925088885
 30
0.0
 40
0.5
 50
180.0
 51
270.0
  0
ARC
  5
A45F
  8
0
 10
-2470.7771841063641
 20
-699.50441791267315
 30
0.0
 40
0.5
 50
120.00000000000659
 51
179.99999999998701
  0
LINE
  5
A460
  8
0
 10
-2471.0271841063641
 20
-699.07140521078099
 30
0.0
 11
-2470.2771841063641
 21
-698.6383925088885
 31
0.0
  0
LINE
  5
A461
  8
0
 10
-2470.2771841063641
 20
-698.6383925088885
 30
0.0
 11
-2467.7771841063641
 21
-698.6383925088885
 31
0.0
  0
ARC
  5
A462
  8
0
 10
-2467.7771841063641
 20
-698.13839250888839
 30
0.0
 40
0.5
 50
270.0
 51
0.0
  0
LINE
  5
A463
  8
0
 10
-2467.2771841063641
 20
-698.13839250888839
 30
0.0
 11
-2467.2771841063641
 21
-677.13839250888839
 31
0.0
  0
LINE
  5
A46F
  8
0
 10
-2477.2771841063641
 20
-666.33838556965088
 30
0.0
 11
-2477.2771841063641
 21
-665.83838556965088
 31
0.0
  0
LINE
  5
A470
  8
0
 10
-2471.2771841063641
 20
-699.6383925088885
 30
0.0
 11
-2471.2771841063641
 21
-699.50441791267303
 31
0.0
  0
LINE
  5
A48F
  8
0
 10
-2499.277184106365
 20
-716.58839250888843
 30
0.0
 11
-2499.277184106365
 21
-711.28839250888814
 31
0.0
  0
LINE
  5
A490
  8
0
 10
-2499.277184106365
 20
-711.28839250888814
 30
0.0
 11
-2487.277184106365
 21
-711.28839250888814
 31
0.0
  0
LINE
  5
A491
  8
0
 10
-2487.277184106365
 20
-711.28839250888814
 30
0.0
 11
-2487.277184106365
 21
-716.58839250888843
 31
0.0
  0
ARC
  5
A492
  8
0
 10
-2499.777184106365
 20
-716.58839250888843
 30
0.0
 40
0.5
 50
270.0
 51
0.0000000000024427
  0
LINE
  5
A493
  8
0
 10
-2486.777184106365
 20
-717.08839250888866
 30
0.0
 11
-2469.7771841063641
 21
-717.08839250888866
 31
0.0
  0
ARC
  5
A4AE
  8
0
 10
-2469.7771841063641
 20
-716.58839250888855
 30
0.0
 40
0.5
 50
270.0
 51
0.0000000000011704
  0
LINE
  5
A4AF
  8
0
 10
-2463.2771841063641
 20
-638.5997999503445
 30
0.0
 11
-2463.277184106365
 21
-720.97698506746428
 31
0.0
  0
ARC
  5
A4B0
  8
0
 10
-2464.8371841063649
 20
-719.79039330952855
 30
0.0
 40
1.9600000000001441
 50
322.74208399868007
 51
5.1279908830886027
  0
ARC
  5
A4B3
  8
0
 10
-2464.837184106364
 20
-719.79039330952901
 30
0.0
 40
2.5599999999999721
 50
282.63562509302108
 51
5.1279908830935677
  0
ARC
  5
A4E5
  8
0
 10
-2464.837184106364
 20
-639.78639170824931
 30
0.0
 40
1.9600000000001261
 50
354.87200911692838
 51
37.257916000605753
  0
ARC
  5
A4E7
  8
0
 10
-2464.8371841063649
 20
-639.78639170824931
 30
0.0
 40
2.560000000000588
 50
354.87200911691031
 51
77.364374906978838
  0
ARC
  5
A4E9
  8
0
 10
-2462.586229713992
 20
-639.98839250888955
 30
0.0
 40
0.2999999999998408
 50
174.87200911682521
 51
354.87201013348528
  0
LINE
  5
A549
  8
0
 10
-2467.2771841063641
 20
-717.21972695920886
 30
0.0
 11
-2468.9771841063639
 21
-718.28839250891281
 31
0.0
  0
LINE
  5
A54A
  8
0
 10
-2468.9771841063639
 20
-718.28839250891281
 30
0.0
 11
-2468.9771841063639
 21
-720.68839250888811
 31
0.0
  0
DIMENSION
  5
A627
  8
0
 62
     4
  2
*D20
 10
-2631.273671633654
 20
-743.28839250888893
 30
0.0
 11
-2690.775427870009
 21
-740.0026782231746
 31
0.0
 70
     0
  1
W/2-31
 13
-2750.2771841063641
 23
-722.28839250888814
 33
0.0
 14
-2631.273671633654
 24
-715.20719066092124
 34
0.0
1001
ACAD
1000
DSTYLE
1002
{
1070
    79
1070
     1
1070
    90
1070
     1
1070
   172
1070
     1
1070
   271
1070
     3
1070
   272
1070
     3
1070
     6
1000
DOT
1070
     7
1000
DOT
1002
}
  0
DIMENSION
  5
A648
  8
0
 62
     4
  2
*D21
 10
-2505.277184106365
 20
-743.28839250888893
 30
0.0
 11
-2550.2771935539449
 21
-740.0026782231746
 31
0.0
 70
     0
  1
W/2-60
 13
-2595.277203001524
 23
-716.82839250888799
 33
0.0
 14
-2505.277184106365
 24
-716.78839250888825
 34
0.0
1001
ACAD
1000
DSTYLE
1002
{
1070
    79
1070
     1
1070
    90
1070
     1
1070
   172
1070
     1
1070
   271
1070
     3
1070
   272
1070
     3
1070
     6
1000
DOT
1070
     7
1000
DOT
1002
}
  0
DIMENSION
  5
A67B
  8
0
 62
     4
  2
*D22
 10
-2948.5369276311949
 20
-756.0
 30
0.0
 11
-2951.0369276311949
 21
-630.98789321929326
 31
0.0
 70
     0
  1
H
 13
-2920.8495360833431
 23
-505.97578643858537
 33
0.0
 14
-2922.1598923832498
 24
-756.0
 34
0.0
 50
90.0
1001
ACAD
1000
DSTYLE
1002
{
1070
    79
1070
     1
1070
    90
1070
     1
1070
   172
1070
     1
1070
   271
1070
     3
1070
   272
1070
     3
1070
     6
1000
DOT
1070
     7
1000
DOT
1002
}
  0
DIMENSION
  5
A6BE
  8
0
 62
     4
  2
*D23
 10
-2784.2769662225451
 20
-722.28839250888927
 30
0.0
 11
-2786.7769662225451
 21
-679.78839250889018
 31
0.0
 70
     0
 13
-2762.2771841063641
 23
-637.2883925088903
 33
0.0
 14
-2762.2771841063641
 24
-722.28839250888927
 34
0.0
 50
90.0
1001
ACAD
1000
DSTYLE
1002
{
1070
    79
1070
     1
1070
    90
1070
     1
1070
   172
1070
     1
1070
   271
1070
     3
1070
   272
1070
     3
1070
     6
1000
DOT
1070
     7
1000
DOT
1002
}
  0
LINE
  5
B845
  8
0
 10
-2597.9271841063628
 20
-682.3383925088923
 30
0.0
 11
-2597.9271841063628
 21
-676.82839250889151
 31
0.0
  0
LINE
  5
B846
  8
0
 10
-2597.9271841063628
 20
-676.82839250889151
 30
0.0
 11
-2598.1651841063649
 21
-676.48839250889068
 31
0.0
  0
LINE
  5
B848
  8
0
 10
-2597.3891841063628
 20
-676.48839250889068
 30
0.0
 11
-2597.6271841063631
 21
-676.82839250889151
 31
0.0
  0
LINE
  5
B849
  8
0
 10
-2597.6271841063631
 20
-676.82839250889151
 30
0.0
 11
-2597.6271841063631
 21
-682.33839250889207
 31
0.0
  0
ARC
  5
B84A
  8
0
 10
-2597.7771841063632
 20
-682.33839250889196
 30
0.0
 40
0.1500000000000909
 50
180.0000000000868
 51
359.99999999995657
  0
LINE
  5
B84B
  8
0
 10
-2599.9271841063628
 20
-681.63839250889305
 30
0.0
 11
-2599.9271841063628
 21
-676.82839250889151
 31
0.0
  0
LINE
  5
B84C
  8
0
 10
-2599.9271841063628
 20
-676.82839250889151
 30
0.0
 11
-2600.165184106364
 21
-676.48839250889068
 31
0.0
  0
LINE
  5
B84E
  8
0
 10
-2599.3891841063619
 20
-676.48839250889068
 30
0.0
 11
-2599.6271841063631
 21
-676.82839250889151
 31
0.0
  0
LINE
  5
B84F
  8
0
 10
-2599.6271841063631
 20
-676.82839250889151
 30
0.0
 11
-2599.6271841063631
 21
-681.63839250889293
 31
0.0
  0
ARC
  5
B850
  8
0
 10
-2599.7771841063632
 20
-681.63839250889293
 30
0.0
 40
0.1500000000000909
 50
180.0000000000434
 51
0.0
  0
LINE
  5
B852
  8
0
 10
-2598.1651841063649
 20
-676.48839250889057
 30
0.0
 11
-2599.3891841063619
 21
-676.48839250889068
 31
0.0
  0
LINE
  5
B853
  8
ACL
 10
-2460.9371644353992
 20
-694.88839250888805
 30
0.0
 11
-2765.1902618385989
 21
-694.88839250888805
 31
0.0
  0
LINE
  5
B854
  8
ACL
 10
-2765.1902618385989
 20
-654.28839250889132
 30
0.0
 11
-2460.9371644353992
 21
-654.28839250889132
 31
0.0
  0
POLYLINE
  5
B87F
  8
WAKU
 66
     1
 10
0.0
 20
0.0
 30
0.0
 70
     1
1001
ACDBBLOCKREPETAG
1070
     1
1071
        2
1005
B87F
  0
VERTEX
  5
D4A3
  8
WAKU
 10
-2979.3295031165931
 20
-841.05042304571884
 30
0.0
  0
VERTEX
  5
D4A4
  8
WAKU
 10
-2419.329503116594
 20
-841.05042304571884
 30
0.0
  0
VERTEX
  5
D4A5
  8
WAKU
 10
-2419.329503116594
 20
-441.05042304571879
 30
0.0
  0
VERTEX
  5
D4A6
  8
WAKU
 10
-2979.3295031165931
 20
-441.05042304571879
 30
0.0
  0
SEQEND
  5
D4A7
  8
WAKU
  0
LINE
  5
C741
  8
0
 10
-2916.8598785047848
 20
-540.60000000000059
 30
0.0
 11
-2891.4598785047851
 21
-540.60000000000036
 31
0.0
  0
LINE
  5
C742
  8
0
 10
-2876.259878504774
 20
-540.60000000000059
 30
0.0
 11
-2850.859878504772
 21
-540.60000000000036
 31
0.0
  0
LINE
  5
C772
  8
0
 10
-2891.259878504783
 20
-747.59999999999854
 30
0.0
 11
-2891.259878504784
 21
-716.00000000000034
 31
0.0
  0
LINE
  5
C773
  8
0
 10
-2916.8598785047848
 20
-555.00000000000023
 30
0.0
 11
-2916.8598785047848
 21
-540.60000000000059
 31
0.0
  0
TEXT
  5
C785
  8
0
 10
-2467.1193524320538
 20
-829.22269634500117
 30
0.0
 40
4.0
  1
PL01
 41
0.7
 72
     1
 11
-2462.252685765387
 21
-829.22269634500117
 31
0.0
  0
LINE
  5
C7E7
  8
0
 10
-2749.277184106365
 20
-706.48837863041365
 30
0.0
 11
-2749.277184106365
 21
-706.98837863041365
 31
0.0
  0
LINE
  5
C7E8
  8
0
 10
-2749.277184106365
 20
-689.18839250888811
 30
0.0
 11
-2749.277184106365
 21
-688.688392508888
 31
0.0
  0
LINE
  5
C7E9
  8
0
 10
-2749.277184106365
 20
-689.18839250888811
 30
0.0
 11
-2750.2771841063641
 21
-689.18839250888823
 31
0.0
  0
LINE
  5
C7EA
  8
0
 10
-2749.277184106365
 20
-706.48837863041365
 30
0.0
 11
-2750.2771841063641
 21
-706.48837863041365
 31
0.0
  0
ARC
  5
C7EB
  8
0
 10
-2727.7771841063641
 20
-688.68839250888811
 30
0.0
 40
0.5
 50
0.0
 51
89.999999999999687
  0
ARC
  5
C7EC
  8
0
 10
-2727.7771841063641
 20
-706.98837863041365
 30
0.0
 40
0.5
 50
270.0
 51
0.0
  0
ARC
  5
C7ED
  8
0
 10
-2748.777184106365
 20
-706.98837863041365
 30
0.0
 40
0.5
 50
180.0
 51
270.0
  0
ARC
  5
C7EE
  8
0
 10
-2748.777184106365
 20
-688.688392508888
 30
0.0
 40
0.5
 50
89.999999999999687
 51
180.0
  0
ARC
  5
C80B
  8
0
 10
-2466.2771841063641
 20
-676.63839250888839
 30
0.0
 40
0.5
 50
270.0
 51
0.0
  0
POLYLINE
  5
C828
  8
0
 66
     1
 10
0.0
 20
0.0
 30
0.0
  0
VERTEX
  5
D4A8
  8
0
 10
-2475.6771841063642
 20
-677.13839250888839
 30
0.0
  0
VERTEX
  5
D4A9
  8
0
 10
-2475.6771841063642
 20
-679.4933506872012
 30
0.0
 42
0.2945408340461451
  0
VERTEX
  5
D4AA
  8
0
 10
-2475.442124358477
 20
-679.85776077656874
 30
0.0
  0
VERTEX
  5
D4AB
  8
0
 10
-2469.453478917279
 20
-682.57294515582043
 30
0.0
 42
-1.0000000647246201
  0
VERTEX
  5
D4AC
  8
0
 10
-2469.7008892954459
 20
-683.11956028987379
 30
0.0
  0
VERTEX
  5
D4AD
  8
0
 10
-2475.6895347366471
 20
-680.40437591061982
 30
0.0
 42
-0.2945408340578595
  0
VERTEX
  5
D4AE
  8
0
 10
-2476.2771841063632
 20
-679.49335068715789
 30
0.0
  0
VERTEX
  5
D4AF
  8
0
 10
-2476.2771841063641
 20
-638.98839250888796
 30
0.0
  0
SEQEND
  5
D4B0
  8
0
  0
TEXT
  5
C83F
  8
0
 10
-2762.2369627944231
 20
-604.8816716031431
 30
0.0
 40
4.0
  1
横断面図
 41
0.7
 72
     1
 11
-2755.98362946109
 21
-604.8816716031431
 31
0.0
  0
TEXT
  5
C840
  8
0
 10
-2954.8776390532671
 20
-481.16715734013133
 30
0.0
 40
4.0
  1
縦断面図
 41
0.7
 72
     1
 11
-2948.6243057199331
 21
-481.16715734013133
 31
0.0
  0
ARC
  5
C859
  8
0
 10
-2462.586229713992
 20
-719.58839250891936
 30
0.0
 40
0.2999999999998408
 50
5.1279898665160788
 51
185.12799088317769
  0
ARC
  5
C98A
  8
ADM
  6
CENTER
 62
     4
 10
-2867.1598923832512
 20
-626.07781781456686
 30
0.0
 40
65.0
 50
326.86023419943439
 51
33.139765800565122
  0
LINE
  5
C98B
  8
ADM
  6
CENTER
 62
     4
 10
-2860.6777558078988
 20
-626.07781781456708
 30
0.0
 11
-2798.7099766119618
 21
-626.07781781456708
 31
0.0
  0
TEXT
  5
C98C
  8
ADM
 62
     4
 10
-2834.1296338705401
 20
-489.26682382573432
 30
0.0
 40
2.5
  1
（クレセントハンドル軌跡）
 41
0.8
 72
     1
 11
-2818.7963005372071
 21
-489.26682382573432
 31
0.0
  0
LINE
  5
C98D
  8
ADM
 10
-2802.1598923832512
 20
-617.51376652977683
 30
0.0
 11
-2802.1598923832512
 21
-483.80000000000058
 31
0.0
  0
LINE
  5
C98E
  8
ADM
 10
-2837.1598923832512
 20
-485.0000000000008
 30
0.0
 11
-2802.1598923832512
 21
-485.00000000000063
 31
0.0
  0
INSERT
  5
C98F
  8
ADM
  2
DOT
 10
-2802.1598923832521
 20
-485.00000000000091
 30
0.0
 41
0.8
 42
0.8
 43
0.8
  0
INSERT
  5
C990
  8
ACL
  2
*U25
 10
0.0
 20
0.0
 30
0.0
  0
ENDSEC
  0
EOF
