  0
SECTION
  2
HEADER
  9
$ACADVER
  1
AC1015
  9
$ACADMAINTVER
 70
    10
  9
$DWGCODEPAGE
  3
ANSI_932
  9
$INSBASE
 10
0.0
 20
0.0
 30
0.0
  9
$EXTMIN
 10
0.0
 20
0.0
 30
0.0
  9
$EXTMAX
 10
395.0
 20
275.0
 30
0.0
  9
$LIMMIN
 10
0.0
 20
0.0
  9
$LIMMAX
 10
395.0
 20
275.0
  9
$ORTHOMODE
 70
     0
  9
$REGENMODE
 70
     0
  9
$FILLMODE
 70
     1
  9
$QTEXTMODE
 70
     0
  9
$MIRRTEXT
 70
     1
  9
$LTSCALE
 40
5.0
  9
$ATTMODE
 70
     1
  9
$TEXTSIZE
 40
3.0
  9
$TRACEWID
 40
0.05
  9
$TEXTSTYLE
  7
STD
  9
$CLAYER
  8
ADM
  9
$CELTYPE
  6
BYLAYER
  9
$CECOLOR
 62
   256
  9
$CELTSCALE
 40
1.0
  9
$DISPSILH
 70
     0
  9
$DIMSCALE
 40
1.0
  9
$DIMASZ
 40
0.8
  9
$DIMEXO
 40
1.5
  9
$DIMDLI
 40
3.0
  9
$DIMRND
 40
0.0
  9
$DIMDLE
 40
0.0
  9
$DIMEXE
 40
1.199999999999999
  9
$DIMTP
 40
0.0
  9
$DIMTM
 40
0.0
  9
$DIMTXT
 40
3.0
  9
$DIMCEN
 40
0.0
  9
$DIMTSZ
 40
0.0
  9
$DIMTOL
 70
     0
  9
$DIMLIM
 70
     0
  9
$DIMTIH
 70
     0
  9
$DIMTOH
 70
     0
  9
$DIMSE1
 70
     0
  9
$DIMSE2
 70
     0
  9
$DIMTAD
 70
     3
  9
$DIMZIN
 70
     8
  9
$DIMBLK
  1

  9
$DIMASO
 70
     1
  9
$DIMSHO
 70
     1
  9
$DIMPOST
  1

  9
$DIMAPOST
  1

  9
$DIMALT
 70
     0
  9
$DIMALTD
 70
     1
  9
$DIMALTF
 40
0.03937
  9
$DIMLFAC
 40
1.0
  9
$DIMTOFL
 70
     0
  9
$DIMTVP
 40
0.0
  9
$DIMTIX
 70
     0
  9
$DIMSOXD
 70
     0
  9
$DIMSAH
 70
     1
  9
$DIMBLK1
  1
DOT
  9
$DIMBLK2
  1
DOT
  9
$DIMSTYLE
  2
1
  9
$DIMCLRD
 70
     0
  9
$DIMCLRE
 70
     0
  9
$DIMCLRT
 70
     0
  9
$DIMTFAC
 40
1.0
  9
$DIMGAP
 40
1.0
  9
$DIMJUST
 70
     0
  9
$DIMSD1
 70
     0
  9
$DIMSD2
 70
     0
  9
$DIMTOLJ
 70
     1
  9
$DIMTZIN
 70
     8
  9
$DIMALTZ
 70
     0
  9
$DIMALTTZ
 70
     0
  9
$DIMUPT
 70
     0
  9
$DIMDEC
 70
     2
  9
$DIMTDEC
 70
     2
  9
$DIMALTU
 70
     2
  9
$DIMALTTD
 70
     1
  9
$DIMTXSTY
  7
STANDARD
  9
$DIMAUNIT
 70
     0
  9
$DIMADEC
 70
     2
  9
$DIMALTRND
 40
0.0
  9
$DIMAZIN
 70
     2
  9
$DIMDSEP
 70
    46
  9
$DIMATFIT
 70
     3
  9
$DIMFRAC
 70
     0
  9
$DIMLDRBLK
  1
DOT
  9
$DIMLUNIT
 70
     2
  9
$DIMLWD
 70
    -2
  9
$DIMLWE
 70
    -2
  9
$DIMTMOVE
 70
     2
  9
$LUNITS
 70
     2
  9
$LUPREC
 70
     8
  9
$SKETCHINC
 40
0.1
  9
$FILLETRAD
 40
0.5
  9
$AUNITS
 70
     0
  9
$AUPREC
 70
     8
  9
$MENU
  1
ACAD
  9
$ELEVATION
 40
0.0
  9
$PELEVATION
 40
0.0
  9
$THICKNESS
 40
0.0
  9
$LIMCHECK
 70
     0
  9
$CHAMFERA
 40
0.0
  9
$CHAMFERB
 40
0.0
  9
$CHAMFERC
 40
0.0
  9
$CHAMFERD
 40
0.0
  9
$SKPOLY
 70
     0
  9
$TDCREATE
 40
2450991.630578704
  9
$TDUCREATE
 40
2450991.255578704
  9
$TDUPDATE
 40
2453595.506458865
  9
$TDUUPDATE
 40
2453595.131458865
  9
$TDINDWG
 40
11.6964795602
  9
$TDUSRTIMER
 40
11.6964795602
  9
$USRTIMER
 70
     1
  9
$ANGBASE
 50
0.0
  9
$ANGDIR
 70
     0
  9
$PDMODE
 70
     0
  9
$PDSIZE
 40
0.0
  9
$PLINEWID
 40
0.0
  9
$SPLFRAME
 70
     0
  9
$SPLINETYPE
 70
     6
  9
$SPLINESEGS
 70
     8
  9
$HANDSEED
  5
5122
  9
$SURFTAB1
 70
     6
  9
$SURFTAB2
 70
     6
  9
$SURFTYPE
 70
     6
  9
$SURFU
 70
     6
  9
$SURFV
 70
     6
  9
$UCSBASE
  2

  9
$UCSNAME
  2

  9
$UCSORG
 10
0.0
 20
0.0
 30
0.0
  9
$UCSXDIR
 10
1.0
 20
0.0
 30
0.0
  9
$UCSYDIR
 10
0.0
 20
1.0
 30
0.0
  9
$UCSORTHOREF
  2

  9
$UCSORTHOVIEW
 70
     0
  9
$UCSORGTOP
 10
0.0
 20
0.0
 30
0.0
  9
$UCSORGBOTTOM
 10
0.0
 20
0.0
 30
0.0
  9
$UCSORGLEFT
 10
0.0
 20
0.0
 30
0.0
  9
$UCSORGRIGHT
 10
0.0
 20
0.0
 30
0.0
  9
$UCSORGFRONT
 10
0.0
 20
0.0
 30
0.0
  9
$UCSORGBACK
 10
0.0
 20
0.0
 30
0.0
  9
$PUCSBASE
  2

  9
$PUCSNAME
  2

  9
$PUCSORG
 10
0.0
 20
0.0
 30
0.0
  9
$PUCSXDIR
 10
1.0
 20
0.0
 30
0.0
  9
$PUCSYDIR
 10
0.0
 20
1.0
 30
0.0
  9
$PUCSORTHOREF
  2

  9
$PUCSORTHOVIEW
 70
     0
  9
$PUCSORGTOP
 10
0.0
 20
0.0
 30
0.0
  9
$PUCSORGBOTTOM
 10
0.0
 20
0.0
 30
0.0
  9
$PUCSORGLEFT
 10
0.0
 20
0.0
 30
0.0
  9
$PUCSORGRIGHT
 10
0.0
 20
0.0
 30
0.0
  9
$PUCSORGFRONT
 10
0.0
 20
0.0
 30
0.0
  9
$PUCSORGBACK
 10
0.0
 20
0.0
 30
0.0
  9
$USERI1
 70
     0
  9
$USERI2
 70
     0
  9
$USERI3
 70
     1
  9
$USERI4
 70
     0
  9
$USERI5
 70
    15
  9
$USERR1
 40
0.0
  9
$USERR2
 40
0.0
  9
$USERR3
 40
0.0
  9
$USERR4
 40
0.0
  9
$USERR5
 40
0.0
  9
$WORLDVIEW
 70
     1
  9
$SHADEDGE
 70
     3
  9
$SHADEDIF
 70
    70
  9
$TILEMODE
 70
     1
  9
$MAXACTVP
 70
    16
  9
$PINSBASE
 10
0.0
 20
0.0
 30
0.0
  9
$PLIMCHECK
 70
     0
  9
$PEXTMIN
 10
1.000000000000000E+20
 20
1.000000000000000E+20
 30
1.000000000000000E+20
  9
$PEXTMAX
 10
-1.000000000000000E+20
 20
-1.000000000000000E+20
 30
-1.000000000000000E+20
  9
$PLIMMIN
 10
0.0
 20
0.0
  9
$PLIMMAX
 10
12.0
 20
9.0
  9
$UNITMODE
 70
     0
  9
$VISRETAIN
 70
     0
  9
$PLINEGEN
 70
     0
  9
$PSLTSCALE
 70
     0
  9
$TREEDEPTH
 70
  3020
  9
$CMLSTYLE
  2
STANDARD
  9
$CMLJUST
 70
     0
  9
$CMLSCALE
 40
1.0
  9
$PROXYGRAPHICS
 70
     1
  9
$MEASUREMENT
 70
     0
  9
$CELWEIGHT
370
    -1
  9
$ENDCAPS
280
     0
  9
$JOINSTYLE
280
     0
  9
$LWDISPLAY
290
     0
  9
$INSUNITS
 70
     0
  9
$HYPERLINKBASE
  1

  9
$STYLESHEET
  1
aclt.ctb
  9
$XEDIT
290
     1
  9
$CEPSNTYPE
380
     0
  9
$PSTYLEMODE
290
     1
  9
$FINGERPRINTGUID
  2
{7DC9BDA7-AE70-42B4-93E2-7922A45B66AB}
  9
$VERSIONGUID
  2
{88B21568-F8A3-4ED2-9E37-46730CC9A922}
  9
$EXTNAMES
290
     1
  9
$PSVPSCALE
 40
0.0
  9
$OLESTARTUP
290
     0
  0
ENDSEC
  0
SECTION
  2
CLASSES
  0
CLASS
  1
LWPOLYLINE
  2
AcDbPolyline
  3
AutoCAD 2000
 90
    32768
280
     0
281
     1
  0
CLASS
  1
XRECORD
  2
AcDbXrecord
  3
AutoCAD 2000
 90
    32768
280
     0
281
     0
  0
CLASS
  1
HATCH
  2
AcDbHatch
  3
AutoCAD 2000
 90
    32768
280
     0
281
     1
  0
CLASS
  1
DICTIONARYVAR
  2
AcDbDictionaryVar
  3
AutoCAD 2000
 90
        0
280
     0
281
     0
  0
CLASS
  1
ACDBDICTIONARYWDFLT
  2
AcDbDictionaryWithDefault
  3
AutoCAD 2000
 90
        0
280
     0
281
     0
  0
CLASS
  1
ACDBPLACEHOLDER
  2
AcDbPlaceHolder
  3
AutoCAD 2000
 90
        0
280
     0
281
     0
  0
CLASS
  1
LAYOUT
  2
AcDbLayout
  3
AutoCAD 2000
 90
        0
280
     0
281
     0
  0
CLASS
  1
LONG_TRANSACTION
  2
AcDbLongTransaction
  3
AutoCAD 2000
 90
    32768
280
     0
281
     0
  0
CLASS
  1
LWPOLYLINE
  2
AcDbPolyline
  3
AutoCAD 2000
 90
    32768
280
     0
281
     1
  0
CLASS
  1
HATCH
  2
AcDbHatch
  3
AutoCAD 2000
 90
    32768
280
     0
281
     1
  0
CLASS
  1
XRECORD
  2
AcDbXrecord
  3
AutoCAD 2000
 90
    32768
280
     0
281
     0
  0
CLASS
  1
LONG_TRANSACTION
  2
AcDbLongTransaction
  3
AutoCAD 2000
 90
    32768
280
     0
281
     0
  0
CLASS
  1
LWPOLYLINE
  2
AcDbPolyline
  3
AutoCAD 2000
 90
    32768
280
     0
281
     1
  0
CLASS
  1
HATCH
  2
AcDbHatch
  3
AutoCAD 2000
 90
    32768
280
     0
281
     1
  0
CLASS
  1
XRECORD
  2
AcDbXrecord
  3
AutoCAD 2000
 90
    32768
280
     0
281
     0
  0
CLASS
  1
LONG_TRANSACTION
  2
AcDbLongTransaction
  3
AutoCAD 2000
 90
    32768
280
     0
281
     0
  0
CLASS
  1
LWPOLYLINE
  2
AcDbPolyline
  3
AutoCAD 2000
 90
    32768
280
     0
281
     1
  0
CLASS
  1
HATCH
  2
AcDbHatch
  3
AutoCAD 2000
 90
    32768
280
     0
281
     1
  0
CLASS
  1
XRECORD
  2
AcDbXrecord
  3
AutoCAD 2000
 90
    32768
280
     0
281
     0
  0
CLASS
  1
LONG_TRANSACTION
  2
AcDbLongTransaction
  3
AutoCAD 2000
 90
    32768
280
     0
281
     0
  0
CLASS
  1
LWPOLYLINE
  2
AcDbPolyline
  3
AutoCAD 2000
 90
    32768
280
     0
281
     1
  0
CLASS
  1
HATCH
  2
AcDbHatch
  3
AutoCAD 2000
 90
    32768
280
     0
281
     1
  0
CLASS
  1
XRECORD
  2
AcDbXrecord
  3
AutoCAD 2000
 90
    32768
280
     0
281
     0
  0
CLASS
  1
LONG_TRANSACTION
  2
AcDbLongTransaction
  3
AutoCAD 2000
 90
    32768
280
     0
281
     0
  0
CLASS
  1
LWPOLYLINE
  2
AcDbPolyline
  3
AutoCAD 2000
 90
    32768
280
     0
281
     1
  0
CLASS
  1
HATCH
  2
AcDbHatch
  3
AutoCAD 2000
 90
    32768
280
     0
281
     1
  0
CLASS
  1
XRECORD
  2
AcDbXrecord
  3
AutoCAD 2000
 90
    32768
280
     0
281
     0
  0
CLASS
  1
LONG_TRANSACTION
  2
AcDbLongTransaction
  3
AutoCAD 2000
 90
    32768
280
     0
281
     0
  0
CLASS
  1
LWPOLYLINE
  2
AcDbPolyline
  3
AutoCAD 2000
 90
    32768
280
     0
281
     1
  0
CLASS
  1
HATCH
  2
AcDbHatch
  3
AutoCAD 2000
 90
    32768
280
     0
281
     1
  0
CLASS
  1
XRECORD
  2
AcDbXrecord
  3
AutoCAD 2000
 90
    32768
280
     0
281
     0
  0
CLASS
  1
LONG_TRANSACTION
  2
AcDbLongTransaction
  3
AutoCAD 2000
 90
    32768
280
     0
281
     0
  0
CLASS
  1
LWPOLYLINE
  2
AcDbPolyline
  3
AutoCAD 2000
 90
    32768
280
     0
281
     1
  0
CLASS
  1
HATCH
  2
AcDbHatch
  3
AutoCAD 2000
 90
    32768
280
     0
281
     1
  0
CLASS
  1
XRECORD
  2
AcDbXrecord
  3
AutoCAD 2000
 90
    32768
280
     0
281
     0
  0
CLASS
  1
LONG_TRANSACTION
  2
AcDbLongTransaction
  3
AutoCAD 2000
 90
    32768
280
     0
281
     0
  0
CLASS
  1
LWPOLYLINE
  2
AcDbPolyline
  3
AutoCAD 2000
 90
    32768
280
     0
281
     1
  0
CLASS
  1
HATCH
  2
AcDbHatch
  3
AutoCAD 2000
 90
    32768
280
     0
281
     1
  0
CLASS
  1
XRECORD
  2
AcDbXrecord
  3
AutoCAD 2000
 90
    32768
280
     0
281
     0
  0
CLASS
  1
LONG_TRANSACTION
  2
AcDbLongTransaction
  3
AutoCAD 2000
 90
    32768
280
     0
281
     0
  0
CLASS
  1
LWPOLYLINE
  2
AcDbPolyline
  3
AutoCAD 2000
 90
    32768
280
     0
281
     1
  0
CLASS
  1
HATCH
  2
AcDbHatch
  3
AutoCAD 2000
 90
    32768
280
     0
281
     1
  0
CLASS
  1
XRECORD
  2
AcDbXrecord
  3
AutoCAD 2000
 90
    32768
280
     0
281
     0
  0
CLASS
  1
LONG_TRANSACTION
  2
AcDbLongTransaction
  3
AutoCAD 2000
 90
    32768
280
     0
281
     0
  0
CLASS
  1
LWPOLYLINE
  2
AcDbPolyline
  3
AutoCAD 2000
 90
    32768
280
     0
281
     1
  0
CLASS
  1
HATCH
  2
AcDbHatch
  3
AutoCAD 2000
 90
    32768
280
     0
281
     1
  0
CLASS
  1
XRECORD
  2
AcDbXrecord
  3
AutoCAD 2000
 90
    32768
280
     0
281
     0
  0
CLASS
  1
LONG_TRANSACTION
  2
AcDbLongTransaction
  3
AutoCAD 2000
 90
    32768
280
     0
281
     0
  0
CLASS
  1
LWPOLYLINE
  2
AcDbPolyline
  3
AutoCAD 2000
 90
    32768
280
     0
281
     1
  0
CLASS
  1
HATCH
  2
AcDbHatch
  3
AutoCAD 2000
 90
    32768
280
     0
281
     1
  0
CLASS
  1
XRECORD
  2
AcDbXrecord
  3
AutoCAD 2000
 90
    32768
280
     0
281
     0
  0
CLASS
  1
LONG_TRANSACTION
  2
AcDbLongTransaction
  3
AutoCAD 2000
 90
    32768
280
     0
281
     0
  0
CLASS
  1
LWPOLYLINE
  2
AcDbPolyline
  3
AutoCAD 2000
 90
    32768
280
     0
281
     1
  0
CLASS
  1
HATCH
  2
AcDbHatch
  3
AutoCAD 2000
 90
    32768
280
     0
281
     1
  0
CLASS
  1
XRECORD
  2
AcDbXrecord
  3
AutoCAD 2000
 90
    32768
280
     0
281
     0
  0
CLASS
  1
LONG_TRANSACTION
  2
AcDbLongTransaction
  3
AutoCAD 2000
 90
    32768
280
     0
281
     0
  0
CLASS
  1
LWPOLYLINE
  2
AcDbPolyline
  3
AutoCAD 2000
 90
    32768
280
     0
281
     1
  0
CLASS
  1
HATCH
  2
AcDbHatch
  3
AutoCAD 2000
 90
    32768
280
     0
281
     1
  0
CLASS
  1
XRECORD
  2
AcDbXrecord
  3
AutoCAD 2000
 90
    32768
280
     0
281
     0
  0
CLASS
  1
LONG_TRANSACTION
  2
AcDbLongTransaction
  3
AutoCAD 2000
 90
    32768
280
     0
281
     0
  0
CLASS
  1
LWPOLYLINE
  2
AcDbPolyline
  3
AutoCAD 2000
 90
    32768
280
     0
281
     1
  0
CLASS
  1
HATCH
  2
AcDbHatch
  3
AutoCAD 2000
 90
    32768
280
     0
281
     1
  0
CLASS
  1
XRECORD
  2
AcDbXrecord
  3
AutoCAD 2000
 90
    32768
280
     0
281
     0
  0
CLASS
  1
LONG_TRANSACTION
  2
AcDbLongTransaction
  3
AutoCAD 2000
 90
    32768
280
     0
281
     0
  0
CLASS
  1
LWPOLYLINE
  2
AcDbPolyline
  3
AutoCAD 2000
 90
    32768
280
     0
281
     1
  0
CLASS
  1
HATCH
  2
AcDbHatch
  3
AutoCAD 2000
 90
    32768
280
     0
281
     1
  0
CLASS
  1
XRECORD
  2
AcDbXrecord
  3
AutoCAD 2000
 90
    32768
280
     0
281
     0
  0
CLASS
  1
LONG_TRANSACTION
  2
AcDbLongTransaction
  3
AutoCAD 2000
 90
    32768
280
     0
281
     0
  0
CLASS
  1
LWPOLYLINE
  2
AcDbPolyline
  3
AutoCAD 2000
 90
    32768
280
     0
281
     1
  0
CLASS
  1
HATCH
  2
AcDbHatch
  3
AutoCAD 2000
 90
    32768
280
     0
281
     1
  0
CLASS
  1
XRECORD
  2
AcDbXrecord
  3
AutoCAD 2000
 90
    32768
280
     0
281
     0
  0
CLASS
  1
LONG_TRANSACTION
  2
AcDbLongTransaction
  3
AutoCAD 2000
 90
    32768
280
     0
281
     0
  0
CLASS
  1
LWPOLYLINE
  2
AcDbPolyline
  3
AutoCAD 2000
 90
    32768
280
     0
281
     1
  0
CLASS
  1
HATCH
  2
AcDbHatch
  3
AutoCAD 2000
 90
    32768
280
     0
281
     1
  0
CLASS
  1
XRECORD
  2
AcDbXrecord
  3
AutoCAD 2000
 90
    32768
280
     0
281
     0
  0
CLASS
  1
LONG_TRANSACTION
  2
AcDbLongTransaction
  3
AutoCAD 2000
 90
    32768
280
     0
281
     0
  0
CLASS
  1
LWPOLYLINE
  2
AcDbPolyline
  3
AutoCAD 2000
 90
    32768
280
     0
281
     1
  0
CLASS
  1
HATCH
  2
AcDbHatch
  3
AutoCAD 2000
 90
    32768
280
     0
281
     1
  0
CLASS
  1
XRECORD
  2
AcDbXrecord
  3
AutoCAD 2000
 90
    32768
280
     0
281
     0
  0
CLASS
  1
LONG_TRANSACTION
  2
AcDbLongTransaction
  3
AutoCAD 2000
 90
    32768
280
     0
281
     0
  0
CLASS
  1
LWPOLYLINE
  2
AcDbPolyline
  3
AutoCAD 2000
 90
    32768
280
     0
281
     1
  0
CLASS
  1
HATCH
  2
AcDbHatch
  3
AutoCAD 2000
 90
    32768
280
     0
281
     1
  0
CLASS
  1
XRECORD
  2
AcDbXrecord
  3
AutoCAD 2000
 90
    32768
280
     0
281
     0
  0
CLASS
  1
LONG_TRANSACTION
  2
AcDbLongTransaction
  3
AutoCAD 2000
 90
    32768
280
     0
281
     0
  0
CLASS
  1
LWPOLYLINE
  2
AcDbPolyline
  3
AutoCAD 2000
 90
    32768
280
     0
281
     1
  0
CLASS
  1
HATCH
  2
AcDbHatch
  3
AutoCAD 2000
 90
    32768
280
     0
281
     1
  0
CLASS
  1
XRECORD
  2
AcDbXrecord
  3
AutoCAD 2000
 90
    32768
280
     0
281
     0
  0
CLASS
  1
LONG_TRANSACTION
  2
AcDbLongTransaction
  3
AutoCAD 2000
 90
    32768
280
     0
281
     0
  0
CLASS
  1
LWPOLYLINE
  2
AcDbPolyline
  3
AutoCAD 2000
 90
    32768
280
     0
281
     1
  0
CLASS
  1
HATCH
  2
AcDbHatch
  3
AutoCAD 2000
 90
    32768
280
     0
281
     1
  0
CLASS
  1
XRECORD
  2
AcDbXrecord
  3
AutoCAD 2000
 90
    32768
280
     0
281
     0
  0
CLASS
  1
LONG_TRANSACTION
  2
AcDbLongTransaction
  3
AutoCAD 2000
 90
    32768
280
     0
281
     0
  0
CLASS
  1
LWPOLYLINE
  2
AcDbPolyline
  3
AutoCAD 2000
 90
    32768
280
     0
281
     1
  0
CLASS
  1
HATCH
  2
AcDbHatch
  3
AutoCAD 2000
 90
    32768
280
     0
281
     1
  0
CLASS
  1
XRECORD
  2
AcDbXrecord
  3
AutoCAD 2000
 90
    32768
280
     0
281
     0
  0
CLASS
  1
LONG_TRANSACTION
  2
AcDbLongTransaction
  3
AutoCAD 2000
 90
    32768
280
     0
281
     0
  0
CLASS
  1
LWPOLYLINE
  2
AcDbPolyline
  3
AutoCAD 2000
 90
    32768
280
     0
281
     1
  0
CLASS
  1
HATCH
  2
AcDbHatch
  3
AutoCAD 2000
 90
    32768
280
     0
281
     1
  0
CLASS
  1
XRECORD
  2
AcDbXrecord
  3
AutoCAD 2000
 90
    32768
280
     0
281
     0
  0
CLASS
  1
LONG_TRANSACTION
  2
AcDbLongTransaction
  3
AutoCAD 2000
 90
    32768
280
     0
281
     0
  0
CLASS
  1
LWPOLYLINE
  2
AcDbPolyline
  3
AutoCAD 2000
 90
    32768
280
     0
281
     1
  0
CLASS
  1
HATCH
  2
AcDbHatch
  3
AutoCAD 2000
 90
    32768
280
     0
281
     1
  0
CLASS
  1
XRECORD
  2
AcDbXrecord
  3
AutoCAD 2000
 90
    32768
280
     0
281
     0
  0
CLASS
  1
LONG_TRANSACTION
  2
AcDbLongTransaction
  3
AutoCAD 2000
 90
    32768
280
     0
281
     0
  0
CLASS
  1
LWPOLYLINE
  2
AcDbPolyline
  3
AutoCAD 2000
 90
    32768
280
     0
281
     1
  0
CLASS
  1
HATCH
  2
AcDbHatch
  3
AutoCAD 2000
 90
    32768
280
     0
281
     1
  0
CLASS
  1
XRECORD
  2
AcDbXrecord
  3
AutoCAD 2000
 90
    32768
280
     0
281
     0
  0
CLASS
  1
LONG_TRANSACTION
  2
AcDbLongTransaction
  3
AutoCAD 2000
 90
    32768
280
     0
281
     0
  0
CLASS
  1
LWPOLYLINE
  2
AcDbPolyline
  3
AutoCAD 2000
 90
    32768
280
     0
281
     1
  0
CLASS
  1
HATCH
  2
AcDbHatch
  3
AutoCAD 2000
 90
    32768
280
     0
281
     1
  0
CLASS
  1
XRECORD
  2
AcDbXrecord
  3
AutoCAD 2000
 90
    32768
280
     0
281
     0
  0
CLASS
  1
LONG_TRANSACTION
  2
AcDbLongTransaction
  3
AutoCAD 2000
 90
    32768
280
     0
281
     0
  0
CLASS
  1
LWPOLYLINE
  2
AcDbPolyline
  3
AutoCAD 2000
 90
    32768
280
     0
281
     1
  0
CLASS
  1
HATCH
  2
AcDbHatch
  3
AutoCAD 2000
 90
    32768
280
     0
281
     1
  0
CLASS
  1
XRECORD
  2
AcDbXrecord
  3
AutoCAD 2000
 90
    32768
280
     0
281
     0
  0
CLASS
  1
LONG_TRANSACTION
  2
AcDbLongTransaction
  3
AutoCAD 2000
 90
    32768
280
     0
281
     0
  0
CLASS
  1
LWPOLYLINE
  2
AcDbPolyline
  3
AutoCAD 2000
 90
    32768
280
     0
281
     1
  0
CLASS
  1
HATCH
  2
AcDbHatch
  3
AutoCAD 2000
 90
    32768
280
     0
281
     1
  0
CLASS
  1
XRECORD
  2
AcDbXrecord
  3
AutoCAD 2000
 90
    32768
280
     0
281
     0
  0
CLASS
  1
LONG_TRANSACTION
  2
AcDbLongTransaction
  3
AutoCAD 2000
 90
    32768
280
     0
281
     0
  0
CLASS
  1
LWPOLYLINE
  2
AcDbPolyline
  3
AutoCAD 2000
 90
    32768
280
     0
281
     1
  0
CLASS
  1
HATCH
  2
AcDbHatch
  3
AutoCAD 2000
 90
    32768
280
     0
281
     1
  0
CLASS
  1
XRECORD
  2
AcDbXrecord
  3
AutoCAD 2000
 90
    32768
280
     0
281
     0
  0
CLASS
  1
LONG_TRANSACTION
  2
AcDbLongTransaction
  3
AutoCAD 2000
 90
    32768
280
     0
281
     0
  0
CLASS
  1
LWPOLYLINE
  2
AcDbPolyline
  3
AutoCAD 2000
 90
    32768
280
     0
281
     1
  0
CLASS
  1
HATCH
  2
AcDbHatch
  3
AutoCAD 2000
 90
    32768
280
     0
281
     1
  0
CLASS
  1
XRECORD
  2
AcDbXrecord
  3
AutoCAD 2000
 90
    32768
280
     0
281
     0
  0
CLASS
  1
LONG_TRANSACTION
  2
AcDbLongTransaction
  3
AutoCAD 2000
 90
    32768
280
     0
281
     0
  0
CLASS
  1
LWPOLYLINE
  2
AcDbPolyline
  3
AutoCAD 2000
 90
    32768
280
     0
281
     1
  0
CLASS
  1
HATCH
  2
AcDbHatch
  3
AutoCAD 2000
 90
    32768
280
     0
281
     1
  0
CLASS
  1
XRECORD
  2
AcDbXrecord
  3
AutoCAD 2000
 90
    32768
280
     0
281
     0
  0
CLASS
  1
LONG_TRANSACTION
  2
AcDbLongTransaction
  3
AutoCAD 2000
 90
    32768
280
     0
281
     0
  0
CLASS
  1
LWPOLYLINE
  2
AcDbPolyline
  3
AutoCAD 2000
 90
    32768
280
     0
281
     1
  0
CLASS
  1
HATCH
  2
AcDbHatch
  3
AutoCAD 2000
 90
    32768
280
     0
281
     1
  0
CLASS
  1
XRECORD
  2
AcDbXrecord
  3
AutoCAD 2000
 90
    32768
280
     0
281
     0
  0
CLASS
  1
LONG_TRANSACTION
  2
AcDbLongTransaction
  3
AutoCAD 2000
 90
    32768
280
     0
281
     0
  0
CLASS
  1
LWPOLYLINE
  2
AcDbPolyline
  3
AutoCAD 2000
 90
    32768
280
     0
281
     1
  0
CLASS
  1
HATCH
  2
AcDbHatch
  3
AutoCAD 2000
 90
    32768
280
     0
281
     1
  0
CLASS
  1
XRECORD
  2
AcDbXrecord
  3
AutoCAD 2000
 90
    32768
280
     0
281
     0
  0
CLASS
  1
LONG_TRANSACTION
  2
AcDbLongTransaction
  3
AutoCAD 2000
 90
    32768
280
     0
281
     0
  0
CLASS
  1
LWPOLYLINE
  2
AcDbPolyline
  3
AutoCAD 2000
 90
    32768
280
     0
281
     1
  0
CLASS
  1
HATCH
  2
AcDbHatch
  3
AutoCAD 2000
 90
    32768
280
     0
281
     1
  0
CLASS
  1
XRECORD
  2
AcDbXrecord
  3
AutoCAD 2000
 90
    32768
280
     0
281
     0
  0
CLASS
  1
LONG_TRANSACTION
  2
AcDbLongTransaction
  3
AutoCAD 2000
 90
    32768
280
     0
281
     0
  0
CLASS
  1
LWPOLYLINE
  2
AcDbPolyline
  3
AutoCAD 2000
 90
    32768
280
     0
281
     1
  0
CLASS
  1
HATCH
  2
AcDbHatch
  3
AutoCAD 2000
 90
    32768
280
     0
281
     1
  0
CLASS
  1
XRECORD
  2
AcDbXrecord
  3
AutoCAD 2000
 90
    32768
280
     0
281
     0
  0
CLASS
  1
LONG_TRANSACTION
  2
AcDbLongTransaction
  3
AutoCAD 2000
 90
    32768
280
     0
281
     0
  0
CLASS
  1
LWPOLYLINE
  2
AcDbPolyline
  3
AutoCAD 2000
 90
    32768
280
     0
281
     1
  0
CLASS
  1
HATCH
  2
AcDbHatch
  3
AutoCAD 2000
 90
    32768
280
     0
281
     1
  0
CLASS
  1
XRECORD
  2
AcDbXrecord
  3
AutoCAD 2000
 90
    32768
280
     0
281
     0
  0
CLASS
  1
LONG_TRANSACTION
  2
AcDbLongTransaction
  3
AutoCAD 2000
 90
    32768
280
     0
281
     0
  0
CLASS
  1
LWPOLYLINE
  2
AcDbPolyline
  3
AutoCAD 2000
 90
    32768
280
     0
281
     1
  0
CLASS
  1
HATCH
  2
AcDbHatch
  3
AutoCAD 2000
 90
    32768
280
     0
281
     1
  0
CLASS
  1
XRECORD
  2
AcDbXrecord
  3
AutoCAD 2000
 90
    32768
280
     0
281
     0
  0
CLASS
  1
LONG_TRANSACTION
  2
AcDbLongTransaction
  3
AutoCAD 2000
 90
    32768
280
     0
281
     0
  0
CLASS
  1
LWPOLYLINE
  2
AcDbPolyline
  3
AutoCAD 2000
 90
    32768
280
     0
281
     1
  0
CLASS
  1
HATCH
  2
AcDbHatch
  3
AutoCAD 2000
 90
    32768
280
     0
281
     1
  0
CLASS
  1
XRECORD
  2
AcDbXrecord
  3
AutoCAD 2000
 90
    32768
280
     0
281
     0
  0
CLASS
  1
LONG_TRANSACTION
  2
AcDbLongTransaction
  3
AutoCAD 2000
 90
    32768
280
     0
281
     0
  0
CLASS
  1
LWPOLYLINE
  2
AcDbPolyline
  3
AutoCAD 2000
 90
    32768
280
     0
281
     1
  0
CLASS
  1
HATCH
  2
AcDbHatch
  3
AutoCAD 2000
 90
    32768
280
     0
281
     1
  0
CLASS
  1
XRECORD
  2
AcDbXrecord
  3
AutoCAD 2000
 90
    32768
280
     0
281
     0
  0
CLASS
  1
LONG_TRANSACTION
  2
AcDbLongTransaction
  3
AutoCAD 2000
 90
    32768
280
     0
281
     0
  0
CLASS
  1
LWPOLYLINE
  2
AcDbPolyline
  3
AutoCAD 2000
 90
    32768
280
     0
281
     1
  0
CLASS
  1
HATCH
  2
AcDbHatch
  3
AutoCAD 2000
 90
    32768
280
     0
281
     1
  0
CLASS
  1
XRECORD
  2
AcDbXrecord
  3
AutoCAD 2000
 90
    32768
280
     0
281
     0
  0
CLASS
  1
LONG_TRANSACTION
  2
AcDbLongTransaction
  3
AutoCAD 2000
 90
    32768
280
     0
281
     0
  0
CLASS
  1
LWPOLYLINE
  2
AcDbPolyline
  3
AutoCAD 2000
 90
    32768
280
     0
281
     1
  0
CLASS
  1
HATCH
  2
AcDbHatch
  3
AutoCAD 2000
 90
    32768
280
     0
281
     1
  0
CLASS
  1
XRECORD
  2
AcDbXrecord
  3
AutoCAD 2000
 90
    32768
280
     0
281
     0
  0
CLASS
  1
LONG_TRANSACTION
  2
AcDbLongTransaction
  3
AutoCAD 2000
 90
    32768
280
     0
281
     0
  0
CLASS
  1
LWPOLYLINE
  2
AcDbPolyline
  3
AutoCAD 2000
 90
    32768
280
     0
281
     1
  0
CLASS
  1
HATCH
  2
AcDbHatch
  3
AutoCAD 2000
 90
    32768
280
     0
281
     1
  0
CLASS
  1
XRECORD
  2
AcDbXrecord
  3
AutoCAD 2000
 90
    32768
280
     0
281
     0
  0
CLASS
  1
LONG_TRANSACTION
  2
AcDbLongTransaction
  3
AutoCAD 2000
 90
    32768
280
     0
281
     0
  0
CLASS
  1
LWPOLYLINE
  2
AcDbPolyline
  3
AutoCAD 2000
 90
    32768
280
     0
281
     1
  0
CLASS
  1
HATCH
  2
AcDbHatch
  3
AutoCAD 2000
 90
    32768
280
     0
281
     1
  0
CLASS
  1
XRECORD
  2
AcDbXrecord
  3
AutoCAD 2000
 90
    32768
280
     0
281
     0
  0
CLASS
  1
LONG_TRANSACTION
  2
AcDbLongTransaction
  3
AutoCAD 2000
 90
    32768
280
     0
281
     0
  0
CLASS
  1
LWPOLYLINE
  2
AcDbPolyline
  3
AutoCAD 2000
 90
    32768
280
     0
281
     1
  0
CLASS
  1
HATCH
  2
AcDbHatch
  3
AutoCAD 2000
 90
    32768
280
     0
281
     1
  0
CLASS
  1
XRECORD
  2
AcDbXrecord
  3
AutoCAD 2000
 90
    32768
280
     0
281
     0
  0
CLASS
  1
LONG_TRANSACTION
  2
AcDbLongTransaction
  3
AutoCAD 2000
 90
    32768
280
     0
281
     0
  0
CLASS
  1
LWPOLYLINE
  2
AcDbPolyline
  3
AutoCAD 2000
 90
    32768
280
     0
281
     1
  0
CLASS
  1
HATCH
  2
AcDbHatch
  3
AutoCAD 2000
 90
    32768
280
     0
281
     1
  0
CLASS
  1
XRECORD
  2
AcDbXrecord
  3
AutoCAD 2000
 90
    32768
280
     0
281
     0
  0
CLASS
  1
LONG_TRANSACTION
  2
AcDbLongTransaction
  3
AutoCAD 2000
 90
    32768
280
     0
281
     0
  0
CLASS
  1
LWPOLYLINE
  2
AcDbPolyline
  3
AutoCAD 2000
 90
    32768
280
     0
281
     1
  0
CLASS
  1
HATCH
  2
AcDbHatch
  3
AutoCAD 2000
 90
    32768
280
     0
281
     1
  0
CLASS
  1
XRECORD
  2
AcDbXrecord
  3
AutoCAD 2000
 90
    32768
280
     0
281
     0
  0
CLASS
  1
LONG_TRANSACTION
  2
AcDbLongTransaction
  3
AutoCAD 2000
 90
    32768
280
     0
281
     0
  0
CLASS
  1
LWPOLYLINE
  2
AcDbPolyline
  3
AutoCAD 2000
 90
    32768
280
     0
281
     1
  0
CLASS
  1
HATCH
  2
AcDbHatch
  3
AutoCAD 2000
 90
    32768
280
     0
281
     1
  0
CLASS
  1
XRECORD
  2
AcDbXrecord
  3
AutoCAD 2000
 90
    32768
280
     0
281
     0
  0
CLASS
  1
LONG_TRANSACTION
  2
AcDbLongTransaction
  3
AutoCAD 2000
 90
    32768
280
     0
281
     0
  0
CLASS
  1
LWPOLYLINE
  2
AcDbPolyline
  3
AutoCAD 2000
 90
    32768
280
     0
281
     1
  0
CLASS
  1
HATCH
  2
AcDbHatch
  3
AutoCAD 2000
 90
    32768
280
     0
281
     1
  0
CLASS
  1
XRECORD
  2
AcDbXrecord
  3
AutoCAD 2000
 90
    32768
280
     0
281
     0
  0
CLASS
  1
LONG_TRANSACTION
  2
AcDbLongTransaction
  3
AutoCAD 2000
 90
    32768
280
     0
281
     0
  0
CLASS
  1
LWPOLYLINE
  2
AcDbPolyline
  3
AutoCAD 2000
 90
    32768
280
     0
281
     1
  0
CLASS
  1
HATCH
  2
AcDbHatch
  3
AutoCAD 2000
 90
    32768
280
     0
281
     1
  0
CLASS
  1
XRECORD
  2
AcDbXrecord
  3
AutoCAD 2000
 90
    32768
280
     0
281
     0
  0
CLASS
  1
LONG_TRANSACTION
  2
AcDbLongTransaction
  3
AutoCAD 2000
 90
    32768
280
     0
281
     0
  0
CLASS
  1
LWPOLYLINE
  2
AcDbPolyline
  3
AutoCAD 2000
 90
    32768
280
     0
281
     1
  0
CLASS
  1
HATCH
  2
AcDbHatch
  3
AutoCAD 2000
 90
    32768
280
     0
281
     1
  0
CLASS
  1
XRECORD
  2
AcDbXrecord
  3
AutoCAD 2000
 90
    32768
280
     0
281
     0
  0
CLASS
  1
LONG_TRANSACTION
  2
AcDbLongTransaction
  3
AutoCAD 2000
 90
    32768
280
     0
281
     0
  0
CLASS
  1
LWPOLYLINE
  2
AcDbPolyline
  3
AutoCAD 2000
 90
    32768
280
     0
281
     1
  0
CLASS
  1
HATCH
  2
AcDbHatch
  3
AutoCAD 2000
 90
    32768
280
     0
281
     1
  0
CLASS
  1
XRECORD
  2
AcDbXrecord
  3
AutoCAD 2000
 90
    32768
280
     0
281
     0
  0
CLASS
  1
LONG_TRANSACTION
  2
AcDbLongTransaction
  3
AutoCAD 2000
 90
    32768
280
     0
281
     0
  0
CLASS
  1
LWPOLYLINE
  2
AcDbPolyline
  3
AutoCAD 2000
 90
    32768
280
     0
281
     1
  0
CLASS
  1
HATCH
  2
AcDbHatch
  3
AutoCAD 2000
 90
    32768
280
     0
281
     1
  0
CLASS
  1
XRECORD
  2
AcDbXrecord
  3
AutoCAD 2000
 90
    32768
280
     0
281
     0
  0
CLASS
  1
LONG_TRANSACTION
  2
AcDbLongTransaction
  3
AutoCAD 2000
 90
    32768
280
     0
281
     0
  0
CLASS
  1
LWPOLYLINE
  2
AcDbPolyline
  3
AutoCAD 2000
 90
    32768
280
     0
281
     1
  0
CLASS
  1
HATCH
  2
AcDbHatch
  3
AutoCAD 2000
 90
    32768
280
     0
281
     1
  0
CLASS
  1
XRECORD
  2
AcDbXrecord
  3
AutoCAD 2000
 90
    32768
280
     0
281
     0
  0
CLASS
  1
LONG_TRANSACTION
  2
AcDbLongTransaction
  3
AutoCAD 2000
 90
    32768
280
     0
281
     0
  0
CLASS
  1
LWPOLYLINE
  2
AcDbPolyline
  3
AutoCAD 2000
 90
    32768
280
     0
281
     1
  0
CLASS
  1
HATCH
  2
AcDbHatch
  3
AutoCAD 2000
 90
    32768
280
     0
281
     1
  0
CLASS
  1
XRECORD
  2
AcDbXrecord
  3
AutoCAD 2000
 90
    32768
280
     0
281
     0
  0
CLASS
  1
LONG_TRANSACTION
  2
AcDbLongTransaction
  3
AutoCAD 2000
 90
    32768
280
     0
281
     0
  0
CLASS
  1
LWPOLYLINE
  2
AcDbPolyline
  3
AutoCAD 2000
 90
    32768
280
     0
281
     1
  0
CLASS
  1
HATCH
  2
AcDbHatch
  3
AutoCAD 2000
 90
    32768
280
     0
281
     1
  0
CLASS
  1
XRECORD
  2
AcDbXrecord
  3
AutoCAD 2000
 90
    32768
280
     0
281
     0
  0
CLASS
  1
LONG_TRANSACTION
  2
AcDbLongTransaction
  3
AutoCAD 2000
 90
    32768
280
     0
281
     0
  0
CLASS
  1
LWPOLYLINE
  2
AcDbPolyline
  3
AutoCAD 2000
 90
    32768
280
     0
281
     1
  0
CLASS
  1
HATCH
  2
AcDbHatch
  3
AutoCAD 2000
 90
    32768
280
     0
281
     1
  0
CLASS
  1
XRECORD
  2
AcDbXrecord
  3
AutoCAD 2000
 90
    32768
280
     0
281
     0
  0
CLASS
  1
LONG_TRANSACTION
  2
AcDbLongTransaction
  3
AutoCAD 2000
 90
    32768
280
     0
281
     0
  0
CLASS
  1
LWPOLYLINE
  2
AcDbPolyline
  3
AutoCAD 2000
 90
    32768
280
     0
281
     1
  0
CLASS
  1
HATCH
  2
AcDbHatch
  3
AutoCAD 2000
 90
    32768
280
     0
281
     1
  0
CLASS
  1
XRECORD
  2
AcDbXrecord
  3
AutoCAD 2000
 90
    32768
280
     0
281
     0
  0
CLASS
  1
LONG_TRANSACTION
  2
AcDbLongTransaction
  3
AutoCAD 2000
 90
    32768
280
     0
281
     0
  0
CLASS
  1
LWPOLYLINE
  2
AcDbPolyline
  3
AutoCAD 2000
 90
    32768
280
     0
281
     1
  0
CLASS
  1
HATCH
  2
AcDbHatch
  3
AutoCAD 2000
 90
    32768
280
     0
281
     1
  0
CLASS
  1
XRECORD
  2
AcDbXrecord
  3
AutoCAD 2000
 90
    32768
280
     0
281
     0
  0
CLASS
  1
LONG_TRANSACTION
  2
AcDbLongTransaction
  3
AutoCAD 2000
 90
    32768
280
     0
281
     0
  0
CLASS
  1
LWPOLYLINE
  2
AcDbPolyline
  3
AutoCAD 2000
 90
    32768
280
     0
281
     1
  0
CLASS
  1
HATCH
  2
AcDbHatch
  3
AutoCAD 2000
 90
    32768
280
     0
281
     1
  0
CLASS
  1
XRECORD
  2
AcDbXrecord
  3
AutoCAD 2000
 90
    32768
280
     0
281
     0
  0
CLASS
  1
LONG_TRANSACTION
  2
AcDbLongTransaction
  3
AutoCAD 2000
 90
    32768
280
     0
281
     0
  0
CLASS
  1
LWPOLYLINE
  2
AcDbPolyline
  3
AutoCAD 2000
 90
    32768
280
     0
281
     1
  0
CLASS
  1
HATCH
  2
AcDbHatch
  3
AutoCAD 2000
 90
    32768
280
     0
281
     1
  0
CLASS
  1
XRECORD
  2
AcDbXrecord
  3
AutoCAD 2000
 90
    32768
280
     0
281
     0
  0
CLASS
  1
LONG_TRANSACTION
  2
AcDbLongTransaction
  3
AutoCAD 2000
 90
    32768
280
     0
281
     0
  0
CLASS
  1
LWPOLYLINE
  2
AcDbPolyline
  3
AutoCAD 2000
 90
    32768
280
     0
281
     1
  0
CLASS
  1
HATCH
  2
AcDbHatch
  3
AutoCAD 2000
 90
    32768
280
     0
281
     1
  0
CLASS
  1
XRECORD
  2
AcDbXrecord
  3
AutoCAD 2000
 90
    32768
280
     0
281
     0
  0
CLASS
  1
LONG_TRANSACTION
  2
AcDbLongTransaction
  3
AutoCAD 2000
 90
    32768
280
     0
281
     0
  0
CLASS
  1
LWPOLYLINE
  2
AcDbPolyline
  3
AutoCAD 2000
 90
    32768
280
     0
281
     1
  0
CLASS
  1
HATCH
  2
AcDbHatch
  3
AutoCAD 2000
 90
    32768
280
     0
281
     1
  0
CLASS
  1
XRECORD
  2
AcDbXrecord
  3
AutoCAD 2000
 90
    32768
280
     0
281
     0
  0
CLASS
  1
LONG_TRANSACTION
  2
AcDbLongTransaction
  3
AutoCAD 2000
 90
    32768
280
     0
281
     0
  0
CLASS
  1
LWPOLYLINE
  2
AcDbPolyline
  3
AutoCAD 2000
 90
    32768
280
     0
281
     1
  0
CLASS
  1
HATCH
  2
AcDbHatch
  3
AutoCAD 2000
 90
    32768
280
     0
281
     1
  0
CLASS
  1
XRECORD
  2
AcDbXrecord
  3
AutoCAD 2000
 90
    32768
280
     0
281
     0
  0
CLASS
  1
LONG_TRANSACTION
  2
AcDbLongTransaction
  3
AutoCAD 2000
 90
    32768
280
     0
281
     0
  0
CLASS
  1
LWPOLYLINE
  2
AcDbPolyline
  3
AutoCAD 2000
 90
    32768
280
     0
281
     1
  0
CLASS
  1
HATCH
  2
AcDbHatch
  3
AutoCAD 2000
 90
    32768
280
     0
281
     1
  0
CLASS
  1
XRECORD
  2
AcDbXrecord
  3
AutoCAD 2000
 90
    32768
280
     0
281
     0
  0
CLASS
  1
LONG_TRANSACTION
  2
AcDbLongTransaction
  3
AutoCAD 2000
 90
    32768
280
     0
281
     0
  0
CLASS
  1
LWPOLYLINE
  2
AcDbPolyline
  3
AutoCAD 2000
 90
    32768
280
     0
281
     1
  0
CLASS
  1
HATCH
  2
AcDbHatch
  3
AutoCAD 2000
 90
    32768
280
     0
281
     1
  0
CLASS
  1
XRECORD
  2
AcDbXrecord
  3
AutoCAD 2000
 90
    32768
280
     0
281
     0
  0
CLASS
  1
LONG_TRANSACTION
  2
AcDbLongTransaction
  3
AutoCAD 2000
 90
    32768
280
     0
281
     0
  0
CLASS
  1
LWPOLYLINE
  2
AcDbPolyline
  3
AutoCAD 2000
 90
    32768
280
     0
281
     1
  0
CLASS
  1
HATCH
  2
AcDbHatch
  3
AutoCAD 2000
 90
    32768
280
     0
281
     1
  0
CLASS
  1
XRECORD
  2
AcDbXrecord
  3
AutoCAD 2000
 90
    32768
280
     0
281
     0
  0
CLASS
  1
LONG_TRANSACTION
  2
AcDbLongTransaction
  3
AutoCAD 2000
 90
    32768
280
     0
281
     0
  0
CLASS
  1
LWPOLYLINE
  2
AcDbPolyline
  3
AutoCAD 2000
 90
    32768
280
     0
281
     1
  0
CLASS
  1
HATCH
  2
AcDbHatch
  3
AutoCAD 2000
 90
    32768
280
     0
281
     1
  0
CLASS
  1
XRECORD
  2
AcDbXrecord
  3
AutoCAD 2000
 90
    32768
280
     0
281
     0
  0
CLASS
  1
LONG_TRANSACTION
  2
AcDbLongTransaction
  3
AutoCAD 2000
 90
    32768
280
     0
281
     0
  0
CLASS
  1
LWPOLYLINE
  2
AcDbPolyline
  3
AutoCAD 2000
 90
    32768
280
     0
281
     1
  0
CLASS
  1
HATCH
  2
AcDbHatch
  3
AutoCAD 2000
 90
    32768
280
     0
281
     1
  0
CLASS
  1
XRECORD
  2
AcDbXrecord
  3
AutoCAD 2000
 90
    32768
280
     0
281
     0
  0
CLASS
  1
LONG_TRANSACTION
  2
AcDbLongTransaction
  3
AutoCAD 2000
 90
    32768
280
     0
281
     0
  0
CLASS
  1
LWPOLYLINE
  2
AcDbPolyline
  3
AutoCAD 2000
 90
    32768
280
     0
281
     1
  0
CLASS
  1
HATCH
  2
AcDbHatch
  3
AutoCAD 2000
 90
    32768
280
     0
281
     1
  0
CLASS
  1
XRECORD
  2
AcDbXrecord
  3
AutoCAD 2000
 90
    32768
280
     0
281
     0
  0
CLASS
  1
LONG_TRANSACTION
  2
AcDbLongTransaction
  3
AutoCAD 2000
 90
    32768
280
     0
281
     0
  0
CLASS
  1
LWPOLYLINE
  2
AcDbPolyline
  3
AutoCAD 2000
 90
    32768
280
     0
281
     1
  0
CLASS
  1
HATCH
  2
AcDbHatch
  3
AutoCAD 2000
 90
    32768
280
     0
281
     1
  0
CLASS
  1
XRECORD
  2
AcDbXrecord
  3
AutoCAD 2000
 90
    32768
280
     0
281
     0
  0
CLASS
  1
LONG_TRANSACTION
  2
AcDbLongTransaction
  3
AutoCAD 2000
 90
    32768
280
     0
281
     0
  0
CLASS
  1
LWPOLYLINE
  2
AcDbPolyline
  3
AutoCAD 2000
 90
    32768
280
     0
281
     1
  0
CLASS
  1
HATCH
  2
AcDbHatch
  3
AutoCAD 2000
 90
    32768
280
     0
281
     1
  0
CLASS
  1
XRECORD
  2
AcDbXrecord
  3
AutoCAD 2000
 90
    32768
280
     0
281
     0
  0
CLASS
  1
LONG_TRANSACTION
  2
AcDbLongTransaction
  3
AutoCAD 2000
 90
    32768
280
     0
281
     0
  0
CLASS
  1
LWPOLYLINE
  2
AcDbPolyline
  3
AutoCAD 2000
 90
    32768
280
     0
281
     1
  0
CLASS
  1
HATCH
  2
AcDbHatch
  3
AutoCAD 2000
 90
    32768
280
     0
281
     1
  0
CLASS
  1
XRECORD
  2
AcDbXrecord
  3
AutoCAD 2000
 90
    32768
280
     0
281
     0
  0
CLASS
  1
LONG_TRANSACTION
  2
AcDbLongTransaction
  3
AutoCAD 2000
 90
    32768
280
     0
281
     0
  0
CLASS
  1
LWPOLYLINE
  2
AcDbPolyline
  3
AutoCAD 2000
 90
    32768
280
     0
281
     1
  0
CLASS
  1
HATCH
  2
AcDbHatch
  3
AutoCAD 2000
 90
    32768
280
     0
281
     1
  0
CLASS
  1
XRECORD
  2
AcDbXrecord
  3
AutoCAD 2000
 90
    32768
280
     0
281
     0
  0
CLASS
  1
LONG_TRANSACTION
  2
AcDbLongTransaction
  3
AutoCAD 2000
 90
    32768
280
     0
281
     0
  0
CLASS
  1
LWPOLYLINE
  2
AcDbPolyline
  3
AutoCAD 2000
 90
    32768
280
     0
281
     1
  0
CLASS
  1
HATCH
  2
AcDbHatch
  3
AutoCAD 2000
 90
    32768
280
     0
281
     1
  0
CLASS
  1
XRECORD
  2
AcDbXrecord
  3
AutoCAD 2000
 90
    32768
280
     0
281
     0
  0
CLASS
  1
LONG_TRANSACTION
  2
AcDbLongTransaction
  3
AutoCAD 2000
 90
    32768
280
     0
281
     0
  0
CLASS
  1
LWPOLYLINE
  2
AcDbPolyline
  3
AutoCAD 2000
 90
    32768
280
     0
281
     1
  0
CLASS
  1
HATCH
  2
AcDbHatch
  3
AutoCAD 2000
 90
    32768
280
     0
281
     1
  0
CLASS
  1
XRECORD
  2
AcDbXrecord
  3
AutoCAD 2000
 90
    32768
280
     0
281
     0
  0
CLASS
  1
LONG_TRANSACTION
  2
AcDbLongTransaction
  3
AutoCAD 2000
 90
    32768
280
     0
281
     0
  0
CLASS
  1
LWPOLYLINE
  2
AcDbPolyline
  3
AutoCAD 2000
 90
    32768
280
     0
281
     1
  0
CLASS
  1
HATCH
  2
AcDbHatch
  3
AutoCAD 2000
 90
    32768
280
     0
281
     1
  0
CLASS
  1
XRECORD
  2
AcDbXrecord
  3
AutoCAD 2000
 90
    32768
280
     0
281
     0
  0
CLASS
  1
LONG_TRANSACTION
  2
AcDbLongTransaction
  3
AutoCAD 2000
 90
    32768
280
     0
281
     0
  0
CLASS
  1
LWPOLYLINE
  2
AcDbPolyline
  3
AutoCAD 2000
 90
    32768
280
     0
281
     1
  0
CLASS
  1
HATCH
  2
AcDbHatch
  3
AutoCAD 2000
 90
    32768
280
     0
281
     1
  0
CLASS
  1
XRECORD
  2
AcDbXrecord
  3
AutoCAD 2000
 90
    32768
280
     0
281
     0
  0
CLASS
  1
LONG_TRANSACTION
  2
AcDbLongTransaction
  3
AutoCAD 2000
 90
    32768
280
     0
281
     0
  0
CLASS
  1
LWPOLYLINE
  2
AcDbPolyline
  3
AutoCAD 2000
 90
    32768
280
     0
281
     1
  0
CLASS
  1
HATCH
  2
AcDbHatch
  3
AutoCAD 2000
 90
    32768
280
     0
281
     1
  0
CLASS
  1
XRECORD
  2
AcDbXrecord
  3
AutoCAD 2000
 90
    32768
280
     0
281
     0
  0
CLASS
  1
LONG_TRANSACTION
  2
AcDbLongTransaction
  3
AutoCAD 2000
 90
    32768
280
     0
281
     0
  0
CLASS
  1
LWPOLYLINE
  2
AcDbPolyline
  3
AutoCAD 2000
 90
    32768
280
     0
281
     1
  0
CLASS
  1
HATCH
  2
AcDbHatch
  3
AutoCAD 2000
 90
    32768
280
     0
281
     1
  0
CLASS
  1
XRECORD
  2
AcDbXrecord
  3
AutoCAD 2000
 90
    32768
280
     0
281
     0
  0
CLASS
  1
LONG_TRANSACTION
  2
AcDbLongTransaction
  3
AutoCAD 2000
 90
    32768
280
     0
281
     0
  0
CLASS
  1
LWPOLYLINE
  2
AcDbPolyline
  3
AutoCAD 2000
 90
    32768
280
     0
281
     1
  0
CLASS
  1
HATCH
  2
AcDbHatch
  3
AutoCAD 2000
 90
    32768
280
     0
281
     1
  0
CLASS
  1
XRECORD
  2
AcDbXrecord
  3
AutoCAD 2000
 90
    32768
280
     0
281
     0
  0
CLASS
  1
LONG_TRANSACTION
  2
AcDbLongTransaction
  3
AutoCAD 2000
 90
    32768
280
     0
281
     0
  0
CLASS
  1
LWPOLYLINE
  2
AcDbPolyline
  3
AutoCAD 2000
 90
    32768
280
     0
281
     1
  0
CLASS
  1
HATCH
  2
AcDbHatch
  3
AutoCAD 2000
 90
    32768
280
     0
281
     1
  0
CLASS
  1
XRECORD
  2
AcDbXrecord
  3
AutoCAD 2000
 90
    32768
280
     0
281
     0
  0
CLASS
  1
LONG_TRANSACTION
  2
AcDbLongTransaction
  3
AutoCAD 2000
 90
    32768
280
     0
281
     0
  0
CLASS
  1
LWPOLYLINE
  2
AcDbPolyline
  3
AutoCAD 2000
 90
    32768
280
     0
281
     1
  0
CLASS
  1
HATCH
  2
AcDbHatch
  3
AutoCAD 2000
 90
    32768
280
     0
281
     1
  0
CLASS
  1
XRECORD
  2
AcDbXrecord
  3
AutoCAD 2000
 90
    32768
280
     0
281
     0
  0
CLASS
  1
LONG_TRANSACTION
  2
AcDbLongTransaction
  3
AutoCAD 2000
 90
    32768
280
     0
281
     0
  0
CLASS
  1
LWPOLYLINE
  2
AcDbPolyline
  3
AutoCAD 2000
 90
    32768
280
     0
281
     1
  0
CLASS
  1
HATCH
  2
AcDbHatch
  3
AutoCAD 2000
 90
    32768
280
     0
281
     1
  0
CLASS
  1
XRECORD
  2
AcDbXrecord
  3
AutoCAD 2000
 90
    32768
280
     0
281
     0
  0
CLASS
  1
LONG_TRANSACTION
  2
AcDbLongTransaction
  3
AutoCAD 2000
 90
    32768
280
     0
281
     0
  0
CLASS
  1
LWPOLYLINE
  2
AcDbPolyline
  3
AutoCAD 2000
 90
    32768
280
     0
281
     1
  0
CLASS
  1
HATCH
  2
AcDbHatch
  3
AutoCAD 2000
 90
    32768
280
     0
281
     1
  0
CLASS
  1
XRECORD
  2
AcDbXrecord
  3
AutoCAD 2000
 90
    32768
280
     0
281
     0
  0
CLASS
  1
LONG_TRANSACTION
  2
AcDbLongTransaction
  3
AutoCAD 2000
 90
    32768
280
     0
281
     0
  0
CLASS
  1
LWPOLYLINE
  2
AcDbPolyline
  3
AutoCAD 2000
 90
    32768
280
     0
281
     1
  0
CLASS
  1
HATCH
  2
AcDbHatch
  3
AutoCAD 2000
 90
    32768
280
     0
281
     1
  0
CLASS
  1
XRECORD
  2
AcDbXrecord
  3
AutoCAD 2000
 90
    32768
280
     0
281
     0
  0
CLASS
  1
LONG_TRANSACTION
  2
AcDbLongTransaction
  3
AutoCAD 2000
 90
    32768
280
     0
281
     0
  0
CLASS
  1
LWPOLYLINE
  2
AcDbPolyline
  3
AutoCAD 2000
 90
    32768
280
     0
281
     1
  0
CLASS
  1
HATCH
  2
AcDbHatch
  3
AutoCAD 2000
 90
    32768
280
     0
281
     1
  0
CLASS
  1
XRECORD
  2
AcDbXrecord
  3
AutoCAD 2000
 90
    32768
280
     0
281
     0
  0
CLASS
  1
LONG_TRANSACTION
  2
AcDbLongTransaction
  3
AutoCAD 2000
 90
    32768
280
     0
281
     0
  0
CLASS
  1
LWPOLYLINE
  2
AcDbPolyline
  3
AutoCAD 2000
 90
    32768
280
     0
281
     1
  0
CLASS
  1
HATCH
  2
AcDbHatch
  3
AutoCAD 2000
 90
    32768
280
     0
281
     1
  0
CLASS
  1
XRECORD
  2
AcDbXrecord
  3
AutoCAD 2000
 90
    32768
280
     0
281
     0
  0
CLASS
  1
LONG_TRANSACTION
  2
AcDbLongTransaction
  3
AutoCAD 2000
 90
    32768
280
     0
281
     0
  0
CLASS
  1
LWPOLYLINE
  2
AcDbPolyline
  3
AutoCAD 2000
 90
    32768
280
     0
281
     1
  0
CLASS
  1
HATCH
  2
AcDbHatch
  3
AutoCAD 2000
 90
    32768
280
     0
281
     1
  0
CLASS
  1
XRECORD
  2
AcDbXrecord
  3
AutoCAD 2000
 90
    32768
280
     0
281
     0
  0
CLASS
  1
LONG_TRANSACTION
  2
AcDbLongTransaction
  3
AutoCAD 2000
 90
    32768
280
     0
281
     0
  0
CLASS
  1
LWPOLYLINE
  2
AcDbPolyline
  3
AutoCAD 2000
 90
    32768
280
     0
281
     1
  0
CLASS
  1
HATCH
  2
AcDbHatch
  3
AutoCAD 2000
 90
    32768
280
     0
281
     1
  0
CLASS
  1
XRECORD
  2
AcDbXrecord
  3
AutoCAD 2000
 90
    32768
280
     0
281
     0
  0
CLASS
  1
LONG_TRANSACTION
  2
AcDbLongTransaction
  3
AutoCAD 2000
 90
    32768
280
     0
281
     0
  0
CLASS
  1
LWPOLYLINE
  2
AcDbPolyline
  3
AutoCAD 2000
 90
    32768
280
     0
281
     1
  0
CLASS
  1
HATCH
  2
AcDbHatch
  3
AutoCAD 2000
 90
    32768
280
     0
281
     1
  0
CLASS
  1
XRECORD
  2
AcDbXrecord
  3
AutoCAD 2000
 90
    32768
280
     0
281
     0
  0
CLASS
  1
LONG_TRANSACTION
  2
AcDbLongTransaction
  3
AutoCAD 2000
 90
    32768
280
     0
281
     0
  0
CLASS
  1
LWPOLYLINE
  2
AcDbPolyline
  3
AutoCAD 2000
 90
    32768
280
     0
281
     1
  0
CLASS
  1
HATCH
  2
AcDbHatch
  3
AutoCAD 2000
 90
    32768
280
     0
281
     1
  0
CLASS
  1
XRECORD
  2
AcDbXrecord
  3
AutoCAD 2000
 90
    32768
280
     0
281
     0
  0
CLASS
  1
LONG_TRANSACTION
  2
AcDbLongTransaction
  3
AutoCAD 2000
 90
    32768
280
     0
281
     0
  0
CLASS
  1
LWPOLYLINE
  2
AcDbPolyline
  3
AutoCAD 2000
 90
    32768
280
     0
281
     1
  0
CLASS
  1
HATCH
  2
AcDbHatch
  3
AutoCAD 2000
 90
    32768
280
     0
281
     1
  0
CLASS
  1
XRECORD
  2
AcDbXrecord
  3
AutoCAD 2000
 90
    32768
280
     0
281
     0
  0
CLASS
  1
LONG_TRANSACTION
  2
AcDbLongTransaction
  3
AutoCAD 2000
 90
    32768
280
     0
281
     0
  0
CLASS
  1
LWPOLYLINE
  2
AcDbPolyline
  3
AutoCAD 2000
 90
    32768
280
     0
281
     1
  0
CLASS
  1
HATCH
  2
AcDbHatch
  3
AutoCAD 2000
 90
    32768
280
     0
281
     1
  0
CLASS
  1
XRECORD
  2
AcDbXrecord
  3
AutoCAD 2000
 90
    32768
280
     0
281
     0
  0
CLASS
  1
LONG_TRANSACTION
  2
AcDbLongTransaction
  3
AutoCAD 2000
 90
    32768
280
     0
281
     0
  0
CLASS
  1
LWPOLYLINE
  2
AcDbPolyline
  3
AutoCAD 2000
 90
    32768
280
     0
281
     1
  0
CLASS
  1
HATCH
  2
AcDbHatch
  3
AutoCAD 2000
 90
    32768
280
     0
281
     1
  0
CLASS
  1
XRECORD
  2
AcDbXrecord
  3
AutoCAD 2000
 90
    32768
280
     0
281
     0
  0
CLASS
  1
LONG_TRANSACTION
  2
AcDbLongTransaction
  3
AutoCAD 2000
 90
    32768
280
     0
281
     0
  0
CLASS
  1
LWPOLYLINE
  2
AcDbPolyline
  3
AutoCAD 2000
 90
    32768
280
     0
281
     1
  0
CLASS
  1
HATCH
  2
AcDbHatch
  3
AutoCAD 2000
 90
    32768
280
     0
281
     1
  0
CLASS
  1
XRECORD
  2
AcDbXrecord
  3
AutoCAD 2000
 90
    32768
280
     0
281
     0
  0
CLASS
  1
LONG_TRANSACTION
  2
AcDbLongTransaction
  3
AutoCAD 2000
 90
    32768
280
     0
281
     0
  0
CLASS
  1
LWPOLYLINE
  2
AcDbPolyline
  3
AutoCAD 2000
 90
    32768
280
     0
281
     1
  0
CLASS
  1
HATCH
  2
AcDbHatch
  3
AutoCAD 2000
 90
    32768
280
     0
281
     1
  0
CLASS
  1
XRECORD
  2
AcDbXrecord
  3
AutoCAD 2000
 90
    32768
280
     0
281
     0
  0
CLASS
  1
LONG_TRANSACTION
  2
AcDbLongTransaction
  3
AutoCAD 2000
 90
    32768
280
     0
281
     0
  0
CLASS
  1
LWPOLYLINE
  2
AcDbPolyline
  3
AutoCAD 2000
 90
    32768
280
     0
281
     1
  0
CLASS
  1
HATCH
  2
AcDbHatch
  3
AutoCAD 2000
 90
    32768
280
     0
281
     1
  0
CLASS
  1
XRECORD
  2
AcDbXrecord
  3
AutoCAD 2000
 90
    32768
280
     0
281
     0
  0
CLASS
  1
LONG_TRANSACTION
  2
AcDbLongTransaction
  3
AutoCAD 2000
 90
    32768
280
     0
281
     0
  0
CLASS
  1
LWPOLYLINE
  2
AcDbPolyline
  3
AutoCAD 2000
 90
    32768
280
     0
281
     1
  0
CLASS
  1
HATCH
  2
AcDbHatch
  3
AutoCAD 2000
 90
    32768
280
     0
281
     1
  0
CLASS
  1
XRECORD
  2
AcDbXrecord
  3
AutoCAD 2000
 90
    32768
280
     0
281
     0
  0
CLASS
  1
LONG_TRANSACTION
  2
AcDbLongTransaction
  3
AutoCAD 2000
 90
    32768
280
     0
281
     0
  0
CLASS
  1
LWPOLYLINE
  2
AcDbPolyline
  3
AutoCAD 2000
 90
    32768
280
     0
281
     1
  0
CLASS
  1
HATCH
  2
AcDbHatch
  3
AutoCAD 2000
 90
    32768
280
     0
281
     1
  0
CLASS
  1
XRECORD
  2
AcDbXrecord
  3
AutoCAD 2000
 90
    32768
280
     0
281
     0
  0
CLASS
  1
LONG_TRANSACTION
  2
AcDbLongTransaction
  3
AutoCAD 2000
 90
    32768
280
     0
281
     0
  0
CLASS
  1
LWPOLYLINE
  2
AcDbPolyline
  3
AutoCAD 2000
 90
    32768
280
     0
281
     1
  0
CLASS
  1
HATCH
  2
AcDbHatch
  3
AutoCAD 2000
 90
    32768
280
     0
281
     1
  0
CLASS
  1
XRECORD
  2
AcDbXrecord
  3
AutoCAD 2000
 90
    32768
280
     0
281
     0
  0
CLASS
  1
LONG_TRANSACTION
  2
AcDbLongTransaction
  3
AutoCAD 2000
 90
    32768
280
     0
281
     0
  0
CLASS
  1
LWPOLYLINE
  2
AcDbPolyline
  3
AutoCAD 2000
 90
    32768
280
     0
281
     1
  0
CLASS
  1
HATCH
  2
AcDbHatch
  3
AutoCAD 2000
 90
    32768
280
     0
281
     1
  0
CLASS
  1
XRECORD
  2
AcDbXrecord
  3
AutoCAD 2000
 90
    32768
280
     0
281
     0
  0
CLASS
  1
LONG_TRANSACTION
  2
AcDbLongTransaction
  3
AutoCAD 2000
 90
    32768
280
     0
281
     0
  0
CLASS
  1
LWPOLYLINE
  2
AcDbPolyline
  3
AutoCAD 2000
 90
    32768
280
     0
281
     1
  0
CLASS
  1
HATCH
  2
AcDbHatch
  3
AutoCAD 2000
 90
    32768
280
     0
281
     1
  0
CLASS
  1
XRECORD
  2
AcDbXrecord
  3
AutoCAD 2000
 90
    32768
280
     0
281
     0
  0
CLASS
  1
LONG_TRANSACTION
  2
AcDbLongTransaction
  3
AutoCAD 2000
 90
    32768
280
     0
281
     0
  0
CLASS
  1
LWPOLYLINE
  2
AcDbPolyline
  3
AutoCAD 2000
 90
    32768
280
     0
281
     1
  0
CLASS
  1
HATCH
  2
AcDbHatch
  3
AutoCAD 2000
 90
    32768
280
     0
281
     1
  0
CLASS
  1
XRECORD
  2
AcDbXrecord
  3
AutoCAD 2000
 90
    32768
280
     0
281
     0
  0
CLASS
  1
LONG_TRANSACTION
  2
AcDbLongTransaction
  3
AutoCAD 2000
 90
    32768
280
     0
281
     0
  0
CLASS
  1
LWPOLYLINE
  2
AcDbPolyline
  3
AutoCAD 2000
 90
    32768
280
     0
281
     1
  0
CLASS
  1
HATCH
  2
AcDbHatch
  3
AutoCAD 2000
 90
    32768
280
     0
281
     1
  0
CLASS
  1
XRECORD
  2
AcDbXrecord
  3
AutoCAD 2000
 90
    32768
280
     0
281
     0
  0
CLASS
  1
LONG_TRANSACTION
  2
AcDbLongTransaction
  3
AutoCAD 2000
 90
    32768
280
     0
281
     0
  0
CLASS
  1
LWPOLYLINE
  2
AcDbPolyline
  3
AutoCAD 2000
 90
    32768
280
     0
281
     1
  0
CLASS
  1
HATCH
  2
AcDbHatch
  3
AutoCAD 2000
 90
    32768
280
     0
281
     1
  0
CLASS
  1
XRECORD
  2
AcDbXrecord
  3
AutoCAD 2000
 90
    32768
280
     0
281
     0
  0
CLASS
  1
LONG_TRANSACTION
  2
AcDbLongTransaction
  3
AutoCAD 2000
 90
    32768
280
     0
281
     0
  0
CLASS
  1
LWPOLYLINE
  2
AcDbPolyline
  3
AutoCAD 2000
 90
    32768
280
     0
281
     1
  0
CLASS
  1
HATCH
  2
AcDbHatch
  3
AutoCAD 2000
 90
    32768
280
     0
281
     1
  0
CLASS
  1
XRECORD
  2
AcDbXrecord
  3
AutoCAD 2000
 90
    32768
280
     0
281
     0
  0
CLASS
  1
LONG_TRANSACTION
  2
AcDbLongTransaction
  3
AutoCAD 2000
 90
    32768
280
     0
281
     0
  0
CLASS
  1
LWPOLYLINE
  2
AcDbPolyline
  3
AutoCAD 2000
 90
    32768
280
     0
281
     1
  0
CLASS
  1
HATCH
  2
AcDbHatch
  3
AutoCAD 2000
 90
    32768
280
     0
281
     1
  0
CLASS
  1
XRECORD
  2
AcDbXrecord
  3
AutoCAD 2000
 90
    32768
280
     0
281
     0
  0
CLASS
  1
LONG_TRANSACTION
  2
AcDbLongTransaction
  3
AutoCAD 2000
 90
    32768
280
     0
281
     0
  0
CLASS
  1
LWPOLYLINE
  2
AcDbPolyline
  3
AutoCAD 2000
 90
    32768
280
     0
281
     1
  0
CLASS
  1
HATCH
  2
AcDbHatch
  3
AutoCAD 2000
 90
    32768
280
     0
281
     1
  0
CLASS
  1
XRECORD
  2
AcDbXrecord
  3
AutoCAD 2000
 90
    32768
280
     0
281
     0
  0
CLASS
  1
LONG_TRANSACTION
  2
AcDbLongTransaction
  3
AutoCAD 2000
 90
    32768
280
     0
281
     0
  0
CLASS
  1
LWPOLYLINE
  2
AcDbPolyline
  3
AutoCAD 2000
 90
    32768
280
     0
281
     1
  0
CLASS
  1
HATCH
  2
AcDbHatch
  3
AutoCAD 2000
 90
    32768
280
     0
281
     1
  0
CLASS
  1
XRECORD
  2
AcDbXrecord
  3
AutoCAD 2000
 90
    32768
280
     0
281
     0
  0
ENDSEC
  0
SECTION
  2
TABLES
  0
TABLE
  2
VPORT
  5
1D
330
0
100
AcDbSymbolTable
 70
     2
  0
VPORT
  5
5121
330
1D
100
AcDbSymbolTableRecord
100
AcDbViewportTableRecord
  2
*Active
 70
     0
 10
0.0
 20
0.0
 11
1.0
 21
1.0
 12
332.2602298191105
 22
91.12814487476788
 13
0.0
 23
0.0
 14
7.0
 24
7.0
 15
10.0
 25
10.0
 16
0.0
 26
0.0
 36
1.0
 17
0.0
 27
0.0
 37
0.0
 40
581.0113077603793
 41
1.520467836257309
 42
50.0
 43
0.0
 44
0.0
 50
0.0
 51
0.0
 71
     0
 72
   100
 73
     1
 74
     0
 75
     0
 76
     0
 77
     0
 78
     0
281
     0
 65
     1
110
0.0
120
0.0
130
0.0
111
1.0
121
0.0
131
0.0
112
0.0
122
1.0
132
0.0
 79
     0
146
0.0
  0
ENDTAB
  0
TABLE
  2
LTYPE
  5
18
330
0
100
AcDbSymbolTable
 70
     2
  0
LTYPE
  5
19
330
18
100
AcDbSymbolTableRecord
100
AcDbLinetypeTableRecord
  2
BYBLOCK
 70
     0
  3

 72
    65
 73
     0
 40
0.0
  0
LTYPE
  5
1A
330
18
100
AcDbSymbolTableRecord
100
AcDbLinetypeTableRecord
  2
BYLAYER
 70
     0
  3

 72
    65
 73
     0
 40
0.0
  0
LTYPE
  5
9
330
18
100
AcDbSymbolTableRecord
100
AcDbLinetypeTableRecord
  2
CONTINUOUS
 70
     0
  3
Solid line
 72
    65
 73
     0
 40
0.0
  0
LTYPE
  5
12E
330
18
100
AcDbSymbolTableRecord
100
AcDbLinetypeTableRecord
  2
CENTER
 70
     0
  3
____ _ ____ _ ____ _ ____ _ ____ _ ____ _ ____ 
 72
    65
 73
     4
 40
2.0
 49
1.25
 74
     0
 49
-0.25
 74
     0
 49
0.25
 74
     0
 49
-0.25
 74
     0
  0
ENDTAB
  0
TABLE
  2
LAYER
  5
12
102
{ACAD_XDICTIONARY
360
13
102
}
330
0
100
AcDbSymbolTable
 70
     4
  0
LAYER
  5
5
330
12
100
AcDbSymbolTableRecord
100
AcDbLayerTableRecord
  2
0
 70
     0
 62
     7
  6
CONTINUOUS
370
    -3
390
6
  0
LAYER
  5
36
330
12
100
AcDbSymbolTableRecord
100
AcDbLayerTableRecord
  2
ADM
 70
     0
 62
     4
  6
CONTINUOUS
370
    -3
390
6
  0
LAYER
  5
118
330
12
100
AcDbSymbolTableRecord
100
AcDbLayerTableRecord
  2
DEFPOINTS
 70
     0
 62
     7
  6
CONTINUOUS
290
     0
370
    -3
390
6
  0
LAYER
  5
29
330
12
100
AcDbSymbolTableRecord
100
AcDbLayerTableRecord
  2
AHJ
 70
     0
 62
     1
  6
CONTINUOUS
370
    -3
390
6
  0
ENDTAB
  0
TABLE
  2
STYLE
  5
15
330
0
100
AcDbSymbolTable
 70
     2
  0
STYLE
  5
16
330
15
100
AcDbSymbolTableRecord
100
AcDbTextStyleTableRecord
  2
STANDARD
 70
     0
 40
0.0
 41
0.8
 50
0.0
 71
     0
 42
5.0
  3
romans.shx
  4
extfont.shx
  0
STYLE
  5
32
330
15
100
AcDbSymbolTableRecord
100
AcDbTextStyleTableRecord
  2
STD
 70
     0
 40
0.0
 41
1.0
 50
0.0
 71
     0
 42
3.0
  3
TXT
  4
BIGFONT.shx
  0
ENDTAB
  0
TABLE
  2
VIEW
  5
1B
330
0
100
AcDbSymbolTable
 70
     0
  0
ENDTAB
  0
TABLE
  2
UCS
  5
1C
330
0
100
AcDbSymbolTable
 70
     0
  0
ENDTAB
  0
TABLE
  2
APPID
  5
1F
330
0
100
AcDbSymbolTable
 70
     7
  0
APPID
  5
20
330
1F
100
AcDbSymbolTableRecord
100
AcDbRegAppTableRecord
  2
ACAD
 70
     0
  0
APPID
  5
8EA
330
1F
100
AcDbSymbolTableRecord
100
AcDbRegAppTableRecord
  2
CONTENTBLOCKICON
 70
     0
  0
APPID
  5
2389
330
1F
100
AcDbSymbolTableRecord
100
AcDbRegAppTableRecord
  2
GENIUS_GENODEF_13
 70
     0
  0
APPID
  5
238A
330
1F
100
AcDbSymbolTableRecord
100
AcDbRegAppTableRecord
  2
GENIUS_GENOBJ-N-CEN_13
 70
     0
  0
APPID
  5
238B
330
1F
100
AcDbSymbolTableRecord
100
AcDbRegAppTableRecord
  2
GENIUS_GENOBJ-N-FIL_13
 70
     0
  0
APPID
  5
238C
330
1F
100
AcDbSymbolTableRecord
100
AcDbRegAppTableRecord
  2
GENIUS_GENREC_14
 70
     0
  0
APPID
  5
238D
330
1F
100
AcDbSymbolTableRecord
100
AcDbRegAppTableRecord
  2
GENIUS_GENOBJ-N-REC_13
 70
     0
  0
ENDTAB
  0
TABLE
  2
DIMSTYLE
  5
21
330
0
100
AcDbSymbolTable
 70
     2
100
AcDbDimStyleTable
 71
     1
340
34
  0
DIMSTYLE
105
34
102
{ACAD_REACTORS
330
167
330
59B
330
2CA
330
3C38
330
3C76
330
3ED6
330
3F03
330
4508
330
469E
330
46B8
330
46C5
330
46DC
330
4A21
330
4A2E
330
4A3C
330
4A52
330
4A69
330
4D9B
330
4DA8
330
4E66
330
5106
102
}
330
21
100
AcDbSymbolTableRecord
100
AcDbDimStyleTableRecord
  2
1
 70
     0
 41
0.8
 42
1.5
 43
3.0
 44
1.199999999999999
 73
     0
 74
     0
 77
     3
 78
     8
 79
     2
140
3.0
141
0.0
143
0.03937
147
1.0
171
     1
173
     1
179
     2
271
     2
272
     2
274
     1
279
     2
284
     8
340
16
341
2D
343
2D
344
2D
  0
DIMSTYLE
105
34FF
330
21
100
AcDbSymbolTableRecord
100
AcDbDimStyleTableRecord
  2
Standard
 70
     0
340
16
  0
ENDTAB
  0
TABLE
  2
BLOCK_RECORD
  5
1
330
0
100
AcDbSymbolTable
 70
    23
  0
BLOCK_RECORD
  5
2
102
{ACAD_XDICTIONARY
360
3
102
}
330
1
100
AcDbSymbolTableRecord
100
AcDbBlockTableRecord
  2
*MODEL_SPACE
340
B
  0
BLOCK_RECORD
  5
D
102
{ACAD_XDICTIONARY
360
E
102
}
330
1
100
AcDbSymbolTableRecord
100
AcDbBlockTableRecord
  2
*PAPER_SPACE
340
11
  0
BLOCK_RECORD
  5
2D
330
1
100
AcDbSymbolTableRecord
100
AcDbBlockTableRecord
  2
_DOT
340
0
  0
BLOCK_RECORD
  5
27
330
1
100
AcDbSymbolTableRecord
100
AcDbBlockTableRecord
  2
DOT
340
0
102
{BLKREFS
331
4DD8
331
4DD9
331
4DE1
331
4DE2
331
4E29
331
4E2A
331
4E0E
331
4E0F
331
4E17
331
4E18
331
4E32
331
4E33
331
4DEA
331
4DEB
331
4E20
331
4E21
331
4DCF
331
4DD0
331
4E56
331
4E57
331
4E4D
331
4E4E
331
4DBD
331
4DBE
331
4F1F
331
4F20
331
4F28
331
4F29
331
4F31
331
4F32
331
4F3A
331
4F3B
331
4F43
331
4F44
331
4F4C
331
4F4D
331
4F55
331
4F56
331
4F5E
331
4F5F
331
510B
331
510C
102
}
  0
BLOCK_RECORD
  5
E81
330
1
100
AcDbSymbolTableRecord
100
AcDbBlockTableRecord
  2
*D2
340
0
  0
BLOCK_RECORD
  5
EC6
330
1
100
AcDbSymbolTableRecord
100
AcDbBlockTableRecord
  2
*D3
340
0
  0
BLOCK_RECORD
  5
FED
330
1
100
AcDbSymbolTableRecord
100
AcDbBlockTableRecord
  2
*D4
340
0
  0
BLOCK_RECORD
  5
3C39
330
1
100
AcDbSymbolTableRecord
100
AcDbBlockTableRecord
  2
*D5
340
0
  0
BLOCK_RECORD
  5
3C77
330
1
100
AcDbSymbolTableRecord
100
AcDbBlockTableRecord
  2
*D6
340
0
  0
BLOCK_RECORD
  5
3ED7
330
1
100
AcDbSymbolTableRecord
100
AcDbBlockTableRecord
  2
*D7
340
0
  0
BLOCK_RECORD
  5
3F04
330
1
100
AcDbSymbolTableRecord
100
AcDbBlockTableRecord
  2
*D8
340
0
  0
BLOCK_RECORD
  5
4509
330
1
100
AcDbSymbolTableRecord
100
AcDbBlockTableRecord
  2
*D9
340
0
  0
BLOCK_RECORD
  5
469F
330
1
100
AcDbSymbolTableRecord
100
AcDbBlockTableRecord
  2
*D10
340
0
  0
BLOCK_RECORD
  5
46B9
330
1
100
AcDbSymbolTableRecord
100
AcDbBlockTableRecord
  2
*D11
340
0
  0
BLOCK_RECORD
  5
46C6
330
1
100
AcDbSymbolTableRecord
100
AcDbBlockTableRecord
  2
*D12
340
0
  0
BLOCK_RECORD
  5
46DD
330
1
100
AcDbSymbolTableRecord
100
AcDbBlockTableRecord
  2
*D13
340
0
  0
BLOCK_RECORD
  5
4A22
330
1
100
AcDbSymbolTableRecord
100
AcDbBlockTableRecord
  2
*D14
340
0
  0
BLOCK_RECORD
  5
4A2F
330
1
100
AcDbSymbolTableRecord
100
AcDbBlockTableRecord
  2
*D15
340
0
  0
BLOCK_RECORD
  5
4A3D
330
1
100
AcDbSymbolTableRecord
100
AcDbBlockTableRecord
  2
*D16
340
0
  0
BLOCK_RECORD
  5
4A53
330
1
100
AcDbSymbolTableRecord
100
AcDbBlockTableRecord
  2
*D17
340
0
  0
BLOCK_RECORD
  5
4A6A
330
1
100
AcDbSymbolTableRecord
100
AcDbBlockTableRecord
  2
*D18
340
0
  0
BLOCK_RECORD
  5
4D9C
330
1
100
AcDbSymbolTableRecord
100
AcDbBlockTableRecord
  2
*D19
340
0
  0
BLOCK_RECORD
  5
4DA9
330
1
100
AcDbSymbolTableRecord
100
AcDbBlockTableRecord
  2
*D20
340
0
  0
BLOCK_RECORD
  5
4E67
330
1
100
AcDbSymbolTableRecord
100
AcDbBlockTableRecord
  2
*D21
340
0
  0
BLOCK_RECORD
  5
5107
330
1
100
AcDbSymbolTableRecord
100
AcDbBlockTableRecord
  2
*D22
340
0
  0
ENDTAB
  0
ENDSEC
  0
SECTION
  2
BLOCKS
  0
BLOCK
  5
4
330
2
100
AcDbEntity
  8
0
100
AcDbBlockBegin
  2
*MODEL_SPACE
 70
     0
 10
0.0
 20
0.0
 30
0.0
  3
*MODEL_SPACE
  1

  0
ENDBLK
  5
A
330
2
100
AcDbEntity
  8
0
100
AcDbBlockEnd
  0
BLOCK
  5
F
330
D
100
AcDbEntity
 67
     1
  8
0
100
AcDbBlockBegin
  2
*PAPER_SPACE
 70
     0
 10
0.0
 20
0.0
 30
0.0
  3
*PAPER_SPACE
  1

  0
ENDBLK
  5
10
330
D
100
AcDbEntity
 67
     1
  8
0
100
AcDbBlockEnd
  0
BLOCK
  5
30
330
2D
100
AcDbEntity
  8
0
100
AcDbBlockBegin
  2
_DOT
 70
     0
 10
0.0
 20
0.0
 30
0.0
  3
_DOT
  1

  0
LWPOLYLINE
  5
2E
330
2D
100
AcDbEntity
  8
0
  6
ByBlock
 62
     0
100
AcDbPolyline
 90
        2
 70
     1
 43
0.5
 10
-0.25
 20
0.0
 42
1.0
 10
0.25
 20
0.0
 42
1.0
  0
LINE
  5
2F
330
2D
100
AcDbEntity
  8
0
  6
ByBlock
 62
     0
100
AcDbLine
 10
-0.5
 20
0.0
 30
0.0
 11
-1.0
 21
0.0
 31
0.0
  0
ENDBLK
  5
31
330
2D
100
AcDbEntity
  8
0
100
AcDbBlockEnd
  0
BLOCK
  5
2B
330
27
100
AcDbEntity
  8
0
100
AcDbBlockBegin
  2
DOT
 70
     0
 10
0.0
 20
0.0
 30
0.0
  3
DOT
  1

  0
LWPOLYLINE
  5
28
330
27
100
AcDbEntity
  8
AHJ
  6
ByBlock
 62
     0
100
AcDbPolyline
 90
        2
 70
     1
 43
0.5
 10
-0.25
 20
0.0
 42
1.0
 10
0.25
 20
0.0
 42
1.0
  0
LINE
  5
2A
330
27
100
AcDbEntity
  8
AHJ
  6
ByBlock
 62
     0
100
AcDbLine
 10
-0.5
 20
0.0
 30
0.0
 11
-1.0
 21
0.0
 31
0.0
  0
ENDBLK
  5
2C
330
27
100
AcDbEntity
  8
0
100
AcDbBlockEnd
  0
BLOCK
  5
E8B
330
E81
100
AcDbEntity
  8
0
100
AcDbBlockBegin
  2
*D2
 70
     1
 10
0.0
 20
0.0
 30
0.0
  3
*D2
  1

  0
LINE
  5
4DD5
330
E81
100
AcDbEntity
  8
ADM
 62
     0
370
    -2
100
AcDbLine
 10
65.54884696209256
 20
188.2117229031095
 30
0.0
 11
16.8807651098775
 21
188.2117229031095
 31
0.0
  0
LINE
  5
4DD6
330
E81
100
AcDbEntity
  8
ADM
 62
     0
370
    -2
100
AcDbLine
 10
64.01516167011312
 20
124.8875752872072
 30
0.0
 11
16.88076510987749
 21
124.8875752872072
 31
0.0
  0
LINE
  5
4DD7
330
E81
100
AcDbEntity
  8
ADM
 62
     0
370
    -2
100
AcDbLine
 10
18.08076510987751
 20
187.4117229031095
 30
0.0
 11
18.08076510987749
 21
125.6875752872072
 31
0.0
  0
INSERT
  5
4DD8
330
E81
100
AcDbEntity
  8
ADM
 62
     0
370
    -2
100
AcDbBlockReference
  2
DOT
 10
18.08076510987751
 20
188.2117229031095
 30
0.0
 41
0.8
 42
0.8
 43
0.8
 50
90.0
  0
INSERT
  5
4DD9
330
E81
100
AcDbEntity
  8
ADM
 62
     0
370
    -2
100
AcDbBlockReference
  2
DOT
 10
18.08076510987749
 20
124.8875752872072
 30
0.0
 41
0.8
 42
0.8
 43
0.8
 50
270.0
  0
MTEXT
  5
4DDA
330
E81
100
AcDbEntity
  8
ADM
 62
     0
100
AcDbMText
 10
15.58076510987747
 20
156.5496490951584
 30
0.0
 40
3.0
 41
0.0
 71
     5
 72
     5
  1
\A1;H-110
 11
0.0000000000000001
 21
1.0
 31
0.0
 73
     1
 44
1.0
  0
POINT
  5
4DDB
330
E81
100
AcDbEntity
  8
DEFPOINTS
 62
     0
100
AcDbPoint
 10
67.04884696209257
 20
188.2117229031095
 30
0.0
  0
POINT
  5
4DDC
330
E81
100
AcDbEntity
  8
DEFPOINTS
 62
     0
100
AcDbPoint
 10
65.51516167011311
 20
124.8875752872072
 30
0.0
  0
POINT
  5
4DDD
330
E81
100
AcDbEntity
  8
DEFPOINTS
 62
     0
100
AcDbPoint
 10
18.08076510987749
 20
124.8875752872072
 30
0.0
  0
ENDBLK
  5
E8C
330
E81
100
AcDbEntity
  8
0
100
AcDbBlockEnd
  0
BLOCK
  5
ED0
330
EC6
100
AcDbEntity
  8
0
100
AcDbBlockBegin
  2
*D3
 70
     1
 10
0.0
 20
0.0
 30
0.0
  3
*D3
  1

  0
LINE
  5
4DDE
330
EC6
100
AcDbEntity
  8
ADM
 62
     0
370
    -2
100
AcDbLine
 10
45.88076510987787
 20
59.39626101292376
 30
0.0
 11
45.88076510987787
 21
47.69626101292375
 31
0.0
  0
LINE
  5
4DDF
330
EC6
100
AcDbEntity
  8
ADM
 62
     0
370
    -2
100
AcDbLine
 10
75.88077898835223
 20
59.39626101292376
 30
0.0
 11
75.88077898835223
 21
47.69626101292375
 31
0.0
  0
LINE
  5
4DE0
330
EC6
100
AcDbEntity
  8
ADM
 62
     0
370
    -2
100
AcDbLine
 10
46.68076510987787
 20
48.89626101292376
 30
0.0
 11
75.08077898835224
 21
48.89626101292376
 31
0.0
  0
INSERT
  5
4DE1
330
EC6
100
AcDbEntity
  8
ADM
 62
     0
370
    -2
100
AcDbBlockReference
  2
DOT
 10
45.88076510987787
 20
48.89626101292376
 30
0.0
 41
0.8
 42
0.8
 43
0.8
 50
180.0
  0
INSERT
  5
4DE2
330
EC6
100
AcDbEntity
  8
ADM
 62
     0
370
    -2
100
AcDbBlockReference
  2
DOT
 10
75.88077898835223
 20
48.89626101292376
 30
0.0
 41
0.8
 42
0.8
 43
0.8
  0
MTEXT
  5
4DE3
330
EC6
100
AcDbEntity
  8
ADM
 62
     0
100
AcDbMText
 10
60.88077204911505
 20
51.39626101292376
 30
0.0
 40
3.0
 41
0.0
 71
     5
 72
     5
  1
\A1;30
 73
     1
 44
1.0
  0
POINT
  5
4DE4
330
EC6
100
AcDbEntity
  8
DEFPOINTS
 62
     0
100
AcDbPoint
 10
45.88076510987787
 20
60.89626101292377
 30
0.0
  0
POINT
  5
4DE5
330
EC6
100
AcDbEntity
  8
DEFPOINTS
 62
     0
100
AcDbPoint
 10
75.88077898835223
 20
60.89626101292377
 30
0.0
  0
POINT
  5
4DE6
330
EC6
100
AcDbEntity
  8
DEFPOINTS
 62
     0
100
AcDbPoint
 10
75.88077898835223
 20
48.89626101292376
 30
0.0
  0
ENDBLK
  5
ED1
330
EC6
100
AcDbEntity
  8
0
100
AcDbBlockEnd
  0
BLOCK
  5
FF7
330
FED
100
AcDbEntity
  8
0
100
AcDbBlockBegin
  2
*D4
 70
     1
 10
0.0
 20
0.0
 30
0.0
  3
*D4
  1

  0
LINE
  5
4E26
330
FED
100
AcDbEntity
  8
ADM
 62
     0
370
    -2
100
AcDbLine
 10
33.08076510987751
 20
234.4117229031095
 30
0.0
 11
33.08076510987751
 21
253.4117229031094
 31
0.0
  0
LINE
  5
4E27
330
FED
100
AcDbEntity
  8
ADM
 62
     0
370
    -2
100
AcDbLine
 10
97.08076510987758
 20
238.7117229031094
 30
0.0
 11
97.08076510987758
 21
253.4117229031094
 31
0.0
  0
LINE
  5
4E28
330
FED
100
AcDbEntity
  8
ADM
 62
     0
370
    -2
100
AcDbLine
 10
33.88076510987751
 20
252.2117229031095
 30
0.0
 11
96.28076510987758
 21
252.2117229031095
 31
0.0
  0
INSERT
  5
4E29
330
FED
100
AcDbEntity
  8
ADM
 62
     0
370
    -2
100
AcDbBlockReference
  2
DOT
 10
33.08076510987751
 20
252.2117229031095
 30
0.0
 41
0.8
 42
0.8
 43
0.8
 50
180.0
  0
INSERT
  5
4E2A
330
FED
100
AcDbEntity
  8
ADM
 62
     0
370
    -2
100
AcDbBlockReference
  2
DOT
 10
97.08076510987758
 20
252.2117229031095
 30
0.0
 41
0.8
 42
0.8
 43
0.8
  0
MTEXT
  5
4E2B
330
FED
100
AcDbEntity
  8
ADM
 62
     0
100
AcDbMText
 10
65.08076510987755
 20
254.7117229031095
 30
0.0
 40
3.0
 41
0.0
 71
     5
 72
     5
  1
\A1;64
 73
     1
 44
1.0
  0
POINT
  5
4E2C
330
FED
100
AcDbEntity
  8
DEFPOINTS
 62
     0
100
AcDbPoint
 10
33.08076510987751
 20
232.9117229031095
 30
0.0
  0
POINT
  5
4E2D
330
FED
100
AcDbEntity
  8
DEFPOINTS
 62
     0
100
AcDbPoint
 10
97.08076510987758
 20
237.2117229031094
 30
0.0
  0
POINT
  5
4E2E
330
FED
100
AcDbEntity
  8
DEFPOINTS
 62
     0
100
AcDbPoint
 10
97.08076510987758
 20
252.2117229031095
 30
0.0
  0
ENDBLK
  5
FF8
330
FED
100
AcDbEntity
  8
0
100
AcDbBlockEnd
  0
BLOCK
  5
3C43
330
3C39
100
AcDbEntity
  8
0
100
AcDbBlockBegin
  2
*D5
 70
     1
 10
0.0
 20
0.0
 30
0.0
  3
*D5
  1

  0
LINE
  5
4E0B
330
3C39
100
AcDbEntity
  8
ADM
 62
     0
370
    -2
100
AcDbLine
 10
75.88077898835223
 20
59.39626101292376
 30
0.0
 11
75.88077898835223
 21
47.69626101292375
 31
0.0
  0
LINE
  5
4E0C
330
3C39
100
AcDbEntity
  8
ADM
 62
     0
370
    -2
100
AcDbLine
 10
97.08076510987769
 20
62.39626101292379
 30
0.0
 11
97.08076510987769
 21
47.69626101292375
 31
0.0
  0
LINE
  5
4E0D
330
3C39
100
AcDbEntity
  8
ADM
 62
     0
370
    -2
100
AcDbLine
 10
76.68077898835223
 20
48.89626101292376
 30
0.0
 11
96.28076510987769
 21
48.89626101292376
 31
0.0
  0
INSERT
  5
4E0E
330
3C39
100
AcDbEntity
  8
ADM
 62
     0
370
    -2
100
AcDbBlockReference
  2
DOT
 10
75.88077898835223
 20
48.89626101292376
 30
0.0
 41
0.8
 42
0.8
 43
0.8
 50
180.0
  0
INSERT
  5
4E0F
330
3C39
100
AcDbEntity
  8
ADM
 62
     0
370
    -2
100
AcDbBlockReference
  2
DOT
 10
97.08076510987769
 20
48.89626101292376
 30
0.0
 41
0.8
 42
0.8
 43
0.8
  0
MTEXT
  5
4E10
330
3C39
100
AcDbEntity
  8
ADM
 62
     0
100
AcDbMText
 10
86.48077204911496
 20
51.39626101292376
 30
0.0
 40
3.0
 41
0.0
 71
     5
 72
     5
  1
\A1;21.2
 73
     1
 44
1.0
  0
POINT
  5
4E11
330
3C39
100
AcDbEntity
  8
DEFPOINTS
 62
     0
100
AcDbPoint
 10
75.88077898835223
 20
60.89626101292377
 30
0.0
  0
POINT
  5
4E12
330
3C39
100
AcDbEntity
  8
DEFPOINTS
 62
     0
100
AcDbPoint
 10
97.08076510987769
 20
63.89626101292378
 30
0.0
  0
POINT
  5
4E13
330
3C39
100
AcDbEntity
  8
DEFPOINTS
 62
     0
100
AcDbPoint
 10
97.08076510987769
 20
48.89626101292376
 30
0.0
  0
ENDBLK
  5
3C44
330
3C39
100
AcDbEntity
  8
0
100
AcDbBlockEnd
  0
BLOCK
  5
3C81
330
3C77
100
AcDbEntity
  8
0
100
AcDbBlockBegin
  2
*D6
 70
     1
 10
0.0
 20
0.0
 30
0.0
  3
*D6
  1

  0
LINE
  5
4E14
330
3C77
100
AcDbEntity
  8
ADM
 62
     0
370
    -2
100
AcDbLine
 10
95.88076510987788
 20
77.896261012924
 30
0.0
 11
113.2807651098777
 21
77.89626101292398
 31
0.0
  0
LINE
  5
4E15
330
3C77
100
AcDbEntity
  8
ADM
 62
     0
370
    -2
100
AcDbLine
 10
98.58076510987769
 20
63.89626101292378
 30
0.0
 11
113.2807651098777
 21
63.89626101292378
 31
0.0
  0
LINE
  5
4E16
330
3C77
100
AcDbEntity
  8
ADM
 62
     0
370
    -2
100
AcDbLine
 10
112.0807651098777
 20
77.09626101292399
 30
0.0
 11
112.0807651098777
 21
64.69626101292378
 31
0.0
  0
INSERT
  5
4E17
330
3C77
100
AcDbEntity
  8
ADM
 62
     0
370
    -2
100
AcDbBlockReference
  2
DOT
 10
112.0807651098777
 20
77.89626101292398
 30
0.0
 41
0.8
 42
0.8
 43
0.8
 50
90.0
  0
INSERT
  5
4E18
330
3C77
100
AcDbEntity
  8
ADM
 62
     0
370
    -2
100
AcDbBlockReference
  2
DOT
 10
112.0807651098777
 20
63.89626101292378
 30
0.0
 41
0.8
 42
0.8
 43
0.8
 50
270.0
  0
MTEXT
  5
4E19
330
3C77
100
AcDbEntity
  8
ADM
 62
     0
100
AcDbMText
 10
109.5807651098776
 20
70.89626101292392
 30
0.0
 40
3.0
 41
0.0
 71
     5
 72
     5
  1
\A1;14
 11
0.0000000000000001
 21
1.0
 31
0.0
 73
     1
 44
1.0
  0
POINT
  5
4E1A
330
3C77
100
AcDbEntity
  8
DEFPOINTS
 62
     0
100
AcDbPoint
 10
94.38076510987787
 20
77.896261012924
 30
0.0
  0
POINT
  5
4E1B
330
3C77
100
AcDbEntity
  8
DEFPOINTS
 62
     0
100
AcDbPoint
 10
97.08076510987769
 20
63.89626101292378
 30
0.0
  0
POINT
  5
4E1C
330
3C77
100
AcDbEntity
  8
DEFPOINTS
 62
     0
100
AcDbPoint
 10
112.0807651098777
 20
63.89626101292378
 30
0.0
  0
ENDBLK
  5
3C82
330
3C77
100
AcDbEntity
  8
0
100
AcDbBlockEnd
  0
BLOCK
  5
3EE1
330
3ED7
100
AcDbEntity
  8
0
100
AcDbBlockBegin
  2
*D7
 70
     1
 10
0.0
 20
0.0
 30
0.0
  3
*D7
  1

  0
LINE
  5
4E2F
330
3ED7
100
AcDbEntity
  8
ADM
 62
     0
370
    -2
100
AcDbLine
 10
34.43012850955279
 20
237.2117229031095
 30
0.0
 11
16.88076510987752
 21
237.2117229031095
 31
0.0
  0
LINE
  5
4E30
330
3ED7
100
AcDbEntity
  8
ADM
 62
     0
370
    -2
100
AcDbLine
 10
31.58076510987751
 20
210.21172290311
 30
0.0
 11
16.88076510987751
 21
210.21172290311
 31
0.0
  0
LINE
  5
4E31
330
3ED7
100
AcDbEntity
  8
ADM
 62
     0
370
    -2
100
AcDbLine
 10
18.08076510987752
 20
236.4117229031095
 30
0.0
 11
18.08076510987751
 21
211.01172290311
 31
0.0
  0
INSERT
  5
4E32
330
3ED7
100
AcDbEntity
  8
ADM
 62
     0
370
    -2
100
AcDbBlockReference
  2
DOT
 10
18.08076510987752
 20
237.2117229031095
 30
0.0
 41
0.8
 42
0.8
 43
0.8
 50
90.0
  0
INSERT
  5
4E33
330
3ED7
100
AcDbEntity
  8
ADM
 62
     0
370
    -2
100
AcDbBlockReference
  2
DOT
 10
18.08076510987751
 20
210.21172290311
 30
0.0
 41
0.8
 42
0.8
 43
0.8
 50
270.0
  0
MTEXT
  5
4E34
330
3ED7
100
AcDbEntity
  8
ADM
 62
     0
100
AcDbMText
 10
15.58076510987748
 20
223.7117229031097
 30
0.0
 40
3.0
 41
0.0
 71
     5
 72
     5
  1
\A1;27
 11
0.0000000000000001
 21
1.0
 31
0.0
 73
     1
 44
1.0
  0
POINT
  5
4E35
330
3ED7
100
AcDbEntity
  8
DEFPOINTS
 62
     0
100
AcDbPoint
 10
35.93012850955279
 20
237.2117229031095
 30
0.0
  0
POINT
  5
4E36
330
3ED7
100
AcDbEntity
  8
DEFPOINTS
 62
     0
100
AcDbPoint
 10
33.08076510987751
 20
210.21172290311
 30
0.0
  0
POINT
  5
4E37
330
3ED7
100
AcDbEntity
  8
DEFPOINTS
 62
     0
100
AcDbPoint
 10
18.08076510987751
 20
210.21172290311
 30
0.0
  0
ENDBLK
  5
3EE2
330
3ED7
100
AcDbEntity
  8
0
100
AcDbBlockEnd
  0
BLOCK
  5
3F0E
330
3F04
100
AcDbEntity
  8
0
100
AcDbBlockBegin
  2
*D8
 70
     1
 10
0.0
 20
0.0
 30
0.0
  3
*D8
  1

  0
LINE
  5
4DE7
330
3F04
100
AcDbEntity
  8
ADM
 62
     0
370
    -2
100
AcDbLine
 10
65.88077898835223
 20
124.8875752872074
 30
0.0
 11
16.88076510987749
 21
124.8875752872074
 31
0.0
  0
LINE
  5
4DE8
330
3F04
100
AcDbEntity
  8
ADM
 62
     0
370
    -2
100
AcDbLine
 10
64.58077898835222
 20
70.88757528720731
 30
0.0
 11
16.88076510987747
 21
70.88757528720733
 31
0.0
  0
LINE
  5
4DE9
330
3F04
100
AcDbEntity
  8
ADM
 62
     0
370
    -2
100
AcDbLine
 10
18.08076510987749
 20
124.0875752872074
 30
0.0
 11
18.08076510987748
 21
71.68757528720732
 31
0.0
  0
INSERT
  5
4DEA
330
3F04
100
AcDbEntity
  8
ADM
 62
     0
370
    -2
100
AcDbBlockReference
  2
DOT
 10
18.08076510987749
 20
124.8875752872074
 30
0.0
 41
0.8
 42
0.8
 43
0.8
 50
90.0
  0
INSERT
  5
4DEB
330
3F04
100
AcDbEntity
  8
ADM
 62
     0
370
    -2
100
AcDbBlockReference
  2
DOT
 10
18.08076510987748
 20
70.88757528720733
 30
0.0
 41
0.8
 42
0.8
 43
0.8
 50
270.0
  0
MTEXT
  5
4DEC
330
3F04
100
AcDbEntity
  8
ADM
 62
     0
100
AcDbMText
 10
15.58076510987747
 20
97.88757528720738
 30
0.0
 40
3.0
 41
0.0
 71
     5
 72
     5
  1
\A1;54
 11
0.0000000000000001
 21
1.0
 31
0.0
 73
     1
 44
1.0
  0
POINT
  5
4DED
330
3F04
100
AcDbEntity
  8
DEFPOINTS
 62
     0
100
AcDbPoint
 10
67.38077898835223
 20
124.8875752872074
 30
0.0
  0
POINT
  5
4DEE
330
3F04
100
AcDbEntity
  8
DEFPOINTS
 62
     0
100
AcDbPoint
 10
66.08077898835222
 20
70.88757528720731
 30
0.0
  0
POINT
  5
4DEF
330
3F04
100
AcDbEntity
  8
DEFPOINTS
 62
     0
100
AcDbPoint
 10
18.08076510987748
 20
70.88757528720733
 30
0.0
  0
ENDBLK
  5
3F0F
330
3F04
100
AcDbEntity
  8
0
100
AcDbBlockEnd
  0
BLOCK
  5
4513
330
4509
100
AcDbEntity
  8
0
100
AcDbBlockBegin
  2
*D9
 70
     1
 10
0.0
 20
0.0
 30
0.0
  3
*D9
  1

  0
LINE
  5
4E1D
330
4509
100
AcDbEntity
  8
ADM
 62
     0
370
    -2
100
AcDbLine
 10
165.1224083351502
 20
130.6888344468516
 30
0.0
 11
149.4224083351503
 21
130.6888344468516
 31
0.0
  0
LINE
  5
4E1E
330
4509
100
AcDbEntity
  8
ADM
 62
     0
370
    -2
100
AcDbLine
 10
165.1224083351501
 20
66.68883444685156
 30
0.0
 11
149.4224083351503
 21
66.68883444685157
 31
0.0
  0
LINE
  5
4E1F
330
4509
100
AcDbEntity
  8
ADM
 62
     0
370
    -2
100
AcDbLine
 10
150.6224083351503
 20
129.8888344468515
 30
0.0
 11
150.6224083351503
 21
67.48883444685157
 31
0.0
  0
INSERT
  5
4E20
330
4509
100
AcDbEntity
  8
ADM
 62
     0
370
    -2
100
AcDbBlockReference
  2
DOT
 10
150.6224083351503
 20
130.6888344468516
 30
0.0
 41
0.8
 42
0.8
 43
0.8
 50
90.0
  0
INSERT
  5
4E21
330
4509
100
AcDbEntity
  8
ADM
 62
     0
370
    -2
100
AcDbBlockReference
  2
DOT
 10
150.6224083351503
 20
66.68883444685157
 30
0.0
 41
0.8
 42
0.8
 43
0.8
 50
270.0
  0
MTEXT
  5
4E22
330
4509
100
AcDbEntity
  8
ADM
 62
     0
100
AcDbMText
 10
148.1224083351503
 20
98.6888344468516
 30
0.0
 40
3.0
 41
0.0
 71
     5
 72
     5
  1
\A1;64
 11
0.0000000000000001
 21
1.0
 31
0.0
 73
     1
 44
1.0
  0
POINT
  5
4E23
330
4509
100
AcDbEntity
  8
DEFPOINTS
 62
     0
100
AcDbPoint
 10
166.6224083351502
 20
130.6888344468516
 30
0.0
  0
POINT
  5
4E24
330
4509
100
AcDbEntity
  8
DEFPOINTS
 62
     0
100
AcDbPoint
 10
166.6224083351502
 20
66.68883444685156
 30
0.0
  0
POINT
  5
4E25
330
4509
100
AcDbEntity
  8
DEFPOINTS
 62
     0
100
AcDbPoint
 10
150.6224083351503
 20
66.68883444685157
 30
0.0
  0
ENDBLK
  5
4514
330
4509
100
AcDbEntity
  8
0
100
AcDbBlockEnd
  0
BLOCK
  5
46A9
330
469F
100
AcDbEntity
  8
0
100
AcDbBlockBegin
  2
*D10
 70
     1
 10
0.0
 20
0.0
 30
0.0
  3
*D10
  1

  0
LINE
  5
4DCC
330
469F
100
AcDbEntity
  8
ADM
 62
     0
370
    -2
100
AcDbLine
 10
165.6224083351502
 20
130.8774270054274
 30
0.0
 11
165.6224083351502
 21
146.8888344468515
 31
0.0
  0
LINE
  5
4DCD
330
469F
100
AcDbEntity
  8
ADM
 62
     0
370
    -2
100
AcDbLine
 10
178.6224083351499
 20
130.7388344468519
 30
0.0
 11
178.6224083351499
 21
146.8888344468515
 31
0.0
  0
LINE
  5
4DCE
330
469F
100
AcDbEntity
  8
ADM
 62
     0
370
    -2
100
AcDbLine
 10
166.4224083351502
 20
145.6888344468515
 30
0.0
 11
177.8224083351499
 21
145.6888344468515
 31
0.0
  0
INSERT
  5
4DCF
330
469F
100
AcDbEntity
  8
ADM
 62
     0
370
    -2
100
AcDbBlockReference
  2
DOT
 10
165.6224083351502
 20
145.6888344468515
 30
0.0
 41
0.8
 42
0.8
 43
0.8
 50
180.0
  0
INSERT
  5
4DD0
330
469F
100
AcDbEntity
  8
ADM
 62
     0
370
    -2
100
AcDbBlockReference
  2
DOT
 10
178.6224083351499
 20
145.6888344468515
 30
0.0
 41
0.8
 42
0.8
 43
0.8
  0
MTEXT
  5
4DD1
330
469F
100
AcDbEntity
  8
ADM
 62
     0
100
AcDbMText
 10
172.1224083351501
 20
148.1888344468515
 30
0.0
 40
3.0
 41
0.0
 71
     5
 72
     5
  1
\A1;13
 73
     1
 44
1.0
  0
POINT
  5
4DD2
330
469F
100
AcDbEntity
  8
DEFPOINTS
 62
     0
100
AcDbPoint
 10
165.6224083351502
 20
129.3774270054274
 30
0.0
  0
POINT
  5
4DD3
330
469F
100
AcDbEntity
  8
DEFPOINTS
 62
     0
100
AcDbPoint
 10
178.6224083351499
 20
129.2388344468519
 30
0.0
  0
POINT
  5
4DD4
330
469F
100
AcDbEntity
  8
DEFPOINTS
 62
     0
100
AcDbPoint
 10
178.6224083351499
 20
145.6888344468515
 30
0.0
  0
ENDBLK
  5
46AA
330
469F
100
AcDbEntity
  8
0
100
AcDbBlockEnd
  0
BLOCK
  5
46C3
330
46B9
100
AcDbEntity
  8
0
100
AcDbBlockBegin
  2
*D11
 70
     1
 10
0.0
 20
0.0
 30
0.0
  3
*D11
  1

  0
LINE
  5
4E53
330
46B9
100
AcDbEntity
  8
ADM
 62
     0
370
    -2
100
AcDbLine
 10
362.6224083351504
 20
130.738834446852
 30
0.0
 11
362.6224083351504
 21
146.8888344468515
 31
0.0
  0
LINE
  5
4E54
330
46B9
100
AcDbEntity
  8
ADM
 62
     0
370
    -2
100
AcDbLine
 10
375.6224083351502
 20
130.8774270054275
 30
0.0
 11
375.6224083351502
 21
146.8888344468515
 31
0.0
  0
LINE
  5
4E55
330
46B9
100
AcDbEntity
  8
ADM
 62
     0
370
    -2
100
AcDbLine
 10
363.4224083351504
 20
145.6888344468515
 30
0.0
 11
374.8224083351502
 21
145.6888344468515
 31
0.0
  0
INSERT
  5
4E56
330
46B9
100
AcDbEntity
  8
ADM
 62
     0
370
    -2
100
AcDbBlockReference
  2
DOT
 10
362.6224083351504
 20
145.6888344468515
 30
0.0
 41
0.8
 42
0.8
 43
0.8
 50
180.0
  0
INSERT
  5
4E57
330
46B9
100
AcDbEntity
  8
ADM
 62
     0
370
    -2
100
AcDbBlockReference
  2
DOT
 10
375.6224083351502
 20
145.6888344468515
 30
0.0
 41
0.8
 42
0.8
 43
0.8
  0
MTEXT
  5
4E58
330
46B9
100
AcDbEntity
  8
ADM
 62
     0
100
AcDbMText
 10
369.1224083351503
 20
148.1888344468515
 30
0.0
 40
3.0
 41
0.0
 71
     5
 72
     5
  1
\A1;13
 73
     1
 44
1.0
  0
POINT
  5
4E59
330
46B9
100
AcDbEntity
  8
DEFPOINTS
 62
     0
100
AcDbPoint
 10
362.6224083351504
 20
129.238834446852
 30
0.0
  0
POINT
  5
4E5A
330
46B9
100
AcDbEntity
  8
DEFPOINTS
 62
     0
100
AcDbPoint
 10
375.6224083351502
 20
129.3774270054275
 30
0.0
  0
POINT
  5
4E5B
330
46B9
100
AcDbEntity
  8
DEFPOINTS
 62
     0
100
AcDbPoint
 10
375.6224083351502
 20
145.6888344468515
 30
0.0
  0
ENDBLK
  5
46C4
330
46B9
100
AcDbEntity
  8
0
100
AcDbBlockEnd
  0
BLOCK
  5
46D0
330
46C6
100
AcDbEntity
  8
0
100
AcDbBlockBegin
  2
*D12
 70
     1
 10
0.0
 20
0.0
 30
0.0
  3
*D12
  1

  0
LINE
  5
4E4A
330
46C6
100
AcDbEntity
  8
ADM
 62
     0
370
    -2
100
AcDbLine
 10
340.6224083351421
 20
98.78883444685152
 30
0.0
 11
340.6224083351421
 21
146.8888344468516
 31
0.0
  0
LINE
  5
4E4B
330
46C6
100
AcDbEntity
  8
ADM
 62
     0
370
    -2
100
AcDbLine
 10
362.6224083351504
 20
130.738834446852
 30
0.0
 11
362.6224083351504
 21
146.8888344468515
 31
0.0
  0
LINE
  5
4E4C
330
46C6
100
AcDbEntity
  8
ADM
 62
     0
370
    -2
100
AcDbLine
 10
341.4224083351421
 20
145.6888344468515
 30
0.0
 11
361.8224083351504
 21
145.6888344468515
 31
0.0
  0
INSERT
  5
4E4D
330
46C6
100
AcDbEntity
  8
ADM
 62
     0
370
    -2
100
AcDbBlockReference
  2
DOT
 10
340.6224083351421
 20
145.6888344468515
 30
0.0
 41
0.8
 42
0.8
 43
0.8
 50
180.0
  0
INSERT
  5
4E4E
330
46C6
100
AcDbEntity
  8
ADM
 62
     0
370
    -2
100
AcDbBlockReference
  2
DOT
 10
362.6224083351504
 20
145.6888344468515
 30
0.0
 41
0.8
 42
0.8
 43
0.8
  0
MTEXT
  5
4E4F
330
46C6
100
AcDbEntity
  8
ADM
 62
     0
100
AcDbMText
 10
351.6224083351462
 20
148.1888344468515
 30
0.0
 40
3.0
 41
0.0
 71
     5
 72
     5
  1
\A1;22
 73
     1
 44
1.0
  0
POINT
  5
4E50
330
46C6
100
AcDbEntity
  8
DEFPOINTS
 62
     0
100
AcDbPoint
 10
340.6224083351421
 20
97.28883444685152
 30
0.0
  0
POINT
  5
4E51
330
46C6
100
AcDbEntity
  8
DEFPOINTS
 62
     0
100
AcDbPoint
 10
362.6224083351504
 20
129.238834446852
 30
0.0
  0
POINT
  5
4E52
330
46C6
100
AcDbEntity
  8
DEFPOINTS
 62
     0
100
AcDbPoint
 10
362.6224083351504
 20
145.6888344468515
 30
0.0
  0
ENDBLK
  5
46D1
330
46C6
100
AcDbEntity
  8
0
100
AcDbBlockEnd
  0
BLOCK
  5
46E7
330
46DD
100
AcDbEntity
  8
0
100
AcDbBlockBegin
  2
*D13
 70
     1
 10
0.0
 20
0.0
 30
0.0
  3
*D13
  1

  0
LINE
  5
4DBA
330
46DD
100
AcDbEntity
  8
ADM
 62
     0
370
    -2
100
AcDbLine
 10
165.6224083351502
 20
130.8774270054274
 30
0.0
 11
165.6224083351502
 21
153.8888344468515
 31
0.0
  0
LINE
  5
4DBB
330
46DD
100
AcDbEntity
  8
ADM
 62
     0
370
    -2
100
AcDbLine
 10
375.6224083351502
 20
130.8774270054275
 30
0.0
 11
375.6224083351502
 21
153.8888344468515
 31
0.0
  0
LINE
  5
4DBC
330
46DD
100
AcDbEntity
  8
ADM
 62
     0
370
    -2
100
AcDbLine
 10
166.4224083351502
 20
152.6888344468515
 30
0.0
 11
374.8224083351502
 21
152.6888344468515
 31
0.0
  0
INSERT
  5
4DBD
330
46DD
100
AcDbEntity
  8
ADM
 62
     0
370
    -2
100
AcDbBlockReference
  2
DOT
 10
165.6224083351502
 20
152.6888344468515
 30
0.0
 41
0.8
 42
0.8
 43
0.8
 50
180.0
  0
INSERT
  5
4DBE
330
46DD
100
AcDbEntity
  8
ADM
 62
     0
370
    -2
100
AcDbBlockReference
  2
DOT
 10
375.6224083351502
 20
152.6888344468515
 30
0.0
 41
0.8
 42
0.8
 43
0.8
  0
MTEXT
  5
4DBF
330
46DD
100
AcDbEntity
  8
ADM
 62
     0
100
AcDbMText
 10
270.6224083351502
 20
155.1888344468515
 30
0.0
 40
3.0
 41
0.0
 71
     5
 72
     5
  1
\A1;W
 73
     1
 44
1.0
  0
POINT
  5
4DC0
330
46DD
100
AcDbEntity
  8
DEFPOINTS
 62
     0
100
AcDbPoint
 10
165.6224083351502
 20
129.3774270054274
 30
0.0
  0
POINT
  5
4DC1
330
46DD
100
AcDbEntity
  8
DEFPOINTS
 62
     0
100
AcDbPoint
 10
375.6224083351502
 20
129.3774270054275
 30
0.0
  0
POINT
  5
4DC2
330
46DD
100
AcDbEntity
  8
DEFPOINTS
 62
     0
100
AcDbPoint
 10
375.6224083351502
 20
152.6888344468515
 30
0.0
  0
ENDBLK
  5
46E8
330
46DD
100
AcDbEntity
  8
0
100
AcDbBlockEnd
  0
BLOCK
  5
4A2C
330
4A22
100
AcDbEntity
  8
0
100
AcDbBlockBegin
  2
*D14
 70
     1
 10
0.0
 20
0.0
 30
0.0
  3
*D14
  1

  0
LINE
  5
4F1C
330
4A22
100
AcDbEntity
  8
ADM
 62
     0
100
AcDbLine
 10
97.08076510987758
 20
238.7117229031096
 30
0.0
 11
97.08076510987758
 21
253.4117229031094
 31
0.0
  0
LINE
  5
4F1D
330
4A22
100
AcDbEntity
  8
ADM
 62
     0
100
AcDbLine
 10
101.0807789883522
 20
206.7117229031099
 30
0.0
 11
101.0807789883522
 21
253.4117229031094
 31
0.0
  0
LINE
  5
4F1E
330
4A22
100
AcDbEntity
  8
ADM
 62
     0
100
AcDbLine
 10
97.88076510987757
 20
252.2117229031095
 30
0.0
 11
100.2807789883522
 21
252.2117229031095
 31
0.0
  0
INSERT
  5
4F1F
330
4A22
100
AcDbEntity
  8
ADM
 62
     0
100
AcDbBlockReference
  2
DOT
 10
97.08076510987758
 20
252.2117229031095
 30
0.0
 41
0.8
 42
0.8
 43
0.8
 50
180.0
  0
INSERT
  5
4F20
330
4A22
100
AcDbEntity
  8
ADM
 62
     0
100
AcDbBlockReference
  2
DOT
 10
101.0807789883522
 20
252.2117229031095
 30
0.0
 41
0.8
 42
0.8
 43
0.8
  0
MTEXT
  5
4F21
330
4A22
100
AcDbEntity
  8
ADM
 62
     0
100
AcDbMText
 10
99.08077204911492
 20
254.7117229031095
 30
0.0
 40
3.0
 41
0.0
 71
     5
 72
     5
  1
\A1;4
 73
     1
 44
1.0
  0
POINT
  5
4F22
330
4A22
100
AcDbEntity
  8
DEFPOINTS
 62
     0
100
AcDbPoint
 10
97.08076510987758
 20
237.2117229031096
 30
0.0
  0
POINT
  5
4F23
330
4A22
100
AcDbEntity
  8
DEFPOINTS
 62
     0
100
AcDbPoint
 10
101.0807789883522
 20
205.2117229031099
 30
0.0
  0
POINT
  5
4F24
330
4A22
100
AcDbEntity
  8
DEFPOINTS
 62
     0
100
AcDbPoint
 10
101.0807789883522
 20
252.2117229031095
 30
0.0
  0
ENDBLK
  5
4A2D
330
4A22
100
AcDbEntity
  8
0
100
AcDbBlockEnd
  0
BLOCK
  5
4A39
330
4A2F
100
AcDbEntity
  8
0
100
AcDbBlockBegin
  2
*D15
 70
     1
 10
0.0
 20
0.0
 30
0.0
  3
*D15
  1

  0
LINE
  5
4F25
330
4A2F
100
AcDbEntity
  8
ADM
 62
     0
100
AcDbLine
 10
31.58076510987751
 20
210.21172290311
 30
0.0
 11
16.88076510987751
 21
210.21172290311
 31
0.0
  0
LINE
  5
4F26
330
4A2F
100
AcDbEntity
  8
ADM
 62
     0
100
AcDbLine
 10
65.58077898835186
 20
188.2117229031096
 30
0.0
 11
16.8807651098775
 21
188.2117229031096
 31
0.0
  0
LINE
  5
4F27
330
4A2F
100
AcDbEntity
  8
ADM
 62
     0
100
AcDbLine
 10
18.08076510987751
 20
209.41172290311
 30
0.0
 11
18.08076510987751
 21
189.0117229031096
 31
0.0
  0
INSERT
  5
4F28
330
4A2F
100
AcDbEntity
  8
ADM
 62
     0
100
AcDbBlockReference
  2
DOT
 10
18.08076510987751
 20
210.21172290311
 30
0.0
 41
0.8
 42
0.8
 43
0.8
 50
90.0
  0
INSERT
  5
4F29
330
4A2F
100
AcDbEntity
  8
ADM
 62
     0
100
AcDbBlockReference
  2
DOT
 10
18.08076510987751
 20
188.2117229031096
 30
0.0
 41
0.8
 42
0.8
 43
0.8
 50
270.0
  0
MTEXT
  5
4F2A
330
4A2F
100
AcDbEntity
  8
ADM
 62
     0
100
AcDbMText
 10
15.58076510987748
 20
199.2117229031098
 30
0.0
 40
3.0
 41
0.0
 71
     5
 72
     5
  1
\A1;22
 11
0.0000000000000001
 21
1.0
 31
0.0
 73
     1
 44
1.0
  0
POINT
  5
4F2B
330
4A2F
100
AcDbEntity
  8
DEFPOINTS
 62
     0
100
AcDbPoint
 10
33.08076510987751
 20
210.21172290311
 30
0.0
  0
POINT
  5
4F2C
330
4A2F
100
AcDbEntity
  8
DEFPOINTS
 62
     0
100
AcDbPoint
 10
67.08077898835187
 20
188.2117229031096
 30
0.0
  0
POINT
  5
4F2D
330
4A2F
100
AcDbEntity
  8
DEFPOINTS
 62
     0
100
AcDbPoint
 10
18.08076510987751
 20
188.2117229031096
 30
0.0
  0
ENDBLK
  5
4A3A
330
4A2F
100
AcDbEntity
  8
0
100
AcDbBlockEnd
  0
BLOCK
  5
4A47
330
4A3D
100
AcDbEntity
  8
0
100
AcDbBlockBegin
  2
*D16
 70
     1
 10
0.0
 20
0.0
 30
0.0
  3
*D16
  1

  0
LINE
  5
4F2E
330
4A3D
100
AcDbEntity
  8
ADM
 62
     0
100
AcDbLine
 10
64.58077898835222
 20
70.88757528720731
 30
0.0
 11
16.88076510987747
 21
70.88757528720733
 31
0.0
  0
LINE
  5
4F2F
330
4A3D
100
AcDbEntity
  8
ADM
 62
     0
100
AcDbLine
 10
31.58076510987751
 20
63.89626101292378
 30
0.0
 11
16.88076510987748
 21
63.89626101292378
 31
0.0
  0
LINE
  5
4F30
330
4A3D
100
AcDbEntity
  8
ADM
 62
     0
100
AcDbLine
 10
18.08076510987748
 20
70.08757528720733
 30
0.0
 11
18.08076510987748
 21
64.6962610129238
 31
0.0
  0
INSERT
  5
4F31
330
4A3D
100
AcDbEntity
  8
ADM
 62
     0
100
AcDbBlockReference
  2
DOT
 10
18.08076510987748
 20
70.88757528720733
 30
0.0
 41
0.8
 42
0.8
 43
0.8
 50
90.0
  0
INSERT
  5
4F32
330
4A3D
100
AcDbEntity
  8
ADM
 62
     0
100
AcDbBlockReference
  2
DOT
 10
18.08076510987748
 20
63.89626101292378
 30
0.0
 41
0.8
 42
0.8
 43
0.8
 50
270.0
  0
MTEXT
  5
4F33
330
4A3D
100
AcDbEntity
  8
ADM
 62
     0
100
AcDbMText
 10
15.58076510987747
 20
67.39191815006556
 30
0.0
 40
3.0
 41
0.0
 71
     5
 72
     5
  1
\A1;7
 11
0.0000000000000001
 21
1.0
 31
0.0
 73
     1
 44
1.0
  0
POINT
  5
4F34
330
4A3D
100
AcDbEntity
  8
DEFPOINTS
 62
     0
100
AcDbPoint
 10
66.08077898835222
 20
70.88757528720731
 30
0.0
  0
POINT
  5
4F35
330
4A3D
100
AcDbEntity
  8
DEFPOINTS
 62
     0
100
AcDbPoint
 10
33.08076510987751
 20
63.89626101292378
 30
0.0
  0
POINT
  5
4F36
330
4A3D
100
AcDbEntity
  8
DEFPOINTS
 62
     0
100
AcDbPoint
 10
18.08076510987748
 20
63.89626101292378
 30
0.0
  0
ENDBLK
  5
4A48
330
4A3D
100
AcDbEntity
  8
0
100
AcDbBlockEnd
  0
BLOCK
  5
4A5D
330
4A53
100
AcDbEntity
  8
0
100
AcDbBlockBegin
  2
*D17
 70
     1
 10
0.0
 20
0.0
 30
0.0
  3
*D17
  1

  0
LINE
  5
4F37
330
4A53
100
AcDbEntity
  8
ADM
 62
     0
100
AcDbLine
 10
34.43012850955279
 20
237.2117229031095
 30
0.0
 11
9.880765109877525
 21
237.2117229031095
 31
0.0
  0
LINE
  5
4F38
330
4A53
100
AcDbEntity
  8
ADM
 62
     0
100
AcDbLine
 10
31.58076510987751
 20
63.89626101292378
 30
0.0
 11
9.880765109877486
 21
63.89626101292379
 31
0.0
  0
LINE
  5
4F39
330
4A53
100
AcDbEntity
  8
ADM
 62
     0
100
AcDbLine
 10
11.08076510987752
 20
236.4117229031095
 30
0.0
 11
11.08076510987748
 21
64.6962610129238
 31
0.0
  0
INSERT
  5
4F3A
330
4A53
100
AcDbEntity
  8
ADM
 62
     0
100
AcDbBlockReference
  2
DOT
 10
11.08076510987752
 20
237.2117229031095
 30
0.0
 41
0.8
 42
0.8
 43
0.8
 50
90.0
  0
INSERT
  5
4F3B
330
4A53
100
AcDbEntity
  8
ADM
 62
     0
100
AcDbBlockReference
  2
DOT
 10
11.08076510987748
 20
63.89626101292379
 30
0.0
 41
0.8
 42
0.8
 43
0.8
 50
270.0
  0
MTEXT
  5
4F3C
330
4A53
100
AcDbEntity
  8
ADM
 62
     0
100
AcDbMText
 10
8.58076510987748
 20
150.5539919580167
 30
0.0
 40
3.0
 41
0.0
 71
     5
 72
     5
  1
\A1;H
 11
0.0000000000000001
 21
1.0
 31
0.0
 73
     1
 44
1.0
  0
POINT
  5
4F3D
330
4A53
100
AcDbEntity
  8
DEFPOINTS
 62
     0
100
AcDbPoint
 10
35.93012850955279
 20
237.2117229031095
 30
0.0
  0
POINT
  5
4F3E
330
4A53
100
AcDbEntity
  8
DEFPOINTS
 62
     0
100
AcDbPoint
 10
33.08076510987751
 20
63.89626101292378
 30
0.0
  0
POINT
  5
4F3F
330
4A53
100
AcDbEntity
  8
DEFPOINTS
 62
     0
100
AcDbPoint
 10
11.08076510987748
 20
63.89626101292379
 30
0.0
  0
ENDBLK
  5
4A5E
330
4A53
100
AcDbEntity
  8
0
100
AcDbBlockEnd
  0
BLOCK
  5
4A74
330
4A6A
100
AcDbEntity
  8
0
100
AcDbBlockBegin
  2
*D18
 70
     1
 10
0.0
 20
0.0
 30
0.0
  3
*D18
  1

  0
LINE
  5
4F40
330
4A6A
100
AcDbEntity
  8
ADM
 62
     0
100
AcDbLine
 10
97.08076510987769
 20
62.39626101292379
 30
0.0
 11
97.08076510987769
 21
47.69626101292375
 31
0.0
  0
LINE
  5
4F41
330
4A6A
100
AcDbEntity
  8
ADM
 62
     0
100
AcDbLine
 10
122.380778988353
 20
89.38897267062481
 30
0.0
 11
122.380778988353
 21
47.69626101292375
 31
0.0
  0
LINE
  5
4F42
330
4A6A
100
AcDbEntity
  8
ADM
 62
     0
100
AcDbLine
 10
97.88076510987769
 20
48.89626101292376
 30
0.0
 11
121.580778988353
 21
48.89626101292376
 31
0.0
  0
INSERT
  5
4F43
330
4A6A
100
AcDbEntity
  8
ADM
 62
     0
100
AcDbBlockReference
  2
DOT
 10
97.08076510987769
 20
48.89626101292376
 30
0.0
 41
0.8
 42
0.8
 43
0.8
 50
180.0
  0
INSERT
  5
4F44
330
4A6A
100
AcDbEntity
  8
ADM
 62
     0
100
AcDbBlockReference
  2
DOT
 10
122.380778988353
 20
48.89626101292376
 30
0.0
 41
0.8
 42
0.8
 43
0.8
  0
MTEXT
  5
4F45
330
4A6A
100
AcDbEntity
  8
ADM
 62
     0
100
AcDbMText
 10
109.7307720491153
 20
51.39626101292376
 30
0.0
 40
3.0
 41
0.0
 71
     5
 72
     5
  1
\A1;25.3
 73
     1
 44
1.0
  0
POINT
  5
4F46
330
4A6A
100
AcDbEntity
  8
DEFPOINTS
 62
     0
100
AcDbPoint
 10
97.08076510987769
 20
63.89626101292378
 30
0.0
  0
POINT
  5
4F47
330
4A6A
100
AcDbEntity
  8
DEFPOINTS
 62
     0
100
AcDbPoint
 10
122.380778988353
 20
90.88897267062481
 30
0.0
  0
POINT
  5
4F48
330
4A6A
100
AcDbEntity
  8
DEFPOINTS
 62
     0
100
AcDbPoint
 10
122.380778988353
 20
48.89626101292376
 30
0.0
  0
ENDBLK
  5
4A75
330
4A6A
100
AcDbEntity
  8
0
100
AcDbBlockEnd
  0
BLOCK
  5
4DA6
330
4D9C
100
AcDbEntity
  8
0
100
AcDbBlockBegin
  2
*D19
 70
     1
 10
0.0
 20
0.0
 30
0.0
  3
*D19
  1

  0
LINE
  5
4F49
330
4D9C
100
AcDbEntity
  8
ADM
 62
     0
100
AcDbLine
 10
165.6224083351502
 20
66.50024188827564
 30
0.0
 11
165.6224083351502
 21
50.48883444685156
 31
0.0
  0
LINE
  5
4F4A
330
4D9C
100
AcDbEntity
  8
ADM
 62
     0
100
AcDbLine
 10
174.6224083351429
 20
72.68883444685229
 30
0.0
 11
174.6224083351429
 21
50.48883444685156
 31
0.0
  0
LINE
  5
4F4B
330
4D9C
100
AcDbEntity
  8
ADM
 62
     0
100
AcDbLine
 10
166.4224083351502
 20
51.68883444685156
 30
0.0
 11
173.8224083351429
 21
51.68883444685156
 31
0.0
  0
INSERT
  5
4F4C
330
4D9C
100
AcDbEntity
  8
ADM
 62
     0
100
AcDbBlockReference
  2
DOT
 10
165.6224083351502
 20
51.68883444685156
 30
0.0
 41
0.8
 42
0.8
 43
0.8
 50
180.0
  0
INSERT
  5
4F4D
330
4D9C
100
AcDbEntity
  8
ADM
 62
     0
100
AcDbBlockReference
  2
DOT
 10
174.6224083351429
 20
51.68883444685156
 30
0.0
 41
0.8
 42
0.8
 43
0.8
  0
MTEXT
  5
4F4E
330
4D9C
100
AcDbEntity
  8
ADM
 62
     0
100
AcDbMText
 10
170.1224083351466
 20
54.18883444685156
 30
0.0
 40
3.0
 41
0.0
 71
     5
 72
     5
  1
\A1;9
 73
     1
 44
1.0
  0
POINT
  5
4F4F
330
4D9C
100
AcDbEntity
  8
DEFPOINTS
 62
     0
100
AcDbPoint
 10
165.6224083351502
 20
68.00024188827563
 30
0.0
  0
POINT
  5
4F50
330
4D9C
100
AcDbEntity
  8
DEFPOINTS
 62
     0
100
AcDbPoint
 10
174.6224083351429
 20
74.1888344468523
 30
0.0
  0
POINT
  5
4F51
330
4D9C
100
AcDbEntity
  8
DEFPOINTS
 62
     0
100
AcDbPoint
 10
174.6224083351429
 20
51.68883444685156
 30
0.0
  0
ENDBLK
  5
4DA7
330
4D9C
100
AcDbEntity
  8
0
100
AcDbBlockEnd
  0
BLOCK
  5
4DB3
330
4DA9
100
AcDbEntity
  8
0
100
AcDbBlockBegin
  2
*D20
 70
     1
 10
0.0
 20
0.0
 30
0.0
  3
*D20
  1

  0
LINE
  5
4F52
330
4DA9
100
AcDbEntity
  8
ADM
 62
     0
100
AcDbLine
 10
366.6224083351477
 20
72.68883444685229
 30
0.0
 11
366.6224083351477
 21
50.48883444685164
 31
0.0
  0
LINE
  5
4F53
330
4DA9
100
AcDbEntity
  8
ADM
 62
     0
100
AcDbLine
 10
375.6224083351502
 20
66.50024188827571
 30
0.0
 11
375.6224083351502
 21
50.48883444685164
 31
0.0
  0
LINE
  5
4F54
330
4DA9
100
AcDbEntity
  8
ADM
 62
     0
100
AcDbLine
 10
367.4224083351477
 20
51.68883444685164
 30
0.0
 11
374.8224083351502
 21
51.68883444685164
 31
0.0
  0
INSERT
  5
4F55
330
4DA9
100
AcDbEntity
  8
ADM
 62
     0
100
AcDbBlockReference
  2
DOT
 10
366.6224083351477
 20
51.68883444685164
 30
0.0
 41
0.8
 42
0.8
 43
0.8
 50
180.0
  0
INSERT
  5
4F56
330
4DA9
100
AcDbEntity
  8
ADM
 62
     0
100
AcDbBlockReference
  2
DOT
 10
375.6224083351502
 20
51.68883444685164
 30
0.0
 41
0.8
 42
0.8
 43
0.8
  0
MTEXT
  5
4F57
330
4DA9
100
AcDbEntity
  8
ADM
 62
     0
100
AcDbMText
 10
371.1224083351489
 20
54.18883444685164
 30
0.0
 40
3.0
 41
0.0
 71
     5
 72
     5
  1
\A1;9
 73
     1
 44
1.0
  0
POINT
  5
4F58
330
4DA9
100
AcDbEntity
  8
DEFPOINTS
 62
     0
100
AcDbPoint
 10
366.6224083351477
 20
74.1888344468523
 30
0.0
  0
POINT
  5
4F59
330
4DA9
100
AcDbEntity
  8
DEFPOINTS
 62
     0
100
AcDbPoint
 10
375.6224083351502
 20
68.0002418882757
 30
0.0
  0
POINT
  5
4F5A
330
4DA9
100
AcDbEntity
  8
DEFPOINTS
 62
     0
100
AcDbPoint
 10
375.6224083351502
 20
51.68883444685164
 30
0.0
  0
ENDBLK
  5
4DB4
330
4DA9
100
AcDbEntity
  8
0
100
AcDbBlockEnd
  0
BLOCK
  5
4E71
330
4E67
100
AcDbEntity
  8
0
100
AcDbBlockBegin
  2
*D21
 70
     1
 10
0.0
 20
0.0
 30
0.0
  3
*D21
  1

  0
LINE
  5
4F5B
330
4E67
100
AcDbEntity
  8
ADM
 62
     0
100
AcDbLine
 10
202.6224083351502
 20
40.88883444685177
 30
0.0
 11
202.6224083351502
 21
25.18883444685177
 31
0.0
  0
LINE
  5
4F5C
330
4E67
100
AcDbEntity
  8
ADM
 62
     0
100
AcDbLine
 10
338.6224083351502
 20
40.88883444685177
 30
0.0
 11
338.6224083351502
 21
25.18883444685177
 31
0.0
  0
LINE
  5
4F5D
330
4E67
100
AcDbEntity
  8
ADM
 62
     0
100
AcDbLine
 10
203.4224083351502
 20
26.38883444685177
 30
0.0
 11
337.8224083351502
 21
26.38883444685177
 31
0.0
  0
INSERT
  5
4F5E
330
4E67
100
AcDbEntity
  8
ADM
 62
     0
100
AcDbBlockReference
  2
DOT
 10
202.6224083351502
 20
26.38883444685177
 30
0.0
 41
0.8
 42
0.8
 43
0.8
 50
180.0
  0
INSERT
  5
4F5F
330
4E67
100
AcDbEntity
  8
ADM
 62
     0
100
AcDbBlockReference
  2
DOT
 10
338.6224083351502
 20
26.38883444685177
 30
0.0
 41
0.8
 42
0.8
 43
0.8
  0
MTEXT
  5
4F60
330
4E67
100
AcDbEntity
  8
ADM
 62
     0
100
AcDbMText
 10
270.6224083351502
 20
28.88883444685177
 30
0.0
 40
3.0
 41
0.0
 71
     5
 72
     5
  1
\A1;136
 73
     1
 44
1.0
  0
POINT
  5
4F61
330
4E67
100
AcDbEntity
  8
DEFPOINTS
 62
     0
100
AcDbPoint
 10
202.6224083351502
 20
42.38883444685177
 30
0.0
  0
POINT
  5
4F62
330
4E67
100
AcDbEntity
  8
DEFPOINTS
 62
     0
100
AcDbPoint
 10
338.6224083351502
 20
42.38883444685177
 30
0.0
  0
POINT
  5
4F63
330
4E67
100
AcDbEntity
  8
DEFPOINTS
 62
     0
100
AcDbPoint
 10
338.6224083351502
 20
26.38883444685177
 30
0.0
  0
ENDBLK
  5
4E72
330
4E67
100
AcDbEntity
  8
0
100
AcDbBlockEnd
  0
BLOCK
  5
5111
330
5107
100
AcDbEntity
  8
0
100
AcDbBlockBegin
  2
*D22
 70
     1
 10
0.0
 20
0.0
 30
0.0
  3
*D22
  1

  0
LINE
  5
5108
330
5107
100
AcDbEntity
  8
ADM
 62
     0
370
    -2
100
AcDbLine
 10
200.6224083351486
 20
98.78883444685152
 30
0.0
 11
200.6224083351486
 21
146.8888344468516
 31
0.0
  0
LINE
  5
5109
330
5107
100
AcDbEntity
  8
ADM
 62
     0
370
    -2
100
AcDbLine
 10
178.6224083351499
 20
130.7388344468519
 30
0.0
 11
178.6224083351499
 21
146.8888344468515
 31
0.0
  0
LINE
  5
510A
330
5107
100
AcDbEntity
  8
ADM
 62
     0
370
    -2
100
AcDbLine
 10
199.8224083351485
 20
145.6888344468515
 30
0.0
 11
179.4224083351499
 21
145.6888344468515
 31
0.0
  0
INSERT
  5
510B
330
5107
100
AcDbEntity
  8
ADM
 62
     0
370
    -2
100
AcDbBlockReference
  2
DOT
 10
200.6224083351486
 20
145.6888344468515
 30
0.0
 41
0.8
 42
0.8
 43
0.8
  0
INSERT
  5
510C
330
5107
100
AcDbEntity
  8
ADM
 62
     0
370
    -2
100
AcDbBlockReference
  2
DOT
 10
178.6224083351499
 20
145.6888344468515
 30
0.0
 41
0.8
 42
0.8
 43
0.8
 50
180.0
  0
MTEXT
  5
510D
330
5107
100
AcDbEntity
  8
ADM
 62
     0
100
AcDbMText
 10
189.6224083351492
 20
148.1888344468515
 30
0.0
 40
3.0
 41
0.0
 71
     5
 72
     1
  1
\A1;22
 73
     1
 44
1.0
  0
POINT
  5
510E
330
5107
100
AcDbEntity
  8
DEFPOINTS
 62
     0
100
AcDbPoint
 10
200.6224083351486
 20
97.28883444685152
 30
0.0
  0
POINT
  5
510F
330
5107
100
AcDbEntity
  8
DEFPOINTS
 62
     0
100
AcDbPoint
 10
178.6224083351499
 20
129.2388344468519
 30
0.0
  0
POINT
  5
5110
330
5107
100
AcDbEntity
  8
DEFPOINTS
 62
     0
100
AcDbPoint
 10
178.6224083351499
 20
145.6888344468515
 30
0.0
  0
ENDBLK
  5
5112
330
5107
100
AcDbEntity
  8
0
100
AcDbBlockEnd
  0
ENDSEC
  0
SECTION
  2
ENTITIES
  0
LINE
  5
45
330
2
100
AcDbEntity
  8
0
100
AcDbLine
 10
178.6224083351499
 20
128.9888344468515
 30
0.0
 11
269.6224083351502
 21
128.9888344468514
 31
0.0
  0
LINE
  5
A8
330
2
100
AcDbEntity
  8
0
100
AcDbLine
 10
269.6224083351502
 20
91.03883444685152
 30
0.0
 11
185.7221378542033
 21
91.03883444685164
 31
0.0
  0
LINE
  5
12A
330
2
100
AcDbEntity
  8
0
100
AcDbLine
 10
269.6224083351502
 20
119.8888344468516
 30
0.0
 11
178.6224083351499
 21
119.8888344468516
 31
0.0
  0
LINE
  5
12B
330
2
100
AcDbEntity
  8
0
100
AcDbLine
 10
269.6224083351502
 20
115.8888344468516
 30
0.0
 11
178.6224083351501
 21
115.8888344468516
 31
0.0
  0
LINE
  5
130
330
2
100
AcDbEntity
  8
0
100
AcDbLine
 10
269.6224083351502
 20
88.03883444685164
 30
0.0
 11
185.7221378542033
 21
88.03883444685164
 31
0.0
  0
LINE
  5
131
330
2
100
AcDbEntity
  8
0
100
AcDbLine
 10
269.6224083351502
 20
87.73883444685157
 30
0.0
 11
185.7221378542033
 21
87.73883444685157
 31
0.0
  0
LINE
  5
132
330
2
100
AcDbEntity
  8
0
100
AcDbLine
 10
269.6224083351502
 20
84.73883444685169
 30
0.0
 11
185.7221378542033
 21
84.73883444685156
 31
0.0
  0
LINE
  5
133
330
2
100
AcDbEntity
  8
0
100
AcDbLine
 10
171.3224083351501
 20
70.28883444685144
 30
0.0
 11
183.2224083351487
 21
70.28883444685144
 31
0.0
  0
LINE
  5
134
330
2
100
AcDbEntity
  8
0
100
AcDbLine
 10
171.3224083351501
 20
68.48883444685149
 30
0.0
 11
183.1224083351485
 21
68.48883444685151
 31
0.0
  0
LINE
  5
138
330
2
100
AcDbEntity
  8
0
100
AcDbLine
 10
34.4807651098775
 20
66.3962610129239
 30
0.0
 11
34.48076510987751
 21
156.5040656011983
 31
0.0
  0
LINE
  5
139
330
2
100
AcDbEntity
  8
0
100
AcDbLine
 10
34.58076510987751
 20
63.89626101292378
 30
0.0
 11
34.58076510987751
 21
156.5040656011983
 31
0.0
  0
LINE
  5
147
330
2
100
AcDbEntity
  8
0
100
AcDbLine
 10
90.58077898835222
 20
105.8889726706247
 30
0.0
 11
90.58077898835222
 21
156.5040656012063
 31
0.0
  0
LINE
  5
149
330
2
100
AcDbEntity
  8
0
100
AcDbLine
 10
91.53076510987757
 20
105.8889726706247
 30
0.0
 11
91.53076510987757
 21
156.5040656011983
 31
0.0
  0
LINE
  5
14B
330
2
100
AcDbEntity
  8
0
100
AcDbLine
 10
95.48076510987755
 20
105.8889726706247
 30
0.0
 11
95.48076510987755
 21
156.5040656011983
 31
0.0
  0
LINE
  5
14C
330
2
100
AcDbEntity
  8
0
100
AcDbLine
 10
97.08076510987769
 20
105.8889726706247
 30
0.0
 11
97.08076510987769
 21
156.5040656011983
 31
0.0
  0
LINE
  5
15A
330
2
100
AcDbEntity
  8
0
100
AcDbLine
 10
62.0807651098775
 20
66.3962610129238
 30
0.0
 11
62.0807651098775
 21
156.5040656011983
 31
0.0
  0
LINE
  5
15D
330
2
100
AcDbEntity
  8
0
100
AcDbLine
 10
33.08076510987751
 20
63.89626101292378
 30
0.0
 11
33.08076510987751
 21
156.5040656011983
 31
0.0
  0
LINE
  5
15E
330
2
100
AcDbEntity
  8
0
100
AcDbLine
 10
83.08077898835234
 20
124.8875752872072
 30
0.0
 11
83.08077898835234
 21
156.5040656012063
 31
0.0
  0
LINE
  5
15F
330
2
100
AcDbEntity
  8
0
100
AcDbLine
 10
72.73077898835237
 20
156.5040656012063
 30
0.0
 11
72.73077898835237
 21
111.4873048062613
 31
0.0
  0
LINE
  5
160
330
2
100
AcDbEntity
  8
0
100
AcDbLine
 10
75.73077898835236
 20
156.5040656012063
 30
0.0
 11
75.73077898835236
 21
111.4873048062613
 31
0.0
  0
LINE
  5
161
330
2
100
AcDbEntity
  8
0
100
AcDbLine
 10
76.03077898835238
 20
156.5040656012063
 30
0.0
 11
76.03077898835238
 21
111.4873048062613
 31
0.0
  0
LINE
  5
162
330
2
100
AcDbEntity
  8
0
100
AcDbLine
 10
79.03077898835232
 20
156.5040656012063
 30
0.0
 11
79.03077898835238
 21
111.4873048062613
 31
0.0
  0
LINE
  5
163
330
2
100
AcDbEntity
  8
0
100
AcDbLine
 10
66.08077898835222
 20
70.88757528720731
 30
0.0
 11
66.08077898835222
 21
156.5040656012063
 31
0.0
  0
LINE
  5
164
330
2
100
AcDbEntity
  8
0
100
AcDbLine
 10
68.6807789883523
 20
124.8875752872072
 30
0.0
 11
68.6807789883523
 21
156.5040656012063
 31
0.0
  0
LINE
  5
165
330
2
100
AcDbEntity
  8
0
100
AcDbLine
 10
66.88077898835223
 20
70.88757528720731
 30
0.0
 11
66.88077898835223
 21
156.5040656012063
 31
0.0
  0
LINE
  5
166
330
2
100
AcDbEntity
  8
ADM
  6
CENTER
100
AcDbLine
 10
75.88077898835223
 20
60.89626101292377
 30
0.0
 11
75.88077898835223
 21
156.5040656012063
 31
0.0
  0
DIMENSION
  5
167
330
2
100
AcDbEntity
  8
ADM
100
AcDbDimension
  2
*D2
 10
18.08076510987749
 20
124.8875752872072
 30
0.0
 11
15.58076510987747
 21
156.5496490951584
 31
0.0
 70
    32
  1
H-110
 71
     5
 42
-1.0
  3
1
100
AcDbAlignedDimension
 13
67.04884696209257
 23
188.2117229031095
 33
0.0
 14
65.51516167011311
 24
124.8875752872072
 34
0.0
 50
90.0
100
AcDbRotatedDimension
1001
ACAD
1000
DSTYLE
1002
{
1070
   172
1070
     1
1070
   271
1070
     1
1070
   272
1070
     1
1070
     6
1000
DOT
1070
     7
1000
DOT
1002
}
  0
LINE
  5
2B1
330
2
100
AcDbEntity
  8
0
100
AcDbLine
 10
79.03077898835238
 20
111.4873048062613
 30
0.0
 11
72.73077898835237
 21
111.4873048062613
 31
0.0
  0
LINE
  5
2B2
330
2
100
AcDbEntity
  8
ADM
  6
CENTER
100
AcDbLine
 10
73.7807789883521
 20
106.3875752872073
 30
0.0
 11
77.98077898835225
 21
106.3875752872073
 31
0.0
  0
DIMENSION
  5
2CA
330
2
100
AcDbEntity
  8
ADM
100
AcDbDimension
  2
*D3
 10
75.88077898835223
 20
48.89626101292376
 30
0.0
 11
60.88077204911505
 21
51.39626101292376
 31
0.0
 70
    32
 71
     5
 42
-1.0
  3
1
100
AcDbAlignedDimension
 13
45.88076510987787
 23
60.89626101292377
 33
0.0
 14
75.88077898835223
 24
60.89626101292377
 34
0.0
100
AcDbRotatedDimension
1001
ACAD
1000
DSTYLE
1002
{
1070
   172
1070
     1
1070
     6
1000
DOT
1070
     7
1000
DOT
1002
}
  0
LINE
  5
389
330
2
100
AcDbEntity
  8
0
100
AcDbLine
 10
35.28076510987756
 20
66.39626101292377
 30
0.0
 11
34.4807651098775
 21
66.3962610129239
 31
0.0
  0
LINE
  5
38A
330
2
100
AcDbEntity
  8
0
100
AcDbLine
 10
33.08076510987751
 20
63.89626101292378
 30
0.0
 11
34.95115590820474
 21
63.89626101292379
 31
0.0
  0
LINE
  5
38D
330
2
100
AcDbEntity
  8
ADM
  6
CENTER
100
AcDbLine
 10
45.88076510987787
 20
60.89626101292377
 30
0.0
 11
45.88076510987787
 21
80.89626101292379
 31
0.0
  0
LINE
  5
390
330
2
100
AcDbEntity
  8
0
100
AcDbLine
 10
73.88077898835224
 20
70.88757528720731
 30
0.0
 11
66.08077898835222
 21
70.88757528720731
 31
0.0
  0
LINE
  5
462
330
2
100
AcDbEntity
  8
0
100
AcDbLine
 10
91.58077898835221
 20
70.88757528720731
 30
0.0
 11
91.58077898835221
 21
89.88897267062469
 31
0.0
  0
LINE
  5
464
330
2
100
AcDbEntity
  8
0
100
AcDbLine
 10
97.08076510987769
 20
63.89626101292378
 30
0.0
 11
97.08076510987769
 21
89.88897267062469
 31
0.0
  0
LINE
  5
465
330
2
100
AcDbEntity
  8
0
100
AcDbLine
 10
90.58077898835222
 20
70.88757528720731
 30
0.0
 11
90.58077898835222
 21
89.88897267062469
 31
0.0
  0
LINE
  5
467
330
2
100
AcDbEntity
  8
0
100
AcDbLine
 10
95.48076510987755
 20
63.89626101292378
 30
0.0
 11
95.48076510987755
 21
89.88897267062469
 31
0.0
  0
LINE
  5
468
330
2
100
AcDbEntity
  8
0
100
AcDbLine
 10
77.88077898835223
 20
70.88757528720731
 30
0.0
 11
91.58077898835221
 21
70.88757528720731
 31
0.0
  0
LINE
  5
46A
330
2
100
AcDbEntity
  8
0
100
AcDbLine
 10
95.11300195006493
 20
63.89626101292377
 30
0.0
 11
97.08076510987758
 21
63.89626101292378
 31
0.0
  0
LINE
  5
594
330
2
100
AcDbEntity
  8
0
100
AcDbLine
 10
79.03077898835237
 20
200.8119933840554
 30
0.0
 11
72.73077898835237
 21
200.8119933840555
 31
0.0
  0
LINE
  5
595
330
2
100
AcDbEntity
  8
ADM
  6
CENTER
100
AcDbLine
 10
71.63105435052063
 20
206.7117229031093
 30
0.0
 11
80.13050362618384
 21
206.7117229031093
 31
0.0
  0
LINE
  5
599
330
2
100
AcDbEntity
  8
0
100
AcDbLine
 10
95.48076510987755
 20
237.2117229031096
 30
0.0
 11
97.08076510987758
 21
237.2117229031096
 31
0.0
  0
LINE
  5
59A
330
2
100
AcDbEntity
  8
0
100
AcDbLine
 10
66.08077898835222
 20
220.2117229031093
 30
0.0
 11
91.58077898835221
 21
220.2117229031094
 31
0.0
  0
DIMENSION
  5
59B
330
2
100
AcDbEntity
  8
ADM
100
AcDbDimension
  2
*D4
 10
97.08076510987758
 20
252.2117229031095
 30
0.0
 11
65.08076510987755
 21
254.7117229031095
 31
0.0
 70
    32
 71
     5
 42
-1.0
  3
1
100
AcDbAlignedDimension
 13
33.08076510987751
 23
232.9117229031095
 33
0.0
 14
97.08076510987758
 24
237.2117229031094
 34
0.0
100
AcDbRotatedDimension
1001
ACAD
1000
DSTYLE
1002
{
1070
   172
1070
     1
1070
     6
1000
DOT
1070
     7
1000
DOT
1002
}
  0
LINE
  5
5EB
330
2
100
AcDbEntity
  8
0
100
AcDbLine
 10
34.48076510987751
 20
158.5952325891105
 30
0.0
 11
34.48076510987751
 21
210.2117229031099
 31
0.0
  0
LINE
  5
5EC
330
2
100
AcDbEntity
  8
0
100
AcDbLine
 10
34.58076510987751
 20
158.5952325891105
 30
0.0
 11
34.58076510987751
 21
210.2117229031099
 31
0.0
  0
LINE
  5
5EE
330
2
100
AcDbEntity
  8
0
100
AcDbLine
 10
62.0807651098775
 20
158.5952325891105
 30
0.0
 11
62.0807651098775
 21
213.7117229031094
 31
0.0
  0
LINE
  5
5EF
330
2
100
AcDbEntity
  8
0
100
AcDbLine
 10
66.08077898835325
 20
213.7117229031093
 30
0.0
 11
66.08077898835222
 21
158.5952325891105
 31
0.0
  0
LINE
  5
5F0
330
2
100
AcDbEntity
  8
0
100
AcDbLine
 10
72.73077898835237
 20
158.5952325891106
 30
0.0
 11
72.73077898835237
 21
200.8119933840554
 31
0.0
  0
LINE
  5
5F1
330
2
100
AcDbEntity
  8
0
100
AcDbLine
 10
66.88077898835223
 20
213.2117229031093
 30
0.0
 11
66.88077898835223
 21
158.5952325891105
 31
0.0
  0
LINE
  5
5F2
330
2
100
AcDbEntity
  8
0
100
AcDbLine
 10
68.6807789883523
 20
188.2117229031096
 30
0.0
 11
68.6807789883523
 21
158.5952325891105
 31
0.0
  0
LINE
  5
5F3
330
2
100
AcDbEntity
  8
0
100
AcDbLine
 10
33.08076510987751
 20
158.5952325891105
 30
0.0
 11
33.08076510987751
 21
210.21172290311
 31
0.0
  0
LINE
  5
605
330
2
100
AcDbEntity
  8
0
100
AcDbLine
 10
66.08077898835222
 20
213.7117229031094
 30
0.0
 11
35.33076510987751
 21
213.7117229031094
 31
0.0
  0
LINE
  5
62D
330
2
100
AcDbEntity
  8
0
100
AcDbLine
 10
35.33076510987672
 20
210.21172290311
 30
0.0
 11
35.33076510987751
 21
213.7117229031094
 31
0.0
  0
LINE
  5
62E
330
2
100
AcDbEntity
  8
0
100
AcDbLine
 10
35.33076510987671
 20
210.21172290311
 30
0.0
 11
33.08076510987751
 21
210.21172290311
 31
0.0
  0
LINE
  5
63B
330
2
100
AcDbEntity
  8
0
100
AcDbLine
 10
66.08077898835222
 20
220.2117229031093
 30
0.0
 11
66.08077898835222
 21
218.029239541378
 31
0.0
  0
LINE
  5
660
330
2
100
AcDbEntity
  8
0
100
AcDbLine
 10
95.48076510987755
 20
158.5952325891105
 30
0.0
 11
95.48076510987753
 21
175.2117229031099
 31
0.0
  0
LINE
  5
661
330
2
100
AcDbEntity
  8
0
100
AcDbLine
 10
97.08076510987769
 20
158.5952325891105
 30
0.0
 11
97.08076510987766
 21
175.2117229031099
 31
0.0
  0
LINE
  5
68C
330
2
100
AcDbEntity
  8
0
100
AcDbLine
 10
91.58077898835273
 20
213.7117229031098
 30
0.0
 11
91.58077898835221
 21
158.5952325891105
 31
0.0
  0
LINE
  5
68D
330
2
100
AcDbEntity
  8
0
100
AcDbLine
 10
83.08077898835234
 20
188.2117229031096
 30
0.0
 11
83.08077898835234
 21
158.5952325891105
 31
0.0
  0
LINE
  5
68E
330
2
100
AcDbEntity
  8
0
100
AcDbLine
 10
90.58077898835222
 20
213.2117229031093
 30
0.0
 11
90.58077898835222
 21
158.5952325891105
 31
0.0
  0
LINE
  5
68F
330
2
100
AcDbEntity
  8
0
100
AcDbLine
 10
75.73077898835236
 20
158.5952325891106
 30
0.0
 11
75.73077898835236
 21
200.8119933840554
 31
0.0
  0
LINE
  5
690
330
2
100
AcDbEntity
  8
0
100
AcDbLine
 10
76.03077898835238
 20
158.5952325891106
 30
0.0
 11
76.03077898835238
 21
200.8119933840554
 31
0.0
  0
LINE
  5
691
330
2
100
AcDbEntity
  8
0
100
AcDbLine
 10
79.03077898835232
 20
158.5952325891106
 30
0.0
 11
79.03077898835238
 21
200.8119933840554
 31
0.0
  0
LINE
  5
692
330
2
100
AcDbEntity
  8
ADM
  6
CENTER
100
AcDbLine
 10
75.88077898835223
 20
158.5952325891105
 30
0.0
 11
75.88077898835223
 21
210.9614475409409
 31
0.0
  0
LINE
  5
6DB
330
2
100
AcDbEntity
  8
0
100
AcDbLine
 10
91.58077898835228
 20
220.2117229031094
 30
0.0
 11
91.58077898835228
 21
218.0568377756478
 31
0.0
  0
LINE
  5
73B
330
2
100
AcDbEntity
  8
0
100
AcDbLine
 10
271.6224083351502
 20
84.73883444685167
 30
0.0
 11
355.5226788161021
 21
84.73883444685057
 31
0.0
  0
LINE
  5
73C
330
2
100
AcDbEntity
  8
0
100
AcDbLine
 10
271.6224083351502
 20
88.03883444685162
 30
0.0
 11
355.5226788160968
 21
88.03883444685061
 31
0.0
  0
LINE
  5
73D
330
2
100
AcDbEntity
  8
0
100
AcDbLine
 10
271.6224083351502
 20
87.73883444685155
 30
0.0
 11
355.5226788160968
 21
87.73883444685054
 31
0.0
  0
LINE
  5
73E
330
2
100
AcDbEntity
  8
0
100
AcDbLine
 10
342.1224083351512
 20
95.08883444685096
 30
0.0
 11
271.6224083351502
 21
95.0888344468518
 31
0.0
  0
LINE
  5
73F
330
2
100
AcDbEntity
  8
0
100
AcDbLine
 10
271.6224083351502
 20
96.68883444685171
 30
0.0
 11
342.1224083351507
 21
96.68883444685087
 31
0.0
  0
LINE
  5
740
330
2
100
AcDbEntity
  8
0
100
AcDbLine
 10
271.6224083351502
 20
91.0388344468515
 30
0.0
 11
355.5226788161021
 21
91.03883444685063
 31
0.0
  0
LINE
  5
742
330
2
100
AcDbEntity
  8
0
100
AcDbLine
 10
362.6224083351504
 20
128.9888344468502
 30
0.0
 11
271.6224083351502
 21
128.9888344468514
 31
0.0
  0
LINE
  5
743
330
2
100
AcDbEntity
  8
0
100
AcDbLine
 10
271.6224083351502
 20
119.8888344468516
 30
0.0
 11
362.6224083351504
 21
119.8888344468505
 31
0.0
  0
LINE
  5
744
330
2
100
AcDbEntity
  8
0
100
AcDbLine
 10
271.6224083351502
 20
115.8888344468516
 30
0.0
 11
362.6224083351502
 21
115.8888344468505
 31
0.0
  0
LINE
  5
746
330
2
100
AcDbEntity
  8
0
100
AcDbLine
 10
322.6224083351496
 20
70.28883444685087
 30
0.0
 11
271.6224083351502
 21
70.28883444685158
 31
0.0
  0
LINE
  5
747
330
2
100
AcDbEntity
  8
0
100
AcDbLine
 10
322.6224083351496
 20
68.48883444685089
 30
0.0
 11
271.6224083351502
 21
68.48883444685147
 31
0.0
  0
LINE
  5
748
330
2
100
AcDbEntity
  8
0
100
AcDbLine
 10
342.1224083351505
 20
73.38883444685092
 30
0.0
 11
271.6224083351502
 21
73.38883444685176
 31
0.0
  0
LINE
  5
779
330
2
100
AcDbEntity
  8
0
100
AcDbLine
 10
341.4224083351514
 20
80.68883444685173
 30
0.0
 11
271.6224083351502
 21
80.68883444685173
 31
0.0
  0
LINE
  5
789
330
2
100
AcDbEntity
  8
0
100
AcDbLine
 10
218.6224083351502
 20
70.28883444685149
 30
0.0
 11
269.6224083351502
 21
70.28883444685158
 31
0.0
  0
LINE
  5
78A
330
2
100
AcDbEntity
  8
0
100
AcDbLine
 10
218.6224083351502
 20
68.48883444685151
 30
0.0
 11
269.6224083351502
 21
68.48883444685149
 31
0.0
  0
LINE
  5
78B
330
2
100
AcDbEntity
  8
0
100
AcDbLine
 10
199.1224083351489
 20
80.68883444685173
 30
0.0
 11
269.6224083351502
 21
80.68883444685173
 31
0.0
  0
LINE
  5
78C
330
2
100
AcDbEntity
  8
0
100
AcDbLine
 10
199.1224083351489
 20
95.08883444685181
 30
0.0
 11
269.6224083351502
 21
95.08883444685181
 31
0.0
  0
LINE
  5
78D
330
2
100
AcDbEntity
  8
0
100
AcDbLine
 10
269.6224083351502
 20
96.68883444685171
 30
0.0
 11
199.1224083351494
 21
96.68883444685173
 31
0.0
  0
LINE
  5
78E
330
2
100
AcDbEntity
  8
0
100
AcDbLine
 10
199.1224083351494
 20
73.38883444685177
 30
0.0
 11
269.6224083351502
 21
73.38883444685177
 31
0.0
  0
TEXT
  5
7E0
330
2
100
AcDbEntity
  8
ADM
100
AcDbText
 10
372.8398952465741
 20
1.154120148162746
 30
0.0
 40
2.5
  1
MI01
 41
0.8
 72
     1
 11
376.0303714370503
 21
1.154120148162746
 31
0.0
100
AcDbText
  0
LINE
  5
810
330
2
100
AcDbEntity
  8
0
100
AcDbLine
 10
369.9224083351502
 20
70.28883444685144
 30
0.0
 11
358.0224083351517
 21
70.28883444685146
 31
0.0
  0
LINE
  5
811
330
2
100
AcDbEntity
  8
0
100
AcDbLine
 10
369.9224083351503
 20
68.48883444685151
 30
0.0
 11
358.1224083351518
 21
68.48883444685151
 31
0.0
  0
LINE
  5
D56
330
2
100
AcDbEntity
  8
0
100
AcDbLine
 10
185.7221378542033
 20
91.03883444685164
 30
0.0
 11
185.7221378542033
 21
84.73883444685156
 31
0.0
  0
LINE
  5
34FC
330
2
100
AcDbEntity
  8
0
100
AcDbLine
 10
97.08076510987764
 20
205.2117229031099
 30
0.0
 11
97.08076510987758
 21
237.2117229031096
 31
0.0
  0
LINE
  5
34FD
330
2
100
AcDbEntity
  8
0
100
AcDbLine
 10
95.48076510987757
 20
205.2117229031099
 30
0.0
 11
95.48076510987755
 21
237.2117229031096
 31
0.0
  0
LINE
  5
35CE
330
2
100
AcDbEntity
  8
0
100
AcDbLine
 10
195.0224083351483
 20
70.28883444685146
 30
0.0
 11
202.6224083351502
 21
70.28883444685146
 31
0.0
  0
LINE
  5
35CF
330
2
100
AcDbEntity
  8
0
100
AcDbLine
 10
195.1224083351484
 20
68.48883444685149
 30
0.0
 11
202.6224083351502
 21
68.48883444685151
 31
0.0
  0
LINE
  5
35F7
330
2
100
AcDbEntity
  8
0
100
AcDbLine
 10
346.2224083351512
 20
70.28883444685056
 30
0.0
 11
338.6224083351496
 21
70.28883444685066
 31
0.0
  0
LINE
  5
35F9
330
2
100
AcDbEntity
  8
0
100
AcDbLine
 10
346.1224083351518
 20
68.48883444685061
 30
0.0
 11
338.6224083351496
 21
68.4888344468507
 31
0.0
  0
DIMENSION
  5
3C38
330
2
100
AcDbEntity
  8
ADM
100
AcDbDimension
  2
*D5
 10
97.08076510987769
 20
48.89626101292376
 30
0.0
 11
86.48077204911496
 21
51.39626101292376
 31
0.0
 70
    32
 71
     5
 42
-1.0
  3
1
100
AcDbAlignedDimension
 13
75.88077898835223
 23
60.89626101292377
 33
0.0
 14
97.08076510987769
 24
63.89626101292378
 34
0.0
100
AcDbRotatedDimension
1001
ACAD
1000
DSTYLE
1002
{
1070
     6
1000
DOT
1070
     7
1000
DOT
1002
}
  0
DIMENSION
  5
3C76
330
2
100
AcDbEntity
  8
ADM
100
AcDbDimension
  2
*D6
 10
112.0807651098777
 20
63.89626101292378
 30
0.0
 11
109.5807651098776
 21
70.89626101292392
 31
0.0
 70
    32
 71
     5
 42
-1.0
  3
1
100
AcDbAlignedDimension
 13
94.38076510987787
 23
77.896261012924
 33
0.0
 14
97.08076510987769
 24
63.89626101292378
 34
0.0
 50
90.0
100
AcDbRotatedDimension
1001
ACAD
1000
DSTYLE
1002
{
1070
     6
1000
DOT
1070
     7
1000
DOT
1002
}
  0
LINE
  5
3DD8
330
2
100
AcDbEntity
  8
0
100
AcDbLine
 10
66.08077898835325
 20
218.3617229031094
 30
0.0
 11
66.08077898835336
 21
219.7117229031096
 31
0.0
  0
ARC
  5
3DD9
330
2
100
AcDbEntity
  8
0
100
AcDbCircle
 10
66.48077898835336
 20
218.3617229031094
 30
0.0
 40
0.4000000000001194
100
AcDbArc
 50
179.9999999999967
 51
0.0000000000309404
  0
LINE
  5
3DDA
330
2
100
AcDbEntity
  8
0
100
AcDbLine
 10
66.88077898835342
 20
219.2117229031094
 30
0.0
 11
66.88077898835349
 21
218.3617229031096
 31
0.0
  0
LINE
  5
3DDB
330
2
100
AcDbEntity
  8
0
100
AcDbLine
 10
68.08077898835342
 20
219.2117229031094
 30
0.0
 11
66.88077898835342
 21
219.2117229031094
 31
0.0
  0
LINE
  5
3DDC
330
2
100
AcDbEntity
  8
0
100
AcDbLine
 10
68.08077898835342
 20
214.2117229031093
 30
0.0
 11
68.08077898835342
 21
219.2117229031094
 31
0.0
  0
LINE
  5
3DDD
330
2
100
AcDbEntity
  8
0
100
AcDbLine
 10
66.88077898835342
 20
214.2117229031093
 30
0.0
 11
68.08077898835342
 21
214.2117229031093
 31
0.0
  0
LINE
  5
3DDE
330
2
100
AcDbEntity
  8
0
100
AcDbLine
 10
66.88077898835342
 20
215.0617229031092
 30
0.0
 11
66.88077898835342
 21
214.2117229031093
 31
0.0
  0
ARC
  5
3DDF
330
2
100
AcDbEntity
  8
0
100
AcDbCircle
 10
66.48077898835322
 20
215.0617229031092
 30
0.0
 40
0.4000000000002047
100
AcDbArc
 50
359.9999999999967
 51
179.9999999999967
  0
LINE
  5
3DE0
330
2
100
AcDbEntity
  8
0
100
AcDbLine
 10
66.08077898835325
 20
213.7117229031093
 30
0.0
 11
66.08077898835301
 21
215.0617229031092
 31
0.0
  0
ARC
  5
3DE1
330
2
100
AcDbEntity
  8
0
100
AcDbCircle
 10
66.58077898835324
 20
213.7117229031093
 30
0.0
 40
0.5
100
AcDbArc
 50
180.0
 51
270.0
  0
LINE
  5
3DE2
330
2
100
AcDbEntity
  8
0
100
AcDbLine
 10
67.08077898835302
 20
213.2117229031093
 30
0.0
 11
66.58077898835324
 21
213.2117229031093
 31
0.0
  0
LINE
  5
3DE3
330
2
100
AcDbEntity
  8
0
100
AcDbLine
 10
67.08077898835187
 20
188.2117229031096
 30
0.0
 11
67.08077898835302
 21
213.2117229031093
 31
0.0
  0
LINE
  5
3DF1
330
2
100
AcDbEntity
  8
0
100
AcDbLine
 10
68.68077898835242
 20
203.2117229031093
 30
0.0
 11
68.68077898835242
 21
188.2117229031096
 31
0.0
  0
LINE
  5
3DF2
330
2
100
AcDbEntity
  8
0
100
AcDbLine
 10
83.08077898835049
 20
203.2117229031096
 30
0.0
 11
68.68077898835242
 21
203.2117229031093
 31
0.0
  0
LINE
  5
3E18
330
2
100
AcDbEntity
  8
0
100
AcDbLine
 10
91.08077898835279
 20
213.2117229031093
 30
0.0
 11
90.22077898835311
 21
213.2117229031093
 31
0.0
  0
ARC
  5
3E19
330
2
100
AcDbEntity
  8
0
100
AcDbCircle
 10
91.08077898835265
 20
213.7117229031094
 30
0.0
 40
0.5000000000000853
100
AcDbArc
 50
270.0000000000162
 51
0.0000000000537387
  0
LINE
  5
3E1A
330
2
100
AcDbEntity
  8
0
100
AcDbLine
 10
91.580778988352
 20
215.0617229031092
 30
0.0
 11
91.58077898835273
 21
213.7117229031098
 31
0.0
  0
ARC
  5
3E1B
330
2
100
AcDbEntity
  8
0
100
AcDbCircle
 10
91.1807789883518
 20
215.0617229031092
 30
0.0
 40
0.4000000000002047
100
AcDbArc
 50
0.0000000000097707
 51
179.9999999999934
  0
LINE
  5
3E1C
330
2
100
AcDbEntity
  8
0
100
AcDbLine
 10
90.78077898835159
 20
214.2117229031093
 30
0.0
 11
90.78077898835159
 21
215.0617229031092
 31
0.0
  0
LINE
  5
3E1D
330
2
100
AcDbEntity
  8
0
100
AcDbLine
 10
89.58077898835155
 20
214.2117229031093
 30
0.0
 11
90.78077898835159
 21
214.2117229031093
 31
0.0
  0
LINE
  5
3E1E
330
2
100
AcDbEntity
  8
0
100
AcDbLine
 10
89.58077898835155
 20
219.2117229031094
 30
0.0
 11
89.58077898835155
 21
214.2117229031093
 31
0.0
  0
LINE
  5
3E1F
330
2
100
AcDbEntity
  8
0
100
AcDbLine
 10
90.78077898835159
 20
219.2117229031094
 30
0.0
 11
89.58077898835155
 21
219.2117229031094
 31
0.0
  0
LINE
  5
3E20
330
2
100
AcDbEntity
  8
0
100
AcDbLine
 10
90.78077898835147
 20
218.3617229031096
 30
0.0
 11
90.78077898835159
 21
219.2117229031094
 31
0.0
  0
ARC
  5
3E21
330
2
100
AcDbEntity
  8
0
100
AcDbCircle
 10
91.18077898835162
 20
218.3617229031094
 30
0.0
 40
0.4000000000001478
100
AcDbArc
 50
179.999999999969
 51
0.0000000000016284
  0
LINE
  5
3E22
330
2
100
AcDbEntity
  8
0
100
AcDbLine
 10
91.58077898835172
 20
219.7117229031096
 30
0.0
 11
91.58077898835177
 21
218.3617229031094
 31
0.0
  0
ARC
  5
3E23
330
2
100
AcDbEntity
  8
0
100
AcDbCircle
 10
91.08077898835176
 20
219.7117229031094
 30
0.0
 40
0.499999999999929
100
AcDbArc
 50
0.0000000000211698
 51
90.00000000001303
  0
LINE
  5
3E24
330
2
100
AcDbEntity
  8
0
100
AcDbLine
 10
89.08077898835172
 20
220.2117229031093
 30
0.0
 11
91.08077898835166
 21
220.2117229031093
 31
0.0
  0
ARC
  5
3E25
330
2
100
AcDbEntity
  8
0
100
AcDbCircle
 10
89.08077898835172
 20
219.7117229031093
 30
0.0
 40
0.5
100
AcDbArc
 50
90.0
 51
180.0
  0
LINE
  5
3E26
330
2
100
AcDbEntity
  8
0
100
AcDbLine
 10
88.58077898835153
 20
214.2117229031093
 30
0.0
 11
88.58077898835171
 21
219.7117229031093
 31
0.0
  0
LINE
  5
3E27
330
2
100
AcDbEntity
  8
0
100
AcDbLine
 10
85.08077898835244
 20
214.2117229031093
 30
0.0
 11
88.58077898835153
 21
214.2117229031093
 31
0.0
  0
ARC
  5
3E28
330
2
100
AcDbEntity
  8
0
100
AcDbCircle
 10
85.08077898835244
 20
213.7117229031093
 30
0.0
 40
0.5
100
AcDbArc
 50
90.0
 51
180.0
  0
LINE
  5
3E29
330
2
100
AcDbEntity
  8
0
100
AcDbLine
 10
84.58077898835245
 20
204.4117229031094
 30
0.0
 11
84.58077898835245
 21
213.7117229031093
 31
0.0
  0
LINE
  5
3E2A
330
2
100
AcDbEntity
  8
0
100
AcDbLine
 10
78.88244519231318
 20
204.4117229031096
 30
0.0
 11
84.58077898835245
 21
204.4117229031094
 31
0.0
  0
ARC
  5
3E2B
330
2
100
AcDbEntity
  8
0
100
AcDbCircle
 10
78.88244519231318
 20
204.9117229031096
 30
0.0
 40
0.4999999999999611
100
AcDbArc
 50
149.050276921145
 51
270.0
  0
ARC
  5
3E2C
330
2
100
AcDbEntity
  8
0
100
AcDbCircle
 10
75.88077898835246
 20
206.7117229031094
 30
0.0
 40
2.999999999999948
100
AcDbArc
 50
329.0502769211414
 51
39.02280256523585
  0
ARC
  5
3E2D
330
2
100
AcDbEntity
  8
0
100
AcDbCircle
 10
77.97839668469271
 20
208.4117229031094
 30
0.0
 40
0.3000000000000256
100
AcDbArc
 50
39.02280256525721
 51
90.00000000002115
  0
ARC
  5
3E34
330
2
100
AcDbEntity
  8
0
100
AcDbCircle
 10
73.78316129201221
 20
208.4117229031094
 30
0.0
 40
0.3000000000000047
100
AcDbArc
 50
90.0
 51
140.9771974347636
  0
ARC
  5
3E35
330
2
100
AcDbEntity
  8
0
100
AcDbCircle
 10
75.88077898835223
 20
206.7117229031093
 30
0.0
 40
2.999999999999832
100
AcDbArc
 50
140.9771974347636
 51
210.9497230788549
  0
ARC
  5
3E36
330
2
100
AcDbEntity
  8
0
100
AcDbCircle
 10
72.87911278439151
 20
204.9117229031095
 30
0.0
 40
0.5000000000000853
100
AcDbArc
 50
270.000000000013
 51
30.94972307886444
  0
LINE
  5
3E37
330
2
100
AcDbEntity
  8
0
100
AcDbLine
 10
68.08077898835245
 20
204.4117229031096
 30
0.0
 11
72.87911278439162
 21
204.4117229031094
 31
0.0
  0
LINE
  5
3E38
330
2
100
AcDbEntity
  8
0
100
AcDbLine
 10
68.08077898835245
 20
213.2117229031093
 30
0.0
 11
68.08077898835245
 21
204.4117229031096
 31
0.0
  0
LINE
  5
3E39
330
2
100
AcDbEntity
  8
0
100
AcDbLine
 10
68.58077898835325
 20
213.2117229031093
 30
0.0
 11
68.08077898835245
 21
213.2117229031093
 31
0.0
  0
ARC
  5
3E3A
330
2
100
AcDbEntity
  8
0
100
AcDbCircle
 10
68.58077898835325
 20
213.7117229031093
 30
0.0
 40
0.5
100
AcDbArc
 50
270.0
 51
0.0
  0
LINE
  5
3E3B
330
2
100
AcDbEntity
  8
0
100
AcDbLine
 10
69.08077898835341
 20
219.7117229031093
 30
0.0
 11
69.08077898835324
 21
213.7117229031093
 31
0.0
  0
ARC
  5
3E3C
330
2
100
AcDbEntity
  8
0
100
AcDbCircle
 10
68.58077898835333
 20
219.7117229031092
 30
0.0
 40
0.5000000000000853
100
AcDbArc
 50
0.0000000000097707
 51
90.00000000000978
  0
LINE
  5
3E3D
330
2
100
AcDbEntity
  8
0
100
AcDbLine
 10
66.58077898835324
 20
220.2117229031093
 30
0.0
 11
68.58077898835325
 21
220.2117229031093
 31
0.0
  0
ARC
  5
3E3E
330
2
100
AcDbEntity
  8
0
100
AcDbCircle
 10
66.58077898835313
 20
219.7117229031095
 30
0.0
 40
0.4999999999997727
100
AcDbArc
 50
89.99999999998697
 51
179.9999999999869
  0
LINE
  5
3E76
330
2
100
AcDbEntity
  8
0
100
AcDbLine
 10
90.22077898835311
 20
213.2117229031093
 30
0.0
 11
90.22077898835311
 21
188.2117229031095
 31
0.0
  0
LINE
  5
3E7E
330
2
100
AcDbEntity
  8
0
100
AcDbLine
 10
83.08077898835234
 20
188.2117229031096
 30
0.0
 11
83.08077898835049
 21
203.2117229031096
 31
0.0
  0
LINE
  5
3E9A
330
2
100
AcDbEntity
  8
0
100
AcDbLine
 10
67.08077898835187
 20
188.2117229031096
 30
0.0
 11
72.73077898835237
 21
188.2117229031096
 31
0.0
  0
LINE
  5
3EA1
330
2
100
AcDbEntity
  8
0
100
AcDbLine
 10
79.03077898835235
 20
188.2117229031095
 30
0.0
 11
90.22077898835311
 21
188.2117229031095
 31
0.0
  0
LINE
  5
3EA2
330
2
100
AcDbEntity
  8
0
100
AcDbLine
 10
83.08077898835234
 20
188.2117229031096
 30
0.0
 11
82.68077898835157
 21
202.9117229031098
 31
0.0
  0
LINE
  5
3EB3
330
2
100
AcDbEntity
  8
0
100
AcDbLine
 10
82.68077898835157
 20
202.9117229031098
 30
0.0
 11
69.08077898835329
 21
202.9117229031095
 31
0.0
  0
LINE
  5
3EB7
330
2
100
AcDbEntity
  8
0
100
AcDbLine
 10
68.68077898834744
 20
188.2117229031121
 30
0.0
 11
69.08077898835329
 21
202.9117229031095
 31
0.0
  0
DIMENSION
  5
3ED6
330
2
100
AcDbEntity
  8
ADM
100
AcDbDimension
  2
*D7
 10
18.08076510987751
 20
210.21172290311
 30
0.0
 11
15.58076510987748
 21
223.7117229031097
 31
0.0
 70
    32
 71
     5
 42
-1.0
  3
1
100
AcDbAlignedDimension
 13
35.93012850955279
 23
237.2117229031095
 33
0.0
 14
33.08076510987751
 24
210.21172290311
 34
0.0
 50
90.0
100
AcDbRotatedDimension
1001
ACAD
1000
DSTYLE
1002
{
1070
     6
1000
DOT
1070
     7
1000
DOT
1002
}
  0
DIMENSION
  5
3F03
330
2
100
AcDbEntity
  8
ADM
100
AcDbDimension
  2
*D8
 10
18.08076510987748
 20
70.88757528720733
 30
0.0
 11
15.58076510987747
 21
97.88757528720738
 31
0.0
 70
    32
 71
     5
 42
-1.0
  3
1
100
AcDbAlignedDimension
 13
67.38077898835223
 23
124.8875752872074
 33
0.0
 14
66.08077898835222
 24
70.88757528720731
 34
0.0
 50
90.0
100
AcDbRotatedDimension
1001
ACAD
1000
DSTYLE
1002
{
1070
     6
1000
DOT
1070
     7
1000
DOT
1002
}
  0
LINE
  5
41A8
330
2
100
AcDbEntity
  8
0
100
AcDbLine
 10
67.0807789883554
 20
71.38757528720738
 30
0.0
 11
67.08077898835227
 21
124.5875752872074
 31
0.0
  0
LINE
  5
41A9
330
2
100
AcDbEntity
  8
0
100
AcDbLine
 10
68.08077898835353
 20
103.3875752872074
 30
0.0
 11
68.08077898835506
 21
77.88757528720748
 31
0.0
  0
LINE
  5
41AA
330
2
100
AcDbEntity
  8
0
100
AcDbLine
 10
83.68077898834968
 20
77.88757528720748
 30
0.0
 11
83.6807789883535
 21
103.3875752872074
 31
0.0
  0
LINE
  5
41AB
330
2
100
AcDbEntity
  8
0
100
AcDbLine
 10
83.68077898834968
 20
71.88757528720751
 30
0.0
 11
83.68077898834991
 21
76.88757528720751
 31
0.0
  0
ARC
  5
41AC
330
2
100
AcDbEntity
  8
0
100
AcDbCircle
 10
82.08077898834984
 20
72.73757528720756
 30
0.0
 40
0.3999999999999772
100
AcDbArc
 50
359.9999999999918
 51
179.9999999999755
  0
ARC
  5
41AE
330
2
100
AcDbEntity
  8
0
100
AcDbCircle
 10
69.68077898835502
 20
72.73757528720746
 30
0.0
 40
0.3999999999999772
100
AcDbArc
 50
0.0000000000244267
 51
180.0000000000081
  0
LINE
  5
41AF
330
2
100
AcDbEntity
  8
0
100
AcDbLine
 10
68.08077898835489
 20
76.88757528720739
 30
0.0
 11
68.08077898835506
 21
71.88757528720751
 31
0.0
  0
LINE
  5
41B0
330
2
100
AcDbEntity
  8
0
100
AcDbLine
 10
69.58077898835506
 20
70.88757528720738
 30
0.0
 11
68.28077898835539
 21
70.88757528720738
 31
0.0
  0
LINE
  5
41B1
330
2
100
AcDbEntity
  8
0
100
AcDbLine
 10
68.08077898835506
 20
71.88757528720751
 30
0.0
 11
69.28077898835528
 21
71.88757528720739
 31
0.0
  0
ARC
  5
41B2
330
2
100
AcDbEntity
  8
0
100
AcDbCircle
 10
67.58077898835541
 20
71.38757528720738
 30
0.0
 40
0.5
100
AcDbArc
 50
180.0
 51
270.0
  0
LINE
  5
41B3
330
2
100
AcDbEntity
  8
0
100
AcDbLine
 10
68.28077898835539
 20
70.88757528720738
 30
0.0
 11
67.58077898835541
 21
70.88757528720738
 31
0.0
  0
ARC
  5
41B4
330
2
100
AcDbEntity
  8
0
100
AcDbCircle
 10
69.58077898835506
 20
71.38757528720738
 30
0.0
 40
0.5
100
AcDbArc
 50
270.0
 51
0.0
  0
LINE
  5
41B5
330
2
100
AcDbEntity
  8
0
100
AcDbLine
 10
70.08077898835506
 20
72.73757528720763
 30
0.0
 11
70.08077898835506
 21
71.38757528720738
 31
0.0
  0
LINE
  5
41B6
330
2
100
AcDbEntity
  8
0
100
AcDbLine
 10
69.28077898835528
 20
71.88757528720739
 30
0.0
 11
69.28077898835505
 21
72.7375752872074
 31
0.0
  0
LINE
  5
41B8
330
2
100
AcDbEntity
  8
0
100
AcDbLine
 10
82.48077898834987
 20
71.88757528720751
 30
0.0
 11
83.68077898834968
 21
71.88757528720751
 31
0.0
  0
LINE
  5
41B9
330
2
100
AcDbEntity
  8
0
100
AcDbLine
 10
82.48077898834969
 20
72.73757528720752
 30
0.0
 11
82.48077898834987
 21
71.88757528720751
 31
0.0
  0
LINE
  5
41BA
330
2
100
AcDbEntity
  8
0
100
AcDbLine
 10
81.6807789883498
 20
71.38757528720748
 30
0.0
 11
81.6807789883498
 21
72.73757528720773
 31
0.0
  0
ARC
  5
41BB
330
2
100
AcDbEntity
  8
0
100
AcDbCircle
 10
82.1807789883498
 20
71.38757528720748
 30
0.0
 40
0.5
100
AcDbArc
 50
180.0
 51
270.0
  0
LINE
  5
41BC
330
2
100
AcDbEntity
  8
0
100
AcDbLine
 10
90.38077898835314
 20
70.88757528720748
 30
0.0
 11
82.1807789883498
 21
70.88757528720748
 31
0.0
  0
LINE
  5
41BD
330
2
100
AcDbEntity
  8
0
100
AcDbLine
 10
69.28077898835505
 20
76.88757528720739
 30
0.0
 11
68.08077898835489
 21
76.88757528720739
 31
0.0
  0
LINE
  5
41BE
330
2
100
AcDbEntity
  8
0
100
AcDbLine
 10
68.08077898835506
 20
77.88757528720748
 30
0.0
 11
69.58077898835506
 21
77.88757528720738
 31
0.0
  0
LINE
  5
41BF
330
2
100
AcDbEntity
  8
0
100
AcDbLine
 10
69.28077898835505
 20
76.03757528720734
 30
0.0
 11
69.28077898835505
 21
76.88757528720739
 31
0.0
  0
ARC
  5
41C0
330
2
100
AcDbEntity
  8
0
100
AcDbCircle
 10
69.68077898835502
 20
76.03757528720746
 30
0.0
 40
0.4000000000000341
100
AcDbArc
 50
180.0000000000146
 51
0.0000000000341973
  0
LINE
  5
41C1
330
2
100
AcDbEntity
  8
0
100
AcDbLine
 10
70.08077898835506
 20
77.38757528720738
 30
0.0
 11
70.08077898835506
 21
76.0375752872077
 31
0.0
  0
ARC
  5
41C2
330
2
100
AcDbEntity
  8
0
100
AcDbCircle
 10
69.58077898835506
 20
77.38757528720738
 30
0.0
 40
0.5
100
AcDbArc
 50
0.0
 51
90.0
  0
ARC
  5
41C6
330
2
100
AcDbEntity
  8
0
100
AcDbCircle
 10
82.18077898834968
 20
77.38757528720748
 30
0.0
 40
0.5
100
AcDbArc
 50
90.0
 51
180.0
  0
LINE
  5
41C7
330
2
100
AcDbEntity
  8
0
100
AcDbLine
 10
81.68077898834969
 20
76.0375752872077
 30
0.0
 11
81.68077898834969
 21
77.38757528720748
 31
0.0
  0
ARC
  5
41C8
330
2
100
AcDbEntity
  8
0
100
AcDbCircle
 10
82.08077898834972
 20
76.03757528720752
 30
0.0
 40
0.4000000000000341
100
AcDbArc
 50
179.9999999999731
 51
359.9999999999934
  0
LINE
  5
41C9
330
2
100
AcDbEntity
  8
0
100
AcDbLine
 10
82.48077898834969
 20
76.88757528720751
 30
0.0
 11
82.48077898834969
 21
76.03757528720747
 31
0.0
  0
LINE
  5
41CA
330
2
100
AcDbEntity
  8
0
100
AcDbLine
 10
83.68077898834991
 20
76.88757528720751
 30
0.0
 11
82.48077898834969
 21
76.88757528720751
 31
0.0
  0
LINE
  5
41CB
330
2
100
AcDbEntity
  8
0
100
AcDbLine
 10
82.18077898834968
 20
77.88757528720748
 30
0.0
 11
83.68077898834968
 21
77.88757528720748
 31
0.0
  0
LINE
  5
41D5
330
2
100
AcDbEntity
  8
0
100
AcDbLine
 10
79.79996257680523
 20
104.5875752872074
 30
0.0
 11
83.18077898835349
 21
104.5875752872074
 31
0.0
  0
LINE
  5
41D6
330
2
100
AcDbEntity
  8
0
100
AcDbLine
 10
83.6807789883535
 20
103.3875752872074
 30
0.0
 11
76.08077898835228
 21
103.3875752872074
 31
0.0
  0
ARC
  5
41D9
330
2
100
AcDbEntity
  8
0
100
AcDbCircle
 10
71.96159539989906
 20
105.5875752872074
 30
0.0
 40
0.9999999999999571
100
AcDbArc
 50
270.0000000000032
 51
11.53695903281318
  0
LINE
  5
41DA
330
2
100
AcDbEntity
  8
0
100
AcDbLine
 10
68.18077898835224
 20
108.0875752872075
 30
0.0
 11
68.18077898835224
 21
105.0875752872074
 31
0.0
  0
LINE
  5
41DB
330
2
100
AcDbEntity
  8
0
100
AcDbLine
 10
76.08077898835228
 20
103.3875752872074
 30
0.0
 11
68.08077898835353
 21
103.3875752872074
 31
0.0
  0
LINE
  5
41DC
330
2
100
AcDbEntity
  8
0
100
AcDbLine
 10
68.68077898835224
 20
104.5875752872074
 30
0.0
 11
71.96159539989918
 21
104.5875752872074
 31
0.0
  0
ARC
  5
41DD
330
2
100
AcDbEntity
  8
0
100
AcDbCircle
 10
75.88077898835223
 20
106.3875752872071
 30
0.0
 40
3.000000000000056
100
AcDbArc
 50
146.4426902380789
 51
191.5369590328123
  0
LINE
  5
41DE
330
2
100
AcDbEntity
  8
0
100
AcDbLine
 10
68.68077898835224
 20
124.8875752872074
 30
0.0
 11
68.68077898835224
 21
108.8875752872075
 31
0.0
  0
LINE
  5
41E1
330
2
100
AcDbEntity
  8
0
100
AcDbLine
 10
83.6807789883535
 20
105.0875752872074
 30
0.0
 11
83.6807789883535
 21
108.0875752872075
 31
0.0
  0
LINE
  5
41E9
330
2
100
AcDbEntity
  8
0
100
AcDbLine
 10
67.38077898835223
 20
124.8875752872074
 30
0.0
 11
68.68077898835224
 21
124.8875752872074
 31
0.0
  0
ARC
  5
41EA
330
2
100
AcDbEntity
  8
0
100
AcDbCircle
 10
67.38077898835223
 20
124.5875752872074
 30
0.0
 40
0.3000000000000114
100
AcDbArc
 50
90.0
 51
180.0000000000081
  0
LINE
  5
41FE
330
2
100
AcDbEntity
  8
0
100
AcDbLine
 10
83.08077898835223
 20
124.8875752872072
 30
0.0
 11
83.08077898835222
 21
108.8875752872075
 31
0.0
  0
LINE
  5
4203
330
2
100
AcDbEntity
  8
0
100
AcDbLine
 10
83.08077898835222
 20
108.8875752872075
 30
0.0
 11
81.78077898835223
 21
108.8875752872075
 31
0.0
  0
LINE
  5
4204
330
2
100
AcDbEntity
  8
0
100
AcDbLine
 10
83.6807789883535
 20
108.0875752872075
 30
0.0
 11
81.78077898835223
 21
108.0875752872075
 31
0.0
  0
ARC
  5
4205
330
2
100
AcDbEntity
  8
0
100
AcDbCircle
 10
81.78077898835223
 20
108.4875752872075
 30
0.0
 40
0.3999999999999986
100
AcDbArc
 50
90.0
 51
270.0
  0
ARC
  5
4206
330
2
100
AcDbEntity
  8
0
100
AcDbCircle
 10
69.98077898835224
 20
108.4875752872075
 30
0.0
 40
0.3999999999999986
100
AcDbArc
 50
270.0
 51
90.0
  0
LINE
  5
4207
330
2
100
AcDbEntity
  8
0
100
AcDbLine
 10
68.18077898835224
 20
108.0875752872075
 30
0.0
 11
69.98077898835224
 21
108.0875752872075
 31
0.0
  0
LINE
  5
4208
330
2
100
AcDbEntity
  8
0
100
AcDbLine
 10
68.68077898835224
 20
108.8875752872075
 30
0.0
 11
69.98077898835224
 21
108.8875752872075
 31
0.0
  0
ARC
  5
4209
330
2
100
AcDbEntity
  8
0
100
AcDbCircle
 10
68.68077898835224
 20
105.0875752872074
 30
0.0
 40
0.5
100
AcDbArc
 50
180.0
 51
270.0
  0
ARC
  5
420A
330
2
100
AcDbEntity
  8
0
100
AcDbCircle
 10
83.18077898835349
 20
105.0875752872074
 30
0.0
 40
0.5
100
AcDbArc
 50
270.0
 51
0.0
  0
ARC
  5
420B
330
2
100
AcDbEntity
  8
0
100
AcDbCircle
 10
77.3766138084052
 20
108.3875752872075
 30
0.0
 40
0.5
100
AcDbArc
 50
90.0
 51
180.0
  0
LINE
  5
420D
330
2
100
AcDbEntity
  8
0
100
AcDbLine
 10
78.08077898835222
 20
108.8875752872075
 30
0.0
 11
77.3766138084052
 21
108.8875752872075
 31
0.0
  0
ARC
  5
420E
330
2
100
AcDbEntity
  8
0
100
AcDbCircle
 10
75.88077898835223
 20
106.3875752872071
 30
0.0
 40
3.000000000000056
100
AcDbArc
 50
348.4630409671876
 51
33.55730976192109
  0
ARC
  5
4210
330
2
100
AcDbEntity
  8
0
100
AcDbCircle
 10
79.79996257680539
 20
105.5875752872074
 30
0.0
 40
0.9999999999999571
100
AcDbArc
 50
168.4630409671868
 51
269.9999999999967
  0
LINE
  5
4211
330
2
100
AcDbEntity
  8
0
100
AcDbLine
 10
73.68077898835224
 20
108.8875752872074
 30
0.0
 11
74.38494416829927
 21
108.8875752872075
 31
0.0
  0
ARC
  5
4213
330
2
100
AcDbEntity
  8
0
100
AcDbCircle
 10
74.38494416829927
 20
108.3875752872075
 30
0.0
 40
0.5
100
AcDbArc
 50
0.0
 51
89.9999999999992
  0
LINE
  5
4215
330
2
100
AcDbEntity
  8
0
100
AcDbLine
 10
73.38077898835223
 20
108.045887682385
 30
0.0
 11
73.38077898835223
 21
108.5875752872075
 31
0.0
  0
LINE
  5
4216
330
2
100
AcDbEntity
  8
0
100
AcDbLine
 10
78.38077898835223
 20
108.045887682385
 30
0.0
 11
78.38077898835223
 21
108.5875752872075
 31
0.0
  0
ARC
  5
4217
330
2
100
AcDbEntity
  8
0
100
AcDbCircle
 10
73.68077898835223
 20
108.5875752872075
 30
0.0
 40
0.3
100
AcDbArc
 50
89.9999999999992
 51
180.0
  0
ARC
  5
4218
330
2
100
AcDbEntity
  8
0
100
AcDbCircle
 10
78.08077898835223
 20
108.5875752872075
 30
0.0
 40
0.3
100
AcDbArc
 50
0.0
 51
90.00000000000081
  0
LINE
  5
4239
330
2
100
AcDbEntity
  8
0
  6
Continuous
100
AcDbLine
 10
90.38077898835314
 20
70.88757528720748
 30
0.0
 11
90.38077898835314
 21
124.8875752872072
 31
0.0
  0
LINE
  5
423B
330
2
100
AcDbEntity
  8
0
  6
Continuous
100
AcDbLine
 10
90.38077898835314
 20
124.8875752872072
 30
0.0
 11
83.08077898835223
 21
124.8875752872072
 31
0.0
  0
LINE
  5
4379
330
2
100
AcDbEntity
  8
0
100
AcDbLine
 10
69.98077898835224
 20
108.8875752872075
 30
0.0
 11
81.78077898835224
 21
108.8875752872072
 31
0.0
  0
LINE
  5
437B
330
2
100
AcDbEntity
  8
0
100
AcDbLine
 10
68.68077898835224
 20
124.8875752872072
 30
0.0
 11
69.11615313801291
 21
108.8875752872075
 31
0.0
  0
LINE
  5
437D
330
2
100
AcDbEntity
  8
0
100
AcDbLine
 10
72.73077898835237
 20
124.8875752872072
 30
0.0
 11
68.68077898835224
 21
124.8875752872072
 31
0.0
  0
LINE
  5
437F
330
2
100
AcDbEntity
  8
0
100
AcDbLine
 10
82.64540483869167
 20
108.8875752872075
 30
0.0
 11
83.08077898835234
 21
124.8875752872072
 31
0.0
  0
LINE
  5
4380
330
2
100
AcDbEntity
  8
0
100
AcDbLine
 10
83.08077898835234
 20
124.8875752872072
 30
0.0
 11
79.03077898835235
 21
124.8875752872072
 31
0.0
  0
LINE
  5
43C3
330
2
100
AcDbEntity
  8
0
100
AcDbLine
 10
183.1224083351485
 20
70.18883444685126
 30
0.0
 11
183.1224083351485
 21
62.68883444685126
 31
0.0
  0
LINE
  5
43C4
330
2
100
AcDbEntity
  8
0
100
AcDbLine
 10
195.1224083351485
 20
70.18883444685129
 30
0.0
 11
195.1224083351484
 21
62.68883444685126
 31
0.0
  0
LINE
  5
43C7
330
2
100
AcDbEntity
  8
0
100
AcDbLine
 10
195.1224083351484
 20
62.68883444685126
 30
0.0
 11
183.1224083351485
 21
62.68883444685126
 31
0.0
  0
LINE
  5
43CE
330
2
100
AcDbEntity
  8
0
100
AcDbLine
 10
185.1224083351485
 20
72.18883444685125
 30
0.0
 11
183.1224083351485
 21
70.18883444685126
 31
0.0
  0
LINE
  5
43CF
330
2
100
AcDbEntity
  8
0
100
AcDbLine
 10
193.1224083351485
 20
72.18883444685129
 30
0.0
 11
195.1224083351485
 21
70.18883444685129
 31
0.0
  0
LINE
  5
43D5
330
2
100
AcDbEntity
  8
0
100
AcDbLine
 10
358.1224083351519
 20
70.18883444685129
 30
0.0
 11
358.1224083351519
 21
62.68883444685126
 31
0.0
  0
LINE
  5
43D6
330
2
100
AcDbEntity
  8
0
100
AcDbLine
 10
346.1224083351519
 20
70.18883444685126
 30
0.0
 11
346.1224083351519
 21
62.68883444685126
 31
0.0
  0
LINE
  5
43D7
330
2
100
AcDbEntity
  8
0
100
AcDbLine
 10
358.1224083351519
 20
62.68883444685126
 30
0.0
 11
346.1224083351519
 21
62.68883444685126
 31
0.0
  0
LINE
  5
43D9
330
2
100
AcDbEntity
  8
0
100
AcDbLine
 10
348.1224083351519
 20
72.18883444685125
 30
0.0
 11
346.1224083351519
 21
70.18883444685126
 31
0.0
  0
LINE
  5
43DA
330
2
100
AcDbEntity
  8
0
100
AcDbLine
 10
356.1224083351519
 20
72.18883444685129
 30
0.0
 11
358.1224083351519
 21
70.18883444685129
 31
0.0
  0
DIMENSION
  5
4508
330
2
100
AcDbEntity
  8
ADM
100
AcDbDimension
  2
*D9
 10
150.6224083351503
 20
66.68883444685157
 30
0.0
 11
148.1224083351503
 21
98.6888344468516
 31
0.0
 70
    32
 71
     5
 42
-1.0
  3
1
100
AcDbAlignedDimension
 13
166.6224083351502
 23
130.6888344468516
 33
0.0
 14
166.6224083351502
 24
66.68883444685156
 34
0.0
 50
90.0
100
AcDbRotatedDimension
1001
ACAD
1000
DSTYLE
1002
{
1070
     6
1000
DOT
1070
     7
1000
DOT
1002
}
  0
DIMENSION
  5
469E
330
2
100
AcDbEntity
  8
ADM
100
AcDbDimension
  2
*D10
 10
178.6224083351499
 20
145.6888344468515
 30
0.0
 11
172.1224083351501
 21
148.1888344468515
 31
0.0
 70
    32
 71
     5
 42
-1.0
  3
1
100
AcDbAlignedDimension
 13
165.6224083351502
 23
129.3774270054274
 33
0.0
 14
178.6224083351499
 24
129.2388344468519
 34
0.0
100
AcDbRotatedDimension
1001
ACAD
1000
DSTYLE
1002
{
1070
     6
1000
DOT
1070
     7
1000
DOT
1002
}
  0
DIMENSION
  5
46B8
330
2
100
AcDbEntity
  8
ADM
100
AcDbDimension
  2
*D11
 10
375.6224083351502
 20
145.6888344468515
 30
0.0
 11
369.1224083351503
 21
148.1888344468515
 31
0.0
 70
    32
 71
     5
 42
-1.0
  3
1
100
AcDbAlignedDimension
 13
362.6224083351504
 23
129.238834446852
 33
0.0
 14
375.6224083351502
 24
129.3774270054275
 34
0.0
100
AcDbRotatedDimension
1001
ACAD
1000
DSTYLE
1002
{
1070
     6
1000
DOT
1070
     7
1000
DOT
1002
}
  0
DIMENSION
  5
46C5
330
2
100
AcDbEntity
  8
ADM
100
AcDbDimension
  2
*D12
 10
362.6224083351504
 20
145.6888344468515
 30
0.0
 11
351.6224083351462
 21
148.1888344468515
 31
0.0
 70
    32
 71
     5
 42
-1.0
  3
1
100
AcDbAlignedDimension
 13
340.6224083351421
 23
97.28883444685152
 33
0.0
 14
362.6224083351504
 24
129.238834446852
 34
0.0
100
AcDbRotatedDimension
1001
ACAD
1000
DSTYLE
1002
{
1070
     6
1000
DOT
1070
     7
1000
DOT
1002
}
  0
DIMENSION
  5
46DC
330
2
100
AcDbEntity
  8
ADM
100
AcDbDimension
  2
*D13
 10
375.6224083351502
 20
152.6888344468515
 30
0.0
 11
270.6224083351502
 21
155.1888344468515
 31
0.0
 70
    32
  1
W
 71
     5
 42
-1.0
  3
1
100
AcDbAlignedDimension
 13
165.6224083351502
 23
129.3774270054274
 33
0.0
 14
375.6224083351502
 24
129.3774270054275
 34
0.0
100
AcDbRotatedDimension
1001
ACAD
1000
DSTYLE
1002
{
1070
     6
1000
DOT
1070
     7
1000
DOT
1002
}
  0
LINE
  5
4752
330
2
100
AcDbEntity
  8
0
100
AcDbLine
 10
92.78077204910724
 20
235.2117229031099
 30
0.0
 11
66.23075755116236
 21
235.2117229031095
 31
0.0
  0
LINE
  5
4753
330
2
100
AcDbEntity
  8
0
100
AcDbLine
 10
35.93012850955279
 20
237.2117229031095
 30
0.0
 11
94.43140864943144
 21
237.2117229031092
 31
0.0
  0
LINE
  5
4754
330
2
100
AcDbEntity
  8
0
100
AcDbLine
 10
64.73075755116235
 20
233.7117229031095
 30
0.0
 11
64.73075755116235
 21
214.6117229031095
 31
0.0
  0
LINE
  5
4755
330
2
100
AcDbEntity
  8
0
100
AcDbLine
 10
62.93075755116245
 20
214.6117229031095
 30
0.0
 11
62.93075755116252
 21
233.7117229031095
 31
0.0
  0
LINE
  5
4756
330
2
100
AcDbEntity
  8
0
100
AcDbLine
 10
34.88076510987838
 20
230.4117229031096
 30
0.0
 11
34.88076510987838
 21
211.2117229031099
 31
0.0
  0
LINE
  5
4757
330
2
100
AcDbEntity
  8
0
100
AcDbLine
 10
33.08076510987751
 20
210.21172290311
 30
0.0
 11
33.08076510987751
 21
232.9117229031095
 31
0.0
  0
ARC
  5
4758
330
2
100
AcDbEntity
  8
0
100
AcDbCircle
 10
33.88076510987838
 20
211.2117229031099
 30
0.0
 40
1.0
100
AcDbArc
 50
269.9999999999967
 51
0.0
  0
LINE
  5
4759
330
2
100
AcDbEntity
  8
0
100
AcDbLine
 10
33.88076510987832
 20
210.21172290311
 30
0.0
 11
33.08076510987751
 21
210.21172290311
 31
0.0
  0
ARC
  5
475A
330
2
100
AcDbEntity
  8
0
100
AcDbCircle
 10
63.83075755116241
 20
214.6117229031095
 30
0.0
 40
0.8999999999999488
100
AcDbArc
 50
180.0
 51
0.0
  0
LINE
  5
475B
330
2
100
AcDbEntity
  8
0
100
AcDbLine
 10
61.43075755116246
 20
235.2117229031098
 30
0.0
 11
38.38076510987747
 21
235.2117229031091
 31
0.0
  0
ARC
  5
475C
330
2
100
AcDbEntity
  8
0
100
AcDbCircle
 10
38.38076510987752
 20
233.7117229031095
 30
0.0
 40
1.5
100
AcDbArc
 50
90.0
 51
180.0
  0
LINE
  5
475D
330
2
100
AcDbEntity
  8
0
100
AcDbLine
 10
35.08076510987752
 20
233.2117229031095
 30
0.0
 11
35.08076510987752
 21
236.7117229031095
 31
0.0
  0
ARC
  5
475E
330
2
100
AcDbEntity
  8
0
100
AcDbCircle
 10
35.88076510987838
 20
230.4117229031096
 30
0.0
 40
1.0
100
AcDbArc
 50
90.0
 51
180.0
  0
LINE
  5
475F
330
2
100
AcDbEntity
  8
0
100
AcDbLine
 10
33.38076510987753
 20
233.2117229031095
 30
0.0
 11
35.08076510987752
 21
233.2117229031095
 31
0.0
  0
ARC
  5
4760
330
2
100
AcDbEntity
  8
0
100
AcDbCircle
 10
33.38076510987753
 20
232.9117229031095
 30
0.0
 40
0.3000000000000114
100
AcDbArc
 50
90.0
 51
180.0
  0
ARC
  5
4761
330
2
100
AcDbEntity
  8
0
100
AcDbCircle
 10
36.38076510987753
 20
231.9117229031096
 30
0.0
 40
0.5
100
AcDbArc
 50
270.0
 51
359.9999999999967
  0
LINE
  5
4762
330
2
100
AcDbEntity
  8
0
100
AcDbLine
 10
36.38076510987753
 20
231.4117229031095
 30
0.0
 11
35.88076510987838
 21
231.4117229031095
 31
0.0
  0
LINE
  5
4763
330
2
100
AcDbEntity
  8
0
100
AcDbLine
 10
36.88076510987753
 20
233.7117229031095
 30
0.0
 11
36.88076510987753
 21
231.9117229031095
 31
0.0
  0
ARC
  5
4764
330
2
100
AcDbEntity
  8
0
100
AcDbCircle
 10
37.57876430923727
 20
236.1517229031099
 30
0.0
 40
2.560000000000304
100
AcDbArc
 50
84.87200911691536
 51
167.3643749069888
  0
ARC
  5
4765
330
2
100
AcDbEntity
  8
0
100
AcDbCircle
 10
37.57876430923678
 20
236.1517229031094
 30
0.0
 40
1.959999999999971
100
AcDbArc
 50
84.87200911690237
 51
147.2607729650485
  0
ARC
  5
4766
330
2
100
AcDbEntity
  8
0
100
AcDbCircle
 10
37.78076510987739
 20
238.4026772954825
 30
0.0
 40
0.300000000000125
100
AcDbArc
 50
0.0
 51
84.87200911690562
  0
ARC
  5
4767
330
2
100
AcDbEntity
  8
0
100
AcDbCircle
 10
37.78076510987716
 20
238.4026772954821
 30
0.0
 40
0.3000000000003431
100
AcDbArc
 50
264.8720091169743
 51
0.0000000000602524
  0
ARC
  5
4768
330
2
100
AcDbEntity
  8
0
100
AcDbCircle
 10
61.43075755116251
 20
233.7117229031095
 30
0.0
 40
1.5
100
AcDbArc
 50
0.0
 51
90.0
  0
ARC
  5
4769
330
2
100
AcDbEntity
  8
0
100
AcDbCircle
 10
66.23075755116236
 20
233.7117229031095
 30
0.0
 40
1.5
100
AcDbArc
 50
90.0
 51
180.0
  0
LINE
  5
476A
330
2
100
AcDbEntity
  8
0
100
AcDbLine
 10
92.7807720491072
 20
211.2117229031099
 30
0.0
 11
92.78077204910724
 21
235.2117229031099
 31
0.0
  0
LINE
  5
476B
330
2
100
AcDbEntity
  8
0
100
AcDbLine
 10
95.28077204910648
 20
210.21172290311
 30
0.0
 11
95.28077204910648
 21
236.7117229031095
 31
0.0
  0
ARC
  5
476C
330
2
100
AcDbEntity
  8
0
100
AcDbCircle
 10
93.78077204910722
 20
211.2117229031099
 30
0.0
 40
1.000000000000014
100
AcDbArc
 50
180.0
 51
270.0000000000032
  0
LINE
  5
476D
330
2
100
AcDbEntity
  8
0
100
AcDbLine
 10
95.28077204910648
 20
210.21172290311
 30
0.0
 11
93.78077204910727
 21
210.2117229031099
 31
0.0
  0
ARC
  5
476E
330
2
100
AcDbEntity
  8
0
100
AcDbCircle
 10
92.78277284974677
 20
236.1517229031099
 30
0.0
 40
2.560000000000236
100
AcDbArc
 50
12.63562509300943
 51
95.12799088308302
  0
ARC
  5
476F
330
2
100
AcDbEntity
  8
0
100
AcDbCircle
 10
92.78277284974711
 20
236.1517229031095
 30
0.0
 40
1.960000000000027
100
AcDbArc
 50
32.73922703493587
 51
95.12799088309598
  0
ARC
  5
4770
330
2
100
AcDbEntity
  8
0
100
AcDbCircle
 10
92.58077204910676
 20
238.4026772954822
 30
0.0
 40
0.3000000000002956
100
AcDbArc
 50
179.9999999999511
 51
275.1279908830371
  0
ARC
  5
4771
330
2
100
AcDbEntity
  8
0
100
AcDbCircle
 10
92.58077204910666
 20
238.4026772954825
 30
0.0
 40
0.3000000000001703
100
AcDbArc
 50
95.12799088308302
 51
179.9999999999886
  0
LINE
  5
4772
330
2
100
AcDbEntity
  8
0
100
AcDbLine
 10
95.28077204910648
 20
236.7117229031095
 30
0.0
 11
95.28077204910648
 21
236.7117229031095
 31
0.0
  0
LINE
  5
4773
330
2
100
AcDbEntity
  8
0
100
AcDbLine
 10
95.28077204910648
 20
236.7117229031095
 30
0.0
 11
95.28077204910648
 21
236.2117229031095
 31
0.0
  0
LINE
  5
4774
330
2
100
AcDbEntity
  8
0
100
AcDbLine
 10
89.58077898835137
 20
215.0992082592662
 30
0.0
 11
89.58077898835137
 21
218.499208259266
 31
0.0
  0
LINE
  5
4775
330
2
100
AcDbEntity
  8
0
100
AcDbLine
 10
89.58077898835142
 20
218.7117229031091
 30
0.0
 11
89.58077898835137
 21
214.2117229031091
 31
0.0
  0
LINE
  5
4776
330
2
100
AcDbEntity
  8
0
100
AcDbLine
 10
92.7807789883519
 20
218.2117229031091
 30
0.0
 11
92.7807789883519
 21
214.7117229031092
 31
0.0
  0
LINE
  5
4777
330
2
100
AcDbEntity
  8
0
100
AcDbLine
 10
90.38077898835142
 20
215.0617229031091
 30
0.0
 11
90.38077898835142
 21
214.2117229031091
 31
0.0
  0
LINE
  5
4778
330
2
100
AcDbEntity
  8
0
100
AcDbLine
 10
90.38077898835142
 20
215.0617229031091
 30
0.0
 11
92.7807789883519
 21
214.7117229031092
 31
0.0
  0
LINE
  5
4779
330
2
100
AcDbEntity
  8
0
100
AcDbLine
 10
89.58077898835137
 20
214.2117229031091
 30
0.0
 11
90.38077898835142
 21
214.2117229031091
 31
0.0
  0
LINE
  5
477A
330
2
100
AcDbEntity
  8
0
100
AcDbLine
 10
90.38077898835142
 20
218.7117229031091
 30
0.0
 11
90.38077898835142
 21
217.8617229031091
 31
0.0
  0
LINE
  5
477B
330
2
100
AcDbEntity
  8
0
100
AcDbLine
 10
90.38077898835142
 20
217.8617229031091
 30
0.0
 11
92.7807789883519
 21
218.2117229031091
 31
0.0
  0
LINE
  5
477C
330
2
100
AcDbEntity
  8
0
100
AcDbLine
 10
89.58077898835137
 20
218.7117229031091
 30
0.0
 11
90.38077898835142
 21
218.7117229031091
 31
0.0
  0
LINE
  5
477D
330
2
100
AcDbEntity
  8
0
100
AcDbLine
 10
67.93075755116291
 20
215.0992082592662
 30
0.0
 11
67.93075755116291
 21
218.499208259266
 31
0.0
  0
LINE
  5
477E
330
2
100
AcDbEntity
  8
0
100
AcDbLine
 10
67.93075755116285
 20
218.7117229031091
 30
0.0
 11
67.93075755116291
 21
214.2117229031091
 31
0.0
  0
LINE
  5
477F
330
2
100
AcDbEntity
  8
0
100
AcDbLine
 10
64.73075755116237
 20
218.2117229031091
 30
0.0
 11
64.73075755116237
 21
214.7117229031092
 31
0.0
  0
LINE
  5
4780
330
2
100
AcDbEntity
  8
0
100
AcDbLine
 10
67.13075755116285
 20
215.0617229031091
 30
0.0
 11
67.13075755116285
 21
214.2117229031091
 31
0.0
  0
LINE
  5
4781
330
2
100
AcDbEntity
  8
0
100
AcDbLine
 10
67.13075755116285
 20
215.0617229031091
 30
0.0
 11
64.73075755116237
 21
214.7117229031092
 31
0.0
  0
LINE
  5
4782
330
2
100
AcDbEntity
  8
0
100
AcDbLine
 10
67.93075755116291
 20
214.2117229031091
 30
0.0
 11
67.13075755116285
 21
214.2117229031091
 31
0.0
  0
LINE
  5
4783
330
2
100
AcDbEntity
  8
0
100
AcDbLine
 10
67.13075755116285
 20
218.7117229031091
 30
0.0
 11
67.13075755116285
 21
217.8617229031091
 31
0.0
  0
LINE
  5
4784
330
2
100
AcDbEntity
  8
0
100
AcDbLine
 10
67.13075755116285
 20
217.8617229031091
 30
0.0
 11
64.73075755116237
 21
218.2117229031091
 31
0.0
  0
LINE
  5
4785
330
2
100
AcDbEntity
  8
0
100
AcDbLine
 10
67.93075755116291
 20
218.7117229031091
 30
0.0
 11
67.13075755116285
 21
218.7117229031091
 31
0.0
  0
LINE
  5
4792
330
2
100
AcDbEntity
  8
0
100
AcDbLine
 10
91.58077898835225
 20
175.21172290311
 30
0.0
 11
101.0807789883522
 21
175.21172290311
 31
0.0
  0
LINE
  5
4793
330
2
100
AcDbEntity
  8
0
100
AcDbLine
 10
91.58077898835225
 20
205.2117229031099
 30
0.0
 11
101.0807789883522
 21
205.2117229031099
 31
0.0
  0
LINE
  5
4794
330
2
100
AcDbEntity
  8
0
100
AcDbLine
 10
91.58077898835221
 20
205.2117229031099
 30
0.0
 11
91.58077898835225
 21
175.21172290311
 31
0.0
  0
LINE
  5
4795
330
2
100
AcDbEntity
  8
0
100
AcDbLine
 10
101.0807789883522
 20
205.2117229031099
 30
0.0
 11
101.0807789883522
 21
175.21172290311
 31
0.0
  0
LINE
  5
4796
330
2
100
AcDbEntity
  8
0
100
AcDbLine
 10
90.38077898835314
 20
89.88897267062469
 30
0.0
 11
121.380778988353
 21
89.88897267062469
 31
0.0
  0
LINE
  5
4797
330
2
100
AcDbEntity
  8
0
100
AcDbLine
 10
90.38077898835314
 20
105.8889726706247
 30
0.0
 11
121.380778988353
 21
105.8889726706246
 31
0.0
  0
LINE
  5
4798
330
2
100
AcDbEntity
  8
0
100
AcDbLine
 10
122.380778988353
 20
104.8889726706246
 30
0.0
 11
122.380778988353
 21
90.88897267062481
 31
0.0
  0
ARC
  5
4799
330
2
100
AcDbEntity
  8
0
100
AcDbCircle
 10
121.380778988353
 20
90.88897267062481
 30
0.0
 40
1.0
100
AcDbArc
 50
270.0
 51
0.0
  0
ARC
  5
479A
330
2
100
AcDbEntity
  8
0
100
AcDbCircle
 10
121.380778988353
 20
104.8889726706246
 30
0.0
 40
1.0
100
AcDbArc
 50
0.0
 51
90.0
  0
LINE
  5
479B
330
2
100
AcDbEntity
  8
0
100
AcDbLine
 10
90.38077898835309
 20
105.8889726706246
 30
0.0
 11
90.38077898835314
 21
89.88897267062469
 31
0.0
  0
ARC
  5
47A2
330
2
100
AcDbEntity
  8
0
100
AcDbCircle
 10
75.88077898835223
 20
74.89626101292386
 30
0.0
 40
3.000000000000018
100
AcDbArc
 50
50.97719743476854
 51
129.0228025652326
  0
LINE
  5
47A4
330
2
100
AcDbEntity
  8
0
100
AcDbLine
 10
72.38077898835223
 20
66.3962610129238
 30
0.0
 11
49.38076510987793
 21
66.3962610129238
 31
0.0
  0
LINE
  5
47A6
330
2
100
AcDbEntity
  8
0
100
AcDbLine
 10
47.8807651098779
 20
67.89626101292377
 30
0.0
 11
47.88076510987793
 21
76.99387870926416
 31
0.0
  0
LINE
  5
47A8
330
2
100
AcDbEntity
  8
0
100
AcDbLine
 10
49.38076510987793
 20
66.3962610129238
 30
0.0
 11
47.8807651098779
 21
67.89626101292377
 31
0.0
  0
LINE
  5
47A9
330
2
100
AcDbEntity
  8
0
100
AcDbLine
 10
43.88076510987796
 20
76.99387870926422
 30
0.0
 11
43.88076510987771
 21
67.89626101292367
 31
0.0
  0
ARC
  5
47AD
330
2
100
AcDbEntity
  8
0
100
AcDbCircle
 10
45.8807651098779
 20
74.89626101292391
 30
0.0
 40
2.999999999999987
100
AcDbArc
 50
50.97719743476593
 51
129.0228025652314
  0
ARC
  5
47AE
330
2
100
AcDbEntity
  8
0
100
AcDbCircle
 10
44.18076510987797
 20
76.99387870926422
 30
0.0
 40
0.2999999999999957
100
AcDbArc
 50
129.0228025652363
 51
180.0
  0
ARC
  5
47AF
330
2
100
AcDbEntity
  8
0
100
AcDbCircle
 10
47.58076510987792
 20
76.99387870926416
 30
0.0
 40
0.3000000000000114
100
AcDbArc
 50
0.0
 51
50.97719743476854
  0
LINE
  5
47B0
330
2
100
AcDbEntity
  8
0
100
AcDbLine
 10
73.88077898835224
 20
76.99387870926416
 30
0.0
 11
73.88077898835224
 21
67.89626101292377
 31
0.0
  0
LINE
  5
47B1
330
2
100
AcDbEntity
  8
0
100
AcDbLine
 10
73.88077898835224
 20
67.8962610129238
 30
0.0
 11
72.38077898835223
 21
66.3962610129238
 31
0.0
  0
ARC
  5
47B2
330
2
100
AcDbEntity
  8
0
100
AcDbCircle
 10
74.18077898835225
 20
76.99387870926419
 30
0.0
 40
0.3000000000000136
100
AcDbArc
 50
129.0228025652401
 51
180.0000000000048
  0
LINE
  5
47B5
330
2
100
AcDbEntity
  8
0
100
AcDbLine
 10
77.88077898835222
 20
67.89626101292377
 30
0.0
 11
77.88077898835223
 21
76.99387870926422
 31
0.0
  0
ARC
  5
47B9
330
2
100
AcDbEntity
  8
0
100
AcDbCircle
 10
77.58077898835222
 20
76.99387870926416
 30
0.0
 40
0.3000000000000114
100
AcDbArc
 50
0.0000000000113991
 51
50.97719743477636
  0
LINE
  5
47BA
330
2
100
AcDbEntity
  8
0
100
AcDbLine
 10
73.45651491964011
 20
71.63757528720745
 30
0.0
 11
74.12471297117409
 21
72.30577333874143
 31
0.0
  0
LINE
  5
47BB
330
2
100
AcDbEntity
  8
0
100
AcDbLine
 10
74.33684500553013
 20
72.0936413043855
 30
0.0
 11
73.38077898835209
 21
71.13757528720745
 31
0.0
  0
LINE
  5
47BC
330
2
100
AcDbEntity
  8
0
100
AcDbLine
 10
70.78077898835491
 20
74.18757528720746
 30
0.0
 11
70.78077898835491
 21
71.63757528720745
 31
0.0
  0
ARC
  5
47BD
330
2
100
AcDbEntity
  8
0
100
AcDbCircle
 10
68.48077898835495
 20
72.53757528720751
 30
0.0
 40
0.4000000000000057
100
AcDbArc
 50
180.0000000000114
 51
0.0000000000244267
  0
LINE
  5
47BE
330
2
100
AcDbEntity
  8
0
100
AcDbLine
 10
70.18077898835492
 20
74.0875752872075
 30
0.0
 11
70.18077898835492
 21
71.63757528720745
 31
0.0
  0
LINE
  5
47BF
330
2
100
AcDbEntity
  8
0
100
AcDbLine
 10
70.68077898835491
 20
71.13757528720745
 30
0.0
 11
73.38077898835209
 21
71.13757528720745
 31
0.0
  0
LINE
  5
47C0
330
2
100
AcDbEntity
  8
0
100
AcDbLine
 10
70.78077898835491
 20
71.63757528720745
 30
0.0
 11
73.45651491964011
 21
71.63757528720745
 31
0.0
  0
ARC
  5
47C1
330
2
100
AcDbEntity
  8
0
100
AcDbCircle
 10
70.68077898835491
 20
71.63757528720745
 30
0.0
 40
0.5
100
AcDbArc
 50
180.0
 51
270.0
  0
LINE
  5
47C2
330
2
100
AcDbEntity
  8
0
100
AcDbLine
 10
68.88077898835496
 20
74.68757528720752
 30
0.0
 11
70.28077898835491
 21
74.68757528720747
 31
0.0
  0
LINE
  5
47C3
330
2
100
AcDbEntity
  8
0
100
AcDbLine
 10
68.88077898835496
 20
74.0875752872075
 30
0.0
 11
70.18077898835492
 21
74.0875752872075
 31
0.0
  0
ARC
  5
47C4
330
2
100
AcDbEntity
  8
0
100
AcDbCircle
 10
68.48077898835498
 20
76.23757528720748
 30
0.0
 40
0.4000000000000342
100
AcDbArc
 50
0.0000000000244267
 51
180.0000000000114
  0
LINE
  5
47C5
330
2
100
AcDbEntity
  8
0
100
AcDbLine
 10
68.88077898835496
 20
76.23757528720765
 30
0.0
 11
68.88077898835496
 21
74.68757528720747
 31
0.0
  0
LINE
  5
47C6
330
2
100
AcDbEntity
  8
0
100
AcDbLine
 10
68.88077898835496
 20
74.0875752872075
 30
0.0
 11
68.88077898835496
 21
72.53757528720768
 31
0.0
  0
LINE
  5
47C7
330
2
100
AcDbEntity
  8
0
100
AcDbLine
 10
68.08077898835495
 20
72.53757528720743
 30
0.0
 11
68.08077898835495
 21
76.23757528720736
 31
0.0
  0
ARC
  5
47C8
330
2
100
AcDbEntity
  8
0
100
AcDbCircle
 10
70.28077898835491
 20
74.18757528720746
 30
0.0
 40
0.5
100
AcDbArc
 50
0.0
 51
90.0
  0
ARC
  5
47C9
330
2
100
AcDbEntity
  8
0
100
AcDbCircle
 10
74.23077898835209
 20
72.19970732156344
 30
0.0
 40
0.1500000000000123
100
AcDbArc
 50
315.0000000000322
 51
135.0000000000022
  0
LINE
  5
47D1
330
2
100
AcDbEntity
  8
0
100
AcDbLine
 10
94.4314017102028
 20
63.89626101292392
 30
0.0
 11
35.6301285095532
 21
63.8962610129234
 31
0.0
  0
LINE
  5
47D3
330
2
100
AcDbEntity
  8
0
100
AcDbLine
 10
42.38076510987781
 20
66.39626101292377
 30
0.0
 11
43.88076510987771
 21
67.89626101292367
 31
0.0
  0
LINE
  5
47D4
330
2
100
AcDbEntity
  8
0
100
AcDbLine
 10
35.28076510987756
 20
66.39626101292377
 30
0.0
 11
42.38076510987781
 21
66.39626101292377
 31
0.0
  0
ARC
  5
47D5
330
2
100
AcDbEntity
  8
0
 48
2.0
100
AcDbCircle
 10
37.27876430923785
 20
64.95626101292258
 30
0.0
 40
2.5600000000003
100
AcDbArc
 50
192.635625093011
 51
275.1279908830829
  0
ARC
  5
47D6
330
2
100
AcDbEntity
  8
0
 48
2.0
100
AcDbCircle
 10
37.48076510987799
 20
62.70530662055005
 30
0.0
 40
0.3000000000002103
100
AcDbArc
 50
275.1279908830829
 51
359.9999999999885
  0
ARC
  5
47D7
330
2
100
AcDbEntity
  8
0
100
AcDbCircle
 10
35.28076510987756
 20
65.89626101292378
 30
0.0
 40
0.5
100
AcDbArc
 50
90.0
 51
180.0
  0
LINE
  5
47D8
330
2
100
AcDbEntity
  8
0
100
AcDbLine
 10
34.78076510987767
 20
64.39626101292377
 30
0.0
 11
34.78076510987756
 21
65.89626101292378
 31
0.0
  0
LINE
  5
47D9
330
2
100
AcDbEntity
  8
0
 48
2.0
100
AcDbLine
 10
37.78076510987827
 20
62.70530662054999
 30
0.0
 11
37.7807651098782
 21
62.70530662054999
 31
0.0
  0
ARC
  5
47DA
330
2
100
AcDbEntity
  8
0
 48
2.0
100
AcDbCircle
 10
37.48076510987793
 20
62.70530662055016
 30
0.0
 40
0.3000000000003546
100
AcDbArc
 50
359.9999999999674
 51
95.12799088305031
  0
ARC
  5
47DB
330
2
100
AcDbEntity
  8
0
 48
2.0
100
AcDbCircle
 10
37.27876430923761
 20
64.95626101292292
 30
0.0
 40
1.960000000000004
100
AcDbArc
 50
212.7392270349299
 51
275.1279908830927
  0
ARC
  5
47E6
330
2
100
AcDbEntity
  8
0
 48
2.0
100
AcDbCircle
 10
92.78276591051806
 20
64.95626101292292
 30
0.0
 40
1.960000000000004
100
AcDbArc
 50
264.8720091169072
 51
327.2607729650879
  0
ARC
  5
47E7
330
2
100
AcDbEntity
  8
0
 48
2.0
100
AcDbCircle
 10
92.78276591051783
 20
64.95626101292258
 30
0.0
 40
2.560000000000302
100
AcDbArc
 50
264.872009116917
 51
347.3643749069889
  0
ARC
  5
47E8
330
2
100
AcDbEntity
  8
0
100
AcDbCircle
 10
92.48076510987777
 20
67.39626101292377
 30
0.0
 40
1.0
100
AcDbArc
 50
270.0
 51
0.0
  0
LINE
  5
47E9
330
2
100
AcDbEntity
  8
0
100
AcDbLine
 10
77.88077898835222
 20
67.89626101292377
 30
0.0
 11
79.38077898835223
 21
66.39626101292354
 31
0.0
  0
LINE
  5
47EA
330
2
100
AcDbEntity
  8
0
100
AcDbLine
 10
79.38077898835223
 20
66.39626101292354
 30
0.0
 11
92.48076510987777
 21
66.39626101292377
 31
0.0
  0
ARC
  5
47EB
330
2
100
AcDbEntity
  8
0
 48
2.0
100
AcDbCircle
 10
92.58076510987772
 20
62.70530662055005
 30
0.0
 40
0.3000000000002387
100
AcDbArc
 50
180.0000000000114
 51
264.8720091169121
  0
LINE
  5
47EC
330
2
100
AcDbEntity
  8
0
 48
2.0
100
AcDbLine
 10
92.28076510987738
 20
62.70530662054999
 30
0.0
 11
92.28076510987747
 21
62.70530662054999
 31
0.0
  0
ARC
  5
47ED
330
2
100
AcDbEntity
  8
0
 48
2.0
100
AcDbCircle
 10
92.58076510987772
 20
62.70530662055016
 30
0.0
 40
0.3000000000003558
100
AcDbArc
 50
84.87200911694646
 51
180.0000000000325
  0
LINE
  5
47EF
330
2
100
AcDbEntity
  8
0
100
AcDbLine
 10
95.28076510987773
 20
77.09626101292586
 30
0.0
 11
95.28076510987773
 21
64.39626101292377
 31
0.0
  0
LINE
  5
47F0
330
2
100
AcDbEntity
  8
0
100
AcDbLine
 10
93.48076510987779
 20
67.39626101292377
 30
0.0
 11
93.48076510987779
 21
77.09626101292393
 31
0.0
  0
ARC
  5
47F1
330
2
100
AcDbEntity
  8
0
100
AcDbCircle
 10
94.38076510987787
 20
76.99001101292394
 30
0.0
 40
0.9062500000000889
100
AcDbArc
 50
6.732921326857894
 51
173.2670786731421
  0
LINE
  5
47F8
330
2
100
AcDbEntity
  8
0
100
AcDbLine
 10
82.88077898834961
 20
72.73757528720733
 30
0.0
 11
77.88077898835223
 21
72.23757528720733
 31
0.0
  0
LINE
  5
47F9
330
2
100
AcDbEntity
  8
0
100
AcDbLine
 10
82.88077898834961
 20
75.53757528720729
 30
0.0
 11
78.18077898835224
 21
76.00757528720726
 31
0.0
  0
LINE
  5
47FA
330
2
100
AcDbEntity
  8
0
100
AcDbLine
 10
77.88077898835223
 20
76.73757528720727
 30
0.0
 11
77.88077898835223
 21
72.23757528720733
 31
0.0
  0
LINE
  5
47FB
330
2
100
AcDbEntity
  8
0
100
AcDbLine
 10
78.18077898835224
 20
76.73757528720727
 30
0.0
 11
77.88077898835223
 21
76.73757528720727
 31
0.0
  0
LINE
  5
47FC
330
2
100
AcDbEntity
  8
0
100
AcDbLine
 10
78.18077898835224
 20
76.00757528720726
 30
0.0
 11
78.18077898835224
 21
76.73757528720727
 31
0.0
  0
LINE
  5
47FD
330
2
100
AcDbEntity
  8
0
100
AcDbLine
 10
83.68077898834963
 20
76.38757528720731
 30
0.0
 11
83.68077898834968
 21
71.88757528720731
 31
0.0
  0
LINE
  5
47FE
330
2
100
AcDbEntity
  8
0
100
AcDbLine
 10
82.88077898834961
 20
76.38757528720731
 30
0.0
 11
82.88077898834961
 21
75.53757528720729
 31
0.0
  0
LINE
  5
47FF
330
2
100
AcDbEntity
  8
0
100
AcDbLine
 10
83.68077898834968
 20
71.88757528720731
 30
0.0
 11
82.88077898834961
 21
71.88757528720731
 31
0.0
  0
LINE
  5
4800
330
2
100
AcDbEntity
  8
0
100
AcDbLine
 10
82.88077898834961
 20
72.73757528720733
 30
0.0
 11
82.88077898834961
 21
71.88757528720731
 31
0.0
  0
LINE
  5
4801
330
2
100
AcDbEntity
  8
0
100
AcDbLine
 10
83.68077898834968
 20
76.38757528720731
 30
0.0
 11
82.88077898834961
 21
76.38757528720731
 31
0.0
  0
LINE
  5
4803
330
2
100
AcDbEntity
  8
0
 48
2.0
100
AcDbLine
 10
178.6224083351499
 20
99.28387626853936
 30
0.0
 11
178.6224083351499
 21
129.2388344468519
 31
0.0
  0
LINE
  5
4804
330
2
100
AcDbEntity
  8
0
100
AcDbLine
 10
165.6224083351502
 20
68.00024188827563
 30
0.0
 11
165.6224083351502
 21
129.3774270054274
 31
0.0
  0
LINE
  5
4805
330
2
100
AcDbEntity
  8
0
100
AcDbLine
 10
169.6224083351501
 20
72.18216778018467
 30
0.0
 11
169.6224083351501
 21
101.6388344468519
 31
0.0
  0
LINE
  5
4806
330
2
100
AcDbEntity
  8
0
100
AcDbLine
 10
171.3224083351501
 20
66.6888344468521
 30
0.0
 11
166.6224083351502
 21
66.68883444685156
 31
0.0
  0
ARC
  5
4807
330
2
100
AcDbEntity
  8
0
100
AcDbCircle
 10
164.9314539427778
 20
69.38883444685155
 30
0.0
 40
0.3000000000000056
100
AcDbArc
 50
354.8720091169023
 51
174.8720091169023
  0
ARC
  5
4808
330
2
100
AcDbEntity
  8
0
100
AcDbCircle
 10
167.1824083351502
 20
69.18683364621097
 30
0.0
 40
1.960000000000022
100
AcDbArc
 50
174.8720091169056
 51
217.2579160013131
  0
ARC
  5
4809
330
2
100
AcDbEntity
  8
0
100
AcDbCircle
 10
167.1824083351502
 20
69.18683364621097
 30
0.0
 40
2.560000000000052
100
AcDbArc
 50
174.8720091169056
 51
257.3643749069788
  0
LINE
  5
480A
330
2
100
AcDbEntity
  8
0
100
AcDbLine
 10
171.3224083351501
 20
71.38883444685143
 30
0.0
 11
171.3224083351501
 21
66.6888344468521
 31
0.0
  0
LINE
  5
480B
330
2
100
AcDbEntity
  8
0
100
AcDbLine
 10
169.6224083351501
 20
72.18216778018467
 30
0.0
 11
171.3224083351501
 21
71.38883444685143
 31
0.0
  0
LINE
  5
480C
330
2
100
AcDbEntity
  8
0
100
AcDbLine
 10
169.6224083351501
 20
101.6388344468519
 30
0.0
 11
178.0224083351499
 21
101.638834446852
 31
0.0
  0
LINE
  5
480D
330
2
100
AcDbEntity
  8
0
 48
2.0
100
AcDbLine
 10
172.0461135242347
 20
95.66225461075296
 30
0.0
 11
178.0347589654327
 21
98.37285104512051
 31
0.0
  0
LINE
  5
480E
330
2
100
AcDbEntity
  8
0
 48
2.0
100
AcDbLine
 10
177.787348587263
 20
98.91946617917183
 30
0.0
 11
171.7987031460651
 21
96.20886974480431
 31
0.0
  0
ARC
  5
480F
330
2
100
AcDbEntity
  8
0
 48
2.0
100
AcDbCircle
 10
171.9224083351499
 20
95.93556217777864
 30
0.0
 40
0.2999999999999934
100
AcDbArc
 50
114.3525834997562
 51
294.3525834997526
  0
ARC
  5
4810
330
2
100
AcDbEntity
  8
0
 48
2.0
100
AcDbCircle
 10
177.6224083351499
 20
99.28387626853936
 30
0.0
 40
0.999999999999974
100
AcDbArc
 50
294.3525834997544
 51
0.0
  0
ARC
  5
4811
330
2
100
AcDbEntity
  8
0
 48
2.0
100
AcDbCircle
 10
177.6224083351499
 20
99.28387626853936
 30
0.0
 40
0.3999999999999772
100
AcDbArc
 50
294.3525834997544
 51
0.0
  0
LINE
  5
4812
330
2
100
AcDbEntity
  8
0
 48
2.0
100
AcDbLine
 10
178.0224083351499
 20
101.638834446852
 30
0.0
 11
178.0224083351499
 21
99.28387626853936
 31
0.0
  0
LINE
  5
4813
330
2
100
AcDbEntity
  8
0
100
AcDbLine
 10
166.6224083351502
 20
130.6888344468516
 30
0.0
 11
171.32240833515
 21
130.6888344468516
 31
0.0
  0
ARC
  5
4814
330
2
100
AcDbEntity
  8
0
100
AcDbCircle
 10
167.1824083351501
 20
128.1908352474921
 30
0.0
 40
1.959999999999904
100
AcDbArc
 50
142.7420839986868
 51
185.1279908830927
  0
ARC
  5
4815
330
2
100
AcDbEntity
  8
0
100
AcDbCircle
 10
167.1824083351502
 20
128.1908352474921
 30
0.0
 40
2.56000000000012
100
AcDbArc
 50
102.635625093021
 51
185.127990883096
  0
ARC
  5
4816
330
2
100
AcDbEntity
  8
0
100
AcDbCircle
 10
164.9314539427778
 20
127.9888344468515
 30
0.0
 40
0.3000000000000107
100
AcDbArc
 50
185.1279908831075
 51
5.127990883107502
  0
LINE
  5
4817
330
2
100
AcDbEntity
  8
0
100
AcDbLine
 10
178.6224083351499
 20
129.2388344468519
 30
0.0
 11
171.32240833515
 21
129.2388344468525
 31
0.0
  0
LINE
  5
4818
330
2
100
AcDbEntity
  8
0
100
AcDbLine
 10
171.32240833515
 20
130.6888344468516
 30
0.0
 11
171.32240833515
 21
129.2388344468525
 31
0.0
  0
LINE
  5
4819
330
2
100
AcDbEntity
  8
0
100
AcDbLine
 10
199.1224083351443
 20
80.6888344468517
 30
0.0
 11
199.1224083351443
 21
73.18883444685124
 31
0.0
  0
LINE
  5
481E
330
2
100
AcDbEntity
  8
0
100
AcDbLine
 10
200.3224083351446
 20
72.18883444685127
 30
0.0
 11
193.1224083351485
 21
72.18883444685127
 31
0.0
  0
LINE
  5
481F
330
2
100
AcDbEntity
  8
0
100
AcDbLine
 10
199.1224083351443
 20
73.18883444685124
 30
0.0
 11
200.3224083351443
 21
73.18883444685127
 31
0.0
  0
ARC
  5
4820
330
2
100
AcDbEntity
  8
0
100
AcDbCircle
 10
200.3224083351445
 20
72.8888344468514
 30
0.0
 40
0.2999999999998692
100
AcDbArc
 50
0.0
 51
90.00000000002769
  0
LINE
  5
4821
330
2
100
AcDbEntity
  8
0
100
AcDbLine
 10
200.6224083351443
 20
72.8888344468514
 30
0.0
 11
200.6224083351444
 21
72.44883444685121
 31
0.0
  0
ARC
  5
4822
330
2
100
AcDbEntity
  8
0
100
AcDbCircle
 10
200.3543465997839
 20
72.45505952611347
 30
0.0
 40
0.2681340067509704
100
AcDbArc
 50
263.1590819105883
 51
358.6696845294767
  0
LINE
  5
482D
330
2
100
AcDbEntity
  8
0
100
AcDbLine
 10
174.6224083351429
 20
74.1888344468523
 30
0.0
 11
174.6224083351451
 21
78.38883444685234
 31
0.0
  0
ARC
  5
482E
330
2
100
AcDbEntity
  8
0
100
AcDbCircle
 10
176.6224083351429
 20
74.18883444685127
 30
0.0
 40
2.0
100
AcDbArc
 50
179.9999999999706
 51
270.0
  0
LINE
  5
4830
330
2
100
AcDbEntity
  8
0
100
AcDbLine
 10
184.1224083351484
 20
80.68883444685177
 30
0.0
 11
199.1224083351443
 21
80.6888344468517
 31
0.0
  0
LINE
  5
4831
330
2
100
AcDbEntity
  8
0
100
AcDbLine
 10
184.1224083351484
 20
95.08883444685153
 30
0.0
 11
199.1224083351482
 21
95.08883444685151
 31
0.0
  0
LINE
  5
4832
330
2
100
AcDbEntity
  8
0
100
AcDbLine
 10
200.2224083351483
 20
97.68883444685156
 30
0.0
 11
174.6224083351478
 21
97.68883444685156
 31
0.0
  0
LINE
  5
4833
330
2
100
AcDbEntity
  8
0
100
AcDbLine
 10
199.1224083351482
 20
95.08883444685151
 30
0.0
 11
199.1224083351483
 21
96.88883444685149
 31
0.0
  0
ARC
  5
4834
330
2
100
AcDbEntity
  8
0
100
AcDbCircle
 10
200.2224083351485
 20
97.28883444685152
 30
0.0
 40
0.4000000000000341
100
AcDbArc
 50
269.999999999956
 51
90.00000000003582
  0
LINE
  5
4835
330
2
100
AcDbEntity
  8
0
100
AcDbLine
 10
199.1224083351483
 20
96.88883444685149
 30
0.0
 11
200.2224083351482
 21
96.88883444685149
 31
0.0
  0
LINE
  5
4836
330
2
100
AcDbEntity
  8
0
100
AcDbLine
 10
181.5224083351505
 20
80.68883444685168
 30
0.0
 11
181.5224083351505
 21
95.08883444685153
 31
0.0
  0
LINE
  5
4838
330
2
100
AcDbEntity
  8
0
100
AcDbLine
 10
184.1224083351484
 20
80.68883444685177
 30
0.0
 11
184.1224083351484
 21
81.9888344468506
 31
0.0
  0
ARC
  5
4839
330
2
100
AcDbEntity
  8
0
100
AcDbCircle
 10
183.7224083351484
 20
81.98883444685071
 30
0.0
 40
0.3999999999999772
100
AcDbArc
 50
359.9999999999837
 51
179.9999999999837
  0
LINE
  5
483A
330
2
100
AcDbEntity
  8
0
100
AcDbLine
 10
183.3224083351484
 20
81.98883444685083
 30
0.0
 11
183.3224083351484
 21
80.68883444685075
 31
0.0
  0
LINE
  5
483B
330
2
100
AcDbEntity
  8
0
100
AcDbLine
 10
183.3224083351484
 20
80.68883444685075
 30
0.0
 11
181.5224083351505
 21
80.68883444685168
 31
0.0
  0
LINE
  5
483C
330
2
100
AcDbEntity
  8
0
100
AcDbLine
 10
183.3224083351484
 20
95.08883444685153
 30
0.0
 11
183.3224083351484
 21
93.78883444685147
 31
0.0
  0
ARC
  5
483D
330
2
100
AcDbEntity
  8
0
100
AcDbCircle
 10
183.7224083351484
 20
93.78883444685158
 30
0.0
 40
0.3999999999999772
100
AcDbArc
 50
180.0000000000162
 51
0.0000000000162844
  0
LINE
  5
483E
330
2
100
AcDbEntity
  8
0
100
AcDbLine
 10
184.1224083351484
 20
93.7888344468517
 30
0.0
 11
184.1224083351484
 21
95.08883444685153
 31
0.0
  0
LINE
  5
483F
330
2
100
AcDbEntity
  8
0
100
AcDbLine
 10
181.5224083351505
 20
95.08883444685153
 30
0.0
 11
183.3224083351484
 21
95.08883444685153
 31
0.0
  0
LINE
  5
484C
330
2
100
AcDbEntity
  8
0
100
AcDbLine
 10
174.6224083351477
 20
79.83142269593881
 30
0.0
 11
174.6224083351478
 21
97.68883444685156
 31
0.0
  0
ARC
  5
484D
330
2
100
AcDbEntity
  8
0
100
AcDbCircle
 10
174.9169117241842
 20
70.90736657482875
 30
0.0
 40
7.487262100813123
100
AcDbArc
 50
92.25424929970833
 51
142.2435509299415
  0
ARC
  5
484E
330
2
100
AcDbEntity
  8
0
100
AcDbCircle
 10
174.6648938515436
 20
72.59666147061398
 30
0.0
 40
6.756605124201395
100
AcDbArc
 50
93.96795023411753
 51
152.413785271795
  0
ARC
  5
484F
330
2
100
AcDbEntity
  8
0
100
AcDbCircle
 10
168.8224083351478
 20
75.58883444685216
 30
0.0
 40
0.2000000000000056
100
AcDbArc
 50
136.8843409826574
 51
330.9972528132743
  0
ARC
  5
4853
330
2
100
AcDbEntity
  8
0
100
AcDbCircle
 10
174.1224083351477
 20
79.83142269593878
 30
0.0
 40
0.4999999999999849
100
AcDbArc
 50
278.619845447702
 51
0.0000000000032569
  0
LINE
  5
485E
330
2
100
AcDbEntity
  8
0
100
AcDbLine
 10
184.4224083351444
 20
94.6888344468511
 30
0.0
 11
184.4224083351441
 21
81.08883444685247
 31
0.0
  0
LINE
  5
4860
330
2
100
AcDbEntity
  8
0
100
AcDbLine
 10
199.1224083351443
 20
95.08883444685181
 30
0.0
 11
184.4224083351444
 21
94.6888344468511
 31
0.0
  0
LINE
  5
4862
330
2
100
AcDbEntity
  8
0
100
AcDbLine
 10
199.1224083351443
 20
91.03883444685164
 30
0.0
 11
199.1224083351443
 21
95.08883444685181
 31
0.0
  0
LINE
  5
4864
330
2
100
AcDbEntity
  8
0
100
AcDbLine
 10
184.4224083351441
 20
81.08883444685247
 30
0.0
 11
199.1224083351443
 21
80.68883444685173
 31
0.0
  0
LINE
  5
4865
330
2
100
AcDbEntity
  8
0
100
AcDbLine
 10
199.1224083351443
 20
80.68883444685173
 30
0.0
 11
199.1224083351443
 21
84.73883444685158
 31
0.0
  0
LINE
  5
4866
330
2
100
AcDbEntity
  8
0
100
AcDbLine
 10
322.6224083351502
 20
49.38883444685178
 30
0.0
 11
271.6224083351502
 21
49.38883444685178
 31
0.0
  0
LINE
  5
4867
330
2
100
AcDbEntity
  8
0
100
AcDbLine
 10
337.6224083351502
 20
41.38883444685177
 30
0.0
 11
271.6224083351502
 21
41.38883444685177
 31
0.0
  0
LINE
  5
4868
330
2
100
AcDbEntity
  8
0
100
AcDbLine
 10
202.6224083351502
 20
73.38883444685172
 30
0.0
 11
202.6224083351502
 21
42.38883444685177
 31
0.0
  0
LINE
  5
4869
330
2
100
AcDbEntity
  8
0
100
AcDbLine
 10
218.6224083351502
 20
73.38883444685172
 30
0.0
 11
218.6224083351502
 21
49.38883444685178
 31
0.0
  0
ARC
  5
486A
330
2
100
AcDbEntity
  8
0
100
AcDbCircle
 10
203.6224083351502
 20
42.38883444685177
 30
0.0
 40
1.0
100
AcDbArc
 50
180.0
 51
270.0
  0
LINE
  5
486B
330
2
100
AcDbEntity
  8
0
100
AcDbLine
 10
213.5306810902768
 20
46.84297082441509
 30
0.0
 11
218.6224083351502
 21
49.38883444685178
 31
0.0
  0
LINE
  5
486C
330
2
100
AcDbEntity
  8
0
100
AcDbLine
 10
202.6224083351502
 20
73.38883444685177
 30
0.0
 11
218.6224083351502
 21
73.38883444685172
 31
0.0
  0
LINE
  5
486D
330
2
100
AcDbEntity
  8
0
100
AcDbLine
 10
322.6224083351502
 20
73.38883444685172
 30
0.0
 11
322.6224083351502
 21
49.38883444685178
 31
0.0
  0
LINE
  5
486E
330
2
100
AcDbEntity
  8
0
100
AcDbLine
 10
338.6224083351502
 20
73.38883444685172
 30
0.0
 11
338.6224083351502
 21
42.38883444685177
 31
0.0
  0
LINE
  5
486F
330
2
100
AcDbEntity
  8
0
100
AcDbLine
 10
327.7141355800235
 20
46.84297082441509
 30
0.0
 11
322.6224083351502
 21
49.38883444685178
 31
0.0
  0
ARC
  5
4870
330
2
100
AcDbEntity
  8
0
100
AcDbCircle
 10
337.6224083351502
 20
42.38883444685177
 30
0.0
 40
1.0
100
AcDbArc
 50
270.0
 51
0.0
  0
LINE
  5
4871
330
2
100
AcDbEntity
  8
0
100
AcDbLine
 10
338.6224083351502
 20
73.38883444685177
 30
0.0
 11
322.6224083351502
 21
73.38883444685172
 31
0.0
  0
LINE
  5
4872
330
2
100
AcDbEntity
  8
0
 48
2.0
100
AcDbLine
 10
362.6224083351505
 20
99.28387626853945
 30
0.0
 11
362.6224083351504
 21
129.238834446852
 31
0.0
  0
LINE
  5
4873
330
2
100
AcDbEntity
  8
0
100
AcDbLine
 10
375.6224083351502
 20
68.00024188827572
 30
0.0
 11
375.6224083351502
 21
129.3774270054275
 31
0.0
  0
LINE
  5
4874
330
2
100
AcDbEntity
  8
0
100
AcDbLine
 10
371.6224083351503
 20
72.18216778018476
 30
0.0
 11
371.6224083351503
 21
101.638834446852
 31
0.0
  0
LINE
  5
4875
330
2
100
AcDbEntity
  8
0
100
AcDbLine
 10
369.9224083351503
 20
66.68883444685218
 30
0.0
 11
374.6224083351502
 21
66.68883444685164
 31
0.0
  0
ARC
  5
4876
330
2
100
AcDbEntity
  8
0
100
AcDbCircle
 10
376.3133627275226
 20
69.38883444685163
 30
0.0
 40
0.3000000000000056
100
AcDbArc
 50
5.12799088309777
 51
185.1279908830977
  0
ARC
  5
4877
330
2
100
AcDbEntity
  8
0
100
AcDbCircle
 10
374.0624083351502
 20
69.18683364621106
 30
0.0
 40
1.960000000000022
100
AcDbArc
 50
322.7420839986868
 51
5.127990883094526
  0
ARC
  5
4878
330
2
100
AcDbEntity
  8
0
100
AcDbCircle
 10
374.0624083351502
 20
69.18683364621106
 30
0.0
 40
2.560000000000052
100
AcDbArc
 50
282.635625093021
 51
5.127990883094526
  0
LINE
  5
4879
330
2
100
AcDbEntity
  8
0
100
AcDbLine
 10
369.9224083351503
 20
71.38883444685152
 30
0.0
 11
369.9224083351503
 21
66.68883444685218
 31
0.0
  0
LINE
  5
487A
330
2
100
AcDbEntity
  8
0
100
AcDbLine
 10
371.6224083351503
 20
72.18216778018476
 30
0.0
 11
369.9224083351503
 21
71.38883444685152
 31
0.0
  0
LINE
  5
487B
330
2
100
AcDbEntity
  8
0
100
AcDbLine
 10
371.6224083351503
 20
101.638834446852
 30
0.0
 11
363.2224083351504
 21
101.6388344468521
 31
0.0
  0
LINE
  5
487C
330
2
100
AcDbEntity
  8
0
 48
2.0
100
AcDbLine
 10
369.1987031460656
 20
95.66225461075305
 30
0.0
 11
363.2100577048677
 21
98.3728510451206
 31
0.0
  0
LINE
  5
487D
330
2
100
AcDbEntity
  8
0
 48
2.0
100
AcDbLine
 10
363.4574680830374
 20
98.91946617917191
 30
0.0
 11
369.4461135242353
 21
96.20886974480439
 31
0.0
  0
ARC
  5
487E
330
2
100
AcDbEntity
  8
0
 48
2.0
100
AcDbCircle
 10
369.3224083351505
 20
95.93556217777873
 30
0.0
 40
0.2999999999999934
100
AcDbArc
 50
245.6474165002473
 51
65.6474165002437
  0
ARC
  5
487F
330
2
100
AcDbEntity
  8
0
 48
2.0
100
AcDbCircle
 10
363.6224083351504
 20
99.28387626853945
 30
0.0
 40
0.999999999999974
100
AcDbArc
 50
180.0
 51
245.6474165002469
  0
ARC
  5
4880
330
2
100
AcDbEntity
  8
0
 48
2.0
100
AcDbCircle
 10
363.6224083351504
 20
99.28387626853945
 30
0.0
 40
0.3999999999999772
100
AcDbArc
 50
180.0
 51
245.6474165002469
  0
LINE
  5
4881
330
2
100
AcDbEntity
  8
0
 48
2.0
100
AcDbLine
 10
363.2224083351504
 20
101.6388344468521
 30
0.0
 11
363.2224083351504
 21
99.28387626853945
 31
0.0
  0
LINE
  5
4882
330
2
100
AcDbEntity
  8
0
100
AcDbLine
 10
374.6224083351502
 20
130.6888344468517
 30
0.0
 11
369.9224083351503
 21
130.6888344468517
 31
0.0
  0
ARC
  5
4883
330
2
100
AcDbEntity
  8
0
100
AcDbCircle
 10
374.0624083351503
 20
128.1908352474922
 30
0.0
 40
1.959999999999904
100
AcDbArc
 50
354.8720091169071
 51
37.25791600131319
  0
ARC
  5
4884
330
2
100
AcDbEntity
  8
0
100
AcDbCircle
 10
374.0624083351501
 20
128.1908352474922
 30
0.0
 40
2.56000000000012
100
AcDbArc
 50
354.8720091169038
 51
77.36437490697891
  0
ARC
  5
4885
330
2
100
AcDbEntity
  8
0
100
AcDbCircle
 10
376.3133627275226
 20
127.9888344468516
 30
0.0
 40
0.3000000000000107
100
AcDbArc
 50
174.8720091168925
 51
354.8720091168925
  0
LINE
  5
4886
330
2
100
AcDbEntity
  8
0
100
AcDbLine
 10
362.6224083351504
 20
129.238834446852
 30
0.0
 11
369.9224083351504
 21
129.2388344468526
 31
0.0
  0
LINE
  5
4887
330
2
100
AcDbEntity
  8
0
100
AcDbLine
 10
369.9224083351503
 20
130.6888344468517
 30
0.0
 11
369.9224083351504
 21
129.2388344468526
 31
0.0
  0
LINE
  5
488D
330
2
100
AcDbEntity
  8
0
100
AcDbLine
 10
366.622408335152
 20
79.8314226959371
 30
0.0
 11
366.6224083351524
 21
97.68883444685156
 31
0.0
  0
ARC
  5
488E
330
2
100
AcDbEntity
  8
0
100
AcDbCircle
 10
366.3279049461154
 20
70.90736657482705
 30
0.0
 40
7.487262100813123
100
AcDbArc
 50
37.75644907005778
 51
87.7457507002917
  0
ARC
  5
488F
330
2
100
AcDbEntity
  8
0
100
AcDbCircle
 10
366.5799228187561
 20
72.59666147061228
 30
0.0
 40
6.756605124201395
100
AcDbArc
 50
27.5862147282035
 51
86.03204976588084
  0
ARC
  5
4890
330
2
100
AcDbEntity
  8
0
100
AcDbCircle
 10
372.4224083351519
 20
75.58883444685034
 30
0.0
 40
0.2000000000000056
100
AcDbArc
 50
209.0027471867241
 51
43.11565901734257
  0
ARC
  5
4894
330
2
100
AcDbEntity
  8
0
100
AcDbCircle
 10
367.1224083351521
 20
79.83142269593706
 30
0.0
 40
0.4999999999999849
100
AcDbArc
 50
179.9999999999959
 51
261.3801545522979
  0
LINE
  5
489F
330
2
100
AcDbEntity
  8
0
100
AcDbLine
 10
342.1224083351463
 20
80.6888344468517
 30
0.0
 11
342.1224083351463
 21
73.18883444685124
 31
0.0
  0
LINE
  5
48A4
330
2
100
AcDbEntity
  8
0
100
AcDbLine
 10
340.922408335146
 20
72.18883444685127
 30
0.0
 11
348.1224083351519
 21
72.18883444685127
 31
0.0
  0
LINE
  5
48A5
330
2
100
AcDbEntity
  8
0
100
AcDbLine
 10
342.1224083351463
 20
73.18883444685124
 30
0.0
 11
340.9224083351463
 21
73.18883444685127
 31
0.0
  0
ARC
  5
48A6
330
2
100
AcDbEntity
  8
0
100
AcDbCircle
 10
340.9224083351462
 20
72.8888344468514
 30
0.0
 40
0.2999999999998692
100
AcDbArc
 50
89.99999999997069
 51
180.0
  0
LINE
  5
48A7
330
2
100
AcDbEntity
  8
0
100
AcDbLine
 10
340.6224083351462
 20
72.8888344468514
 30
0.0
 11
340.6224083351462
 21
72.44883444685121
 31
0.0
  0
ARC
  5
48A8
330
2
100
AcDbEntity
  8
0
100
AcDbCircle
 10
340.8904700705068
 20
72.45505952611347
 30
0.0
 40
0.2681340067509704
100
AcDbArc
 50
181.3303154705231
 51
276.8409180894116
  0
LINE
  5
48B3
330
2
100
AcDbEntity
  8
0
100
AcDbLine
 10
366.6224083351477
 20
74.1888344468523
 30
0.0
 11
366.6224083351455
 21
78.38883444685234
 31
0.0
  0
ARC
  5
48B4
330
2
100
AcDbEntity
  8
0
100
AcDbCircle
 10
364.6224083351477
 20
74.18883444685127
 30
0.0
 40
2.0
100
AcDbArc
 50
270.0
 51
0.000000000029312
  0
LINE
  5
48B6
330
2
100
AcDbEntity
  8
0
100
AcDbLine
 10
357.1224083351422
 20
80.68883444685178
 30
0.0
 11
342.1224083351463
 21
80.6888344468517
 31
0.0
  0
LINE
  5
48B7
330
2
100
AcDbEntity
  8
0
100
AcDbLine
 10
357.1224083351422
 20
95.08883444685153
 30
0.0
 11
342.1224083351424
 21
95.08883444685151
 31
0.0
  0
LINE
  5
48B8
330
2
100
AcDbEntity
  8
0
100
AcDbLine
 10
341.0224083351423
 20
97.68883444685156
 30
0.0
 11
366.6224083351524
 21
97.68883444685156
 31
0.0
  0
LINE
  5
48B9
330
2
100
AcDbEntity
  8
0
100
AcDbLine
 10
342.1224083351424
 20
95.08883444685151
 30
0.0
 11
342.1224083351422
 21
96.88883444685149
 31
0.0
  0
ARC
  5
48BA
330
2
100
AcDbEntity
  8
0
100
AcDbCircle
 10
341.0224083351421
 20
97.28883444685152
 30
0.0
 40
0.4000000000000341
100
AcDbArc
 50
89.99999999996417
 51
270.0000000000423
  0
LINE
  5
48BB
330
2
100
AcDbEntity
  8
0
100
AcDbLine
 10
342.1224083351422
 20
96.88883444685149
 30
0.0
 11
341.0224083351424
 21
96.88883444685149
 31
0.0
  0
LINE
  5
48BC
330
2
100
AcDbEntity
  8
0
100
AcDbLine
 10
359.7224083351401
 20
80.68883444685168
 30
0.0
 11
359.7224083351401
 21
95.08883444685153
 31
0.0
  0
LINE
  5
48BE
330
2
100
AcDbEntity
  8
0
100
AcDbLine
 10
357.1224083351422
 20
80.68883444685178
 30
0.0
 11
357.1224083351422
 21
81.9888344468506
 31
0.0
  0
ARC
  5
48BF
330
2
100
AcDbEntity
  8
0
100
AcDbCircle
 10
357.5224083351422
 20
81.98883444685071
 30
0.0
 40
0.3999999999999772
100
AcDbArc
 50
0.0000000000162844
 51
180.0000000000162
  0
LINE
  5
48C0
330
2
100
AcDbEntity
  8
0
100
AcDbLine
 10
357.9224083351422
 20
81.98883444685083
 30
0.0
 11
357.9224083351422
 21
80.68883444685075
 31
0.0
  0
LINE
  5
48C1
330
2
100
AcDbEntity
  8
0
100
AcDbLine
 10
357.9224083351422
 20
80.68883444685075
 30
0.0
 11
359.7224083351401
 21
80.68883444685168
 31
0.0
  0
LINE
  5
48C2
330
2
100
AcDbEntity
  8
0
100
AcDbLine
 10
357.9224083351422
 20
95.08883444685153
 30
0.0
 11
357.9224083351422
 21
93.78883444685147
 31
0.0
  0
ARC
  5
48C3
330
2
100
AcDbEntity
  8
0
100
AcDbCircle
 10
357.5224083351422
 20
93.78883444685158
 30
0.0
 40
0.3999999999999772
100
AcDbArc
 50
179.9999999999837
 51
359.9999999999837
  0
LINE
  5
48C4
330
2
100
AcDbEntity
  8
0
100
AcDbLine
 10
357.1224083351422
 20
93.7888344468517
 30
0.0
 11
357.1224083351422
 21
95.08883444685153
 31
0.0
  0
LINE
  5
48C5
330
2
100
AcDbEntity
  8
0
100
AcDbLine
 10
359.7224083351401
 20
95.08883444685153
 30
0.0
 11
357.9224083351422
 21
95.08883444685153
 31
0.0
  0
LINE
  5
48CD
330
2
100
AcDbEntity
  8
0
100
AcDbLine
 10
356.822408335156
 20
94.6888344468511
 30
0.0
 11
356.8224083351563
 21
81.08883444685247
 31
0.0
  0
LINE
  5
48CE
330
2
100
AcDbEntity
  8
0
100
AcDbLine
 10
355.5226788161021
 20
84.73883444685057
 30
0.0
 11
355.5226788161021
 21
91.03883444685063
 31
0.0
  0
LINE
  5
48CF
330
2
100
AcDbEntity
  8
0
100
AcDbLine
 10
342.1224083351561
 20
95.08883444685181
 30
0.0
 11
356.822408335156
 21
94.6888344468511
 31
0.0
  0
LINE
  5
48D1
330
2
100
AcDbEntity
  8
0
100
AcDbLine
 10
342.122408335156
 20
91.03883444685074
 30
0.0
 11
342.1224083351561
 21
95.08883444685181
 31
0.0
  0
LINE
  5
48D3
330
2
100
AcDbEntity
  8
0
100
AcDbLine
 10
356.8224083351563
 20
81.08883444685247
 30
0.0
 11
342.1224083351561
 21
80.68883444685173
 31
0.0
  0
LINE
  5
48D4
330
2
100
AcDbEntity
  8
0
100
AcDbLine
 10
342.1224083351561
 20
80.68883444685173
 30
0.0
 11
342.122408335156
 21
84.73883444685075
 31
0.0
  0
DIMENSION
  5
4A21
330
2
100
AcDbEntity
  8
ADM
100
AcDbDimension
  2
*D14
 10
101.0807789883522
 20
252.2117229031095
 30
0.0
 11
99.08077204911492
 21
254.7117229031095
 31
0.0
 70
    32
 71
     5
 42
-1.0
  3
1
100
AcDbAlignedDimension
 13
97.08076510987758
 23
237.2117229031096
 33
0.0
 14
101.0807789883522
 24
205.2117229031099
 34
0.0
100
AcDbRotatedDimension
1001
ACAD
1000
DSTYLE
1002
{
1070
     6
1000
DOT
1070
     7
1000
DOT
1002
}
  0
DIMENSION
  5
4A2E
330
2
100
AcDbEntity
  8
ADM
100
AcDbDimension
  2
*D15
 10
18.08076510987751
 20
188.2117229031096
 30
0.0
 11
15.58076510987748
 21
199.2117229031098
 31
0.0
 70
    32
 71
     5
 42
-1.0
  3
1
100
AcDbAlignedDimension
 13
33.08076510987751
 23
210.21172290311
 33
0.0
 14
67.08077898835187
 24
188.2117229031096
 34
0.0
 50
90.0
100
AcDbRotatedDimension
1001
ACAD
1000
DSTYLE
1002
{
1070
     6
1000
DOT
1070
     7
1000
DOT
1002
}
  0
DIMENSION
  5
4A3C
330
2
100
AcDbEntity
  8
ADM
100
AcDbDimension
  2
*D16
 10
18.08076510987748
 20
63.89626101292378
 30
0.0
 11
15.58076510987747
 21
67.39191815006556
 31
0.0
 70
    32
 71
     5
 42
-1.0
  3
1
100
AcDbAlignedDimension
 13
66.08077898835222
 23
70.88757528720731
 33
0.0
 14
33.08076510987751
 24
63.89626101292378
 34
0.0
 50
90.0
100
AcDbRotatedDimension
1001
ACAD
1000
DSTYLE
1002
{
1070
   271
1070
     1
1070
     6
1000
DOT
1070
     7
1000
DOT
1002
}
  0
DIMENSION
  5
4A52
330
2
100
AcDbEntity
  8
ADM
100
AcDbDimension
  2
*D17
 10
11.08076510987748
 20
63.89626101292379
 30
0.0
 11
8.58076510987748
 21
150.5539919580167
 31
0.0
 70
    32
  1
H
 71
     5
 42
-1.0
  3
1
100
AcDbAlignedDimension
 13
35.93012850955279
 23
237.2117229031095
 33
0.0
 14
33.08076510987751
 24
63.89626101292378
 34
0.0
 50
90.0
100
AcDbRotatedDimension
1001
ACAD
1000
DSTYLE
1002
{
1070
     6
1000
DOT
1070
     7
1000
DOT
1002
}
  0
DIMENSION
  5
4A69
330
2
100
AcDbEntity
  8
ADM
100
AcDbDimension
  2
*D18
 10
122.380778988353
 20
48.89626101292376
 30
0.0
 11
109.7307720491153
 21
51.39626101292376
 31
0.0
 70
    32
 71
     5
 42
-1.0
  3
1
100
AcDbAlignedDimension
 13
97.08076510987769
 23
63.89626101292378
 33
0.0
 14
122.380778988353
 24
90.88897267062481
 34
0.0
100
AcDbRotatedDimension
1001
ACAD
1000
DSTYLE
1002
{
1070
     6
1000
DOT
1070
     7
1000
DOT
1002
}
  0
LINE
  5
4D85
330
2
100
AcDbEntity
  8
0
100
AcDbLine
 10
70.48077898835225
 20
77.85404601292386
 30
0.0
 11
70.48077898835225
 21
76.39626101292389
 31
0.0
  0
LINE
  5
4D86
330
2
100
AcDbEntity
  8
0
100
AcDbLine
 10
70.48077898835225
 20
76.39626101292389
 30
0.0
 11
73.0084974883523
 21
76.39626101292389
 31
0.0
  0
ARC
  5
4D87
330
2
100
AcDbEntity
  8
0
100
AcDbCircle
 10
75.88077898835229
 20
74.39626101292389
 30
0.0
 40
3.5
100
AcDbArc
 50
34.84990499999813
 51
145.1500950000018
  0
LINE
  5
4D88
330
2
100
AcDbEntity
  8
0
100
AcDbLine
 10
81.28077898835233
 20
76.39626101292389
 30
0.0
 11
78.75306048835227
 21
76.39626101292389
 31
0.0
  0
LINE
  5
4D89
330
2
100
AcDbEntity
  8
0
100
AcDbLine
 10
81.28077898835233
 20
77.85404601292386
 30
0.0
 11
81.28077898835233
 21
76.39626101292389
 31
0.0
  0
DIMENSION
  5
4D9B
330
2
100
AcDbEntity
  8
ADM
100
AcDbDimension
  2
*D19
 10
174.6224083351429
 20
51.68883444685156
 30
0.0
 11
170.1224083351466
 21
54.18883444685156
 31
0.0
 70
    32
 71
     5
 42
-1.0
  3
1
100
AcDbAlignedDimension
 13
165.6224083351502
 23
68.00024188827563
 33
0.0
 14
174.6224083351429
 24
74.1888344468523
 34
0.0
100
AcDbRotatedDimension
1001
ACAD
1000
DSTYLE
1002
{
1070
     6
1000
DOT
1070
     7
1000
DOT
1002
}
  0
DIMENSION
  5
4DA8
330
2
100
AcDbEntity
  8
ADM
100
AcDbDimension
  2
*D20
 10
375.6224083351502
 20
51.68883444685164
 30
0.0
 11
371.1224083351489
 21
54.18883444685164
 31
0.0
 70
    32
 71
     5
 42
-1.0
  3
1
100
AcDbAlignedDimension
 13
366.6224083351477
 23
74.1888344468523
 33
0.0
 14
375.6224083351502
 24
68.0002418882757
 34
0.0
100
AcDbRotatedDimension
1001
ACAD
1000
DSTYLE
1002
{
1070
     6
1000
DOT
1070
     7
1000
DOT
1002
}
  0
LINE
  5
4DB6
330
2
100
AcDbEntity
  8
0
100
AcDbLine
 10
185.1224083351485
 20
72.18883444685127
 30
0.0
 11
176.6224083351429
 21
72.18883444685127
 31
0.0
  0
LINE
  5
4DB7
330
2
100
AcDbEntity
  8
0
100
AcDbLine
 10
356.1224083351519
 20
72.18883444685127
 30
0.0
 11
364.6224083351477
 21
72.18883444685127
 31
0.0
  0
DIMENSION
  5
4E66
330
2
100
AcDbEntity
  8
ADM
100
AcDbDimension
  2
*D21
 10
338.6224083351502
 20
26.38883444685177
 30
0.0
 11
270.6224083351502
 21
28.88883444685177
 31
0.0
 70
    32
 71
     5
 42
-1.0
  3
1
100
AcDbAlignedDimension
 13
202.6224083351502
 23
42.38883444685177
 33
0.0
 14
338.6224083351502
 24
42.38883444685177
 34
0.0
100
AcDbRotatedDimension
1001
ACAD
1000
DSTYLE
1002
{
1070
     6
1000
DOT
1070
     7
1000
DOT
1002
}
  0
LINE
  5
50A3
330
2
100
AcDbEntity
  8
0
100
AcDbLine
 10
395.0
 20
0.0
 30
0.0
 11
395.0
 21
275.0
 31
0.0
  0
LINE
  5
50A4
330
2
100
AcDbEntity
  8
0
100
AcDbLine
 10
395.0
 20
275.0
 30
0.0
 11
0.0
 21
275.0
 31
0.0
  0
LINE
  5
50A5
330
2
100
AcDbEntity
  8
0
100
AcDbLine
 10
0.0
 20
275.0
 30
0.0
 11
0.0
 21
0.0
 31
0.0
  0
LINE
  5
50A6
330
2
100
AcDbEntity
  8
0
100
AcDbLine
 10
0.0
 20
0.0
 30
0.0
 11
395.0
 21
0.0
 31
0.0
  0
LINE
  5
50EF
330
2
100
AcDbEntity
  8
0
100
AcDbLine
 10
70.48115219448686
 20
77.88757528720748
 30
0.0
 11
68.08077898835506
 21
77.88757528720748
 31
0.0
  0
LINE
  5
50F0
330
2
100
AcDbEntity
  8
0
100
AcDbLine
 10
70.48077898835214
 20
77.88757528720748
 30
0.0
 11
70.48077898835214
 21
76.39626101292401
 31
0.0
  0
LINE
  5
50F1
330
2
100
AcDbEntity
  8
0
100
AcDbLine
 10
81.28077898835215
 20
77.88757528720829
 30
0.0
 11
81.28077898835215
 21
76.39626101292401
 31
0.0
  0
LINE
  5
50F2
330
2
100
AcDbEntity
  8
0
100
AcDbLine
 10
83.68115219448442
 20
77.88757528720831
 30
0.0
 11
81.28077898835215
 21
77.88757528720829
 31
0.0
  0
DIMENSION
  5
5106
330
2
100
AcDbEntity
  8
ADM
100
AcDbDimension
  2
*D22
 10
178.6224083351499
 20
145.6888344468515
 30
0.0
 11
189.6224083351492
 21
148.1888344468515
 31
0.0
 70
    32
 71
     5
 42
21.99999999999863
  3
1
100
AcDbAlignedDimension
 13
200.6224083351486
 23
97.28883444685152
 33
0.0
 14
178.6224083351499
 24
129.2388344468519
 34
0.0
100
AcDbRotatedDimension
1001
ACAD
1000
DSTYLE
1002
{
1070
   343
1005
27
1070
   344
1005
27
1002
}
  0
LINE
  5
5115
330
2
100
AcDbEntity
  8
0
100
AcDbLine
 10
269.6224083351502
 20
41.38883444685177
 30
0.0
 11
203.6224083351502
 21
41.38883444685177
 31
0.0
  0
LINE
  5
5116
330
2
100
AcDbEntity
  8
0
100
AcDbLine
 10
269.6224083351502
 20
49.38883444685178
 30
0.0
 11
218.6224083351502
 21
49.38883444685178
 31
0.0
  0
ENDSEC
  0
SECTION
  2
OBJECTS
  0
DICTIONARY
  5
8
330
0
100
AcDbDictionary
281
     1
  3
ACAD_GROUP
350
23
  3
ACAD_LAYOUT
350
C
  3
ACAD_MLINESTYLE
350
24
  3
ACAD_PLOTSETTINGS
350
25
  3
ACAD_PLOTSTYLENAME
350
7
  3
AcDbVariableDictionary
350
8A7
  0
DICTIONARY
  5
13
330
12
100
AcDbDictionary
280
     1
281
     1
  3
ACAD_LAYERFILTERS
360
3DD7
  3
ACAD_LAYERSTATES
360
14
  0
DICTIONARY
  5
3
330
2
100
AcDbDictionary
280
     1
281
     1
  3
ACAD_LAYOUTSELFREF
360
50CD
  0
DICTIONARY
  5
E
330
D
100
AcDbDictionary
280
     1
281
     1
  3
ACAD_LAYOUTSELFREF
360
50D2
  0
DICTIONARY
  5
23
102
{ACAD_REACTORS
330
8
102
}
330
8
100
AcDbDictionary
281
     1
  3
*A1
350
238E
  3
*A10
350
2FA7
  3
*A11
350
35C9
  3
*A12
350
2FA8
  3
*A13
350
239C
  3
*A14
350
35F5
  3
*A15
350
2FAD
  3
*A16
350
2398
  3
*A17
350
2391
  3
*A18
350
2FAE
  3
*A19
350
2FB1
  3
*A2
350
2FAF
  3
*A20
350
2FAB
  3
*A21
350
2FB2
  3
*A22
350
353D
  3
*A23
350
2FB3
  3
*A24
350
2399
  3
*A25
350
2FB4
  3
*A26
350
2392
  3
*A27
350
35F4
  3
*A28
350
2393
  3
*A29
350
2395
  3
*A3
350
2397
  3
*A30
350
238F
  3
*A31
350
3C9B
  3
*A32
350
239A
  3
*A33
350
2FB5
  3
*A34
350
239B
  3
*A35
350
239D
  3
*A36
350
34F6
  3
*A37
350
35C8
  3
*A38
350
2FA9
  3
*A39
350
2396
  3
*A4
350
2FAA
  3
*A40
350
2FAC
  3
*A41
350
427A
  3
*A5
350
2394
  3
*A6
350
352A
  3
*A7
350
2FA6
  3
*A8
350
2390
  3
*A9
350
2FB0
  0
DICTIONARY
  5
C
102
{ACAD_REACTORS
330
8
102
}
330
8
100
AcDbDictionary
281
     1
  3
Model
350
B
  3
ﾚｲｱｳﾄ1
350
11
  0
DICTIONARY
  5
24
102
{ACAD_REACTORS
330
8
102
}
330
8
100
AcDbDictionary
281
     1
  3
STANDARD
350
33
  0
DICTIONARY
  5
25
102
{ACAD_REACTORS
330
8
102
}
330
8
100
AcDbDictionary
281
     1
  0
ACDBDICTIONARYWDFLT
  5
7
102
{ACAD_REACTORS
330
8
102
}
330
8
100
AcDbDictionary
281
     1
  3
Normal
350
6
100
AcDbDictionaryWithDefault
340
6
1001
ACAD
1000
TREAT_AS_HARD
1070
     0
  0
DICTIONARY
  5
8A7
102
{ACAD_REACTORS
330
8
102
}
330
8
100
AcDbDictionary
281
     1
  3
DIMASSOC
350
8A9
  3
HIDETEXT
350
8A8
  0
DICTIONARY
  5
3DD7
102
{ACAD_REACTORS
330
13
102
}
330
13
100
AcDbDictionary
280
     1
281
     1
  0
DICTIONARY
  5
14
102
{ACAD_REACTORS
330
13
102
}
330
13
100
AcDbDictionary
281
     1
  0
XRECORD
  5
50CD
102
{ACAD_REACTORS
330
3
102
}
330
3
100
AcDbXrecord
280
     1
340
2
  0
XRECORD
  5
50D2
102
{ACAD_REACTORS
330
E
102
}
330
E
100
AcDbXrecord
280
     1
340
D
  0
GROUP
  5
238E
102
{ACAD_REACTORS
330
23
102
}
330
23
100
AcDbGroup
300

 70
     3
 71
     1
  0
GROUP
  5
2FA7
102
{ACAD_REACTORS
330
23
102
}
330
23
100
AcDbGroup
300

 70
     1
 71
     1
  0
GROUP
  5
35C9
102
{ACAD_REACTORS
330
23
102
}
330
23
100
AcDbGroup
300

 70
     1
 71
     1
  0
GROUP
  5
2FA8
102
{ACAD_REACTORS
330
23
102
}
330
23
100
AcDbGroup
300

 70
     1
 71
     1
  0
GROUP
  5
239C
102
{ACAD_REACTORS
330
23
102
}
330
23
100
AcDbGroup
300

 70
     3
 71
     1
  0
GROUP
  5
35F5
102
{ACAD_REACTORS
330
23
102
}
330
23
100
AcDbGroup
300

 70
     1
 71
     1
  0
GROUP
  5
2FAD
102
{ACAD_REACTORS
330
23
102
}
330
23
100
AcDbGroup
300

 70
     1
 71
     1
  0
GROUP
  5
2398
102
{ACAD_REACTORS
330
23
102
}
330
23
100
AcDbGroup
300

 70
     3
 71
     1
  0
GROUP
  5
2391
102
{ACAD_REACTORS
330
23
102
}
330
23
100
AcDbGroup
300

 70
     3
 71
     1
  0
GROUP
  5
2FAE
102
{ACAD_REACTORS
330
23
102
}
330
23
100
AcDbGroup
300

 70
     1
 71
     1
  0
GROUP
  5
2FB1
102
{ACAD_REACTORS
330
23
102
}
330
23
100
AcDbGroup
300

 70
     1
 71
     1
  0
GROUP
  5
2FAF
102
{ACAD_REACTORS
330
23
102
}
330
23
100
AcDbGroup
300

 70
     1
 71
     1
  0
GROUP
  5
2FAB
102
{ACAD_REACTORS
330
23
102
}
330
23
100
AcDbGroup
300

 70
     1
 71
     1
  0
GROUP
  5
2FB2
102
{ACAD_REACTORS
330
23
102
}
330
23
100
AcDbGroup
300

 70
     1
 71
     1
  0
GROUP
  5
353D
102
{ACAD_REACTORS
330
23
102
}
330
23
100
AcDbGroup
300

 70
     1
 71
     1
  0
GROUP
  5
2FB3
102
{ACAD_REACTORS
330
23
102
}
330
23
100
AcDbGroup
300

 70
     1
 71
     1
  0
GROUP
  5
2399
102
{ACAD_REACTORS
330
23
102
}
330
23
100
AcDbGroup
300

 70
     3
 71
     1
  0
GROUP
  5
2FB4
102
{ACAD_REACTORS
330
23
102
}
330
23
100
AcDbGroup
300

 70
     1
 71
     1
  0
GROUP
  5
2392
102
{ACAD_REACTORS
330
23
102
}
330
23
100
AcDbGroup
300

 70
     3
 71
     1
  0
GROUP
  5
35F4
102
{ACAD_REACTORS
330
23
102
}
330
23
100
AcDbGroup
300

 70
     1
 71
     1
  0
GROUP
  5
2393
102
{ACAD_REACTORS
330
23
102
}
330
23
100
AcDbGroup
300

 70
     3
 71
     1
  0
GROUP
  5
2395
102
{ACAD_REACTORS
330
23
102
}
330
23
100
AcDbGroup
300

 70
     3
 71
     1
  0
GROUP
  5
2397
102
{ACAD_REACTORS
330
23
102
}
330
23
100
AcDbGroup
300

 70
     3
 71
     1
  0
GROUP
  5
238F
102
{ACAD_REACTORS
330
23
102
}
330
23
100
AcDbGroup
300

 70
     3
 71
     1
  0
GROUP
  5
3C9B
102
{ACAD_REACTORS
330
23
102
}
330
23
100
AcDbGroup
300

 70
     1
 71
     1
  0
GROUP
  5
239A
102
{ACAD_REACTORS
330
23
102
}
330
23
100
AcDbGroup
300

 70
     3
 71
     1
  0
GROUP
  5
2FB5
102
{ACAD_REACTORS
330
23
102
}
330
23
100
AcDbGroup
300

 70
     1
 71
     1
  0
GROUP
  5
239B
102
{ACAD_REACTORS
330
23
102
}
330
23
100
AcDbGroup
300

 70
     3
 71
     1
  0
GROUP
  5
239D
102
{ACAD_REACTORS
330
23
102
}
330
23
100
AcDbGroup
300

 70
     3
 71
     1
  0
GROUP
  5
34F6
102
{ACAD_REACTORS
330
23
102
}
330
23
100
AcDbGroup
300

 70
     1
 71
     1
  0
GROUP
  5
35C8
102
{ACAD_REACTORS
330
23
102
}
330
23
100
AcDbGroup
300

 70
     1
 71
     1
  0
GROUP
  5
2FA9
102
{ACAD_REACTORS
330
23
102
}
330
23
100
AcDbGroup
300

 70
     1
 71
     1
  0
GROUP
  5
2396
102
{ACAD_REACTORS
330
23
102
}
330
23
100
AcDbGroup
300

 70
     3
 71
     1
  0
GROUP
  5
2FAA
102
{ACAD_REACTORS
330
23
102
}
330
23
100
AcDbGroup
300

 70
     1
 71
     1
  0
GROUP
  5
2FAC
102
{ACAD_REACTORS
330
23
102
}
330
23
100
AcDbGroup
300

 70
     1
 71
     1
  0
GROUP
  5
427A
102
{ACAD_REACTORS
330
23
102
}
330
23
100
AcDbGroup
300

 70
     1
 71
     1
  0
GROUP
  5
2394
102
{ACAD_REACTORS
330
23
102
}
330
23
100
AcDbGroup
300

 70
     3
 71
     1
  0
GROUP
  5
352A
102
{ACAD_REACTORS
330
23
102
}
330
23
100
AcDbGroup
300

 70
     1
 71
     1
  0
GROUP
  5
2FA6
102
{ACAD_REACTORS
330
23
102
}
330
23
100
AcDbGroup
300

 70
     1
 71
     1
  0
GROUP
  5
2390
102
{ACAD_REACTORS
330
23
102
}
330
23
100
AcDbGroup
300

 70
     3
 71
     1
  0
GROUP
  5
2FB0
102
{ACAD_REACTORS
330
23
102
}
330
23
100
AcDbGroup
300

 70
     1
 71
     1
  0
LAYOUT
  5
B
102
{ACAD_REACTORS
330
C
102
}
330
C
100
AcDbPlotSettings
  1

  2
Canon LBP-830.pc3
  4
A4
  6
AM_VIEW1
 40
5.87375
 41
5.873747999999999
 42
5.873749
 43
5.873749
 44
296.925995
 45
209.973328
 46
0.23
 47
0.0
 48
0.0
 49
0.0
140
395.0
141
275.0
142
1.0
143
1.387306581653326
 70
 11956
 72
     1
 73
     0
 74
     4
  7
aclt.ctb
 75
     0
147
0.7208212036363637
148
0.0
149
0.0
100
AcDbLayout
  1
Model
 70
     1
 71
     0
 10
0.0
 20
0.0
 11
12.0
 21
9.0
 12
0.0
 22
0.0
 32
0.0
 14
0.0
 24
0.0
 34
0.0
 15
0.0
 25
0.0
 35
0.0
146
0.0
 13
0.0
 23
0.0
 33
0.0
 16
1.0
 26
0.0
 36
0.0
 17
0.0
 27
1.0
 37
0.0
 76
     0
330
2
  0
LAYOUT
  5
11
102
{ACAD_REACTORS
330
C
102
}
330
C
100
AcDbPlotSettings
  1

  2
RICOH imagio MF2730
  4

  6

 40
0.0
 41
0.0
 42
0.0
 43
0.0
 44
0.0
 45
0.0
 46
0.0
 47
0.0
 48
0.0
 49
0.0
140
0.0
141
0.0
142
1.0
143
1.0
 70
   688
 72
     0
 73
     0
 74
     5
  7
agc ax.ctb
 75
    16
147
1.0
148
0.0
149
0.0
100
AcDbLayout
  1
ﾚｲｱｳﾄ1
 70
     0
 71
     1
 10
0.0
 20
0.0
 11
12.0
 21
9.0
 12
0.0
 22
0.0
 32
0.0
 14
1.000000000000000E+20
 24
1.000000000000000E+20
 34
1.000000000000000E+20
 15
-1.000000000000000E+20
 25
-1.000000000000000E+20
 35
-1.000000000000000E+20
146
0.0
 13
0.0
 23
0.0
 33
0.0
 16
1.0
 26
0.0
 36
0.0
 17
0.0
 27
1.0
 37
0.0
 76
     0
330
D
  0
MLINESTYLE
  5
33
102
{ACAD_REACTORS
330
24
102
}
330
24
100
AcDbMlineStyle
  2
STANDARD
 70
     0
  3

 62
   256
 51
90.0
 52
90.0
 71
     2
 49
0.5
 62
   256
  6
BYLAYER
 49
-0.5
 62
   256
  6
BYLAYER
  0
ACDBPLACEHOLDER
  5
6
102
{ACAD_REACTORS
330
7
102
}
330
7
  0
DICTIONARYVAR
  5
8A9
102
{ACAD_REACTORS
330
8A7
102
}
330
8A7
100
DictionaryVariables
280
     0
  1
1
  0
DICTIONARYVAR
  5
8A8
102
{ACAD_REACTORS
330
8A7
102
}
330
8A7
100
DictionaryVariables
280
     0
  1
1
  0
ENDSEC
  0
EOF
