  0
SECTION
  2
HEADER
  9
$ACADVER
  1
AC1027
  9
$ACADMAINTVER
 70
    20
  9
$DWGCODEPAGE
  3
ANSI_932
  9
$LASTSAVEDBY
  1
hiroki nakayama
  9
$REQUIREDVERSIONS
160
                 0
  9
$INSBASE
 10
0.0
 20
0.0
 30
0.0
  9
$EXTMIN
 10
-0.0299222192437583
 20
-0.014759583196792
 30
-0.0000000000000058
  9
$EXTMAX
 10
395.0276461888724
 20
275.0032960643182
 30
0.0000000000000104
  9
$LIMMIN
 10
0.0
 20
0.0
  9
$LIMMAX
 10
59.40000000000001
 20
42.0
  9
$ORTHOMODE
 70
     1
  9
$REGENMODE
 70
     1
  9
$FILLMODE
 70
     1
  9
$QTEXTMODE
 70
     0
  9
$MIRRTEXT
 70
     1
  9
$LTSCALE
 40
3.0
  9
$ATTMODE
 70
     1
  9
$TEXTSIZE
 40
4.0
  9
$TRACEWID
 40
0.05
  9
$TEXTSTYLE
  7
STYLE1
  9
$CLAYER
  8
0
  9
$CELTYPE
  6
BYLAYER
  9
$CECOLOR
 62
   256
  9
$CELTSCALE
 40
1.0
  9
$DISPSILH
 70
     0
  9
$DIMSCALE
 40
1.0
  9
$DIMASZ
 40
2.0
  9
$DIMEXO
 40
1.0
  9
$DIMDLI
 40
0.0
  9
$DIMRND
 40
0.0
  9
$DIMDLE
 40
0.0
  9
$DIMEXE
 40
0.0
  9
$DIMTP
 40
0.0
  9
$DIMTM
 40
0.0
  9
$DIMTXT
 40
3.0
  9
$DIMCEN
 40
0.0
  9
$DIMTSZ
 40
0.0
  9
$DIMTOL
 70
     0
  9
$DIMLIM
 70
     0
  9
$DIMTIH
 70
     0
  9
$DIMTOH
 70
     0
  9
$DIMSE1
 70
     0
  9
$DIMSE2
 70
     0
  9
$DIMTAD
 70
     3
  9
$DIMZIN
 70
     8
  9
$DIMBLK
  1

  9
$DIMASO
 70
     1
  9
$DIMSHO
 70
     1
  9
$DIMPOST
  1

  9
$DIMAPOST
  1

  9
$DIMALT
 70
     0
  9
$DIMALTD
 70
     2
  9
$DIMALTF
 40
25.4
  9
$DIMLFAC
 40
1.0
  9
$DIMTOFL
 70
     1
  9
$DIMTVP
 40
1.0
  9
$DIMTIX
 70
     0
  9
$DIMSOXD
 70
     0
  9
$DIMSAH
 70
     0
  9
$DIMBLK1
  1

  9
$DIMBLK2
  1
DOTSMALL
  9
$DIMSTYLE
  2
S1
  9
$DIMCLRD
 70
     0
  9
$DIMCLRE
 70
     0
  9
$DIMCLRT
 70
     4
  9
$DIMTFAC
 40
0.7
  9
$DIMGAP
 40
1.0
  9
$DIMJUST
 70
     0
  9
$DIMSD1
 70
     0
  9
$DIMSD2
 70
     0
  9
$DIMTOLJ
 70
     2
  9
$DIMTZIN
 70
     8
  9
$DIMALTZ
 70
     8
  9
$DIMALTTZ
 70
     8
  9
$DIMUPT
 70
     0
  9
$DIMDEC
 70
     2
  9
$DIMTDEC
 70
     2
  9
$DIMALTU
 70
     2
  9
$DIMALTTD
 70
     2
  9
$DIMTXSTY
  7
STANDARD
  9
$DIMAUNIT
 70
     0
  9
$DIMADEC
 70
     2
  9
$DIMALTRND
 40
0.0
  9
$DIMAZIN
 70
     2
  9
$DIMDSEP
 70
    46
  9
$DIMATFIT
 70
     3
  9
$DIMFRAC
 70
     0
  9
$DIMLDRBLK
  1

  9
$DIMLUNIT
 70
     2
  9
$DIMLWD
 70
    -2
  9
$DIMLWE
 70
    -2
  9
$DIMTMOVE
 70
     1
  9
$DIMFXL
 40
1.0
  9
$DIMFXLON
 70
     0
  9
$DIMJOGANG
 40
0.7853981633974483
  9
$DIMTFILL
 70
     0
  9
$DIMTFILLCLR
 70
     0
  9
$DIMARCSYM
 70
     0
  9
$DIMLTYPE
  6

  9
$DIMLTEX1
  6

  9
$DIMLTEX2
  6

  9
$DIMTXTDIRECTION
 70
     0
  9
$LUNITS
 70
     2
  9
$LUPREC
 70
     4
  9
$SKETCHINC
 40
0.1
  9
$FILLETRAD
 40
2.0
  9
$AUNITS
 70
     0
  9
$AUPREC
 70
     0
  9
$MENU
  1
acad
  9
$ELEVATION
 40
0.0
  9
$PELEVATION
 40
0.0
  9
$THICKNESS
 40
0.0
  9
$LIMCHECK
 70
     0
  9
$CHAMFERA
 40
10.0
  9
$CHAMFERB
 40
10.0
  9
$CHAMFERC
 40
20.0
  9
$CHAMFERD
 40
0.0
  9
$SKPOLY
 70
     0
  9
$TDCREATE
 40
2450912.645647222
  9
$TDUCREATE
 40
2450912.270647222
  9
$TDUPDATE
 40
2457926.781291238
  9
$TDUUPDATE
 40
2457926.406291239
  9
$TDINDWG
 40
6.7154493519
  9
$TDUSRTIMER
 40
6.7154493519
  9
$USRTIMER
 70
     1
  9
$ANGBASE
 50
0.0
  9
$ANGDIR
 70
     0
  9
$PDMODE
 70
     0
  9
$PDSIZE
 40
0.0
  9
$PLINEWID
 40
0.0
  9
$SPLFRAME
 70
     0
  9
$SPLINETYPE
 70
     6
  9
$SPLINESEGS
 70
     8
  9
$HANDSEED
  5
DCE3
  9
$SURFTAB1
 70
     6
  9
$SURFTAB2
 70
     6
  9
$SURFTYPE
 70
     6
  9
$SURFU
 70
     6
  9
$SURFV
 70
     6
  9
$UCSBASE
  2

  9
$UCSNAME
  2

  9
$UCSORG
 10
0.0
 20
0.0
 30
0.0
  9
$UCSXDIR
 10
1.0
 20
0.0
 30
0.0
  9
$UCSYDIR
 10
0.0
 20
1.0
 30
0.0
  9
$UCSORTHOREF
  2

  9
$UCSORTHOVIEW
 70
     0
  9
$UCSORGTOP
 10
0.0
 20
0.0
 30
0.0
  9
$UCSORGBOTTOM
 10
0.0
 20
0.0
 30
0.0
  9
$UCSORGLEFT
 10
0.0
 20
0.0
 30
0.0
  9
$UCSORGRIGHT
 10
0.0
 20
0.0
 30
0.0
  9
$UCSORGFRONT
 10
0.0
 20
0.0
 30
0.0
  9
$UCSORGBACK
 10
0.0
 20
0.0
 30
0.0
  9
$PUCSBASE
  2

  9
$PUCSNAME
  2

  9
$PUCSORG
 10
0.0
 20
0.0
 30
0.0
  9
$PUCSXDIR
 10
1.0
 20
0.0
 30
0.0
  9
$PUCSYDIR
 10
0.0
 20
1.0
 30
0.0
  9
$PUCSORTHOREF
  2

  9
$PUCSORTHOVIEW
 70
     0
  9
$PUCSORGTOP
 10
0.0
 20
0.0
 30
0.0
  9
$PUCSORGBOTTOM
 10
0.0
 20
0.0
 30
0.0
  9
$PUCSORGLEFT
 10
0.0
 20
0.0
 30
0.0
  9
$PUCSORGRIGHT
 10
0.0
 20
0.0
 30
0.0
  9
$PUCSORGFRONT
 10
0.0
 20
0.0
 30
0.0
  9
$PUCSORGBACK
 10
0.0
 20
0.0
 30
0.0
  9
$USERI1
 70
     0
  9
$USERI2
 70
     0
  9
$USERI3
 70
     0
  9
$USERI4
 70
     0
  9
$USERI5
 70
     0
  9
$USERR1
 40
0.0
  9
$USERR2
 40
0.0
  9
$USERR3
 40
0.0
  9
$USERR4
 40
0.0
  9
$USERR5
 40
0.0
  9
$WORLDVIEW
 70
     1
  9
$SHADEDGE
 70
     3
  9
$SHADEDIF
 70
    70
  9
$TILEMODE
 70
     1
  9
$MAXACTVP
 70
    16
  9
$PINSBASE
 10
0.0
 20
0.0
 30
0.0
  9
$PLIMCHECK
 70
     0
  9
$PEXTMIN
 10
1.000000000000000E+20
 20
1.000000000000000E+20
 30
1.000000000000000E+20
  9
$PEXTMAX
 10
-1.000000000000000E+20
 20
-1.000000000000000E+20
 30
-1.000000000000000E+20
  9
$PLIMMIN
 10
0.0
 20
0.0
  9
$PLIMMAX
 10
12.0
 20
9.0
  9
$UNITMODE
 70
     0
  9
$VISRETAIN
 70
     0
  9
$PLINEGEN
 70
     0
  9
$PSLTSCALE
 70
     1
  9
$TREEDEPTH
 70
  3020
  9
$CMLSTYLE
  2
STANDARD
  9
$CMLJUST
 70
     0
  9
$CMLSCALE
 40
20.0
  9
$PROXYGRAPHICS
 70
     1
  9
$MEASUREMENT
 70
     0
  9
$CELWEIGHT
370
    -1
  9
$ENDCAPS
280
     0
  9
$JOINSTYLE
280
     0
  9
$LWDISPLAY
290
     0
  9
$INSUNITS
 70
     0
  9
$HYPERLINKBASE
  1

  9
$STYLESHEET
  1
CanonLBP-830 light.ctb
  9
$XEDIT
290
     1
  9
$CEPSNTYPE
380
     0
  9
$PSTYLEMODE
290
     1
  9
$FINGERPRINTGUID
  2
{5E0348CB-91E9-11D7-A9B7-00074088341F}
  9
$VERSIONGUID
  2
{9EB9F6A5-63F7-4D78-B253-6D9D226BC3C4}
  9
$EXTNAMES
290
     1
  9
$PSVPSCALE
 40
0.0
  9
$OLESTARTUP
290
     0
  9
$SORTENTS
280
   127
  9
$INDEXCTL
280
     0
  9
$HIDETEXT
280
     0
  9
$XCLIPFRAME
280
     0
  9
$HALOGAP
280
     0
  9
$OBSCOLOR
 70
   257
  9
$OBSLTYPE
280
     0
  9
$INTERSECTIONDISPLAY
280
     0
  9
$INTERSECTIONCOLOR
 70
   257
  9
$DIMASSOC
280
     1
  9
$PROJECTNAME
  1

  9
$CAMERADISPLAY
290
     0
  9
$LENSLENGTH
 40
50.0
  9
$CAMERAHEIGHT
 40
0.0
  9
$STEPSPERSEC
 40
2.0
  9
$STEPSIZE
 40
6.0
  9
$3DDWFPREC
 40
2.0
  9
$PSOLWIDTH
 40
0.25
  9
$PSOLHEIGHT
 40
4.0
  9
$LOFTANG1
 40
1.570796326794896
  9
$LOFTANG2
 40
1.570796326794896
  9
$LOFTMAG1
 40
0.0
  9
$LOFTMAG2
 40
0.0
  9
$LOFTPARAM
 70
     7
  9
$LOFTNORMALS
280
     1
  9
$LATITUDE
 40
37.795
  9
$LONGITUDE
 40
-122.394
  9
$NORTHDIRECTION
 40
0.0
  9
$TIMEZONE
 70
 -8000
  9
$LIGHTGLYPHDISPLAY
280
     1
  9
$TILEMODELIGHTSYNCH
280
     1
  9
$CMATERIAL
347
C71
  9
$SOLIDHIST
280
     1
  9
$SHOWHIST
280
     1
  9
$DWFFRAME
280
     2
  9
$DGNFRAME
280
     0
  9
$REALWORLDSCALE
290
     1
  9
$INTERFERECOLOR
 62
     1
  9
$INTERFEREOBJVS
345
C7E
  9
$INTERFEREVPVS
346
651B
  9
$CSHADOW
280
     0
  9
$SHADOWPLANELOCATION
 40
0.0
  0
ENDSEC
  0
SECTION
  2
CLASSES
  0
CLASS
  1
ACDBDICTIONARYWDFLT
  2
AcDbDictionaryWithDefault
  3
ObjectDBX Classes
 90
        0
 91
        1
280
     0
281
     0
  0
CLASS
  1
DICTIONARYVAR
  2
AcDbDictionaryVar
  3
ObjectDBX Classes
 90
        0
 91
       13
280
     0
281
     0
  0
CLASS
  1
SORTENTSTABLE
  2
AcDbSortentsTable
  3
ObjectDBX Classes
 90
        0
 91
        1
280
     0
281
     0
  0
CLASS
  1
MATERIAL
  2
AcDbMaterial
  3
ObjectDBX Classes
 90
     1153
 91
        3
280
     0
281
     0
  0
CLASS
  1
VISUALSTYLE
  2
AcDbVisualStyle
  3
ObjectDBX Classes
 90
     4095
 91
       26
280
     0
281
     0
  0
CLASS
  1
TABLESTYLE
  2
AcDbTableStyle
  3
ObjectDBX Classes
 90
     4095
 91
        1
280
     0
281
     0
  0
CLASS
  1
ACAD_EVALUATION_GRAPH
  2
AcDbEvalGraph
  3
ObjectDBX Classes
 90
     1153
 91
        0
280
     0
281
     0
  0
CLASS
  1
ACAECUSTOBJ
  2
AcAeEditorObj
  3
AcAeEditorObj
 90
     1024
 91
        0
280
     0
281
     0
  0
CLASS
  1
ACDB_DYNAMICBLOCKPURGEPREVENTER_VERSION
  2
AcDbDynamicBlockPurgePreventer
  3
ObjectDBX Classes
 90
     1153
 91
        0
280
     0
281
     0
  0
CLASS
  1
SCALE
  2
AcDbScale
  3
ObjectDBX Classes
 90
     1153
 91
       17
280
     0
281
     0
  0
CLASS
  1
MLEADERSTYLE
  2
AcDbMLeaderStyle
  3
ACDB_MLEADERSTYLE_CLASS
 90
     4095
 91
        1
280
     0
281
     0
  0
CLASS
  1
ACDBSECTIONVIEWSTYLE
  2
AcDbSectionViewStyle
  3
ObjectDBX Classes
 90
     1025
 91
        1
280
     0
281
     0
  0
CLASS
  1
ACDBDETAILVIEWSTYLE
  2
AcDbDetailViewStyle
  3
ObjectDBX Classes
 90
     1025
 91
        1
280
     0
281
     0
  0
CLASS
  1
CELLSTYLEMAP
  2
AcDbCellStyleMap
  3
ObjectDBX Classes
 90
     1152
 91
        1
280
     0
281
     0
  0
ENDSEC
  0
SECTION
  2
TABLES
  0
TABLE
  2
VPORT
  5
1D
102
{ACAD_XDICTIONARY
360
E64
102
}
330
0
100
AcDbSymbolTable
 70
     1
  0
VPORT
  5
C33
330
1D
100
AcDbSymbolTableRecord
100
AcDbViewportTableRecord
  2
*Active
 70
     0
 10
0.0
 20
0.0
 11
1.0
 21
1.0
 12
198.923035138182
 22
137.5047588665696
 13
0.0
 23
0.0
 14
1.399999999999999
 24
1.399999999999999
 15
1.0
 25
1.0
 16
0.0
 26
0.0
 36
1.0
 17
0.0
 27
0.0
 37
0.0
 40
276.9943743410347
 41
2.123873873873873
 42
50.0
 43
0.0
 44
0.0
 50
0.0
 51
0.0
 71
     0
 72
   100
 73
     1
 74
     0
 75
     0
 76
     0
 77
     0
 78
     2
281
     0
 65
     1
110
0.0
120
0.0
130
0.0
111
1.0
121
0.0
131
0.0
112
0.0
122
1.0
132
0.0
 79
     0
146
0.0
348
C7A
 60
     3
 61
     5
292
     1
282
     1
141
0.0
142
0.0
 63
   250
421
  3355443
1001
ACAD_NAV_VCDISPLAY
1070
     3
  0
ENDTAB
  0
TABLE
  2
LTYPE
  5
18
330
0
100
AcDbSymbolTable
 70
     4
  0
LTYPE
  5
19
330
18
100
AcDbSymbolTableRecord
100
AcDbLinetypeTableRecord
  2
BYBLOCK
 70
     0
  3

 72
    65
 73
     0
 40
0.0
  0
LTYPE
  5
1A
330
18
100
AcDbSymbolTableRecord
100
AcDbLinetypeTableRecord
  2
BYLAYER
 70
     0
  3

 72
    65
 73
     0
 40
0.0
  0
LTYPE
  5
A
330
18
100
AcDbSymbolTableRecord
100
AcDbLinetypeTableRecord
  2
CONTINUOUS
 70
     0
  3
Solid line
 72
    65
 73
     0
 40
0.0
  0
LTYPE
  5
E14
330
18
100
AcDbSymbolTableRecord
100
AcDbLinetypeTableRecord
  2
CENTER
 70
     0
  3
____ _ ____ _ ____ _ ____ _ ____ _ ____ _ ____ 
 72
    65
 73
     4
 40
2.0
 49
1.25
 74
     0
 49
-0.25
 74
     0
 49
0.25
 74
     0
 49
-0.25
 74
     0
  0
LTYPE
  5
14DF
330
18
100
AcDbSymbolTableRecord
100
AcDbLinetypeTableRecord
  2
HIDDEN
 70
     0
  3
Hidden __ __ __ __ __ __ __ __ __ __ __ __ __ __
 72
    65
 73
     2
 40
0.375
 49
0.25
 74
     0
 49
-0.125
 74
     0
  0
LTYPE
  5
653A
330
18
100
AcDbSymbolTableRecord
100
AcDbLinetypeTableRecord
  2
PHANTOM2
 70
     0
  3
___ _ _ ___ _ _ ___ _ _ ___ _ _
 72
    65
 73
     6
 40
1.25
 49
0.625
 74
     0
 49
-0.125
 74
     0
 49
0.125
 74
     0
 49
-0.125
 74
     0
 49
0.125
 74
     0
 49
-0.125
 74
     0
  0
ENDTAB
  0
TABLE
  2
LAYER
  5
14
102
{ACAD_XDICTIONARY
360
115
102
}
330
0
100
AcDbSymbolTable
 70
     6
  0
LAYER
  5
6
102
{ACAD_XDICTIONARY
360
6544
102
}
330
14
100
AcDbSymbolTableRecord
100
AcDbLayerTableRecord
  2
0
 70
     0
 62
     7
  6
CONTINUOUS
370
    -3
390
7
347
C73
348
0
  0
LAYER
  5
26
102
{ACAD_XDICTIONARY
360
6546
102
}
330
14
100
AcDbSymbolTableRecord
100
AcDbLayerTableRecord
  2
ADM
 70
     0
 62
     4
  6
CONTINUOUS
370
    -3
390
7
347
C73
348
0
  0
LAYER
  5
111
102
{ACAD_XDICTIONARY
360
654E
102
}
330
14
100
AcDbSymbolTableRecord
100
AcDbLayerTableRecord
  2
WAKU
 70
     0
 62
     7
  6
CONTINUOUS
370
    -3
390
7
347
C73
348
0
  0
LAYER
  5
399
330
14
100
AcDbSymbolTableRecord
100
AcDbLayerTableRecord
  2
DEFPOINTS
 70
     0
 62
     6
  6
CONTINUOUS
290
     0
370
    -3
390
7
347
C73
348
0
  0
LAYER
  5
E15
102
{ACAD_XDICTIONARY
360
6554
102
}
330
14
100
AcDbSymbolTableRecord
100
AcDbLayerTableRecord
  2
ACL
 70
     0
 62
     1
  6
CENTER
370
    -3
390
7
347
C73
348
0
  0
LAYER
  5
14E0
102
{ACAD_XDICTIONARY
360
655E
102
}
330
14
100
AcDbSymbolTableRecord
100
AcDbLayerTableRecord
  2
ALH
 70
     0
 62
     9
  6
HIDDEN
370
    -3
390
7
347
C73
348
0
  0
ENDTAB
  0
TABLE
  2
STYLE
  5
15
330
0
100
AcDbSymbolTable
 70
     3
  0
STYLE
  5
16
330
15
100
AcDbSymbolTableRecord
100
AcDbTextStyleTableRecord
  2
STANDARD
 70
     0
 40
0.0
 41
0.8
 50
0.0
 71
     0
 42
5.0
  3
romans.shx
  4
extfont.shx
  0
STYLE
  5
2B8B
330
15
100
AcDbSymbolTableRecord
100
AcDbTextStyleTableRecord
  2
STYLE1
 70
     4
 40
0.0
 41
0.8
 50
0.0
 71
     0
 42
4.0
  3
romans.shx
  4
extfont.shx
  0
ENDTAB
  0
TABLE
  2
VIEW
  5
1B
330
0
100
AcDbSymbolTable
 70
     0
  0
ENDTAB
  0
TABLE
  2
UCS
  5
1C
330
0
100
AcDbSymbolTable
 70
     0
  0
ENDTAB
  0
TABLE
  2
APPID
  5
1F
330
0
100
AcDbSymbolTable
 70
    26
  0
APPID
  5
20
330
1F
100
AcDbSymbolTableRecord
100
AcDbRegAppTableRecord
  2
ACAD
 70
     0
  0
APPID
  5
606
330
1F
100
AcDbSymbolTableRecord
100
AcDbRegAppTableRecord
  2
ASKOBJSC
 70
     0
  0
APPID
  5
607
330
1F
100
AcDbSymbolTableRecord
100
AcDbRegAppTableRecord
  2
ASKDWGSC
 70
     0
  0
APPID
  5
C67
330
1F
100
AcDbSymbolTableRecord
100
AcDbRegAppTableRecord
  2
CONTENTBLOCKICON
 70
     0
  0
APPID
  5
D1F
330
1F
100
AcDbSymbolTableRecord
100
AcDbRegAppTableRecord
  2
ACAD_EXEMPT_FROM_CAD_STANDARDS
 70
     0
  0
APPID
  5
1107
330
1F
100
AcDbSymbolTableRecord
100
AcDbRegAppTableRecord
  2
ACAUTHENVIRON
 70
     0
  0
APPID
  5
110B
330
1F
100
AcDbSymbolTableRecord
100
AcDbRegAppTableRecord
  2
AcDbDynamicBlockTrueName
 70
     0
  0
APPID
  5
110C
330
1F
100
AcDbSymbolTableRecord
100
AcDbRegAppTableRecord
  2
AcDbDynamicBlockGUID
 70
     0
  0
APPID
  5
110E
330
1F
100
AcDbSymbolTableRecord
100
AcDbRegAppTableRecord
  2
AcDbBlockRepETag
 70
     0
  0
APPID
  5
1A81
330
1F
100
AcDbSymbolTableRecord
100
AcDbRegAppTableRecord
  2
GENIUS_GENODEF_13
 70
     0
  0
APPID
  5
1A82
330
1F
100
AcDbSymbolTableRecord
100
AcDbRegAppTableRecord
  2
GENIUS_GENOBJ-N-CEN_13
 70
     0
  0
APPID
  5
1A83
330
1F
100
AcDbSymbolTableRecord
100
AcDbRegAppTableRecord
  2
GENIUS_GENOBJ-N-FIL_13
 70
     0
  0
APPID
  5
1A84
330
1F
100
AcDbSymbolTableRecord
100
AcDbRegAppTableRecord
  2
GENIUS_GENCEN_19
 70
     0
  0
APPID
  5
2048
330
1F
100
AcDbSymbolTableRecord
100
AcDbRegAppTableRecord
  2
GENIUS_GENFIL_13
 70
     0
  0
APPID
  5
2049
330
1F
100
AcDbSymbolTableRecord
100
AcDbRegAppTableRecord
  2
GENIUS_GENOBJ-N-CHA_13
 70
     0
  0
APPID
  5
20E9
330
1F
100
AcDbSymbolTableRecord
100
AcDbRegAppTableRecord
  2
GENIUS_GENREC_14
 70
     0
  0
APPID
  5
20EA
330
1F
100
AcDbSymbolTableRecord
100
AcDbRegAppTableRecord
  2
GENIUS_GENOBJ-N-REC_13
 70
     0
  0
APPID
  5
20EB
330
1F
100
AcDbSymbolTableRecord
100
AcDbRegAppTableRecord
  2
GENIUS_GENOBJ-N-HTC_13
 70
     0
  0
APPID
  5
20EC
330
1F
100
AcDbSymbolTableRecord
100
AcDbRegAppTableRecord
  2
GENIUS_GENHATCH_13
 70
     0
  0
APPID
  5
2B8C
330
1F
100
AcDbSymbolTableRecord
100
AcDbRegAppTableRecord
  2
ACAD_PSEXT
 70
     0
  0
APPID
  5
4879
330
1F
100
AcDbSymbolTableRecord
100
AcDbRegAppTableRecord
  2
ACAD_DSTYLE_DIMJOGGED_JOGANGLE_SYMBOL
 70
     0
  0
APPID
  5
6566
330
1F
100
AcDbSymbolTableRecord
100
AcDbRegAppTableRecord
  2
ACAD_NAV_VCDISPLAY
 70
     0
  0
APPID
  5
693C
330
1F
100
AcDbSymbolTableRecord
100
AcDbRegAppTableRecord
  2
GradientColor1ACI
 70
     0
  0
APPID
  5
693D
330
1F
100
AcDbSymbolTableRecord
100
AcDbRegAppTableRecord
  2
GradientColor2ACI
 70
     0
  0
APPID
  5
6CA2
330
1F
100
AcDbSymbolTableRecord
100
AcDbRegAppTableRecord
  2
AcadAnnoMonitorAlertIconDisabled
 70
     0
  0
APPID
  5
D614
330
1F
100
AcDbSymbolTableRecord
100
AcDbRegAppTableRecord
  2
ACAD_DSTYLE_DIMRADIAL_EXTENSION
 70
     0
  0
ENDTAB
  0
TABLE
  2
DIMSTYLE
  5
21
330
0
100
AcDbSymbolTable
 70
     3
100
AcDbDimStyleTable
 71
     1
340
104D
  0
DIMSTYLE
105
104D
330
21
100
AcDbSymbolTableRecord
100
AcDbDimStyleTableRecord
  2
S1
 70
     0
 41
2.0
 42
1.0
 43
0.0
 44
0.0
 73
     0
 74
     0
 77
     3
 78
     8
 79
     2
140
3.0
141
0.0
145
1.0
146
0.7
147
1.0
172
     1
178
     4
179
     2
271
     2
272
     2
279
     1
283
     2
284
     8
285
     8
286
     8
340
16
344
10B
  0
DIMSTYLE
105
104E
102
{ACAD_REACTORS
330
A151
330
A152
330
A153
330
A154
330
A155
330
A0FF
330
A0F3
330
A0F4
330
A0F5
330
A0F6
330
A0F7
330
A0F8
330
A0F9
330
A0FA
330
A0FB
330
A145
330
A146
330
A147
330
A148
330
A149
330
A14A
330
A14B
330
A14C
330
A14D
330
A14E
330
A14F
330
A150
102
}
330
21
100
AcDbSymbolTableRecord
100
AcDbDimStyleTableRecord
  2
S1$0
 70
     0
 41
0.8
 42
1.0
 43
0.0
 44
0.0
 73
     0
 74
     0
 77
     3
 78
     8
 79
     2
140
3.0
141
0.0
145
1.0
146
0.7
147
1.0
172
     1
178
     4
179
     2
271
     2
272
     2
279
     1
283
     2
284
     8
285
     8
286
     8
340
16
341
DBC
342
DBC
  0
ENDTAB
  0
TABLE
  2
BLOCK_RECORD
  5
1
330
0
100
AcDbSymbolTable
 70
    30
  0
BLOCK_RECORD
  5
2
102
{ACAD_XDICTIONARY
360
3
102
}
330
1
100
AcDbSymbolTableRecord
100
AcDbBlockTableRecord
  2
*MODEL_SPACE
340
C
 70
     0
280
     1
281
     0
  0
BLOCK_RECORD
  5
E
102
{ACAD_XDICTIONARY
360
F
102
}
330
1
100
AcDbSymbolTableRecord
100
AcDbBlockTableRecord
  2
*PAPER_SPACE
340
13
 70
     0
280
     1
281
     0
  0
BLOCK_RECORD
  5
10B
330
1
100
AcDbSymbolTableRecord
100
AcDbBlockTableRecord
  2
_DOTSMALL
340
0
 70
     0
280
     1
281
     0
  0
BLOCK_RECORD
  5
DBC
330
1
100
AcDbSymbolTableRecord
100
AcDbBlockTableRecord
  2
_Dot
340
0
310
2800000020000000200000000100080000000000000400000000000000000000000000000000000000000000000080000080000000808000800000008000800080800000C0C0C000C0DCC000F0CAA6000020400000206000002080000020A0000020C0000020E00000400000004020000040400000406000004080000040A0
310
000040C0000040E00000600000006020000060400000606000006080000060A0000060C0000060E00000800000008020000080400000806000008080000080A0000080C0000080E00000A0000000A0200000A0400000A0600000A0800000A0A00000A0C00000A0E00000C0000000C0200000C0400000C0600000C0800000C0
310
A00000C0C00000C0E00000E0000000E0200000E0400000E0600000E0800000E0A00000E0C00000E0E00040000000400020004000400040006000400080004000A0004000C0004000E00040200000402020004020400040206000402080004020A0004020C0004020E000404000004040200040404000404060004040800040
310
40A0004040C0004040E00040600000406020004060400040606000406080004060A0004060C0004060E00040800000408020004080400040806000408080004080A0004080C0004080E00040A0000040A0200040A0400040A0600040A0800040A0A00040A0C00040A0E00040C0000040C0200040C0400040C0600040C08000
310
40C0A00040C0C00040C0E00040E0000040E0200040E0400040E0600040E0800040E0A00040E0C00040E0E00080000000800020008000400080006000800080008000A0008000C0008000E00080200000802020008020400080206000802080008020A0008020C0008020E00080400000804020008040400080406000804080
310
008040A0008040C0008040E00080600000806020008060400080606000806080008060A0008060C0008060E00080800000808020008080400080806000808080008080A0008080C0008080E00080A0000080A0200080A0400080A0600080A0800080A0A00080A0C00080A0E00080C0000080C0200080C0400080C0600080C0
310
800080C0A00080C0C00080C0E00080E0000080E0200080E0400080E0600080E0800080E0A00080E0C00080E0E000C0000000C0002000C0004000C0006000C0008000C000A000C000C000C000E000C0200000C0202000C0204000C0206000C0208000C020A000C020C000C020E000C0400000C0402000C0404000C0406000C0
310
408000C040A000C040C000C040E000C0600000C0602000C0604000C0606000C0608000C060A000C060C000C060E000C0800000C0802000C0804000C0806000C0808000C080A000C080C000C080E000C0A00000C0A02000C0A04000C0A06000C0A08000C0A0A000C0A0C000C0A0E000C0C00000C0C02000C0C04000C0C06000
310
C0C08000C0C0A000F0FBFF00A4A0A000808080000000FF0000FF000000FFFF00FF000000FF00FF00FFFF0000FFFFFF0000000000000000000000000000000000000000000000000000000000000000000000000000000000000000000000000000000000000000000000000000000000000000000000000000000000000000
310
000000000000000000000000000000000000000000000000000000000000000000000000000000000000000000000000000000000000000000000000000000000000000000000000000000000000000000000000000000000000000000000000000000FFFFFFFFFFFFFFFFFFFFFFFFFF000000000000000000000000000000
310
000000FF00FF000000000000000000FF00FF0000000000000000000000000000000000FF00FF000000000000000000FF00FF00000000000000000000000000000000FF000000FF00000000000000FF00000000000000000000000000000000000000FF000000FF00000000000000FF00000000000000000000000000000000
310
0000FF0000000000FF0000000000FF00000000000000000000000000000000000000FF0000000000FF0000000000FF000000000000000000000000000000000000FF00000000000000FF000000FF00000000000000000000000000000000000000FF00000000000000FF000000FF0000000000000000000000000000000000
310
00FF000000000000000000FF00FF00000000000000000000000000000000000000FF000000000000000000FFFFFF00000000FFFF00FFFFFFFFFFFFFFFFFFFFFFFFFFFFFFFFFFFFFFFFFFFFFFFFFFFFFFFFFF000000000000000000000000000000FF000000000000000000FF00FF0000000000000000000000000000000000
310
0000FF0000000000000000FF000000FF00000000000000000000000000000000000000FF00000000000000FF000000FF00000000000000000000000000000000000000FF000000000000FF0000000000FF00000000000000000000000000000000000000FF0000000000FF0000000000FF0000000000000000000000000000
310
000000000000FF000000FF00000000000000FF00000000000000000000000000000000000000FF000000FF00000000000000FF0000000000000000000000000000000000000000FF00FF000000000000000000FF00FF0000000000000000000000000000000000FF00FF000000000000000000FF00FF000000000000000000
310
000000000000000000FFFFFFFFFFFFFFFFFFFFFFFFFF000000000000000000000000000000000000000000000000000000000000000000000000000000000000000000000000000000000000000000000000000000000000000000000000000000000000000000000000000000000000000000000000000000000000000000
310
0000000000000000000000000000000000000000000000000000000000000000000000000000000000000000000000000000000000000000
102
{BLKREFS
331
D81C
331
D81D
331
D825
331
D826
331
D82E
331
D82F
331
D837
331
D838
331
D840
331
D841
331
D849
331
D84A
331
D852
331
D853
331
D85B
331
D85C
331
D864
331
D865
331
D86D
331
D86E
331
D876
331
D877
331
D87F
331
D880
331
D888
331
D889
331
D891
331
D892
331
D89A
331
D89B
331
D8A3
331
D8A4
331
D8AC
331
D8AD
331
D8B5
331
D8B6
331
D8BE
331
D8BF
331
D8C7
331
D8C8
331
D8D0
331
D8D1
331
D8D9
331
D8DA
331
D8E2
331
D8E3
331
D8EB
331
D8EC
331
D8F4
331
D8F5
331
D902
331
D903
331
D90F
331
D910
102
}
 70
     0
280
     1
281
     0
  0
BLOCK_RECORD
  5
A156
330
1
100
AcDbSymbolTableRecord
100
AcDbBlockTableRecord
  2
*D2
340
0
 70
     0
280
     1
281
     0
  0
BLOCK_RECORD
  5
A162
330
1
100
AcDbSymbolTableRecord
100
AcDbBlockTableRecord
  2
*D3
340
0
 70
     0
280
     1
281
     0
  0
BLOCK_RECORD
  5
A16E
330
1
100
AcDbSymbolTableRecord
100
AcDbBlockTableRecord
  2
*D4
340
0
 70
     0
280
     1
281
     0
  0
BLOCK_RECORD
  5
A17A
330
1
100
AcDbSymbolTableRecord
100
AcDbBlockTableRecord
  2
*D5
340
0
 70
     0
280
     1
281
     0
  0
BLOCK_RECORD
  5
A18A
330
1
100
AcDbSymbolTableRecord
100
AcDbBlockTableRecord
  2
*D6
340
0
 70
     0
280
     1
281
     0
  0
BLOCK_RECORD
  5
A19A
330
1
100
AcDbSymbolTableRecord
100
AcDbBlockTableRecord
  2
*D7
340
0
 70
     0
280
     1
281
     0
  0
BLOCK_RECORD
  5
A1A6
330
1
100
AcDbSymbolTableRecord
100
AcDbBlockTableRecord
  2
*D8
340
0
 70
     0
280
     1
281
     0
  0
BLOCK_RECORD
  5
A1B2
330
1
100
AcDbSymbolTableRecord
100
AcDbBlockTableRecord
  2
*D9
340
0
 70
     0
280
     1
281
     0
  0
BLOCK_RECORD
  5
A1BE
330
1
100
AcDbSymbolTableRecord
100
AcDbBlockTableRecord
  2
*D10
340
0
 70
     0
280
     1
281
     0
  0
BLOCK_RECORD
  5
A1CA
330
1
100
AcDbSymbolTableRecord
100
AcDbBlockTableRecord
  2
*D11
340
0
 70
     0
280
     1
281
     0
  0
BLOCK_RECORD
  5
A1D6
330
1
100
AcDbSymbolTableRecord
100
AcDbBlockTableRecord
  2
*D12
340
0
 70
     0
280
     1
281
     0
  0
BLOCK_RECORD
  5
A1E2
330
1
100
AcDbSymbolTableRecord
100
AcDbBlockTableRecord
  2
*D13
340
0
 70
     0
280
     1
281
     0
  0
BLOCK_RECORD
  5
A1EE
330
1
100
AcDbSymbolTableRecord
100
AcDbBlockTableRecord
  2
*D14
340
0
 70
     0
280
     1
281
     0
  0
BLOCK_RECORD
  5
A1FA
330
1
100
AcDbSymbolTableRecord
100
AcDbBlockTableRecord
  2
*D15
340
0
 70
     0
280
     1
281
     0
  0
BLOCK_RECORD
  5
A206
330
1
100
AcDbSymbolTableRecord
100
AcDbBlockTableRecord
  2
*D16
340
0
 70
     0
280
     1
281
     0
  0
BLOCK_RECORD
  5
A212
330
1
100
AcDbSymbolTableRecord
100
AcDbBlockTableRecord
  2
*D17
340
0
 70
     0
280
     1
281
     0
  0
BLOCK_RECORD
  5
A21E
330
1
100
AcDbSymbolTableRecord
100
AcDbBlockTableRecord
  2
*D18
340
0
 70
     0
280
     1
281
     0
  0
BLOCK_RECORD
  5
A22A
330
1
100
AcDbSymbolTableRecord
100
AcDbBlockTableRecord
  2
*D19
340
0
 70
     0
280
     1
281
     0
  0
BLOCK_RECORD
  5
A236
330
1
100
AcDbSymbolTableRecord
100
AcDbBlockTableRecord
  2
*D20
340
0
 70
     0
280
     1
281
     0
  0
BLOCK_RECORD
  5
A242
330
1
100
AcDbSymbolTableRecord
100
AcDbBlockTableRecord
  2
*D21
340
0
 70
     0
280
     1
281
     0
  0
BLOCK_RECORD
  5
A24E
330
1
100
AcDbSymbolTableRecord
100
AcDbBlockTableRecord
  2
*D22
340
0
 70
     0
280
     1
281
     0
  0
BLOCK_RECORD
  5
A25A
330
1
100
AcDbSymbolTableRecord
100
AcDbBlockTableRecord
  2
*D23
340
0
 70
     0
280
     1
281
     0
  0
BLOCK_RECORD
  5
A266
330
1
100
AcDbSymbolTableRecord
100
AcDbBlockTableRecord
  2
*D24
340
0
 70
     0
280
     1
281
     0
  0
BLOCK_RECORD
  5
A272
330
1
100
AcDbSymbolTableRecord
100
AcDbBlockTableRecord
  2
*D25
340
0
 70
     0
280
     1
281
     0
  0
BLOCK_RECORD
  5
A27E
330
1
100
AcDbSymbolTableRecord
100
AcDbBlockTableRecord
  2
*D26
340
0
 70
     0
280
     1
281
     0
  0
BLOCK_RECORD
  5
A28A
330
1
100
AcDbSymbolTableRecord
100
AcDbBlockTableRecord
  2
*D27
340
0
 70
     0
280
     1
281
     0
  0
BLOCK_RECORD
  5
A296
330
1
100
AcDbSymbolTableRecord
100
AcDbBlockTableRecord
  2
*D28
340
0
 70
     0
280
     1
281
     0
  0
ENDTAB
  0
ENDSEC
  0
SECTION
  2
BLOCKS
  0
BLOCK
  5
5
330
2
100
AcDbEntity
  8
0
100
AcDbBlockBegin
  2
*MODEL_SPACE
 70
     0
 10
0.0
 20
0.0
 30
0.0
  3
*MODEL_SPACE
  1

  0
ENDBLK
  5
B
330
2
100
AcDbEntity
  8
0
100
AcDbBlockEnd
  0
BLOCK
  5
11
330
E
100
AcDbEntity
 67
     1
  8
0
100
AcDbBlockBegin
  2
*PAPER_SPACE
 70
     0
 10
0.0
 20
0.0
 30
0.0
  3
*PAPER_SPACE
  1

  0
ENDBLK
  5
12
330
E
100
AcDbEntity
 67
     1
  8
0
100
AcDbBlockEnd
  0
BLOCK
  5
10C
330
10B
100
AcDbEntity
  8
0
100
AcDbBlockBegin
  2
_DOTSMALL
 70
     0
 10
0.0
 20
0.0
 30
0.0
  3
_DOTSMALL
  1

  0
LWPOLYLINE
  5
10D
330
10B
100
AcDbEntity
  8
0
  6
ByBlock
 62
     0
100
AcDbPolyline
 90
        2
 70
     1
 43
0.5
 10
-0.0625
 20
0.0
 42
1.0
 10
0.0625
 20
0.0
 42
1.0
  0
ENDBLK
  5
10E
330
10B
100
AcDbEntity
  8
0
100
AcDbBlockEnd
  0
BLOCK
  5
DBD
330
DBC
100
AcDbEntity
  8
0
100
AcDbBlockBegin
  2
_Dot
 70
     0
 10
0.0
 20
0.0
 30
0.0
  3
_Dot
  1

  0
LWPOLYLINE
  5
DBE
330
DBC
100
AcDbEntity
  8
0
  6
ByBlock
 62
     0
100
AcDbPolyline
 90
        2
 70
     1
 43
0.5
 10
-0.25
 20
0.0
 42
1.0
 10
0.25
 20
0.0
 42
1.0
  0
LINE
  5
DBF
330
DBC
100
AcDbEntity
  8
0
  6
ByBlock
 62
     0
370
    -2
100
AcDbLine
 10
-0.5
 20
0.0
 30
0.0
 11
-1.0
 21
0.0
 31
0.0
  0
ENDBLK
  5
DC0
330
DBC
100
AcDbEntity
  8
0
100
AcDbBlockEnd
  0
BLOCK
  5
A157
330
A156
100
AcDbEntity
  8
0
100
AcDbBlockBegin
  2
*D2
 70
     1
 10
0.0
 20
0.0
 30
0.0
  3
*D2
  1

  0
LINE
  5
D8DF
330
A156
100
AcDbEntity
  8
ADM
 62
     0
440
 16777216
370
    -2
100
AcDbLine
 10
140.3437397443717
 20
96.30331918690231
 30
0.0
 11
125.2515178781282
 21
96.30331918690231
 31
0.0
  0
LINE
  5
D8E0
330
A156
100
AcDbEntity
  8
ADM
 62
     0
440
 16777216
370
    -2
100
AcDbLine
 10
140.343739744374
 20
146.3033191869023
 30
0.0
 11
125.2515178781282
 21
146.3033191869023
 31
0.0
  0
LINE
  5
D8E1
330
A156
100
AcDbEntity
  8
ADM
 62
     0
440
 16777216
370
    -2
100
AcDbLine
 10
125.2515178781282
 20
97.10331918690231
 30
0.0
 11
125.2515178781282
 21
145.5033191869022
 31
0.0
  0
INSERT
  5
D8E2
330
A156
100
AcDbEntity
  8
ADM
 62
     0
440
 16777216
370
    -2
100
AcDbBlockReference
  2
_Dot
 10
125.2515178781282
 20
96.30331918690231
 30
0.0
 41
0.8
 42
0.8
 43
0.8
 50
270.0
  0
INSERT
  5
D8E3
330
A156
100
AcDbEntity
  8
ADM
 62
     0
440
 16777216
370
    -2
100
AcDbBlockReference
  2
_Dot
 10
125.2515178781282
 20
146.3033191869023
 30
0.0
 41
0.8
 42
0.8
 43
0.8
 50
90.0
  0
MTEXT
  5
D8E4
330
A156
100
AcDbEntity
  8
ADM
 62
     4
440
 16777216
100
AcDbMText
 10
122.7515178781282
 20
121.3033191869023
 30
0.0
 40
3.0
 41
0.0
 46
0.0
 71
     5
 72
     1
  1
\A2;50
 11
0.0000000000000001
 21
1.0
 31
0.0
 73
     1
 44
1.0
  0
POINT
  5
D8E5
330
A156
100
AcDbEntity
  8
DEFPOINTS
 62
     0
440
 16777216
100
AcDbPoint
 10
141.3437397443717
 20
96.30331918690231
 30
0.0
  0
POINT
  5
D8E6
330
A156
100
AcDbEntity
  8
DEFPOINTS
 62
     0
440
 16777216
100
AcDbPoint
 10
141.343739744374
 20
146.3033191869023
 30
0.0
  0
POINT
  5
D8E7
330
A156
100
AcDbEntity
  8
DEFPOINTS
 62
     0
440
 16777216
100
AcDbPoint
 10
125.2515178781282
 20
146.3033191869023
 30
0.0
  0
ENDBLK
  5
A158
330
A156
100
AcDbEntity
  8
0
100
AcDbBlockEnd
  0
BLOCK
  5
A163
330
A162
100
AcDbEntity
  8
0
100
AcDbBlockBegin
  2
*D3
 70
     1
 10
0.0
 20
0.0
 30
0.0
  3
*D3
  1

  0
LINE
  5
D8E8
330
A162
100
AcDbEntity
  8
ADM
 62
     0
440
 16777216
370
    -2
100
AcDbLine
 10
140.3437397443724
 20
143.3033191869018
 30
0.0
 11
140.3437397443724
 21
171.2078068931375
 31
0.0
  0
LINE
  5
D8E9
330
A162
100
AcDbEntity
  8
ADM
 62
     0
440
 16777216
370
    -2
100
AcDbLine
 10
177.3437397443722
 20
146.8033191869024
 30
0.0
 11
177.3437397443722
 21
171.2078068931375
 31
0.0
  0
LINE
  5
D8EA
330
A162
100
AcDbEntity
  8
ADM
 62
     0
440
 16777216
370
    -2
100
AcDbLine
 10
141.1437397443724
 20
171.2078068931375
 30
0.0
 11
176.5437397443722
 21
171.2078068931375
 31
0.0
  0
INSERT
  5
D8EB
330
A162
100
AcDbEntity
  8
ADM
 62
     0
440
 16777216
370
    -2
100
AcDbBlockReference
  2
_Dot
 10
140.3437397443724
 20
171.2078068931375
 30
0.0
 41
0.8
 42
0.8
 43
0.8
 50
180.0
  0
INSERT
  5
D8EC
330
A162
100
AcDbEntity
  8
ADM
 62
     0
440
 16777216
370
    -2
100
AcDbBlockReference
  2
_Dot
 10
177.3437397443722
 20
171.2078068931375
 30
0.0
 41
0.8
 42
0.8
 43
0.8
  0
MTEXT
  5
D8ED
330
A162
100
AcDbEntity
  8
ADM
 62
     4
440
 16777216
100
AcDbMText
 10
158.8437397443723
 20
173.7078068931375
 30
0.0
 40
3.0
 41
0.0
 46
0.0
 71
     5
 72
     1
  1
\A2;37
 73
     1
 44
1.0
  0
POINT
  5
D8EE
330
A162
100
AcDbEntity
  8
DEFPOINTS
 62
     0
440
 16777216
100
AcDbPoint
 10
140.3437397443724
 20
142.3033191869018
 30
0.0
  0
POINT
  5
D8EF
330
A162
100
AcDbEntity
  8
DEFPOINTS
 62
     0
440
 16777216
100
AcDbPoint
 10
177.3437397443722
 20
145.8033191869024
 30
0.0
  0
POINT
  5
D8F0
330
A162
100
AcDbEntity
  8
DEFPOINTS
 62
     0
440
 16777216
100
AcDbPoint
 10
177.3437397443722
 20
171.2078068931375
 30
0.0
  0
ENDBLK
  5
A164
330
A162
100
AcDbEntity
  8
0
100
AcDbBlockEnd
  0
BLOCK
  5
A16F
330
A16E
100
AcDbEntity
  8
0
100
AcDbBlockBegin
  2
*D4
 70
     1
 10
0.0
 20
0.0
 30
0.0
  3
*D4
  1

  0
LINE
  5
D8F1
330
A16E
100
AcDbEntity
  8
ADM
 62
     0
440
 16777216
370
    -2
100
AcDbLine
 10
333.34373974438
 20
146.8033191869024
 30
0.0
 11
333.34373974438
 21
171.2078068931375
 31
0.0
  0
LINE
  5
D8F2
330
A16E
100
AcDbEntity
  8
ADM
 62
     0
440
 16777216
370
    -2
100
AcDbLine
 10
370.3437397443802
 20
143.3033191869018
 30
0.0
 11
370.3437397443802
 21
171.2078068931375
 31
0.0
  0
LINE
  5
D8F3
330
A16E
100
AcDbEntity
  8
ADM
 62
     0
440
 16777216
370
    -2
100
AcDbLine
 10
334.14373974438
 20
171.2078068931375
 30
0.0
 11
369.5437397443801
 21
171.2078068931375
 31
0.0
  0
INSERT
  5
D8F4
330
A16E
100
AcDbEntity
  8
ADM
 62
     0
440
 16777216
370
    -2
100
AcDbBlockReference
  2
_Dot
 10
333.34373974438
 20
171.2078068931375
 30
0.0
 41
0.8
 42
0.8
 43
0.8
 50
180.0
  0
INSERT
  5
D8F5
330
A16E
100
AcDbEntity
  8
ADM
 62
     0
440
 16777216
370
    -2
100
AcDbBlockReference
  2
_Dot
 10
370.3437397443802
 20
171.2078068931375
 30
0.0
 41
0.8
 42
0.8
 43
0.8
  0
MTEXT
  5
D8F6
330
A16E
100
AcDbEntity
  8
ADM
 62
     4
440
 16777216
100
AcDbMText
 10
351.8437397443801
 20
173.7078068931375
 30
0.0
 40
3.0
 41
0.0
 46
0.0
 71
     5
 72
     1
  1
\A2;37
 73
     1
 44
1.0
  0
POINT
  5
D8F7
330
A16E
100
AcDbEntity
  8
DEFPOINTS
 62
     0
440
 16777216
100
AcDbPoint
 10
333.34373974438
 20
145.8033191869024
 30
0.0
  0
POINT
  5
D8F8
330
A16E
100
AcDbEntity
  8
DEFPOINTS
 62
     0
440
 16777216
100
AcDbPoint
 10
370.3437397443802
 20
142.3033191869018
 30
0.0
  0
POINT
  5
D8F9
330
A16E
100
AcDbEntity
  8
DEFPOINTS
 62
     0
440
 16777216
100
AcDbPoint
 10
370.3437397443802
 20
171.2078068931375
 30
0.0
  0
ENDBLK
  5
A170
330
A16E
100
AcDbEntity
  8
0
100
AcDbBlockEnd
  0
BLOCK
  5
A17B
330
A17A
100
AcDbEntity
  8
0
100
AcDbBlockBegin
  2
*D5
 70
     1
 10
0.0
 20
0.0
 30
0.0
  3
*D5
  1

  0
LINE
  5
D8FA
330
A17A
100
AcDbEntity
  8
ADM
 62
     0
440
 16777216
370
    -2
100
AcDbLine
 10
84.89719144851482
 20
25.30381247859884
 30
0.0
 11
84.89719144851482
 21
19.87950994879998
 31
0.0
  0
LINE
  5
D8FB
330
A17A
100
AcDbEntity
  8
ADM
 62
     0
440
 16777216
370
    -2
100
AcDbLine
 10
86.89719144851688
 20
26.30381247859884
 30
0.0
 11
86.89719144851688
 21
19.87950994879998
 31
0.0
  0
LINE
  5
D8FC
330
A17A
100
AcDbEntity
  8
ADM
 62
     0
440
 16777216
370
    -2
100
AcDbLine
 10
84.09719144851484
 20
19.87950994879998
 30
0.0
 11
83.29719144851484
 21
19.87950994879998
 31
0.0
  0
LINE
  5
D8FD
330
A17A
100
AcDbEntity
  8
ADM
 62
     0
440
 16777216
370
    -2
100
AcDbLine
 10
87.69719144851688
 20
19.87950994879998
 30
0.0
 11
88.49719144851688
 21
19.87950994879998
 31
0.0
  0
LINE
  5
D8FE
330
A17A
100
AcDbEntity
  8
ADM
 62
     0
440
 16777216
370
    -2
100
AcDbLine
 10
93.19007690293783
 20
19.87950994879998
 30
0.0
 11
86.89719144851688
 21
19.87950994879998
 31
0.0
  0
MTEXT
  5
D8FF
330
A17A
100
AcDbEntity
  8
ADM
 62
     4
440
 16777216
100
AcDbMText
 10
91.39007690293784
 20
22.37950994879998
 30
0.0
 40
3.0
 41
0.0
 46
0.0
 71
     5
 72
     1
  1
\A2;2
 73
     1
 44
1.0
  0
LINE
  5
D900
330
A17A
100
AcDbEntity
  8
ADM
 62
     0
440
 16777216
370
    -2
100
AcDbLine
 10
84.89719144851482
 20
19.87950994879998
 30
0.0
 11
86.89719144851688
 21
19.87950994879998
 31
0.0
  0
LINE
  5
D901
330
A17A
100
AcDbEntity
  8
ADM
 62
     0
440
 16777216
370
    -2
100
AcDbLine
 10
84.89719144851482
 20
19.87950994879998
 30
0.0
 11
86.89719144851688
 21
19.87950994879998
 31
0.0
  0
INSERT
  5
D902
330
A17A
100
AcDbEntity
  8
ADM
 62
     0
440
 16777216
370
    -2
100
AcDbBlockReference
  2
_Dot
 10
84.89719144851482
 20
19.87950994879998
 30
0.0
 41
0.8
 42
0.8
 43
0.8
  0
INSERT
  5
D903
330
A17A
100
AcDbEntity
  8
ADM
 62
     0
440
 16777216
370
    -2
100
AcDbBlockReference
  2
_Dot
 10
86.89719144851688
 20
19.87950994879998
 30
0.0
 41
0.8
 42
0.8
 43
0.8
 50
180.0
  0
POINT
  5
D904
330
A17A
100
AcDbEntity
  8
DEFPOINTS
 62
     0
440
 16777216
100
AcDbPoint
 10
84.89719144851482
 20
26.30381247859884
 30
0.0
  0
POINT
  5
D905
330
A17A
100
AcDbEntity
  8
DEFPOINTS
 62
     0
440
 16777216
100
AcDbPoint
 10
86.89719144851688
 20
27.30381247859885
 30
0.0
  0
POINT
  5
D906
330
A17A
100
AcDbEntity
  8
DEFPOINTS
 62
     0
440
 16777216
100
AcDbPoint
 10
86.89719144851688
 20
19.87950994879998
 30
0.0
  0
ENDBLK
  5
A17C
330
A17A
100
AcDbEntity
  8
0
100
AcDbBlockEnd
  0
BLOCK
  5
A18B
330
A18A
100
AcDbEntity
  8
0
100
AcDbBlockBegin
  2
*D6
 70
     1
 10
0.0
 20
0.0
 30
0.0
  3
*D6
  1

  0
LINE
  5
D907
330
A18A
100
AcDbEntity
  8
ADM
 62
     0
440
 16777216
370
    -2
100
AcDbLine
 10
39.89719144851495
 20
27.30381247859881
 30
0.0
 11
39.89719144851495
 21
19.87950994879998
 31
0.0
  0
LINE
  5
D908
330
A18A
100
AcDbEntity
  8
ADM
 62
     0
440
 16777216
370
    -2
100
AcDbLine
 10
36.89719144851688
 20
26.30381247859884
 30
0.0
 11
36.89719144851688
 21
19.87950994879998
 31
0.0
  0
LINE
  5
D909
330
A18A
100
AcDbEntity
  8
ADM
 62
     0
440
 16777216
370
    -2
100
AcDbLine
 10
40.69719144851494
 20
19.87950994879998
 30
0.0
 11
41.49719144851494
 21
19.87950994879998
 31
0.0
  0
LINE
  5
D90A
330
A18A
100
AcDbEntity
  8
ADM
 62
     0
440
 16777216
370
    -2
100
AcDbLine
 10
36.09719144851688
 20
19.87950994879998
 30
0.0
 11
35.29719144851688
 21
19.87950994879998
 31
0.0
  0
LINE
  5
D90B
330
A18A
100
AcDbEntity
  8
ADM
 62
     0
440
 16777216
370
    -2
100
AcDbLine
 10
30.87818403232468
 20
19.87950994879998
 30
0.0
 11
36.89719144851688
 21
19.87950994879998
 31
0.0
  0
MTEXT
  5
D90C
330
A18A
100
AcDbEntity
  8
ADM
 62
     4
440
 16777216
100
AcDbMText
 10
32.67818403232468
 20
22.37950994879998
 30
0.0
 40
3.0
 41
0.0
 46
0.0
 71
     5
 72
     1
  1
\A2;3
 73
     1
 44
1.0
  0
LINE
  5
D90D
330
A18A
100
AcDbEntity
  8
ADM
 62
     0
440
 16777216
370
    -2
100
AcDbLine
 10
39.89719144851495
 20
19.87950994879998
 30
0.0
 11
36.89719144851688
 21
19.87950994879998
 31
0.0
  0
LINE
  5
D90E
330
A18A
100
AcDbEntity
  8
ADM
 62
     0
440
 16777216
370
    -2
100
AcDbLine
 10
39.89719144851495
 20
19.87950994879998
 30
0.0
 11
36.89719144851688
 21
19.87950994879998
 31
0.0
  0
INSERT
  5
D90F
330
A18A
100
AcDbEntity
  8
ADM
 62
     0
440
 16777216
370
    -2
100
AcDbBlockReference
  2
_Dot
 10
39.89719144851495
 20
19.87950994879998
 30
0.0
 41
0.8
 42
0.8
 43
0.8
 50
180.0
  0
INSERT
  5
D910
330
A18A
100
AcDbEntity
  8
ADM
 62
     0
440
 16777216
370
    -2
100
AcDbBlockReference
  2
_Dot
 10
36.89719144851688
 20
19.87950994879998
 30
0.0
 41
0.8
 42
0.8
 43
0.8
  0
POINT
  5
D911
330
A18A
100
AcDbEntity
  8
DEFPOINTS
 62
     0
440
 16777216
100
AcDbPoint
 10
39.89719144851495
 20
28.30381247859881
 30
0.0
  0
POINT
  5
D912
330
A18A
100
AcDbEntity
  8
DEFPOINTS
 62
     0
440
 16777216
100
AcDbPoint
 10
36.89719144851688
 20
27.30381247859884
 30
0.0
  0
POINT
  5
D913
330
A18A
100
AcDbEntity
  8
DEFPOINTS
 62
     0
440
 16777216
100
AcDbPoint
 10
36.89719144851688
 20
19.87950994879998
 30
0.0
  0
ENDBLK
  5
A18C
330
A18A
100
AcDbEntity
  8
0
100
AcDbBlockEnd
  0
BLOCK
  5
A19B
330
A19A
100
AcDbEntity
  8
0
100
AcDbBlockBegin
  2
*D7
 70
     1
 10
0.0
 20
0.0
 30
0.0
  3
*D7
  1

  0
LINE
  5
D86A
330
A19A
100
AcDbEntity
  8
ADM
 62
     0
440
 16777216
370
    -2
100
AcDbLine
 10
87.89719144851687
 20
40.30381247859884
 30
0.0
 11
108.6386157073375
 21
40.30381247859884
 31
0.0
  0
LINE
  5
D86B
330
A19A
100
AcDbEntity
  8
ADM
 62
     0
440
 16777216
370
    -2
100
AcDbLine
 10
87.89719144851687
 20
27.30381247859885
 30
0.0
 11
108.6386157073375
 21
27.30381247859884
 31
0.0
  0
LINE
  5
D86C
330
A19A
100
AcDbEntity
  8
ADM
 62
     0
440
 16777216
370
    -2
100
AcDbLine
 10
108.6386157073375
 20
39.50381247859885
 30
0.0
 11
108.6386157073375
 21
28.10381247859884
 31
0.0
  0
INSERT
  5
D86D
330
A19A
100
AcDbEntity
  8
ADM
 62
     0
440
 16777216
370
    -2
100
AcDbBlockReference
  2
_Dot
 10
108.6386157073375
 20
40.30381247859884
 30
0.0
 41
0.8
 42
0.8
 43
0.8
 50
90.0
  0
INSERT
  5
D86E
330
A19A
100
AcDbEntity
  8
ADM
 62
     0
440
 16777216
370
    -2
100
AcDbBlockReference
  2
_Dot
 10
108.6386157073375
 20
27.30381247859884
 30
0.0
 41
0.8
 42
0.8
 43
0.8
 50
270.0
  0
MTEXT
  5
D86F
330
A19A
100
AcDbEntity
  8
ADM
 62
     4
440
 16777216
100
AcDbMText
 10
106.1386157073375
 20
33.80381247859886
 30
0.0
 40
3.0
 41
0.0
 46
0.0
 71
     5
 72
     1
  1
\A2;13
 11
0.0000000000000001
 21
1.0
 31
0.0
 73
     1
 44
1.0
  0
POINT
  5
D870
330
A19A
100
AcDbEntity
  8
DEFPOINTS
 62
     0
440
 16777216
100
AcDbPoint
 10
86.89719144851688
 20
40.30381247859884
 30
0.0
  0
POINT
  5
D871
330
A19A
100
AcDbEntity
  8
DEFPOINTS
 62
     0
440
 16777216
100
AcDbPoint
 10
86.89719144851688
 20
27.30381247859885
 30
0.0
  0
POINT
  5
D872
330
A19A
100
AcDbEntity
  8
DEFPOINTS
 62
     0
440
 16777216
100
AcDbPoint
 10
108.6386157073375
 20
27.30381247859884
 30
0.0
  0
ENDBLK
  5
A19C
330
A19A
100
AcDbEntity
  8
0
100
AcDbBlockEnd
  0
BLOCK
  5
A1A7
330
A1A6
100
AcDbEntity
  8
0
100
AcDbBlockBegin
  2
*D8
 70
     1
 10
0.0
 20
0.0
 30
0.0
  3
*D8
  1

  0
LINE
  5
D819
330
A1A6
100
AcDbEntity
  8
ADM
 62
     0
440
 16777216
370
    -2
100
AcDbLine
 10
39.89719144851483
 20
26.30381247859884
 30
0.0
 11
39.89719144851483
 21
19.87950994879998
 31
0.0
  0
LINE
  5
D81A
330
A1A6
100
AcDbEntity
  8
ADM
 62
     0
440
 16777216
370
    -2
100
AcDbLine
 10
84.89719144851482
 20
26.30381247859884
 30
0.0
 11
84.89719144851482
 21
19.87950994879998
 31
0.0
  0
LINE
  5
D81B
330
A1A6
100
AcDbEntity
  8
ADM
 62
     0
440
 16777216
370
    -2
100
AcDbLine
 10
40.69719144851482
 20
19.87950994879998
 30
0.0
 11
84.09719144851484
 21
19.87950994879998
 31
0.0
  0
INSERT
  5
D81C
330
A1A6
100
AcDbEntity
  8
ADM
 62
     0
440
 16777216
370
    -2
100
AcDbBlockReference
  2
_Dot
 10
39.89719144851483
 20
19.87950994879998
 30
0.0
 41
0.8
 42
0.8
 43
0.8
 50
180.0
  0
INSERT
  5
D81D
330
A1A6
100
AcDbEntity
  8
ADM
 62
     0
440
 16777216
370
    -2
100
AcDbBlockReference
  2
_Dot
 10
84.89719144851482
 20
19.87950994879998
 30
0.0
 41
0.8
 42
0.8
 43
0.8
  0
MTEXT
  5
D81E
330
A1A6
100
AcDbEntity
  8
ADM
 62
     4
440
 16777216
100
AcDbMText
 10
62.39719144851483
 20
22.37950994879998
 30
0.0
 40
3.0
 41
0.0
 46
0.0
 71
     5
 72
     1
  1
\A2;45
 73
     1
 44
1.0
  0
POINT
  5
D81F
330
A1A6
100
AcDbEntity
  8
DEFPOINTS
 62
     0
440
 16777216
100
AcDbPoint
 10
39.89719144851483
 20
27.30381247859884
 30
0.0
  0
POINT
  5
D820
330
A1A6
100
AcDbEntity
  8
DEFPOINTS
 62
     0
440
 16777216
100
AcDbPoint
 10
84.89719144851482
 20
27.30381247859885
 30
0.0
  0
POINT
  5
D821
330
A1A6
100
AcDbEntity
  8
DEFPOINTS
 62
     0
440
 16777216
100
AcDbPoint
 10
84.89719144851482
 20
19.87950994879998
 30
0.0
  0
ENDBLK
  5
A1A8
330
A1A6
100
AcDbEntity
  8
0
100
AcDbBlockEnd
  0
BLOCK
  5
A1B3
330
A1B2
100
AcDbEntity
  8
0
100
AcDbBlockBegin
  2
*D9
 70
     1
 10
0.0
 20
0.0
 30
0.0
  3
*D9
  1

  0
LINE
  5
D822
330
A1B2
100
AcDbEntity
  8
ADM
 62
     0
440
 16777216
370
    -2
100
AcDbLine
 10
36.89719144851688
 20
26.30381247859883
 30
0.0
 11
36.89719144851688
 21
12.59475285919939
 31
0.0
  0
LINE
  5
D823
330
A1B2
100
AcDbEntity
  8
ADM
 62
     0
440
 16777216
370
    -2
100
AcDbLine
 10
86.89719144851688
 20
26.30381247859884
 30
0.0
 11
86.89719144851688
 21
12.59475285919939
 31
0.0
  0
LINE
  5
D824
330
A1B2
100
AcDbEntity
  8
ADM
 62
     0
440
 16777216
370
    -2
100
AcDbLine
 10
37.69719144851688
 20
12.59475285919939
 30
0.0
 11
86.09719144851688
 21
12.59475285919939
 31
0.0
  0
INSERT
  5
D825
330
A1B2
100
AcDbEntity
  8
ADM
 62
     0
440
 16777216
370
    -2
100
AcDbBlockReference
  2
_Dot
 10
36.89719144851688
 20
12.59475285919939
 30
0.0
 41
0.8
 42
0.8
 43
0.8
 50
180.0
  0
INSERT
  5
D826
330
A1B2
100
AcDbEntity
  8
ADM
 62
     0
440
 16777216
370
    -2
100
AcDbBlockReference
  2
_Dot
 10
86.89719144851688
 20
12.59475285919939
 30
0.0
 41
0.8
 42
0.8
 43
0.8
  0
MTEXT
  5
D827
330
A1B2
100
AcDbEntity
  8
ADM
 62
     4
440
 16777216
100
AcDbMText
 10
61.89719144851688
 20
15.09475285919939
 30
0.0
 40
3.0
 41
0.0
 46
0.0
 71
     5
 72
     1
  1
\A2;50
 73
     1
 44
1.0
  0
POINT
  5
D828
330
A1B2
100
AcDbEntity
  8
DEFPOINTS
 62
     0
440
 16777216
100
AcDbPoint
 10
36.89719144851688
 20
27.30381247859883
 30
0.0
  0
POINT
  5
D829
330
A1B2
100
AcDbEntity
  8
DEFPOINTS
 62
     0
440
 16777216
100
AcDbPoint
 10
86.89719144851688
 20
27.30381247859885
 30
0.0
  0
POINT
  5
D82A
330
A1B2
100
AcDbEntity
  8
DEFPOINTS
 62
     0
440
 16777216
100
AcDbPoint
 10
86.89719144851688
 20
12.59475285919939
 30
0.0
  0
ENDBLK
  5
A1B4
330
A1B2
100
AcDbEntity
  8
0
100
AcDbBlockEnd
  0
BLOCK
  5
A1BF
330
A1BE
100
AcDbEntity
  8
0
100
AcDbBlockBegin
  2
*D10
 70
     1
 10
0.0
 20
0.0
 30
0.0
  3
*D10
  1

  0
LINE
  5
D82B
330
A1BE
100
AcDbEntity
  8
ADM
 62
     0
440
 16777216
370
    -2
100
AcDbLine
 10
35.89719144851688
 20
257.3038124785989
 30
0.0
 11
9.044333516993496
 21
257.3038124785989
 31
0.0
  0
LINE
  5
D82C
330
A1BE
100
AcDbEntity
  8
ADM
 62
     0
440
 16777216
370
    -2
100
AcDbLine
 10
35.89719144851688
 20
27.30381247859885
 30
0.0
 11
9.044333516993445
 21
27.30381247859885
 31
0.0
  0
LINE
  5
D82D
330
A1BE
100
AcDbEntity
  8
ADM
 62
     0
440
 16777216
370
    -2
100
AcDbLine
 10
9.044333516993498
 20
256.5038124785989
 30
0.0
 11
9.044333516993448
 21
28.10381247859885
 31
0.0
  0
INSERT
  5
D82E
330
A1BE
100
AcDbEntity
  8
ADM
 62
     0
440
 16777216
370
    -2
100
AcDbBlockReference
  2
_Dot
 10
9.044333516993498
 20
257.3038124785989
 30
0.0
 41
0.8
 42
0.8
 43
0.8
 50
90.0
  0
INSERT
  5
D82F
330
A1BE
100
AcDbEntity
  8
ADM
 62
     0
440
 16777216
370
    -2
100
AcDbBlockReference
  2
_Dot
 10
9.044333516993447
 20
27.30381247859885
 30
0.0
 41
0.8
 42
0.8
 43
0.8
 50
270.0
  0
MTEXT
  5
D830
330
A1BE
100
AcDbEntity
  8
ADM
 62
     4
440
 16777216
100
AcDbMText
 10
6.54433351699345
 20
142.3038124785988
 30
0.0
 40
3.0
 41
0.0
 46
0.0
 71
     5
 72
     1
  1
\A2;H
 11
0.0000000000000001
 21
1.0
 31
0.0
 73
     1
 44
1.0
  0
POINT
  5
D831
330
A1BE
100
AcDbEntity
  8
DEFPOINTS
 62
     0
440
 16777216
100
AcDbPoint
 10
36.89719144851688
 20
257.3038124785989
 30
0.0
  0
POINT
  5
D832
330
A1BE
100
AcDbEntity
  8
DEFPOINTS
 62
     0
440
 16777216
100
AcDbPoint
 10
36.89719144851688
 20
27.30381247859885
 30
0.0
  0
POINT
  5
D833
330
A1BE
100
AcDbEntity
  8
DEFPOINTS
 62
     0
440
 16777216
100
AcDbPoint
 10
9.044333516993447
 20
27.30381247859885
 30
0.0
  0
ENDBLK
  5
A1C0
330
A1BE
100
AcDbEntity
  8
0
100
AcDbBlockEnd
  0
BLOCK
  5
A1CB
330
A1CA
100
AcDbEntity
  8
0
100
AcDbBlockBegin
  2
*D11
 70
     1
 10
0.0
 20
0.0
 30
0.0
  3
*D11
  1

  0
LINE
  5
D834
330
A1CA
100
AcDbEntity
  8
ADM
 62
     0
440
 16777216
370
    -2
100
AcDbLine
 10
50.39719144851687
 20
224.3038124785989
 30
0.0
 11
19.89901260470343
 21
224.3038124785989
 31
0.0
  0
LINE
  5
D835
330
A1CA
100
AcDbEntity
  8
ADM
 62
     0
440
 16777216
370
    -2
100
AcDbLine
 10
35.89719144851688
 20
257.3038124785989
 30
0.0
 11
19.89901260470344
 21
257.3038124785989
 31
0.0
  0
LINE
  5
D836
330
A1CA
100
AcDbEntity
  8
ADM
 62
     0
440
 16777216
370
    -2
100
AcDbLine
 10
19.89901260470343
 20
225.103812478599
 30
0.0
 11
19.89901260470344
 21
256.5038124785989
 31
0.0
  0
INSERT
  5
D837
330
A1CA
100
AcDbEntity
  8
ADM
 62
     0
440
 16777216
370
    -2
100
AcDbBlockReference
  2
_Dot
 10
19.89901260470343
 20
224.3038124785989
 30
0.0
 41
0.8
 42
0.8
 43
0.8
 50
270.0
  0
INSERT
  5
D838
330
A1CA
100
AcDbEntity
  8
ADM
 62
     0
440
 16777216
370
    -2
100
AcDbBlockReference
  2
_Dot
 10
19.89901260470344
 20
257.3038124785989
 30
0.0
 41
0.8
 42
0.8
 43
0.8
 50
90.0
  0
MTEXT
  5
D839
330
A1CA
100
AcDbEntity
  8
ADM
 62
     4
440
 16777216
100
AcDbMText
 10
17.3990126047034
 20
240.8038124785989
 30
0.0
 40
3.0
 41
0.0
 46
0.0
 71
     5
 72
     1
  1
\A2;33
 11
0.0000000000000001
 21
1.0
 31
0.0
 73
     1
 44
1.0
  0
POINT
  5
D83A
330
A1CA
100
AcDbEntity
  8
DEFPOINTS
 62
     0
440
 16777216
100
AcDbPoint
 10
51.39719144851688
 20
224.3038124785989
 30
0.0
  0
POINT
  5
D83B
330
A1CA
100
AcDbEntity
  8
DEFPOINTS
 62
     0
440
 16777216
100
AcDbPoint
 10
36.89719144851688
 20
257.3038124785989
 30
0.0
  0
POINT
  5
D83C
330
A1CA
100
AcDbEntity
  8
DEFPOINTS
 62
     0
440
 16777216
100
AcDbPoint
 10
19.89901260470344
 20
257.3038124785989
 30
0.0
  0
ENDBLK
  5
A1CC
330
A1CA
100
AcDbEntity
  8
0
100
AcDbBlockEnd
  0
BLOCK
  5
A1D7
330
A1D6
100
AcDbEntity
  8
0
100
AcDbBlockBegin
  2
*D12
 70
     1
 10
0.0
 20
0.0
 30
0.0
  3
*D12
  1

  0
LINE
  5
D83D
330
A1D6
100
AcDbEntity
  8
ADM
 62
     0
440
 16777216
370
    -2
100
AcDbLine
 10
50.39719144851687
 20
60.30381247859884
 30
0.0
 11
19.88181945428608
 21
60.30381247859885
 31
0.0
  0
LINE
  5
D83E
330
A1D6
100
AcDbEntity
  8
ADM
 62
     0
440
 16777216
370
    -2
100
AcDbLine
 10
35.89719144851688
 20
27.30381247859885
 30
0.0
 11
19.88181945428607
 21
27.30381247859885
 31
0.0
  0
LINE
  5
D83F
330
A1D6
100
AcDbEntity
  8
ADM
 62
     0
440
 16777216
370
    -2
100
AcDbLine
 10
19.88181945428608
 20
59.50381247859885
 30
0.0
 11
19.88181945428607
 21
28.10381247859885
 31
0.0
  0
INSERT
  5
D840
330
A1D6
100
AcDbEntity
  8
ADM
 62
     0
440
 16777216
370
    -2
100
AcDbBlockReference
  2
_Dot
 10
19.88181945428608
 20
60.30381247859885
 30
0.0
 41
0.8
 42
0.8
 43
0.8
 50
90.0
  0
INSERT
  5
D841
330
A1D6
100
AcDbEntity
  8
ADM
 62
     0
440
 16777216
370
    -2
100
AcDbBlockReference
  2
_Dot
 10
19.88181945428607
 20
27.30381247859885
 30
0.0
 41
0.8
 42
0.8
 43
0.8
 50
270.0
  0
MTEXT
  5
D842
330
A1D6
100
AcDbEntity
  8
ADM
 62
     4
440
 16777216
100
AcDbMText
 10
17.38181945428607
 20
43.80381247859886
 30
0.0
 40
3.0
 41
0.0
 46
0.0
 71
     5
 72
     1
  1
\A2;33
 11
0.0000000000000001
 21
1.0
 31
0.0
 73
     1
 44
1.0
  0
POINT
  5
D843
330
A1D6
100
AcDbEntity
  8
DEFPOINTS
 62
     0
440
 16777216
100
AcDbPoint
 10
51.39719144851688
 20
60.30381247859884
 30
0.0
  0
POINT
  5
D844
330
A1D6
100
AcDbEntity
  8
DEFPOINTS
 62
     0
440
 16777216
100
AcDbPoint
 10
36.89719144851688
 20
27.30381247859885
 30
0.0
  0
POINT
  5
D845
330
A1D6
100
AcDbEntity
  8
DEFPOINTS
 62
     0
440
 16777216
100
AcDbPoint
 10
19.88181945428607
 20
27.30381247859885
 30
0.0
  0
ENDBLK
  5
A1D8
330
A1D6
100
AcDbEntity
  8
0
100
AcDbBlockEnd
  0
BLOCK
  5
A1E3
330
A1E2
100
AcDbEntity
  8
0
100
AcDbBlockBegin
  2
*D13
 70
     1
 10
0.0
 20
0.0
 30
0.0
  3
*D13
  1

  0
LINE
  5
D846
330
A1E2
100
AcDbEntity
  8
ADM
 62
     0
440
 16777216
370
    -2
100
AcDbLine
 10
50.39719144851687
 20
60.30381247859884
 30
0.0
 11
19.89901260470329
 21
60.30381247859885
 31
0.0
  0
LINE
  5
D847
330
A1E2
100
AcDbEntity
  8
ADM
 62
     0
440
 16777216
370
    -2
100
AcDbLine
 10
50.39719144851687
 20
224.3038124785989
 30
0.0
 11
19.89901260470333
 21
224.3038124785989
 31
0.0
  0
LINE
  5
D848
330
A1E2
100
AcDbEntity
  8
ADM
 62
     0
440
 16777216
370
    -2
100
AcDbLine
 10
19.89901260470329
 20
61.10381247859884
 30
0.0
 11
19.89901260470333
 21
223.5038124785989
 31
0.0
  0
INSERT
  5
D849
330
A1E2
100
AcDbEntity
  8
ADM
 62
     0
440
 16777216
370
    -2
100
AcDbBlockReference
  2
_Dot
 10
19.89901260470329
 20
60.30381247859885
 30
0.0
 41
0.8
 42
0.8
 43
0.8
 50
270.0
  0
INSERT
  5
D84A
330
A1E2
100
AcDbEntity
  8
ADM
 62
     0
440
 16777216
370
    -2
100
AcDbBlockReference
  2
_Dot
 10
19.89901260470333
 20
224.3038124785989
 30
0.0
 41
0.8
 42
0.8
 43
0.8
 50
90.0
  0
MTEXT
  5
D84B
330
A1E2
100
AcDbEntity
  8
ADM
 62
     4
440
 16777216
100
AcDbMText
 10
17.39901260470329
 20
142.3038124785989
 30
0.0
 40
3.0
 41
0.0
 46
0.0
 71
     5
 72
     1
  1
\A2;H-66
 11
0.0000000000000001
 21
1.0
 31
0.0
 73
     1
 44
1.0
  0
POINT
  5
D84C
330
A1E2
100
AcDbEntity
  8
DEFPOINTS
 62
     0
440
 16777216
100
AcDbPoint
 10
51.39719144851688
 20
60.30381247859884
 30
0.0
  0
POINT
  5
D84D
330
A1E2
100
AcDbEntity
  8
DEFPOINTS
 62
     0
440
 16777216
100
AcDbPoint
 10
51.39719144851688
 20
224.3038124785989
 30
0.0
  0
POINT
  5
D84E
330
A1E2
100
AcDbEntity
  8
DEFPOINTS
 62
     0
440
 16777216
100
AcDbPoint
 10
19.89901260470333
 20
224.3038124785989
 30
0.0
  0
ENDBLK
  5
A1E4
330
A1E2
100
AcDbEntity
  8
0
100
AcDbBlockEnd
  0
BLOCK
  5
A1EF
330
A1EE
100
AcDbEntity
  8
0
100
AcDbBlockBegin
  2
*D14
 70
     1
 10
0.0
 20
0.0
 30
0.0
  3
*D14
  1

  0
LINE
  5
D84F
330
A1EE
100
AcDbEntity
  8
ADM
 62
     0
440
 16777216
370
    -2
100
AcDbLine
 10
140.343739744374
 20
95.30331918690206
 30
0.0
 11
140.343739744374
 21
32.02234674075112
 31
0.0
  0
LINE
  5
D850
330
A1EE
100
AcDbEntity
  8
ADM
 62
     0
440
 16777216
370
    -2
100
AcDbLine
 10
370.3437397443784
 20
95.30331918690206
 30
0.0
 11
370.3437397443784
 21
32.02234674075112
 31
0.0
  0
LINE
  5
D851
330
A1EE
100
AcDbEntity
  8
ADM
 62
     0
440
 16777216
370
    -2
100
AcDbLine
 10
141.143739744374
 20
32.02234674075112
 30
0.0
 11
369.5437397443783
 21
32.02234674075112
 31
0.0
  0
INSERT
  5
D852
330
A1EE
100
AcDbEntity
  8
ADM
 62
     0
440
 16777216
370
    -2
100
AcDbBlockReference
  2
_Dot
 10
140.343739744374
 20
32.02234674075112
 30
0.0
 41
0.8
 42
0.8
 43
0.8
 50
180.0
  0
INSERT
  5
D853
330
A1EE
100
AcDbEntity
  8
ADM
 62
     0
440
 16777216
370
    -2
100
AcDbBlockReference
  2
_Dot
 10
370.3437397443784
 20
32.02234674075112
 30
0.0
 41
0.8
 42
0.8
 43
0.8
  0
MTEXT
  5
D854
330
A1EE
100
AcDbEntity
  8
ADM
 62
     4
440
 16777216
100
AcDbMText
 10
255.3437397443762
 20
34.52234674075112
 30
0.0
 40
3.0
 41
0.0
 46
0.0
 71
     5
 72
     1
  1
\A2;W
 73
     1
 44
1.0
  0
POINT
  5
D855
330
A1EE
100
AcDbEntity
  8
DEFPOINTS
 62
     0
440
 16777216
100
AcDbPoint
 10
140.343739744374
 20
96.30331918690206
 30
0.0
  0
POINT
  5
D856
330
A1EE
100
AcDbEntity
  8
DEFPOINTS
 62
     0
440
 16777216
100
AcDbPoint
 10
370.3437397443784
 20
96.30331918690206
 30
0.0
  0
POINT
  5
D857
330
A1EE
100
AcDbEntity
  8
DEFPOINTS
 62
     0
440
 16777216
100
AcDbPoint
 10
370.3437397443784
 20
32.02234674075112
 30
0.0
  0
ENDBLK
  5
A1F0
330
A1EE
100
AcDbEntity
  8
0
100
AcDbBlockEnd
  0
BLOCK
  5
A1FB
330
A1FA
100
AcDbEntity
  8
0
100
AcDbBlockBegin
  2
*D15
 70
     1
 10
0.0
 20
0.0
 30
0.0
  3
*D15
  1

  0
LINE
  5
D858
330
A1FA
100
AcDbEntity
  8
ADM
 62
     0
440
 16777216
370
    -2
100
AcDbLine
 10
157.343739744376
 20
95.80331918690237
 30
0.0
 11
157.343739744376
 21
40.02234674075111
 31
0.0
  0
LINE
  5
D859
330
A1FA
100
AcDbEntity
  8
ADM
 62
     0
440
 16777216
370
    -2
100
AcDbLine
 10
140.343739744374
 20
95.3033191869024
 30
0.0
 11
140.343739744374
 21
40.02234674075111
 31
0.0
  0
LINE
  5
D85A
330
A1FA
100
AcDbEntity
  8
ADM
 62
     0
440
 16777216
370
    -2
100
AcDbLine
 10
156.543739744376
 20
40.02234674075111
 30
0.0
 11
141.143739744374
 21
40.02234674075111
 31
0.0
  0
INSERT
  5
D85B
330
A1FA
100
AcDbEntity
  8
ADM
 62
     0
440
 16777216
370
    -2
100
AcDbBlockReference
  2
_Dot
 10
157.343739744376
 20
40.02234674075111
 30
0.0
 41
0.8
 42
0.8
 43
0.8
  0
INSERT
  5
D85C
330
A1FA
100
AcDbEntity
  8
ADM
 62
     0
440
 16777216
370
    -2
100
AcDbBlockReference
  2
_Dot
 10
140.343739744374
 20
40.02234674075111
 30
0.0
 41
0.8
 42
0.8
 43
0.8
 50
180.0
  0
MTEXT
  5
D85D
330
A1FA
100
AcDbEntity
  8
ADM
 62
     4
440
 16777216
100
AcDbMText
 10
148.8437397443749
 20
42.52234674075111
 30
0.0
 40
3.0
 41
0.0
 46
0.0
 71
     5
 72
     1
  1
\A2;17
 73
     1
 44
1.0
  0
POINT
  5
D85E
330
A1FA
100
AcDbEntity
  8
DEFPOINTS
 62
     0
440
 16777216
100
AcDbPoint
 10
157.343739744376
 20
96.80331918690237
 30
0.0
  0
POINT
  5
D85F
330
A1FA
100
AcDbEntity
  8
DEFPOINTS
 62
     0
440
 16777216
100
AcDbPoint
 10
140.343739744374
 20
96.3033191869024
 30
0.0
  0
POINT
  5
D860
330
A1FA
100
AcDbEntity
  8
DEFPOINTS
 62
     0
440
 16777216
100
AcDbPoint
 10
140.343739744374
 20
40.02234674075111
 30
0.0
  0
ENDBLK
  5
A1FC
330
A1FA
100
AcDbEntity
  8
0
100
AcDbBlockEnd
  0
BLOCK
  5
A207
330
A206
100
AcDbEntity
  8
0
100
AcDbBlockBegin
  2
*D16
 70
     1
 10
0.0
 20
0.0
 30
0.0
  3
*D16
  1

  0
LINE
  5
D861
330
A206
100
AcDbEntity
  8
ADM
 62
     0
440
 16777216
370
    -2
100
AcDbLine
 10
353.3437397443763
 20
95.80331918690237
 30
0.0
 11
353.3437397443763
 21
40.02234674075111
 31
0.0
  0
LINE
  5
D862
330
A206
100
AcDbEntity
  8
ADM
 62
     0
440
 16777216
370
    -2
100
AcDbLine
 10
370.3437397443784
 20
95.30331918690206
 30
0.0
 11
370.3437397443784
 21
40.02234674075111
 31
0.0
  0
LINE
  5
D863
330
A206
100
AcDbEntity
  8
ADM
 62
     0
440
 16777216
370
    -2
100
AcDbLine
 10
354.1437397443763
 20
40.02234674075111
 30
0.0
 11
369.5437397443783
 21
40.02234674075111
 31
0.0
  0
INSERT
  5
D864
330
A206
100
AcDbEntity
  8
ADM
 62
     0
440
 16777216
370
    -2
100
AcDbBlockReference
  2
_Dot
 10
353.3437397443763
 20
40.02234674075111
 30
0.0
 41
0.8
 42
0.8
 43
0.8
 50
180.0
  0
INSERT
  5
D865
330
A206
100
AcDbEntity
  8
ADM
 62
     0
440
 16777216
370
    -2
100
AcDbBlockReference
  2
_Dot
 10
370.3437397443784
 20
40.02234674075111
 30
0.0
 41
0.8
 42
0.8
 43
0.8
  0
MTEXT
  5
D866
330
A206
100
AcDbEntity
  8
ADM
 62
     4
440
 16777216
100
AcDbMText
 10
361.8437397443774
 20
42.52234674075111
 30
0.0
 40
3.0
 41
0.0
 46
0.0
 71
     5
 72
     1
  1
\A2;17
 73
     1
 44
1.0
  0
POINT
  5
D867
330
A206
100
AcDbEntity
  8
DEFPOINTS
 62
     0
440
 16777216
100
AcDbPoint
 10
353.3437397443763
 20
96.80331918690237
 30
0.0
  0
POINT
  5
D868
330
A206
100
AcDbEntity
  8
DEFPOINTS
 62
     0
440
 16777216
100
AcDbPoint
 10
370.3437397443784
 20
96.30331918690206
 30
0.0
  0
POINT
  5
D869
330
A206
100
AcDbEntity
  8
DEFPOINTS
 62
     0
440
 16777216
100
AcDbPoint
 10
370.3437397443784
 20
40.02234674075111
 30
0.0
  0
ENDBLK
  5
A208
330
A206
100
AcDbEntity
  8
0
100
AcDbBlockEnd
  0
BLOCK
  5
A213
330
A212
100
AcDbEntity
  8
0
100
AcDbBlockBegin
  2
*D17
 70
     1
 10
0.0
 20
0.0
 30
0.0
  3
*D17
  1

  0
LINE
  5
D873
330
A212
100
AcDbEntity
  8
ADM
 62
     0
440
 16777216
370
    -2
100
AcDbLine
 10
157.3437397443742
 20
95.80331918690246
 30
0.0
 11
157.3437397443742
 21
40.02234674075111
 31
0.0
  0
LINE
  5
D874
330
A212
100
AcDbEntity
  8
ADM
 62
     0
440
 16777216
370
    -2
100
AcDbLine
 10
163.3437397443761
 20
102.2633191869021
 30
0.0
 11
163.3437397443761
 21
40.02234674075111
 31
0.0
  0
LINE
  5
D875
330
A212
100
AcDbEntity
  8
ADM
 62
     0
440
 16777216
370
    -2
100
AcDbLine
 10
158.1437397443743
 20
40.02234674075111
 30
0.0
 11
162.5437397443761
 21
40.02234674075111
 31
0.0
  0
INSERT
  5
D876
330
A212
100
AcDbEntity
  8
ADM
 62
     0
440
 16777216
370
    -2
100
AcDbBlockReference
  2
_Dot
 10
157.3437397443742
 20
40.02234674075111
 30
0.0
 41
0.8
 42
0.8
 43
0.8
 50
180.0
  0
INSERT
  5
D877
330
A212
100
AcDbEntity
  8
ADM
 62
     0
440
 16777216
370
    -2
100
AcDbBlockReference
  2
_Dot
 10
163.3437397443761
 20
40.02234674075111
 30
0.0
 41
0.8
 42
0.8
 43
0.8
  0
MTEXT
  5
D878
330
A212
100
AcDbEntity
  8
ADM
 62
     4
440
 16777216
100
AcDbMText
 10
160.3437397443751
 20
42.52234674075111
 30
0.0
 40
3.0
 41
0.0
 46
0.0
 71
     5
 72
     1
  1
\A2;6
 73
     1
 44
1.0
  0
POINT
  5
D879
330
A212
100
AcDbEntity
  8
DEFPOINTS
 62
     0
440
 16777216
100
AcDbPoint
 10
157.3437397443742
 20
96.80331918690246
 30
0.0
  0
POINT
  5
D87A
330
A212
100
AcDbEntity
  8
DEFPOINTS
 62
     0
440
 16777216
100
AcDbPoint
 10
163.3437397443761
 20
103.2633191869021
 30
0.0
  0
POINT
  5
D87B
330
A212
100
AcDbEntity
  8
DEFPOINTS
 62
     0
440
 16777216
100
AcDbPoint
 10
163.3437397443761
 20
40.02234674075111
 30
0.0
  0
ENDBLK
  5
A214
330
A212
100
AcDbEntity
  8
0
100
AcDbBlockEnd
  0
BLOCK
  5
A21F
330
A21E
100
AcDbEntity
  8
0
100
AcDbBlockBegin
  2
*D18
 70
     1
 10
0.0
 20
0.0
 30
0.0
  3
*D18
  1

  0
LINE
  5
D87C
330
A21E
100
AcDbEntity
  8
ADM
 62
     0
440
 16777216
370
    -2
100
AcDbLine
 10
163.3437397443742
 20
102.2633191869069
 30
0.0
 11
163.3437397443742
 21
40.02234674075111
 31
0.0
  0
LINE
  5
D87D
330
A21E
100
AcDbEntity
  8
ADM
 62
     0
440
 16777216
370
    -2
100
AcDbLine
 10
223.3437397443756
 20
100.5633191869019
 30
0.0
 11
223.3437397443756
 21
40.02234674075111
 31
0.0
  0
LINE
  5
D87E
330
A21E
100
AcDbEntity
  8
ADM
 62
     0
440
 16777216
370
    -2
100
AcDbLine
 10
164.1437397443743
 20
40.02234674075111
 30
0.0
 11
222.5437397443756
 21
40.02234674075111
 31
0.0
  0
INSERT
  5
D87F
330
A21E
100
AcDbEntity
  8
ADM
 62
     0
440
 16777216
370
    -2
100
AcDbBlockReference
  2
_Dot
 10
163.3437397443742
 20
40.02234674075111
 30
0.0
 41
0.8
 42
0.8
 43
0.8
 50
180.0
  0
INSERT
  5
D880
330
A21E
100
AcDbEntity
  8
ADM
 62
     0
440
 16777216
370
    -2
100
AcDbBlockReference
  2
_Dot
 10
223.3437397443756
 20
40.02234674075111
 30
0.0
 41
0.8
 42
0.8
 43
0.8
  0
MTEXT
  5
D881
330
A21E
100
AcDbEntity
  8
ADM
 62
     4
440
 16777216
100
AcDbMText
 10
193.3437397443749
 20
42.52234674075111
 30
0.0
 40
3.0
 41
0.0
 46
0.0
 71
     5
 72
     1
  1
\A2;60
 73
     1
 44
1.0
  0
POINT
  5
D882
330
A21E
100
AcDbEntity
  8
DEFPOINTS
 62
     0
440
 16777216
100
AcDbPoint
 10
163.3437397443742
 20
103.2633191869069
 30
0.0
  0
POINT
  5
D883
330
A21E
100
AcDbEntity
  8
DEFPOINTS
 62
     0
440
 16777216
100
AcDbPoint
 10
223.3437397443756
 20
101.5633191869019
 30
0.0
  0
POINT
  5
D884
330
A21E
100
AcDbEntity
  8
DEFPOINTS
 62
     0
440
 16777216
100
AcDbPoint
 10
223.3437397443756
 20
40.02234674075111
 30
0.0
  0
ENDBLK
  5
A220
330
A21E
100
AcDbEntity
  8
0
100
AcDbBlockEnd
  0
BLOCK
  5
A22B
330
A22A
100
AcDbEntity
  8
0
100
AcDbBlockBegin
  2
*D19
 70
     1
 10
0.0
 20
0.0
 30
0.0
  3
*D19
  1

  0
LINE
  5
D885
330
A22A
100
AcDbEntity
  8
ADM
 62
     0
440
 16777216
370
    -2
100
AcDbLine
 10
286.1437397443763
 20
100.5633191869093
 30
0.0
 11
286.1437397443763
 21
40.02234674075111
 31
0.0
  0
LINE
  5
D886
330
A22A
100
AcDbEntity
  8
ADM
 62
     0
440
 16777216
370
    -2
100
AcDbLine
 10
346.1437397443754
 20
102.2633191869021
 30
0.0
 11
346.1437397443754
 21
40.02234674075111
 31
0.0
  0
LINE
  5
D887
330
A22A
100
AcDbEntity
  8
ADM
 62
     0
440
 16777216
370
    -2
100
AcDbLine
 10
286.9437397443763
 20
40.02234674075111
 30
0.0
 11
345.3437397443753
 21
40.02234674075111
 31
0.0
  0
INSERT
  5
D888
330
A22A
100
AcDbEntity
  8
ADM
 62
     0
440
 16777216
370
    -2
100
AcDbBlockReference
  2
_Dot
 10
286.1437397443763
 20
40.02234674075111
 30
0.0
 41
0.8
 42
0.8
 43
0.8
 50
180.0
  0
INSERT
  5
D889
330
A22A
100
AcDbEntity
  8
ADM
 62
     0
440
 16777216
370
    -2
100
AcDbBlockReference
  2
_Dot
 10
346.1437397443754
 20
40.02234674075111
 30
0.0
 41
0.8
 42
0.8
 43
0.8
  0
MTEXT
  5
D88A
330
A22A
100
AcDbEntity
  8
ADM
 62
     4
440
 16777216
100
AcDbMText
 10
316.1437397443758
 20
42.52234674075111
 30
0.0
 40
3.0
 41
0.0
 46
0.0
 71
     5
 72
     1
  1
\A2;60
 73
     1
 44
1.0
  0
POINT
  5
D88B
330
A22A
100
AcDbEntity
  8
DEFPOINTS
 62
     0
440
 16777216
100
AcDbPoint
 10
286.1437397443763
 20
101.5633191869093
 30
0.0
  0
POINT
  5
D88C
330
A22A
100
AcDbEntity
  8
DEFPOINTS
 62
     0
440
 16777216
100
AcDbPoint
 10
346.1437397443754
 20
103.2633191869021
 30
0.0
  0
POINT
  5
D88D
330
A22A
100
AcDbEntity
  8
DEFPOINTS
 62
     0
440
 16777216
100
AcDbPoint
 10
346.1437397443754
 20
40.02234674075111
 30
0.0
  0
ENDBLK
  5
A22C
330
A22A
100
AcDbEntity
  8
0
100
AcDbBlockEnd
  0
BLOCK
  5
A237
330
A236
100
AcDbEntity
  8
0
100
AcDbBlockBegin
  2
*D20
 70
     1
 10
0.0
 20
0.0
 30
0.0
  3
*D20
  1

  0
LINE
  5
D88E
330
A236
100
AcDbEntity
  8
ADM
 62
     0
440
 16777216
370
    -2
100
AcDbLine
 10
346.1437397443754
 20
102.2633191869021
 30
0.0
 11
346.1437397443754
 21
40.02234674075111
 31
0.0
  0
LINE
  5
D88F
330
A236
100
AcDbEntity
  8
ADM
 62
     0
440
 16777216
370
    -2
100
AcDbLine
 10
353.3437397443768
 20
95.80331918690246
 30
0.0
 11
353.3437397443768
 21
40.02234674075111
 31
0.0
  0
LINE
  5
D890
330
A236
100
AcDbEntity
  8
ADM
 62
     0
440
 16777216
370
    -2
100
AcDbLine
 10
346.9437397443754
 20
40.02234674075111
 30
0.0
 11
352.5437397443767
 21
40.02234674075111
 31
0.0
  0
INSERT
  5
D891
330
A236
100
AcDbEntity
  8
ADM
 62
     0
440
 16777216
370
    -2
100
AcDbBlockReference
  2
_Dot
 10
346.1437397443754
 20
40.02234674075111
 30
0.0
 41
0.8
 42
0.8
 43
0.8
 50
180.0
  0
INSERT
  5
D892
330
A236
100
AcDbEntity
  8
ADM
 62
     0
440
 16777216
370
    -2
100
AcDbBlockReference
  2
_Dot
 10
353.3437397443768
 20
40.02234674075111
 30
0.0
 41
0.8
 42
0.8
 43
0.8
  0
MTEXT
  5
D893
330
A236
100
AcDbEntity
  8
ADM
 62
     4
440
 16777216
100
AcDbMText
 10
349.7437397443761
 20
42.52234674075111
 30
0.0
 40
3.0
 41
0.0
 46
0.0
 71
     5
 72
     1
  1
\A2;7.2
 73
     1
 44
1.0
  0
POINT
  5
D894
330
A236
100
AcDbEntity
  8
DEFPOINTS
 62
     0
440
 16777216
100
AcDbPoint
 10
346.1437397443754
 20
103.2633191869021
 30
0.0
  0
POINT
  5
D895
330
A236
100
AcDbEntity
  8
DEFPOINTS
 62
     0
440
 16777216
100
AcDbPoint
 10
353.3437397443768
 20
96.80331918690248
 30
0.0
  0
POINT
  5
D896
330
A236
100
AcDbEntity
  8
DEFPOINTS
 62
     0
440
 16777216
100
AcDbPoint
 10
353.3437397443768
 20
40.02234674075111
 30
0.0
  0
ENDBLK
  5
A238
330
A236
100
AcDbEntity
  8
0
100
AcDbBlockEnd
  0
BLOCK
  5
A243
330
A242
100
AcDbEntity
  8
0
100
AcDbBlockBegin
  2
*D21
 70
     1
 10
0.0
 20
0.0
 30
0.0
  3
*D21
  1

  0
LINE
  5
D897
330
A242
100
AcDbEntity
  8
ADM
 62
     0
440
 16777216
370
    -2
100
AcDbLine
 10
85.39719144851687
 20
244.3038124785991
 30
0.0
 11
108.6386157073375
 21
244.3038124785991
 31
0.0
  0
LINE
  5
D898
330
A242
100
AcDbEntity
  8
ADM
 62
     0
440
 16777216
370
    -2
100
AcDbLine
 10
87.89719144851687
 20
257.3038124785989
 30
0.0
 11
108.6386157073375
 21
257.3038124785989
 31
0.0
  0
LINE
  5
D899
330
A242
100
AcDbEntity
  8
ADM
 62
     0
440
 16777216
370
    -2
100
AcDbLine
 10
108.6386157073375
 20
245.1038124785991
 30
0.0
 11
108.6386157073375
 21
256.5038124785989
 31
0.0
  0
INSERT
  5
D89A
330
A242
100
AcDbEntity
  8
ADM
 62
     0
440
 16777216
370
    -2
100
AcDbBlockReference
  2
_Dot
 10
108.6386157073375
 20
244.3038124785991
 30
0.0
 41
0.8
 42
0.8
 43
0.8
 50
270.0
  0
INSERT
  5
D89B
330
A242
100
AcDbEntity
  8
ADM
 62
     0
440
 16777216
370
    -2
100
AcDbBlockReference
  2
_Dot
 10
108.6386157073375
 20
257.3038124785989
 30
0.0
 41
0.8
 42
0.8
 43
0.8
 50
90.0
  0
MTEXT
  5
D89C
330
A242
100
AcDbEntity
  8
ADM
 62
     4
440
 16777216
100
AcDbMText
 10
106.1386157073375
 20
250.803812478599
 30
0.0
 40
3.0
 41
0.0
 46
0.0
 71
     5
 72
     1
  1
\A2;13
 11
0.0000000000000001
 21
1.0
 31
0.0
 73
     1
 44
1.0
  0
POINT
  5
D89D
330
A242
100
AcDbEntity
  8
DEFPOINTS
 62
     0
440
 16777216
100
AcDbPoint
 10
84.39719144851688
 20
244.3038124785991
 30
0.0
  0
POINT
  5
D89E
330
A242
100
AcDbEntity
  8
DEFPOINTS
 62
     0
440
 16777216
100
AcDbPoint
 10
86.89719144851688
 20
257.3038124785989
 30
0.0
  0
POINT
  5
D89F
330
A242
100
AcDbEntity
  8
DEFPOINTS
 62
     0
440
 16777216
100
AcDbPoint
 10
108.6386157073375
 20
257.3038124785989
 30
0.0
  0
ENDBLK
  5
A244
330
A242
100
AcDbEntity
  8
0
100
AcDbBlockEnd
  0
BLOCK
  5
A24F
330
A24E
100
AcDbEntity
  8
0
100
AcDbBlockBegin
  2
*D22
 70
     1
 10
0.0
 20
0.0
 30
0.0
  3
*D22
  1

  0
LINE
  5
D8A0
330
A24E
100
AcDbEntity
  8
ADM
 62
     0
440
 16777216
370
    -2
100
AcDbLine
 10
85.39719144851687
 20
40.30381247859867
 30
0.0
 11
108.6386157073375
 21
40.30381247859867
 31
0.0
  0
LINE
  5
D8A1
330
A24E
100
AcDbEntity
  8
ADM
 62
     0
440
 16777216
370
    -2
100
AcDbLine
 10
81.0971914485167
 20
48.30381247859881
 30
0.0
 11
108.6386157073375
 21
48.30381247859881
 31
0.0
  0
LINE
  5
D8A2
330
A24E
100
AcDbEntity
  8
ADM
 62
     0
440
 16777216
370
    -2
100
AcDbLine
 10
108.6386157073375
 20
41.10381247859867
 30
0.0
 11
108.6386157073375
 21
47.50381247859881
 31
0.0
  0
INSERT
  5
D8A3
330
A24E
100
AcDbEntity
  8
ADM
 62
     0
440
 16777216
370
    -2
100
AcDbBlockReference
  2
_Dot
 10
108.6386157073375
 20
40.30381247859867
 30
0.0
 41
0.8
 42
0.8
 43
0.8
 50
270.0
  0
INSERT
  5
D8A4
330
A24E
100
AcDbEntity
  8
ADM
 62
     0
440
 16777216
370
    -2
100
AcDbBlockReference
  2
_Dot
 10
108.6386157073375
 20
48.30381247859881
 30
0.0
 41
0.8
 42
0.8
 43
0.8
 50
90.0
  0
MTEXT
  5
D8A5
330
A24E
100
AcDbEntity
  8
ADM
 62
     4
440
 16777216
100
AcDbMText
 10
106.1386157073375
 20
44.30381247859876
 30
0.0
 40
3.0
 41
0.0
 46
0.0
 71
     5
 72
     1
  1
\A2;8
 11
0.0000000000000001
 21
1.0
 31
0.0
 73
     1
 44
1.0
  0
POINT
  5
D8A6
330
A24E
100
AcDbEntity
  8
DEFPOINTS
 62
     0
440
 16777216
100
AcDbPoint
 10
84.39719144851688
 20
40.30381247859867
 30
0.0
  0
POINT
  5
D8A7
330
A24E
100
AcDbEntity
  8
DEFPOINTS
 62
     0
440
 16777216
100
AcDbPoint
 10
80.0971914485167
 20
48.30381247859881
 30
0.0
  0
POINT
  5
D8A8
330
A24E
100
AcDbEntity
  8
DEFPOINTS
 62
     0
440
 16777216
100
AcDbPoint
 10
108.6386157073375
 20
48.30381247859881
 30
0.0
  0
ENDBLK
  5
A250
330
A24E
100
AcDbEntity
  8
0
100
AcDbBlockEnd
  0
BLOCK
  5
A25B
330
A25A
100
AcDbEntity
  8
0
100
AcDbBlockBegin
  2
*D23
 70
     1
 10
0.0
 20
0.0
 30
0.0
  3
*D23
  1

  0
LINE
  5
D8A9
330
A25A
100
AcDbEntity
  8
ADM
 62
     0
440
 16777216
370
    -2
100
AcDbLine
 10
81.03719144851812
 20
124.3038124785989
 30
0.0
 11
108.6386157073375
 21
124.3038124785989
 31
0.0
  0
LINE
  5
D8AA
330
A25A
100
AcDbEntity
  8
ADM
 62
     0
440
 16777216
370
    -2
100
AcDbLine
 10
81.0971914485167
 20
48.30381247859881
 30
0.0
 11
108.6386157073375
 21
48.30381247859881
 31
0.0
  0
LINE
  5
D8AB
330
A25A
100
AcDbEntity
  8
ADM
 62
     0
440
 16777216
370
    -2
100
AcDbLine
 10
108.6386157073375
 20
123.5038124785989
 30
0.0
 11
108.6386157073375
 21
49.10381247859881
 31
0.0
  0
INSERT
  5
D8AC
330
A25A
100
AcDbEntity
  8
ADM
 62
     0
440
 16777216
370
    -2
100
AcDbBlockReference
  2
_Dot
 10
108.6386157073375
 20
124.3038124785989
 30
0.0
 41
0.8
 42
0.8
 43
0.8
 50
90.0
  0
INSERT
  5
D8AD
330
A25A
100
AcDbEntity
  8
ADM
 62
     0
440
 16777216
370
    -2
100
AcDbBlockReference
  2
_Dot
 10
108.6386157073375
 20
48.30381247859881
 30
0.0
 41
0.8
 42
0.8
 43
0.8
 50
270.0
  0
MTEXT
  5
D8AE
330
A25A
100
AcDbEntity
  8
ADM
 62
     4
440
 16777216
100
AcDbMText
 10
106.1386157073375
 20
86.30381247859887
 30
0.0
 40
3.0
 41
0.0
 46
0.0
 71
     5
 72
     1
  1
\A2;76
 11
0.0000000000000001
 21
1.0
 31
0.0
 73
     1
 44
1.0
  0
POINT
  5
D8AF
330
A25A
100
AcDbEntity
  8
DEFPOINTS
 62
     0
440
 16777216
100
AcDbPoint
 10
80.03719144851812
 20
124.3038124785989
 30
0.0
  0
POINT
  5
D8B0
330
A25A
100
AcDbEntity
  8
DEFPOINTS
 62
     0
440
 16777216
100
AcDbPoint
 10
80.0971914485167
 20
48.30381247859881
 30
0.0
  0
POINT
  5
D8B1
330
A25A
100
AcDbEntity
  8
DEFPOINTS
 62
     0
440
 16777216
100
AcDbPoint
 10
108.6386157073375
 20
48.30381247859881
 30
0.0
  0
ENDBLK
  5
A25C
330
A25A
100
AcDbEntity
  8
0
100
AcDbBlockEnd
  0
BLOCK
  5
A267
330
A266
100
AcDbEntity
  8
0
100
AcDbBlockBegin
  2
*D24
 70
     1
 10
0.0
 20
0.0
 30
0.0
  3
*D24
  1

  0
LINE
  5
D8B2
330
A266
100
AcDbEntity
  8
ADM
 62
     0
440
 16777216
370
    -2
100
AcDbLine
 10
81.03713347256007
 20
163.3038124785989
 30
0.0
 11
108.6386157073373
 21
163.3038124785989
 31
0.0
  0
LINE
  5
D8B3
330
A266
100
AcDbEntity
  8
ADM
 62
     0
440
 16777216
370
    -2
100
AcDbLine
 10
81.09713347255866
 20
239.3038124785991
 30
0.0
 11
108.6386157073373
 21
239.3038124785991
 31
0.0
  0
LINE
  5
D8B4
330
A266
100
AcDbEntity
  8
ADM
 62
     0
440
 16777216
370
    -2
100
AcDbLine
 10
108.6386157073373
 20
164.1038124785989
 30
0.0
 11
108.6386157073373
 21
238.5038124785991
 31
0.0
  0
INSERT
  5
D8B5
330
A266
100
AcDbEntity
  8
ADM
 62
     0
440
 16777216
370
    -2
100
AcDbBlockReference
  2
_Dot
 10
108.6386157073373
 20
163.3038124785989
 30
0.0
 41
0.8
 42
0.8
 43
0.8
 50
270.0
  0
INSERT
  5
D8B6
330
A266
100
AcDbEntity
  8
ADM
 62
     0
440
 16777216
370
    -2
100
AcDbBlockReference
  2
_Dot
 10
108.6386157073373
 20
239.3038124785991
 30
0.0
 41
0.8
 42
0.8
 43
0.8
 50
90.0
  0
MTEXT
  5
D8B7
330
A266
100
AcDbEntity
  8
ADM
 62
     4
440
 16777216
100
AcDbMText
 10
106.1386157073372
 20
201.303812478599
 30
0.0
 40
3.0
 41
0.0
 46
0.0
 71
     5
 72
     1
  1
\A2;76
 11
0.0000000000000001
 21
1.0
 31
0.0
 73
     1
 44
1.0
  0
POINT
  5
D8B8
330
A266
100
AcDbEntity
  8
DEFPOINTS
 62
     0
440
 16777216
100
AcDbPoint
 10
80.03713347256008
 20
163.3038124785989
 30
0.0
  0
POINT
  5
D8B9
330
A266
100
AcDbEntity
  8
DEFPOINTS
 62
     0
440
 16777216
100
AcDbPoint
 10
80.09713347255866
 20
239.3038124785991
 30
0.0
  0
POINT
  5
D8BA
330
A266
100
AcDbEntity
  8
DEFPOINTS
 62
     0
440
 16777216
100
AcDbPoint
 10
108.6386157073373
 20
239.3038124785991
 30
0.0
  0
ENDBLK
  5
A268
330
A266
100
AcDbEntity
  8
0
100
AcDbBlockEnd
  0
BLOCK
  5
A273
330
A272
100
AcDbEntity
  8
0
100
AcDbBlockBegin
  2
*D25
 70
     1
 10
0.0
 20
0.0
 30
0.0
  3
*D25
  1

  0
LINE
  5
D8BB
330
A272
100
AcDbEntity
  8
ADM
 62
     0
440
 16777216
370
    -2
100
AcDbLine
 10
81.09713347255866
 20
239.3038124785991
 30
0.0
 11
108.6386157073373
 21
239.3038124785991
 31
0.0
  0
LINE
  5
D8BC
330
A272
100
AcDbEntity
  8
ADM
 62
     0
440
 16777216
370
    -2
100
AcDbLine
 10
85.39719144851687
 20
244.3038124785991
 30
0.0
 11
108.6386157073373
 21
244.3038124785991
 31
0.0
  0
LINE
  5
D8BD
330
A272
100
AcDbEntity
  8
ADM
 62
     0
440
 16777216
370
    -2
100
AcDbLine
 10
108.6386157073373
 20
240.1038124785991
 30
0.0
 11
108.6386157073373
 21
243.5038124785991
 31
0.0
  0
INSERT
  5
D8BE
330
A272
100
AcDbEntity
  8
ADM
 62
     0
440
 16777216
370
    -2
100
AcDbBlockReference
  2
_Dot
 10
108.6386157073373
 20
239.3038124785991
 30
0.0
 41
0.8
 42
0.8
 43
0.8
 50
270.0
  0
INSERT
  5
D8BF
330
A272
100
AcDbEntity
  8
ADM
 62
     0
440
 16777216
370
    -2
100
AcDbBlockReference
  2
_Dot
 10
108.6386157073373
 20
244.3038124785991
 30
0.0
 41
0.8
 42
0.8
 43
0.8
 50
90.0
  0
MTEXT
  5
D8C0
330
A272
100
AcDbEntity
  8
ADM
 62
     4
440
 16777216
100
AcDbMText
 10
106.1386157073372
 20
241.8038124785991
 30
0.0
 40
3.0
 41
0.0
 46
0.0
 71
     5
 72
     1
  1
\A2;5
 11
0.0000000000000001
 21
1.0
 31
0.0
 73
     1
 44
1.0
  0
POINT
  5
D8C1
330
A272
100
AcDbEntity
  8
DEFPOINTS
 62
     0
440
 16777216
100
AcDbPoint
 10
80.09713347255866
 20
239.3038124785991
 30
0.0
  0
POINT
  5
D8C2
330
A272
100
AcDbEntity
  8
DEFPOINTS
 62
     0
440
 16777216
100
AcDbPoint
 10
84.39719144851688
 20
244.3038124785991
 30
0.0
  0
POINT
  5
D8C3
330
A272
100
AcDbEntity
  8
DEFPOINTS
 62
     0
440
 16777216
100
AcDbPoint
 10
108.6386157073373
 20
244.3038124785991
 30
0.0
  0
ENDBLK
  5
A274
330
A272
100
AcDbEntity
  8
0
100
AcDbBlockEnd
  0
BLOCK
  5
A27F
330
A27E
100
AcDbEntity
  8
0
100
AcDbBlockBegin
  2
*D26
 70
     1
 10
0.0
 20
0.0
 30
0.0
  3
*D26
  1

  0
LINE
  5
D8C4
330
A27E
100
AcDbEntity
  8
ADM
 62
     0
440
 16777216
370
    -2
100
AcDbLine
 10
213.0245703532769
 20
171.8033497044808
 30
0.0
 11
239.8393759493733
 21
171.8033497044808
 31
0.0
  0
LINE
  5
D8C5
330
A27E
100
AcDbEntity
  8
ADM
 62
     0
440
 16777216
370
    -2
100
AcDbLine
 10
223.9437397443758
 20
126.8033191869024
 30
0.0
 11
239.8393759493733
 21
126.8033191869024
 31
0.0
  0
LINE
  5
D8C6
330
A27E
100
AcDbEntity
  8
ADM
 62
     0
440
 16777216
370
    -2
100
AcDbLine
 10
239.8393759493733
 20
171.0033497044808
 30
0.0
 11
239.8393759493733
 21
127.6033191869024
 31
0.0
  0
INSERT
  5
D8C7
330
A27E
100
AcDbEntity
  8
ADM
 62
     0
440
 16777216
370
    -2
100
AcDbBlockReference
  2
_Dot
 10
239.8393759493733
 20
171.8033497044808
 30
0.0
 41
0.8
 42
0.8
 43
0.8
 50
90.0
  0
INSERT
  5
D8C8
330
A27E
100
AcDbEntity
  8
ADM
 62
     0
440
 16777216
370
    -2
100
AcDbBlockReference
  2
_Dot
 10
239.8393759493733
 20
126.8033191869024
 30
0.0
 41
0.8
 42
0.8
 43
0.8
 50
270.0
  0
MTEXT
  5
D8C9
330
A27E
100
AcDbEntity
  8
ADM
 62
     4
440
 16777216
100
AcDbMText
 10
237.3393759493733
 20
149.3033344456916
 30
0.0
 40
3.0
 41
0.0
 46
0.0
 71
     5
 72
     1
  1
\A2;45
 11
0.0000000000000001
 21
1.0
 31
0.0
 73
     1
 44
1.0
  0
POINT
  5
D8CA
330
A27E
100
AcDbEntity
  8
DEFPOINTS
 62
     0
440
 16777216
100
AcDbPoint
 10
212.0245703532769
 20
171.8033497044808
 30
0.0
  0
POINT
  5
D8CB
330
A27E
100
AcDbEntity
  8
DEFPOINTS
 62
     0
440
 16777216
100
AcDbPoint
 10
222.9437397443758
 20
126.8033191869024
 30
0.0
  0
POINT
  5
D8CC
330
A27E
100
AcDbEntity
  8
DEFPOINTS
 62
     0
440
 16777216
100
AcDbPoint
 10
239.8393759493733
 20
126.8033191869024
 30
0.0
  0
ENDBLK
  5
A280
330
A27E
100
AcDbEntity
  8
0
100
AcDbBlockEnd
  0
BLOCK
  5
A28B
330
A28A
100
AcDbEntity
  8
0
100
AcDbBlockBegin
  2
*D27
 70
     1
 10
0.0
 20
0.0
 30
0.0
  3
*D27
  1

  0
LINE
  5
D8CD
330
A28A
100
AcDbEntity
  8
ADM
 62
     0
440
 16777216
370
    -2
100
AcDbLine
 10
238.0188311380534
 20
126.8033191869024
 30
0.0
 11
239.8393759493733
 21
126.8033191869024
 31
0.0
  0
LINE
  5
D8CE
330
A28A
100
AcDbEntity
  8
ADM
 62
     0
440
 16777216
370
    -2
100
AcDbLine
 10
224.0437397443757
 20
101.303319186902
 30
0.0
 11
239.8393759493733
 21
101.303319186902
 31
0.0
  0
LINE
  5
D8CF
330
A28A
100
AcDbEntity
  8
ADM
 62
     0
440
 16777216
370
    -2
100
AcDbLine
 10
239.8393759493733
 20
126.0033191869024
 30
0.0
 11
239.8393759493733
 21
102.103319186902
 31
0.0
  0
INSERT
  5
D8D0
330
A28A
100
AcDbEntity
  8
ADM
 62
     0
440
 16777216
370
    -2
100
AcDbBlockReference
  2
_Dot
 10
239.8393759493733
 20
126.8033191869024
 30
0.0
 41
0.8
 42
0.8
 43
0.8
 50
90.0
  0
INSERT
  5
D8D1
330
A28A
100
AcDbEntity
  8
ADM
 62
     0
440
 16777216
370
    -2
100
AcDbBlockReference
  2
_Dot
 10
239.8393759493733
 20
101.303319186902
 30
0.0
 41
0.8
 42
0.8
 43
0.8
 50
270.0
  0
MTEXT
  5
D8D2
330
A28A
100
AcDbEntity
  8
ADM
 62
     4
440
 16777216
100
AcDbMText
 10
237.3393759493733
 20
114.0533191869022
 30
0.0
 40
3.0
 41
0.0
 46
0.0
 71
     5
 72
     1
  1
\A2;25.5
 11
0.0000000000000001
 21
1.0
 31
0.0
 73
     1
 44
1.0
  0
POINT
  5
D8D3
330
A28A
100
AcDbEntity
  8
DEFPOINTS
 62
     0
440
 16777216
100
AcDbPoint
 10
237.0188311380534
 20
126.8033191869024
 30
0.0
  0
POINT
  5
D8D4
330
A28A
100
AcDbEntity
  8
DEFPOINTS
 62
     0
440
 16777216
100
AcDbPoint
 10
223.0437397443757
 20
101.303319186902
 30
0.0
  0
POINT
  5
D8D5
330
A28A
100
AcDbEntity
  8
DEFPOINTS
 62
     0
440
 16777216
100
AcDbPoint
 10
239.8393759493733
 20
101.303319186902
 30
0.0
  0
ENDBLK
  5
A28C
330
A28A
100
AcDbEntity
  8
0
100
AcDbBlockEnd
  0
BLOCK
  5
A297
330
A296
100
AcDbEntity
  8
0
100
AcDbBlockBegin
  2
*D28
 70
     1
 10
0.0
 20
0.0
 30
0.0
  3
*D28
  1

  0
LINE
  5
D8D6
330
A296
100
AcDbEntity
  8
ADM
 62
     0
440
 16777216
370
    -2
100
AcDbLine
 10
224.0437397443757
 20
101.303319186902
 30
0.0
 11
239.8393759493734
 21
101.303319186902
 31
0.0
  0
LINE
  5
D8D7
330
A296
100
AcDbEntity
  8
ADM
 62
     0
440
 16777216
370
    -2
100
AcDbLine
 10
213.0245703532769
 20
56.30328866932401
 30
0.0
 11
239.8393759493733
 21
56.30328866932401
 31
0.0
  0
LINE
  5
D8D8
330
A296
100
AcDbEntity
  8
ADM
 62
     0
440
 16777216
370
    -2
100
AcDbLine
 10
239.8393759493734
 20
100.503319186902
 30
0.0
 11
239.8393759493733
 21
57.10328866932401
 31
0.0
  0
INSERT
  5
D8D9
330
A296
100
AcDbEntity
  8
ADM
 62
     0
440
 16777216
370
    -2
100
AcDbBlockReference
  2
_Dot
 10
239.8393759493734
 20
101.303319186902
 30
0.0
 41
0.8
 42
0.8
 43
0.8
 50
90.0
  0
INSERT
  5
D8DA
330
A296
100
AcDbEntity
  8
ADM
 62
     0
440
 16777216
370
    -2
100
AcDbBlockReference
  2
_Dot
 10
239.8393759493733
 20
56.30328866932401
 30
0.0
 41
0.8
 42
0.8
 43
0.8
 50
270.0
  0
MTEXT
  5
D8DB
330
A296
100
AcDbEntity
  8
ADM
 62
     4
440
 16777216
100
AcDbMText
 10
237.3393759493733
 20
78.80330392811305
 30
0.0
 40
3.0
 41
0.0
 46
0.0
 71
     5
 72
     1
  1
\A2;45
 11
0.0000000000000001
 21
1.0
 31
0.0
 73
     1
 44
1.0
  0
POINT
  5
D8DC
330
A296
100
AcDbEntity
  8
DEFPOINTS
 62
     0
440
 16777216
100
AcDbPoint
 10
223.0437397443757
 20
101.303319186902
 30
0.0
  0
POINT
  5
D8DD
330
A296
100
AcDbEntity
  8
DEFPOINTS
 62
     0
440
 16777216
100
AcDbPoint
 10
212.0245703532769
 20
56.30328866932401
 30
0.0
  0
POINT
  5
D8DE
330
A296
100
AcDbEntity
  8
DEFPOINTS
 62
     0
440
 16777216
100
AcDbPoint
 10
239.8393759493733
 20
56.30328866932401
 30
0.0
  0
ENDBLK
  5
A298
330
A296
100
AcDbEntity
  8
0
100
AcDbBlockEnd
  0
ENDSEC
  0
SECTION
  2
ENTITIES
  0
LINE
  5
A0D3
330
2
100
AcDbEntity
  8
0
100
AcDbLine
 10
86.89719144851688
 20
27.30381247859885
 30
0.0
 11
36.89719144851688
 21
27.30381247859884
 31
0.0
  0
LINE
  5
A0D4
330
2
100
AcDbEntity
  8
0
100
AcDbLine
 10
36.89719144851688
 20
257.3038124785989
 30
0.0
 11
36.89719144851688
 21
143.3038124785988
 31
0.0
  0
LINE
  5
A0D5
330
2
100
AcDbEntity
  8
0
100
AcDbLine
 10
36.89719144851688
 20
141.3038124785988
 30
0.0
 11
36.89719144851688
 21
27.30381247859883
 31
0.0
  0
LINE
  5
A0D6
330
2
100
AcDbEntity
  8
0
100
AcDbLine
 10
86.89719144851688
 20
257.3038124785989
 30
0.0
 11
86.89719144851688
 21
143.3038124785989
 31
0.0
  0
LINE
  5
A0D7
330
2
100
AcDbEntity
  8
0
100
AcDbLine
 10
86.89719144851688
 20
141.3038124785988
 30
0.0
 11
86.89719144851688
 21
27.30381247859885
 31
0.0
  0
LWPOLYLINE
  5
A0D8
330
2
100
AcDbEntity
  8
WAKU
100
AcDbPolyline
 90
        4
 70
     1
 43
0.0
 10
0.0
 20
0.0
 10
395.0
 20
0.0
 10
395.0
 20
275.0
 10
0.0
 20
275.0
  0
LINE
  5
A0D9
330
2
100
AcDbEntity
  8
0
100
AcDbLine
 10
51.39719144851688
 20
59.78160098150226
 30
0.0
 11
51.39719144851688
 21
141.3038124785988
 31
0.0
  0
LINE
  5
A0DA
330
2
100
AcDbEntity
  8
0
100
AcDbLine
 10
51.39719144851688
 20
143.3038124785988
 30
0.0
 11
51.39719144851688
 21
224.8260239756955
 31
0.0
  0
LINE
  5
A0DB
330
2
100
AcDbEntity
  8
0
100
AcDbLine
 10
56.39719144851676
 20
224.3038124785989
 30
0.0
 11
56.39719144851676
 21
143.3038124785988
 31
0.0
  0
LINE
  5
A0DC
330
2
100
AcDbEntity
  8
0
100
AcDbLine
 10
56.39719144851676
 20
141.3038124785988
 30
0.0
 11
56.39719144851676
 21
63.30381247859879
 31
0.0
  0
LINE
  5
A0DD
330
2
100
AcDbEntity
  8
0
100
AcDbLine
 10
81.89719144851734
 20
234.3038124785991
 30
0.0
 11
81.89719144851734
 21
143.3038124785988
 31
0.0
  0
LINE
  5
A0DE
330
2
100
AcDbEntity
  8
0
100
AcDbLine
 10
81.89719144851734
 20
141.3038124785988
 30
0.0
 11
81.89719144851734
 21
53.30381247859881
 31
0.0
  0
LINE
  5
A0DF
330
2
100
AcDbEntity
  8
0
100
AcDbLine
 10
73.39719144851688
 20
124.3038124785988
 30
0.0
 11
73.39719144851688
 21
141.3038124785988
 31
0.0
  0
LINE
  5
A0E0
330
2
100
AcDbEntity
  8
0
100
AcDbLine
 10
73.39719144851688
 20
143.3038124785989
 30
0.0
 11
73.39719144851688
 21
163.3038124786072
 31
0.0
  0
LINE
  5
A0E1
330
2
100
AcDbEntity
  8
0
100
AcDbLine
 10
58.99719144851667
 20
124.3097101232134
 30
0.0
 11
58.99719144851667
 21
141.3038124785988
 31
0.0
  0
LINE
  5
A0E2
330
2
100
AcDbEntity
  8
0
100
AcDbLine
 10
58.99719144851667
 20
143.3038124785988
 30
0.0
 11
58.99719144851667
 21
163.3038124785988
 31
0.0
  0
LINE
  5
A0E3
330
2
100
AcDbEntity
  8
0
100
AcDbLine
 10
333.3437397443797
 20
131.8033191869024
 30
0.0
 11
255.3437397443761
 21
131.8033191869024
 31
0.0
  0
LINE
  5
A0E4
330
2
100
AcDbEntity
  8
0
100
AcDbLine
 10
253.3437397443763
 20
131.8033191869024
 30
0.0
 11
201.3443259829751
 21
131.8033191869024
 31
0.0
  0
LINE
  5
A0E5
330
2
100
AcDbEntity
  8
0
100
AcDbLine
 10
182.3443259829764
 20
131.8033191869024
 30
0.0
 11
177.3437397443727
 21
131.8033191869024
 31
0.0
  0
LINE
  5
A0E6
330
2
100
AcDbEntity
  8
0
100
AcDbLine
 10
177.3437397443826
 20
143.3033191869045
 30
0.0
 11
182.3443259829764
 21
143.3033191869045
 31
0.0
  0
LINE
  5
A0E7
330
2
100
AcDbEntity
  8
0
100
AcDbLine
 10
204.6585723229787
 20
143.3033191869045
 30
0.0
 11
253.3437397443766
 21
143.3033191869045
 31
0.0
  0
LINE
  5
A0E8
330
2
100
AcDbEntity
  8
0
100
AcDbLine
 10
157.3437397443847
 20
98.30331918690454
 30
0.0
 11
182.3443259829764
 21
98.30331918690456
 31
0.0
  0
LINE
  5
A0E9
330
2
100
AcDbEntity
  8
0
100
AcDbLine
 10
201.3443259829746
 20
98.30331918690454
 30
0.0
 11
253.3437397443763
 21
98.30331918690454
 31
0.0
  0
LINE
  5
A0EA
330
2
100
AcDbEntity
  8
0
100
AcDbLine
 10
255.3437397443763
 20
98.30331918690454
 30
0.0
 11
346.1437397443756
 21
98.30331918690454
 31
0.0
  0
LINE
  5
A0EB
330
2
100
AcDbEntity
  8
0
100
AcDbLine
 10
221.8437397443836
 20
109.8033191869024
 30
0.0
 11
234.6729227052676
 21
109.8033191869024
 31
0.0
  0
LINE
  5
A0EC
330
2
100
AcDbEntity
  8
0
100
AcDbLine
 10
255.3437397443763
 20
109.8033191869024
 30
0.0
 11
287.6437397443765
 21
109.8033191869024
 31
0.0
  0
LINE
  5
A0ED
330
2
100
AcDbEntity
  8
0
100
AcDbLine
 10
287.6437397443765
 20
102.5033191869013
 30
0.0
 11
255.3437397443761
 21
102.5033191869013
 31
0.0
  0
LINE
  5
A0EE
330
2
100
AcDbEntity
  8
0
100
AcDbLine
 10
253.3437397443763
 20
102.5033191869013
 30
0.0
 11
221.843739744384
 21
102.5033191869013
 31
0.0
  0
LINE
  5
A0EF
330
2
100
AcDbEntity
  8
0
100
AcDbLine
 10
222.9437397443758
 20
126.8033191869024
 30
0.0
 11
253.3437397443763
 21
126.8033191869024
 31
0.0
  0
LINE
  5
A0F0
330
2
100
AcDbEntity
  8
0
100
AcDbLine
 10
255.3437397443763
 20
126.8033191869024
 30
0.0
 11
286.1437397443761
 21
126.8033191869024
 31
0.0
  0
LINE
  5
A0F1
330
2
100
AcDbEntity
  8
0
100
AcDbLine
 10
36.89719144851688
 20
257.3038124785989
 30
0.0
 11
86.89719144851688
 21
257.3038124785989
 31
0.0
  0
LWPOLYLINE
  5
A0F2
330
2
100
AcDbEntity
  8
0
  6
ByBlock
100
AcDbPolyline
 90
        4
 70
     1
 43
0.0
 10
346.1437397443756
 20
108.5033191869077
 10
346.1437397443756
 20
123.5033191869077
 10
339.6437397443765
 20
123.5033191869077
 10
339.6437397443765
 20
108.5033191869062
1001
AcDbBlockRepETag
1070
     1
1071
        2
1005
6C0A
  0
DIMENSION
  5
A0F3
330
2
100
AcDbEntity
  8
ADM
100
AcDbDimension
280
     0
  2
*D8
 10
84.89719144851482
 20
19.87950994879998
 30
0.0
 11
62.39719144851483
 21
22.37950994879998
 31
0.0
 70
    32
 71
     5
 42
45.0
 73
     0
 74
     0
 75
     0
  3
S1$0
100
AcDbAlignedDimension
 13
39.89719144851483
 23
27.30381247859884
 33
0.0
 14
84.89719144851482
 24
27.30381247859885
 34
0.0
100
AcDbRotatedDimension
1001
ACAD
1000
DSTYLE
1002
{
1070
   279
1070
     0
1002
}
  0
DIMENSION
  5
A0F4
330
2
100
AcDbEntity
  8
ADM
100
AcDbDimension
280
     0
  2
*D9
 10
86.89719144851688
 20
12.59475285919939
 30
0.0
 11
61.89719144851688
 21
12.59475285919939
 31
0.0
 70
   160
 71
     5
 42
50.0
 73
     0
 74
     0
 75
     0
  3
S1$0
100
AcDbAlignedDimension
 13
36.89719144851688
 23
27.30381247859883
 33
0.0
 14
86.89719144851688
 24
27.30381247859885
 34
0.0
100
AcDbRotatedDimension
1001
ACAD
1000
DSTYLE
1002
{
1070
   279
1070
     0
1002
}
  0
DIMENSION
  5
A0F5
330
2
100
AcDbEntity
  8
ADM
100
AcDbDimension
280
     0
  2
*D10
 10
9.044333516993447
 20
27.30381247859885
 30
0.0
 11
6.54433351699345
 21
142.3038124785988
 31
0.0
 70
    32
  1
H
 71
     5
 42
230.0000000000001
 73
     0
 74
     0
 75
     0
  3
S1$0
100
AcDbAlignedDimension
 13
36.89719144851688
 23
257.3038124785989
 33
0.0
 14
36.89719144851688
 24
27.30381247859885
 34
0.0
 50
90.0
100
AcDbRotatedDimension
  0
DIMENSION
  5
A0F6
330
2
100
AcDbEntity
  8
ADM
100
AcDbDimension
280
     0
  2
*D11
 10
19.89901260470344
 20
257.3038124785989
 30
0.0
 11
17.3990126047034
 21
240.8038124785989
 31
0.0
 70
    32
 71
     5
 42
32.99999999999994
 73
     0
 74
     0
 75
     0
  3
S1$0
100
AcDbAlignedDimension
 13
51.39719144851688
 23
224.3038124785989
 33
0.0
 14
36.89719144851688
 24
257.3038124785989
 34
0.0
 50
90.0
100
AcDbRotatedDimension
  0
DIMENSION
  5
A0F7
330
2
100
AcDbEntity
  8
ADM
100
AcDbDimension
280
     0
  2
*D12
 10
19.88181945428607
 20
27.30381247859885
 30
0.0
 11
17.38181945428607
 21
43.80381247859886
 31
0.0
 70
    32
 71
     5
 42
33.00000000000001
 73
     0
 74
     0
 75
     0
  3
S1$0
100
AcDbAlignedDimension
 13
51.39719144851688
 23
60.30381247859884
 33
0.0
 14
36.89719144851688
 24
27.30381247859885
 34
0.0
 50
90.0
100
AcDbRotatedDimension
  0
DIMENSION
  5
A0F8
330
2
100
AcDbEntity
  8
ADM
100
AcDbDimension
280
     0
  2
*D13
 10
19.89901260470333
 20
224.3038124785989
 30
0.0
 11
17.39901260470329
 21
142.3038124785989
 31
0.0
 70
    32
  1
H-66
 71
     5
 42
164.0000000000001
 73
     0
 74
     0
 75
     0
  3
S1$0
100
AcDbAlignedDimension
 13
51.39719144851688
 23
60.30381247859884
 33
0.0
 14
51.39719144851688
 24
224.3038124785989
 34
0.0
 50
90.0
100
AcDbRotatedDimension
  0
DIMENSION
  5
A0F9
330
2
100
AcDbEntity
  8
ADM
100
AcDbDimension
280
     0
  2
*D14
 10
370.3437397443784
 20
32.02234674075112
 30
0.0
 11
255.3437397443762
 21
34.52234674075112
 31
0.0
 70
    32
  1
W
 71
     5
 42
230.0000000000043
 73
     0
 74
     0
 75
     0
  3
S1$0
100
AcDbAlignedDimension
 13
140.343739744374
 23
96.30331918690206
 33
0.0
 14
370.3437397443784
 24
96.30331918690206
 34
0.0
100
AcDbRotatedDimension
1001
ACAD
1000
DSTYLE
1002
{
1070
   279
1070
     0
1002
}
  0
DIMENSION
  5
A0FA
330
2
100
AcDbEntity
  8
ADM
100
AcDbDimension
280
     0
  2
*D15
 10
140.343739744374
 20
40.02234674075111
 30
0.0
 11
148.8437397443749
 21
40.02234674075111
 31
0.0
 70
   160
 71
     5
 42
17.00000000000204
 73
     0
 74
     0
 75
     0
  3
S1$0
100
AcDbAlignedDimension
 13
157.343739744376
 23
96.80331918690237
 33
0.0
 14
140.343739744374
 24
96.3033191869024
 34
0.0
100
AcDbRotatedDimension
1001
ACAD
1000
DSTYLE
1002
{
1070
   279
1070
     0
1002
}
  0
DIMENSION
  5
A0FB
330
2
100
AcDbEntity
  8
ADM
100
AcDbDimension
280
     0
  2
*D16
 10
370.3437397443784
 20
40.02234674075111
 30
0.0
 11
361.8437397443774
 21
42.52234674075111
 31
0.0
 70
    32
 71
     5
 42
17.00000000000204
 73
     0
 74
     0
 75
     0
  3
S1$0
100
AcDbAlignedDimension
 13
353.3437397443763
 23
96.80331918690237
 33
0.0
 14
370.3437397443784
 24
96.30331918690206
 34
0.0
100
AcDbRotatedDimension
  0
DIMENSION
  5
A0FF
330
2
100
AcDbEntity
  8
ADM
100
AcDbDimension
280
     0
  2
*D7
 10
108.6386157073375
 20
27.30381247859884
 30
0.0
 11
106.1386157073375
 21
33.80381247859886
 31
0.0
 70
    32
 71
     5
 42
13.0
 73
     0
 74
     0
 75
     0
  3
S1$0
100
AcDbAlignedDimension
 13
86.89719144851688
 23
40.30381247859884
 33
0.0
 14
86.89719144851688
 24
27.30381247859885
 34
0.0
 50
90.0
100
AcDbRotatedDimension
  0
LWPOLYLINE
  5
A104
330
2
100
AcDbEntity
  8
0
100
AcDbPolyline
 90
        4
 70
     1
 43
0.0
 10
351.3437397443761
 20
97.30331918690243
 10
353.3437397443761
 20
97.30331918690243
 10
353.3437397443761
 20
123.5033191869024
 10
351.3437397443761
 20
123.5033191869024
  0
LINE
  5
A107
330
2
100
AcDbEntity
  8
0
100
AcDbLine
 10
59.39719144851676
 20
48.30381247859881
 30
0.0
 11
80.0971914485167
 21
48.30381247859881
 31
0.0
  0
LINE
  5
A108
330
2
100
AcDbEntity
  8
0
100
AcDbLine
 10
83.09719144851669
 20
51.30381247859881
 30
0.0
 11
83.09719144851669
 21
53.30381247859881
 31
0.0
  0
LINE
  5
A109
330
2
100
AcDbEntity
  8
0
100
AcDbLine
 10
83.09719144851669
 20
53.30381247859881
 30
0.0
 11
80.69719144851797
 21
53.30381247859881
 31
0.0
  0
LINE
  5
A10A
330
2
100
AcDbEntity
  8
0
100
AcDbLine
 10
56.39719144851676
 20
51.30381247859881
 30
0.0
 11
56.39719144851676
 21
51.30381247859881
 31
0.0
  0
ARC
  5
A10B
330
2
100
AcDbEntity
  8
0
100
AcDbCircle
 10
80.0971914485167
 20
51.30381247859881
 30
0.0
 40
3.0
100
AcDbArc
 50
270.0
 51
0.0
  0
LINE
  5
A10C
330
2
100
AcDbEntity
  8
0
100
AcDbLine
 10
59.39719144851676
 20
48.30381247859881
 30
0.0
 11
80.0971914485167
 21
48.30381247859881
 31
0.0
  0
LINE
  5
A10D
330
2
100
AcDbEntity
  8
0
100
AcDbLine
 10
83.09719144851669
 20
51.30381247859881
 30
0.0
 11
83.09719144851669
 21
53.30381247859881
 31
0.0
  0
LINE
  5
A10E
330
2
100
AcDbEntity
  8
0
100
AcDbLine
 10
83.09719144851669
 20
53.30381247859881
 30
0.0
 11
80.69719144851797
 21
53.30381247859881
 31
0.0
  0
LINE
  5
A10F
330
2
100
AcDbEntity
  8
0
100
AcDbLine
 10
56.39719144851676
 20
51.30381247859881
 30
0.0
 11
56.39719144851676
 21
51.30381247859881
 31
0.0
  0
ARC
  5
A110
330
2
100
AcDbEntity
  8
0
100
AcDbCircle
 10
80.0971914485167
 20
51.30381247859881
 30
0.0
 40
3.0
100
AcDbArc
 50
270.0
 51
0.0
  0
LINE
  5
A111
330
2
100
AcDbEntity
  8
0
100
AcDbLine
 10
59.39713347255895
 20
239.3038124785991
 30
0.0
 11
80.09713347255866
 21
239.3038124785991
 31
0.0
  0
LINE
  5
A112
330
2
100
AcDbEntity
  8
0
100
AcDbLine
 10
83.09713347255865
 20
236.3038124785991
 30
0.0
 11
83.09713347255865
 21
234.3038124785991
 31
0.0
  0
LINE
  5
A113
330
2
100
AcDbEntity
  8
0
100
AcDbLine
 10
83.09713347255865
 20
234.3038124785991
 30
0.0
 11
80.69713347256016
 21
234.3038124785991
 31
0.0
  0
ARC
  5
A114
330
2
100
AcDbEntity
  8
0
100
AcDbCircle
 10
80.09713347255866
 20
236.3038124785991
 30
0.0
 40
3.0
100
AcDbArc
 50
0.0
 51
90.0
  0
LINE
  5
A115
330
2
100
AcDbEntity
  8
0
100
AcDbLine
 10
59.39713347255895
 20
239.3038124785991
 30
0.0
 11
80.09713347255866
 21
239.3038124785991
 31
0.0
  0
LINE
  5
A116
330
2
100
AcDbEntity
  8
0
100
AcDbLine
 10
83.09713347255865
 20
236.3038124785991
 30
0.0
 11
83.09713347255865
 21
234.3038124785991
 31
0.0
  0
LINE
  5
A117
330
2
100
AcDbEntity
  8
0
100
AcDbLine
 10
83.09713347255865
 20
234.3038124785991
 30
0.0
 11
80.69713347256016
 21
234.3038124785991
 31
0.0
  0
ARC
  5
A118
330
2
100
AcDbEntity
  8
0
100
AcDbCircle
 10
80.09713347255866
 20
236.3038124785991
 30
0.0
 40
3.0
100
AcDbArc
 50
0.0
 51
90.0
  0
DIMENSION
  5
A145
330
2
100
AcDbEntity
  8
ADM
100
AcDbDimension
280
     0
  2
*D17
 10
163.3437397443761
 20
40.02234674075111
 30
0.0
 11
160.3437397443751
 21
42.52234674075111
 31
0.0
 70
    32
 71
     5
 42
6.000000000001818
 73
     0
 74
     0
 75
     0
  3
S1$0
100
AcDbAlignedDimension
 13
157.3437397443742
 23
96.80331918690246
 33
0.0
 14
163.3437397443761
 24
103.2633191869021
 34
0.0
100
AcDbRotatedDimension
  0
DIMENSION
  5
A146
330
2
100
AcDbEntity
  8
ADM
100
AcDbDimension
280
     0
  2
*D18
 10
223.3437397443756
 20
40.02234674075111
 30
0.0
 11
193.3437397443749
 21
42.52234674075111
 31
0.0
 70
    32
 71
     5
 42
60.00000000000136
 73
     0
 74
     0
 75
     0
  3
S1$0
100
AcDbAlignedDimension
 13
163.3437397443742
 23
103.2633191869069
 33
0.0
 14
223.3437397443756
 24
101.5633191869019
 34
0.0
100
AcDbRotatedDimension
  0
DIMENSION
  5
A147
330
2
100
AcDbEntity
  8
ADM
100
AcDbDimension
280
     0
  2
*D19
 10
346.1437397443754
 20
40.02234674075111
 30
0.0
 11
316.1437397443758
 21
42.52234674075111
 31
0.0
 70
    32
 71
     5
 42
59.99999999999909
 73
     0
 74
     0
 75
     0
  3
S1$0
100
AcDbAlignedDimension
 13
286.1437397443763
 23
101.5633191869093
 33
0.0
 14
346.1437397443754
 24
103.2633191869021
 34
0.0
100
AcDbRotatedDimension
  0
DIMENSION
  5
A148
330
2
100
AcDbEntity
  8
ADM
100
AcDbDimension
280
     0
  2
*D20
 10
353.3437397443768
 20
40.02234674075111
 30
0.0
 11
349.7437397443761
 21
42.52234674075111
 31
0.0
 70
    32
 71
     5
 42
7.200000000001409
 73
     0
 74
     0
 75
     0
  3
S1$0
100
AcDbAlignedDimension
 13
346.1437397443754
 23
103.2633191869021
 33
0.0
 14
353.3437397443768
 24
96.80331918690248
 34
0.0
100
AcDbRotatedDimension
  0
DIMENSION
  5
A149
330
2
100
AcDbEntity
  8
ADM
100
AcDbDimension
280
     0
  2
*D21
 10
108.6386157073375
 20
257.3038124785989
 30
0.0
 11
106.1386157073375
 21
250.803812478599
 31
0.0
 70
    32
 71
     5
 42
12.99999999999974
 73
     0
 74
     0
 75
     0
  3
S1$0
100
AcDbAlignedDimension
 13
84.39719144851688
 23
244.3038124785991
 33
0.0
 14
86.89719144851688
 24
257.3038124785989
 34
0.0
 50
270.0
100
AcDbRotatedDimension
  0
DIMENSION
  5
A14A
330
2
100
AcDbEntity
  8
ADM
100
AcDbDimension
280
     0
  2
*D22
 10
108.6386157073375
 20
48.30381247859881
 30
0.0
 11
106.1386157073375
 21
44.30381247859876
 31
0.0
 70
    32
 71
     5
 42
8.000000000000142
 73
     0
 74
     0
 75
     0
  3
S1$0
100
AcDbAlignedDimension
 13
84.39719144851688
 23
40.30381247859867
 33
0.0
 14
80.0971914485167
 24
48.30381247859881
 34
0.0
 50
90.0
100
AcDbRotatedDimension
  0
DIMENSION
  5
A14B
330
2
100
AcDbEntity
  8
ADM
100
AcDbDimension
280
     0
  2
*D23
 10
108.6386157073375
 20
48.30381247859881
 30
0.0
 11
106.1386157073375
 21
86.30381247859887
 31
0.0
 70
    32
 71
     5
 42
76.00000000000008
 73
     0
 74
     0
 75
     0
  3
S1$0
100
AcDbAlignedDimension
 13
80.03719144851812
 23
124.3038124785989
 33
0.0
 14
80.0971914485167
 24
48.30381247859881
 34
0.0
 50
90.0
100
AcDbRotatedDimension
  0
DIMENSION
  5
A14C
330
2
100
AcDbEntity
  8
ADM
100
AcDbDimension
280
     0
  2
*D24
 10
108.6386157073373
 20
239.3038124785991
 30
0.0
 11
106.1386157073372
 21
201.303812478599
 31
0.0
 70
    32
 71
     5
 42
76.00000000000012
 73
     0
 74
     0
 75
     0
  3
S1$0
100
AcDbAlignedDimension
 13
80.03713347256008
 23
163.3038124785989
 33
0.0
 14
80.09713347255866
 24
239.3038124785991
 34
0.0
 50
90.0
100
AcDbRotatedDimension
  0
DIMENSION
  5
A14D
330
2
100
AcDbEntity
  8
ADM
100
AcDbDimension
280
     0
  2
*D25
 10
108.6386157073373
 20
244.3038124785991
 30
0.0
 11
106.1386157073372
 21
241.8038124785991
 31
0.0
 70
    32
 71
     5
 42
5.000000000000056
 73
     0
 74
     0
 75
     0
  3
S1$0
100
AcDbAlignedDimension
 13
80.09713347255866
 23
239.3038124785991
 33
0.0
 14
84.39719144851688
 24
244.3038124785991
 34
0.0
 50
90.0
100
AcDbRotatedDimension
  0
DIMENSION
  5
A14E
330
2
100
AcDbEntity
  8
ADM
100
AcDbDimension
280
     0
  2
*D26
 10
239.8393759493733
 20
126.8033191869024
 30
0.0
 11
237.3393759493733
 21
149.3033344456916
 31
0.0
 70
    32
 71
     5
 42
45.00003051757841
 73
     0
 74
     0
 75
     0
  3
S1$0
100
AcDbAlignedDimension
 13
212.0245703532769
 23
171.8033497044808
 33
0.0
 14
222.9437397443758
 24
126.8033191869024
 34
0.0
 50
90.0
100
AcDbRotatedDimension
  0
DIMENSION
  5
A14F
330
2
100
AcDbEntity
  8
ADM
100
AcDbDimension
280
     0
  2
*D27
 10
239.8393759493733
 20
101.303319186902
 30
0.0
 11
237.3393759493733
 21
114.0533191869022
 31
0.0
 70
    32
 71
     5
 42
25.50000000000038
 73
     0
 74
     0
 75
     0
  3
S1$0
100
AcDbAlignedDimension
 13
237.0188311380534
 23
126.8033191869024
 33
0.0
 14
223.0437397443757
 24
101.303319186902
 34
0.0
 50
90.0
100
AcDbRotatedDimension
  0
DIMENSION
  5
A150
330
2
100
AcDbEntity
  8
ADM
100
AcDbDimension
280
     0
  2
*D28
 10
239.8393759493733
 20
56.30328866932401
 30
0.0
 11
237.3393759493733
 21
78.80330392811305
 31
0.0
 70
    32
 71
     5
 42
45.000030517578
 73
     0
 74
     0
 75
     0
  3
S1$0
100
AcDbAlignedDimension
 13
223.0437397443757
 23
101.303319186902
 33
0.0
 14
212.0245703532769
 24
56.30328866932401
 34
0.0
 50
90.0
100
AcDbRotatedDimension
  0
DIMENSION
  5
A151
330
2
100
AcDbEntity
  8
ADM
100
AcDbDimension
280
     0
  2
*D2
 10
125.2515178781282
 20
146.3033191869023
 30
0.0
 11
122.7515178781282
 21
121.3033191869023
 31
0.0
 70
    32
 71
     5
 42
49.99999999999997
 73
     0
 74
     0
 75
     0
  3
S1$0
100
AcDbAlignedDimension
 13
141.3437397443717
 23
96.30331918690231
 33
0.0
 14
141.343739744374
 24
146.3033191869023
 34
0.0
 50
90.0
100
AcDbRotatedDimension
  0
DIMENSION
  5
A152
330
2
100
AcDbEntity
  8
ADM
100
AcDbDimension
280
     0
  2
*D3
 10
177.3437397443722
 20
171.2078068931375
 30
0.0
 11
158.8437397443723
 21
173.7078068931375
 31
0.0
 70
    32
 71
     5
 42
36.99999999999977
 73
     0
 74
     0
 75
     0
  3
S1$0
100
AcDbAlignedDimension
 13
140.3437397443724
 23
142.3033191869018
 33
0.0
 14
177.3437397443722
 24
145.8033191869024
 34
0.0
100
AcDbRotatedDimension
  0
DIMENSION
  5
A153
330
2
100
AcDbEntity
  8
ADM
100
AcDbDimension
280
     0
  2
*D4
 10
370.3437397443802
 20
171.2078068931375
 30
0.0
 11
351.8437397443801
 21
173.7078068931375
 31
0.0
 70
    32
 71
     5
 42
37.00000000000023
 73
     0
 74
     0
 75
     0
  3
S1$0
100
AcDbAlignedDimension
 13
333.34373974438
 23
145.8033191869024
 33
0.0
 14
370.3437397443802
 24
142.3033191869018
 34
0.0
100
AcDbRotatedDimension
  0
DIMENSION
  5
A154
330
2
100
AcDbEntity
  8
ADM
100
AcDbDimension
280
     0
  2
*D5
 10
86.89719144851688
 20
19.87950994879998
 30
0.0
 11
91.39007690293784
 21
18.97613560271725
 31
0.0
 70
   160
 71
     5
 42
2.000000000002046
 73
     0
 74
     0
 75
     0
  3
S1$0
100
AcDbAlignedDimension
 13
84.89719144851482
 23
26.30381247859884
 33
0.0
 14
86.89719144851688
 24
27.30381247859885
 34
0.0
100
AcDbRotatedDimension
  0
DIMENSION
  5
A155
330
2
100
AcDbEntity
  8
ADM
100
AcDbDimension
280
     0
  2
*D6
 10
36.89719144851688
 20
19.87950994879998
 30
0.0
 11
32.67818403232468
 21
19.59533658460145
 31
0.0
 70
   160
 71
     5
 42
2.999999999998067
 73
     0
 74
     0
 75
     0
  3
S1$0
100
AcDbAlignedDimension
 13
39.89719144851495
 23
28.30381247859881
 33
0.0
 14
36.89719144851688
 24
27.30381247859884
 34
0.0
100
AcDbRotatedDimension
  0
LINE
  5
B025
330
2
100
AcDbEntity
  8
0
100
AcDbLine
 10
221.8437397443736
 20
109.8033191869023
 30
0.0
 11
207.1437397443735
 21
110.2033191869026
 31
0.0
  0
LINE
  5
B026
330
2
100
AcDbEntity
  8
0
100
AcDbLine
 10
221.8437397443736
 20
124.2033191869024
 30
0.0
 11
207.1437397443735
 21
123.8033191869021
 31
0.0
  0
LINE
  5
B027
330
2
100
AcDbEntity
  8
0
100
AcDbLine
 10
207.1437397443735
 20
123.8033191869024
 30
0.0
 11
207.1437397443735
 21
110.2033191869026
 31
0.0
  0
LINE
  5
B028
330
2
100
AcDbEntity
  8
0
100
AcDbLine
 10
208.8437397443736
 20
123.0033191869024
 30
0.0
 11
208.8437397443736
 21
111.0033191869024
 31
0.0
  0
LINE
  5
B029
330
2
100
AcDbEntity
  8
0
100
AcDbLine
 10
221.8437397443731
 20
124.2033191869026
 30
0.0
 11
207.1437397443731
 21
123.8033191869023
 31
0.0
  0
LINE
  5
B02A
330
2
100
AcDbEntity
  8
0
100
AcDbLine
 10
208.8437397443731
 20
123.0033191869024
 30
0.0
 11
208.8437397443733
 21
111.0033191869024
 31
0.0
  0
LINE
  5
B02B
330
2
100
AcDbEntity
  8
0
100
AcDbLine
 10
208.8437397443736
 20
120.0033191869024
 30
0.0
 11
219.3437397443736
 21
114.0033191869022
 31
0.0
  0
LINE
  5
B02C
330
2
100
AcDbEntity
  8
0
100
AcDbLine
 10
253.3437397443766
 20
111.0033191869024
 30
0.0
 11
241.0400429774254
 21
111.0033191869024
 31
0.0
  0
LINE
  5
B02D
330
2
100
AcDbEntity
  8
0
100
AcDbLine
 10
221.8440102253196
 20
110.8462995827851
 30
0.0
 11
208.4437397443737
 21
110.8462995827851
 31
0.0
  0
LINE
  5
B02E
330
2
100
AcDbEntity
  8
0
100
AcDbLine
 10
253.3437397443766
 20
123.0033191869024
 30
0.0
 11
208.8437397443736
 21
123.0033191869024
 31
0.0
  0
LINE
  5
B02F
330
2
100
AcDbEntity
  8
0
100
AcDbLine
 10
221.8440102253196
 20
123.2032636570538
 30
0.0
 11
208.4437397443737
 21
123.2032636570538
 31
0.0
  0
LINE
  5
B030
330
2
100
AcDbEntity
  8
0
100
AcDbLine
 10
253.3437397443766
 20
114.0033191869023
 30
0.0
 11
241.0400429774254
 21
114.0033191869023
 31
0.0
  0
LINE
  5
B031
330
2
100
AcDbEntity
  8
0
100
AcDbLine
 10
253.3437397443766
 20
120.0033191869024
 30
0.0
 11
208.8437397443736
 21
120.0033191869024
 31
0.0
  0
LINE
  5
B032
330
2
100
AcDbEntity
  8
0
100
AcDbLine
 10
221.8437397443734
 20
124.2033191869024
 30
0.0
 11
207.1437397443733
 21
123.8033191869021
 31
0.0
  0
LINE
  5
B033
330
2
100
AcDbEntity
  8
0
100
AcDbLine
 10
208.4437397443737
 20
123.2032636570538
 30
0.0
 11
208.4437397443737
 21
110.8533191869023
 31
0.0
  0
LINE
  5
B034
330
2
100
AcDbEntity
  8
0
100
AcDbLine
 10
219.3437397443736
 20
120.0033191869024
 30
0.0
 11
219.3437397443736
 21
114.0033191869023
 31
0.0
  0
LINE
  5
B035
330
2
100
AcDbEntity
  8
0
100
AcDbLine
 10
221.8437397443713
 20
110.846299582785
 30
0.0
 11
221.8437397443713
 21
109.8033191869023
 31
0.0
  0
LINE
  5
B036
330
2
100
AcDbEntity
  8
0
100
AcDbLine
 10
221.8437397443713
 20
123.2032636570538
 30
0.0
 11
221.8437397443713
 21
124.2033191869023
 31
0.0
  0
LINE
  5
B05A
330
2
100
AcDbEntity
  8
0
100
AcDbLine
 10
287.643739744376
 20
109.8033191869023
 30
0.0
 11
302.3437397443761
 21
110.2033191869026
 31
0.0
  0
LINE
  5
B05B
330
2
100
AcDbEntity
  8
0
100
AcDbLine
 10
287.643739744376
 20
124.2033191869024
 30
0.0
 11
302.3437397443761
 21
123.8033191869021
 31
0.0
  0
LINE
  5
B060
330
2
100
AcDbEntity
  8
0
100
AcDbLine
 10
302.3437397443761
 20
123.8033191869024
 30
0.0
 11
302.3437397443761
 21
110.2033191869026
 31
0.0
  0
LINE
  5
B066
330
2
100
AcDbEntity
  8
0
100
AcDbLine
 10
300.6437397443761
 20
123.0033191869024
 30
0.0
 11
300.6437397443761
 21
111.0033191869024
 31
0.0
  0
LINE
  5
B07B
330
2
100
AcDbEntity
  8
0
100
AcDbLine
 10
287.6437397443765
 20
124.2033191869026
 30
0.0
 11
302.3437397443765
 21
123.8033191869023
 31
0.0
  0
LINE
  5
B07C
330
2
100
AcDbEntity
  8
0
100
AcDbLine
 10
300.6437397443765
 20
123.0033191869024
 30
0.0
 11
300.6437397443763
 21
111.0033191869024
 31
0.0
  0
LINE
  5
B086
330
2
100
AcDbEntity
  8
0
100
AcDbLine
 10
300.6437397443761
 20
120.0033191869024
 30
0.0
 11
290.1437397443761
 21
114.0033191869022
 31
0.0
  0
LINE
  5
B087
330
2
100
AcDbEntity
  8
0
100
AcDbLine
 10
255.3437397443763
 20
111.0033191869024
 30
0.0
 11
300.6437397443761
 21
111.0033191869024
 31
0.0
  0
LINE
  5
B088
330
2
100
AcDbEntity
  8
0
100
AcDbLine
 10
287.64346926343
 20
110.8462995827851
 30
0.0
 11
301.0437397443759
 21
110.8462995827851
 31
0.0
  0
LINE
  5
B089
330
2
100
AcDbEntity
  8
0
100
AcDbLine
 10
255.3437397443763
 20
123.0033191869024
 30
0.0
 11
300.6437397443761
 21
123.0033191869024
 31
0.0
  0
LINE
  5
B08A
330
2
100
AcDbEntity
  8
0
100
AcDbLine
 10
287.64346926343
 20
123.2032636570538
 30
0.0
 11
301.0437397443759
 21
123.2032636570538
 31
0.0
  0
LINE
  5
B08B
330
2
100
AcDbEntity
  8
0
100
AcDbLine
 10
255.3437397443763
 20
114.0033191869023
 30
0.0
 11
300.6437397443761
 21
114.0033191869022
 31
0.0
  0
LINE
  5
B08C
330
2
100
AcDbEntity
  8
0
100
AcDbLine
 10
255.3437397443763
 20
120.0033191869024
 30
0.0
 11
300.6437397443761
 21
120.0033191869024
 31
0.0
  0
LINE
  5
B08D
330
2
100
AcDbEntity
  8
0
100
AcDbLine
 10
287.6437397443762
 20
124.2033191869024
 30
0.0
 11
302.3437397443763
 21
123.8033191869021
 31
0.0
  0
LINE
  5
B08E
330
2
100
AcDbEntity
  8
0
100
AcDbLine
 10
301.0437397443759
 20
123.2032636570538
 30
0.0
 11
301.0437397443759
 21
110.8533191869023
 31
0.0
  0
LINE
  5
B098
330
2
100
AcDbEntity
  8
0
100
AcDbLine
 10
290.1437397443761
 20
120.0033191869024
 30
0.0
 11
290.1437397443761
 21
114.0033191869023
 31
0.0
  0
LINE
  5
B099
330
2
100
AcDbEntity
  8
0
100
AcDbLine
 10
287.6437397443783
 20
110.846299582785
 30
0.0
 11
287.6437397443783
 21
109.8033191869023
 31
0.0
  0
LINE
  5
B09A
330
2
100
AcDbEntity
  8
0
100
AcDbLine
 10
287.6437397443783
 20
123.2032636570538
 30
0.0
 11
287.6437397443783
 21
124.2033191869023
 31
0.0
  0
LINE
  5
B104
330
2
100
AcDbEntity
  8
0
100
AcDbLine
 10
58.9971914485161
 20
124.3038124785714
 30
0.0
 11
59.43256559817564
 21
108.3038124785987
 31
0.0
  0
LINE
  5
B105
330
2
100
AcDbEntity
  8
0
100
AcDbLine
 10
59.44719144851695
 20
108.3038124785717
 30
0.0
 11
72.96181729885711
 21
108.3038124785717
 31
0.0
  0
LINE
  5
B106
330
2
100
AcDbEntity
  8
0
100
AcDbLine
 10
73.39719144851756
 20
124.3038124785714
 30
0.0
 11
72.96181729885802
 21
108.3038124785987
 31
0.0
  0
LINE
  5
B107
330
2
100
AcDbEntity
  8
0
100
AcDbLine
 10
58.9971914485161
 20
124.3038124785714
 30
0.0
 11
59.43256559817564
 21
108.3038124785987
 31
0.0
  0
LINE
  5
B108
330
2
100
AcDbEntity
  8
0
100
AcDbLine
 10
73.39719144851756
 20
124.3038124785714
 30
0.0
 11
72.96181729885802
 21
108.3038124785987
 31
0.0
  0
LINE
  5
B109
330
2
100
AcDbEntity
  8
0
100
AcDbLine
 10
72.19719144851592
 20
141.3038124785988
 30
0.0
 11
72.19719144851615
 21
110.9035419976256
 31
0.0
  0
LINE
  5
B10A
330
2
100
AcDbEntity
  8
0
100
AcDbLine
 10
60.19719144851603
 20
141.3038124785988
 30
0.0
 11
60.19719144851615
 21
110.9035419976256
 31
0.0
  0
LINE
  5
B10B
330
2
100
AcDbEntity
  8
0
100
AcDbLine
 10
69.19719144851592
 20
141.3038124785988
 30
0.0
 11
69.19719144851615
 21
110.9035419976256
 31
0.0
  0
LINE
  5
B10C
330
2
100
AcDbEntity
  8
0
100
AcDbLine
 10
63.19719144851626
 20
141.3038124785988
 30
0.0
 11
63.19719144851615
 21
110.9035419976256
 31
0.0
  0
LINE
  5
B10D
330
2
100
AcDbEntity
  8
0
100
AcDbLine
 10
63.19719144851615
 20
121.4033526807641
 30
0.0
 11
69.19719144851615
 21
110.9035419976256
 31
0.0
  0
LINE
  5
B10E
330
2
100
AcDbEntity
  8
0
100
AcDbLine
 10
63.19652876631085
 20
121.4033526389405
 30
0.0
 11
69.19652876631085
 21
121.4037313144872
 31
0.0
  0
LINE
  5
B10F
330
2
100
AcDbEntity
  8
0
100
AcDbLine
 10
72.19719144851615
 20
110.9035419976256
 30
0.0
 11
60.19719144851626
 21
110.9035419976256
 31
0.0
  0
LINE
  5
B110
330
2
100
AcDbEntity
  8
0
100
AcDbLine
 10
60.19719144851626
 20
110.9030010357775
 30
0.0
 11
60.19719144851626
 21
124.3032715167234
 31
0.0
  0
LINE
  5
B111
330
2
100
AcDbEntity
  8
0
100
AcDbLine
 10
58.99719144851587
 20
124.3038124785716
 30
0.0
 11
59.4325655981753
 21
108.3038124785989
 31
0.0
  0
LINE
  5
B112
330
2
100
AcDbEntity
  8
0
100
AcDbLine
 10
60.19719144851615
 20
124.3038124785716
 30
0.0
 11
58.99719144851622
 21
124.3038124785716
 31
0.0
  0
LINE
  5
B113
330
2
100
AcDbEntity
  8
0
100
AcDbLine
 10
73.3971914485171
 20
124.3038124785716
 30
0.0
 11
72.9618172988578
 21
108.3038124785989
 31
0.0
  0
LINE
  5
B114
330
2
100
AcDbEntity
  8
0
100
AcDbLine
 10
72.19719144851615
 20
110.9033797113241
 30
0.0
 11
72.19719144851615
 21
124.30365019227
 31
0.0
  0
LINE
  5
B115
330
2
100
AcDbEntity
  8
0
100
AcDbLine
 10
72.19719144851615
 20
124.30365019227
 30
0.0
 11
73.3971914485171
 21
124.3038124785716
 31
0.0
  0
LINE
  5
B117
330
2
100
AcDbEntity
  8
0
100
AcDbLine
 10
58.99713347255851
 20
163.3038124786265
 30
0.0
 11
59.43250762221805
 21
179.3038124785992
 31
0.0
  0
LINE
  5
B118
330
2
100
AcDbEntity
  8
0
100
AcDbLine
 10
59.44713347255936
 20
179.3038124786262
 30
0.0
 11
72.96175932289952
 21
179.3038124786262
 31
0.0
  0
LINE
  5
B11A
330
2
100
AcDbEntity
  8
0
100
AcDbLine
 10
73.39713347255997
 20
163.3038124786265
 30
0.0
 11
72.96175932290044
 21
179.3038124785992
 31
0.0
  0
LINE
  5
B122
330
2
100
AcDbEntity
  8
0
100
AcDbLine
 10
58.99713347255851
 20
163.3038124786265
 30
0.0
 11
59.43250762221805
 21
179.3038124785992
 31
0.0
  0
LINE
  5
B124
330
2
100
AcDbEntity
  8
0
100
AcDbLine
 10
73.39713347255997
 20
163.3038124786265
 30
0.0
 11
72.96175932290044
 21
179.3038124785992
 31
0.0
  0
LINE
  5
B128
330
2
100
AcDbEntity
  8
0
100
AcDbLine
 10
72.19713347255856
 20
143.3038124785988
 30
0.0
 11
72.19713347255856
 21
176.7040829595722
 31
0.0
  0
LINE
  5
B129
330
2
100
AcDbEntity
  8
0
100
AcDbLine
 10
60.19713347255856
 20
143.3038124785988
 30
0.0
 11
60.19713347255856
 21
176.7040829595722
 31
0.0
  0
LINE
  5
B12A
330
2
100
AcDbEntity
  8
0
100
AcDbLine
 10
69.19713347255856
 20
143.3038124785988
 30
0.0
 11
69.19713347255856
 21
176.7040829595722
 31
0.0
  0
LINE
  5
B12B
330
2
100
AcDbEntity
  8
0
100
AcDbLine
 10
63.19713347255867
 20
143.3038124785988
 30
0.0
 11
63.19713347255856
 21
176.7040829595722
 31
0.0
  0
LINE
  5
B12C
330
2
100
AcDbEntity
  8
0
100
AcDbLine
 10
63.19713347255856
 20
166.2042722764337
 30
0.0
 11
69.19713347255856
 21
176.7040829595722
 31
0.0
  0
LINE
  5
B12D
330
2
100
AcDbEntity
  8
0
100
AcDbLine
 10
63.19647079035326
 20
166.2042723182574
 30
0.0
 11
69.19647079035326
 21
166.2038936427107
 31
0.0
  0
LINE
  5
B12E
330
2
100
AcDbEntity
  8
0
100
AcDbLine
 10
72.19713347255856
 20
176.7040829595723
 30
0.0
 11
60.19713347255867
 21
176.7040829595722
 31
0.0
  0
LINE
  5
B12F
330
2
100
AcDbEntity
  8
0
100
AcDbLine
 10
60.19713347255867
 20
176.7046239214204
 30
0.0
 11
60.19713347255867
 21
163.3043534404744
 31
0.0
  0
LINE
  5
B130
330
2
100
AcDbEntity
  8
0
100
AcDbLine
 10
58.99713347255829
 20
163.3038124786263
 30
0.0
 11
59.43250762221771
 21
179.3038124785989
 31
0.0
  0
LINE
  5
B132
330
2
100
AcDbEntity
  8
0
100
AcDbLine
 10
60.19713347255856
 20
163.3038124786263
 30
0.0
 11
58.99713347255863
 21
163.3038124786263
 31
0.0
  0
LINE
  5
B133
330
2
100
AcDbEntity
  8
0
100
AcDbLine
 10
73.39713347255951
 20
163.3038124786263
 30
0.0
 11
72.96175932290021
 21
179.3038124785989
 31
0.0
  0
LINE
  5
B134
330
2
100
AcDbEntity
  8
0
100
AcDbLine
 10
72.19713347255856
 20
176.7042452458738
 30
0.0
 11
72.19713347255856
 21
163.3039747649278
 31
0.0
  0
LINE
  5
B136
330
2
100
AcDbEntity
  8
0
100
AcDbLine
 10
72.19713347255856
 20
163.3039747649278
 30
0.0
 11
73.39713347255951
 21
163.3038124786263
 31
0.0
  0
TEXT
  5
B139
330
2
100
AcDbEntity
  8
ADM
100
AcDbText
 10
371.7446571513362
 20
1.154120148162746
 30
0.0
 40
3.0
  1
TR02
 41
0.8
 72
     1
 11
376.0303714370504
 21
1.154120148162746
 31
0.0
100
AcDbText
  0
LINE
  5
B13D
330
2
100
AcDbEntity
  8
0
100
AcDbLine
 10
241.0400429774254
 20
109.8033191869024
 30
0.0
 11
253.3437397443763
 21
109.8033191869024
 31
0.0
  0
LINE
  5
B13E
330
2
100
AcDbEntity
  8
0
100
AcDbLine
 10
234.6729227052674
 20
111.0033191869024
 30
0.0
 11
208.8437397443736
 21
111.0033191869024
 31
0.0
  0
LINE
  5
B13F
330
2
100
AcDbEntity
  8
0
100
AcDbLine
 10
234.6729227052674
 20
114.0033191869023
 30
0.0
 11
208.8437397443736
 21
114.0033191869022
 31
0.0
  0
LINE
  5
D4D3
330
2
100
AcDbEntity
  8
ACL
100
AcDbLine
 10
340.7437397443755
 20
89.50331918690238
 30
0.0
 11
356.7437397443755
 21
89.50331918690238
 31
0.0
  0
LINE
  5
D4D4
330
2
100
AcDbEntity
  8
ACL
100
AcDbLine
 10
348.7437397443755
 20
81.50331918690239
 30
0.0
 11
348.7437397443755
 21
97.50331918690239
 31
0.0
  0
LINE
  5
D6B1
330
2
100
AcDbEntity
  8
0
100
AcDbLine
 10
347.7437397443755
 20
98.30331918690458
 30
0.0
 11
349.7437397443755
 21
98.30331918690456
 31
0.0
  0
LINE
  5
D6C8
330
2
100
AcDbEntity
  8
0
100
AcDbLine
 10
255.3437397443763
 20
143.3033191869045
 30
0.0
 11
333.3437397443781
 21
143.3033191869045
 31
0.0
  0
LINE
  5
D914
330
2
100
AcDbEntity
  8
0
100
AcDbLine
 10
69.44674883441336
 20
232.103812478599
 30
0.0
 11
70.39719144851682
 21
232.103812478599
 31
0.0
  0
ARC
  5
D915
330
2
100
AcDbEntity
  8
0
100
AcDbCircle
 10
70.39719144851682
 20
233.103812478599
 30
0.0
 40
1.0
100
AcDbArc
 50
270.0
 51
0.0
  0
LINE
  5
D916
330
2
100
AcDbEntity
  8
0
100
AcDbLine
 10
71.39719144851682
 20
233.103812478599
 30
0.0
 11
71.39719144851682
 21
238.1038124785978
 31
0.0
  0
LINE
  5
D917
330
2
100
AcDbEntity
  8
0
100
AcDbLine
 10
71.39719144851682
 20
238.1038124785978
 30
0.0
 11
73.79713347255682
 21
238.1038124785974
 31
0.0
  0
LINE
  5
D918
330
2
100
AcDbEntity
  8
0
100
AcDbLine
 10
73.79713347255767
 20
238.1038124785974
 30
0.0
 11
73.79713347255989
 21
185.3038124786064
 31
0.0
  0
ARC
  5
D919
330
2
100
AcDbEntity
  8
0
100
AcDbCircle
 10
73.29713347255983
 20
185.3038124786064
 30
0.0
 40
0.5000000000000285
100
AcDbArc
 50
270.0000000000749
 51
0.0000000000065138
  0
LINE
  5
D91A
330
2
100
AcDbEntity
  8
0
100
AcDbLine
 10
73.29713347256046
 20
184.8038124786048
 30
0.0
 11
59.09713347256109
 21
184.8038124785869
 31
0.0
  0
ARC
  5
D91B
330
2
100
AcDbEntity
  8
0
100
AcDbCircle
 10
59.0971334725604
 20
185.3038124785868
 30
0.0
 40
0.4999999999999716
100
AcDbArc
 50
179.9999999999935
 51
270.0000000000749
  0
LINE
  5
D91C
330
2
100
AcDbEntity
  8
0
100
AcDbLine
 10
58.59713347255358
 20
185.3038124785869
 30
0.0
 11
58.59713347256132
 21
225.0038124785991
 31
0.0
  0
ARC
  5
D91D
330
2
100
AcDbEntity
  8
0
100
AcDbCircle
 10
58.09713347256132
 20
225.0038124785991
 30
0.0
 40
0.5
100
AcDbArc
 50
359.9999999999968
 51
90.0
  0
LINE
  5
D91E
330
2
100
AcDbEntity
  8
0
100
AcDbLine
 10
58.09713347256132
 20
225.5038124785991
 30
0.0
 11
57.59713347255905
 21
225.5038124785991
 31
0.0
  0
LINE
  5
D91F
330
2
100
AcDbEntity
  8
0
100
AcDbLine
 10
57.59713347255905
 20
225.5038124785991
 30
0.0
 11
57.59713347255905
 21
236.3038124785997
 31
0.0
  0
ARC
  5
D920
330
2
100
AcDbEntity
  8
0
100
AcDbCircle
 10
59.397133472559
 20
236.3038124785997
 30
0.0
 40
1.800000000000004
100
AcDbArc
 50
89.99999999999023
 51
180.0
  0
LINE
  5
D921
330
2
100
AcDbEntity
  8
0
100
AcDbLine
 10
59.39713347255935
 20
238.1038124785996
 30
0.0
 11
60.99707549660121
 21
238.1038124785994
 31
0.0
  0
LINE
  5
D922
330
2
100
AcDbEntity
  8
0
100
AcDbLine
 10
60.99707549660121
 20
238.1038124785994
 30
0.0
 11
60.99707549660121
 21
233.103812478599
 31
0.0
  0
ARC
  5
D923
330
2
100
AcDbEntity
  8
0
100
AcDbCircle
 10
61.99707549660121
 20
233.103812478599
 30
0.0
 40
1.0
100
AcDbArc
 50
180.0
 51
270.0
  0
LINE
  5
D924
330
2
100
AcDbEntity
  8
0
100
AcDbLine
 10
61.99707549660121
 20
232.103812478599
 30
0.0
 11
62.94751811070466
 21
232.103812478599
 31
0.0
  0
LINE
  5
D925
330
2
100
AcDbEntity
  8
0
100
AcDbLine
 10
70.19707549660125
 20
233.303812478599
 30
0.0
 11
62.1970754966012
 21
233.303812478599
 31
0.0
  0
LINE
  5
D926
330
2
100
AcDbEntity
  8
0
100
AcDbLine
 10
62.19707549660114
 20
233.303812478599
 30
0.0
 11
62.19707549660114
 21
238.303812478599
 31
0.0
  0
ARC
  5
D927
330
2
100
AcDbEntity
  8
0
100
AcDbCircle
 10
61.19707549660114
 20
238.303812478599
 30
0.0
 40
0.9999999999999857
100
AcDbArc
 50
0.0
 51
90.00000000000325
  0
LINE
  5
D928
330
2
100
AcDbEntity
  8
0
100
AcDbLine
 10
61.19707549660114
 20
239.303812478599
 30
0.0
 11
59.39713347255912
 21
239.303812478599
 31
0.0
  0
ARC
  5
D929
330
2
100
AcDbEntity
  8
0
100
AcDbCircle
 10
59.39713347255912
 20
236.3038124785989
 30
0.0
 40
3.0
100
AcDbArc
 50
90.0
 51
180.0
  0
LINE
  5
D92A
330
2
100
AcDbEntity
  8
0
100
AcDbLine
 10
56.39713347255912
 20
236.3038124785989
 30
0.0
 11
56.39713347255912
 21
224.303812478599
 31
0.0
  0
LINE
  5
D92B
330
2
100
AcDbEntity
  8
0
100
AcDbLine
 10
56.39713347255912
 20
224.303812478599
 30
0.0
 11
57.39713347256127
 21
224.303812478599
 31
0.0
  0
LINE
  5
D92C
330
2
100
AcDbEntity
  8
0
100
AcDbLine
 10
57.39713347256127
 20
224.303812478599
 30
0.0
 11
57.39713347255888
 21
163.603812478599
 31
0.0
  0
ARC
  5
D92D
330
2
100
AcDbEntity
  8
0
100
AcDbCircle
 10
57.69713347255895
 20
163.603812478599
 30
0.0
 40
0.3000000000000114
100
AcDbArc
 50
180.0
 51
270.0
  0
LINE
  5
D92E
330
2
100
AcDbEntity
  8
0
100
AcDbLine
 10
57.69713347255895
 20
163.303812478599
 30
0.0
 11
58.69713347255906
 21
163.303812478599
 31
0.0
  0
ARC
  5
D92F
330
2
100
AcDbEntity
  8
0
100
AcDbCircle
 10
58.69713347255906
 20
163.603812478599
 30
0.0
 40
0.3000000000000256
100
AcDbArc
 50
270.0000000000065
 51
0.0000000000097707
  0
LINE
  5
D930
330
2
100
AcDbEntity
  8
0
100
AcDbLine
 10
58.99713347255902
 20
163.603812478599
 30
0.0
 11
58.99713347255794
 21
179.3038124785989
 31
0.0
  0
LINE
  5
D931
330
2
100
AcDbEntity
  8
0
100
AcDbLine
 10
58.49713347255902
 20
180.1038124785989
 30
0.0
 11
58.49713347255902
 21
183.103812478587
 31
0.0
  0
ARC
  5
D932
330
2
100
AcDbEntity
  8
0
100
AcDbCircle
 10
58.99713347255902
 20
183.103812478587
 30
0.0
 40
0.5
100
AcDbArc
 50
90.00000000007814
 51
180.0
  0
LINE
  5
D933
330
2
100
AcDbEntity
  8
0
100
AcDbLine
 10
58.99713347255834
 20
183.603812478587
 30
0.0
 11
62.27794988410465
 21
183.6038124785915
 31
0.0
  0
LINE
  5
D934
330
2
100
AcDbEntity
  8
0
100
AcDbLine
 10
70.11631706101081
 20
183.6038124786018
 30
0.0
 11
73.4971334725596
 21
183.6038124786064
 31
0.0
  0
ARC
  5
D935
330
2
100
AcDbEntity
  8
0
100
AcDbCircle
 10
73.49713347256027
 20
183.1038124786064
 30
0.0
 40
0.5
100
AcDbArc
 50
359.9999999999968
 51
90.00000000007814
  0
LINE
  5
D936
330
2
100
AcDbEntity
  8
0
100
AcDbLine
 10
73.99713347256028
 20
183.1038124786064
 30
0.0
 11
73.99713347256028
 21
180.1038124785989
 31
0.0
  0
LINE
  5
D937
330
2
100
AcDbEntity
  8
0
100
AcDbLine
 10
74.99713347256204
 20
238.3038124785989
 30
0.0
 11
74.9971334725621
 21
238.803812478599
 31
0.0
  0
ARC
  5
D938
330
2
100
AcDbEntity
  8
0
100
AcDbCircle
 10
74.4971334725621
 20
238.8038124785991
 30
0.0
 40
0.5
100
AcDbArc
 50
359.9999999999968
 51
90.0
  0
LINE
  5
D939
330
2
100
AcDbEntity
  8
0
100
AcDbLine
 10
74.4971334725621
 20
239.3038124785991
 30
0.0
 11
71.19719144851678
 21
239.303812478599
 31
0.0
  0
ARC
  5
D93A
330
2
100
AcDbEntity
  8
0
100
AcDbCircle
 10
71.19719144851683
 20
238.303812478599
 30
0.0
 40
1.000000000000014
100
AcDbArc
 50
90.00000000000325
 51
180.0
  0
LINE
  5
D93B
330
2
100
AcDbEntity
  8
0
100
AcDbLine
 10
70.19719144851677
 20
238.303812478599
 30
0.0
 11
70.19719144851677
 21
233.303812478599
 31
0.0
  0
ARC
  5
D93C
330
2
100
AcDbEntity
  8
0
100
AcDbCircle
 10
66.19713347255907
 20
181.8038124785967
 30
0.0
 40
3.0
100
AcDbArc
 50
168.4630409671852
 51
213.5573097619229
  0
ARC
  5
D93D
330
2
100
AcDbEntity
  8
0
100
AcDbCircle
 10
66.19713347255907
 20
181.8038124785967
 30
0.0
 40
3.0
100
AcDbArc
 50
326.4426902380793
 51
11.53695903281478
  0
LINE
  5
D93E
330
2
100
AcDbEntity
  8
0
100
AcDbLine
 10
63.69713347255906
 20
180.1038124785991
 30
0.0
 11
63.69713347255906
 21
180.145500083419
 31
0.0
  0
LINE
  5
D93F
330
2
100
AcDbEntity
  8
0
100
AcDbLine
 10
68.69713347255907
 20
180.1038124785989
 30
0.0
 11
68.69713347255907
 21
180.145500083419
 31
0.0
  0
ARC
  5
D940
330
2
100
AcDbEntity
  8
0
100
AcDbCircle
 10
70.11631706101212
 20
182.6038124785967
 30
0.0
 40
1.0
100
AcDbArc
 50
90.0
 51
191.5369590328148
  0
ARC
  5
D941
330
2
100
AcDbEntity
  8
0
100
AcDbCircle
 10
62.27794988410601
 20
182.6038124785967
 30
0.0
 40
1.0
100
AcDbArc
 50
348.4630409671853
 51
90.0
  0
ARC
  5
D942
330
2
100
AcDbEntity
  8
0
100
AcDbCircle
 10
66.19713347255902
 20
230.3038124785989
 30
0.0
 40
3.0
100
AcDbArc
 50
158.1962520106179
 51
221.8103148957796
  0
ARC
  5
D943
330
2
100
AcDbEntity
  8
0
100
AcDbCircle
 10
66.19713347255902
 20
230.3038124785989
 30
0.0
 40
3.0
100
AcDbArc
 50
318.1896851042204
 51
21.80374798938212
  0
ARC
  5
D944
330
2
100
AcDbEntity
  8
0
100
AcDbCircle
 10
69.44674883441336
 20
231.603812478599
 30
0.0
 40
0.5
100
AcDbArc
 50
90.0
 51
201.8037479893821
  0
ARC
  5
D945
330
2
100
AcDbEntity
  8
0
100
AcDbCircle
 10
62.94751811070466
 20
231.603812478599
 30
0.0
 40
0.5
100
AcDbArc
 50
338.1962520106179
 51
90.0
  0
LINE
  5
D946
330
2
100
AcDbEntity
  8
0
370
    -2
100
AcDbLine
 10
80.69713347256021
 20
236.503812478599
 30
0.0
 11
80.69713347256019
 21
163.9638124785991
 31
0.0
  0
ARC
  5
D947
330
2
100
AcDbEntity
  8
0
370
    -2
100
AcDbCircle
 10
80.03713347256022
 20
163.9638124785991
 30
0.0
 40
0.6600000000001529
100
AcDbArc
 50
270.0
 51
0.0
  0
LINE
  5
D948
330
2
100
AcDbEntity
  8
0
370
    -2
100
AcDbLine
 10
74.99713347256204
 20
238.3038124785989
 30
0.0
 11
79.69713347256021
 21
238.3038124785991
 31
0.0
  0
ARC
  5
D949
330
2
100
AcDbEntity
  8
0
370
    -2
100
AcDbCircle
 10
79.69713347256021
 20
237.3038124785991
 30
0.0
 40
1.000000000000028
100
AcDbArc
 50
0.0000000000032569
 51
90.0
  0
LINE
  5
D94A
330
2
100
AcDbEntity
  8
0
370
    -2
100
AcDbLine
 10
80.69713347256021
 20
237.3038124785991
 30
0.0
 11
80.69713347256021
 21
236.5038124785989
 31
0.0
  0
LINE
  5
D94B
330
2
100
AcDbEntity
  8
0
370
    -2
100
AcDbLine
 10
80.03713347256015
 20
163.3038124785983
 30
0.0
 11
73.39713347255944
 21
163.303812478599
 31
0.0
  0
LINE
  5
D94C
330
2
100
AcDbEntity
  8
0
370
    -2
100
AcDbLine
 10
73.39713347255933
 20
163.3038124785989
 30
0.0
 11
73.39713347255934
 21
179.3038124785989
 31
0.0
  0
LINE
  5
D94D
330
2
100
AcDbEntity
  8
0
100
AcDbLine
 10
58.99713347255902
 20
179.3038124785989
 30
0.0
 11
60.29713347255897
 21
179.3038124785989
 31
0.0
  0
ARC
  5
D94E
330
2
100
AcDbEntity
  8
0
100
AcDbCircle
 10
60.29713347255897
 20
179.703812478599
 30
0.0
 40
0.4000000000000199
100
AcDbArc
 50
270.0
 51
90.0
  0
LINE
  5
D94F
330
2
100
AcDbEntity
  8
0
100
AcDbLine
 10
60.29713347255897
 20
180.1038124785989
 30
0.0
 11
58.49713347255902
 21
180.1038124785989
 31
0.0
  0
LINE
  5
D950
330
2
100
AcDbEntity
  8
0
100
AcDbLine
 10
73.99713347256028
 20
180.1038124785989
 30
0.0
 11
72.09713347255899
 21
180.1038124785989
 31
0.0
  0
ARC
  5
D951
330
2
100
AcDbEntity
  8
0
100
AcDbCircle
 10
72.09713347255899
 20
179.703812478599
 30
0.0
 40
0.3999999999999915
100
AcDbArc
 50
90.0
 51
270.0
  0
LINE
  5
D952
330
2
100
AcDbEntity
  8
0
100
AcDbLine
 10
72.09713347255899
 20
179.303812478599
 30
0.0
 11
73.39713347255901
 21
179.3038124785989
 31
0.0
  0
ARC
  5
D953
330
2
100
AcDbEntity
  8
0
100
AcDbCircle
 10
68.39713347255912
 20
179.6038124785967
 30
0.0
 40
0.3
100
AcDbArc
 50
270.0
 51
359.9999999999968
  0
ARC
  5
D954
330
2
100
AcDbEntity
  8
0
100
AcDbCircle
 10
64.69713347255913
 20
179.8038124785967
 30
0.0
 40
0.5
100
AcDbArc
 50
270.0
 51
0.0
  0
LINE
  5
D955
330
2
100
AcDbEntity
  8
0
100
AcDbLine
 10
67.19713347255913
 20
179.8038124785967
 30
0.0
 11
67.19713347255908
 21
180.2187257301821
 31
0.0
  0
LINE
  5
D956
330
2
100
AcDbEntity
  8
0
100
AcDbLine
 10
63.99713347255907
 20
179.3038124785967
 30
0.0
 11
64.69713347255913
 21
179.3038124785967
 31
0.0
  0
ARC
  5
D957
330
2
100
AcDbEntity
  8
0
100
AcDbCircle
 10
63.99713347255907
 20
179.6038124785967
 30
0.0
 40
0.3
100
AcDbArc
 50
179.9999999999967
 51
270.0
  0
LINE
  5
D958
330
2
100
AcDbEntity
  8
0
100
AcDbLine
 10
67.69713347255913
 20
179.3038124785967
 30
0.0
 11
68.39713347255912
 21
179.3038124785967
 31
0.0
  0
ARC
  5
D959
330
2
100
AcDbEntity
  8
0
100
AcDbCircle
 10
67.69713347255913
 20
179.8038124785967
 30
0.0
 40
0.5
100
AcDbArc
 50
180.0
 51
270.0
  0
LINE
  5
D95A
330
2
100
AcDbEntity
  8
0
100
AcDbLine
 10
63.69713347255906
 20
179.6038124785967
 30
0.0
 11
63.69713347255912
 21
180.1455000834189
 31
0.0
  0
LINE
  5
D95B
330
2
100
AcDbEntity
  8
0
100
AcDbLine
 10
68.69713347255907
 20
179.6038124785966
 30
0.0
 11
68.69713347255913
 21
180.145500083419
 31
0.0
  0
LINE
  5
D95C
330
2
100
AcDbEntity
  8
0
100
AcDbLine
 10
63.96106549505919
 20
228.3038124785989
 30
0.0
 11
64.82541832715549
 21
228.3038124785989
 31
0.0
  0
LINE
  5
D95D
330
2
100
AcDbEntity
  8
0
100
AcDbLine
 10
67.56884861796248
 20
228.3038124785989
 30
0.0
 11
68.43320145005879
 21
228.3038124785989
 31
0.0
  0
ARC
  5
D95E
330
2
100
AcDbEntity
  8
0
100
AcDbCircle
 10
64.82541832715549
 20
228.6796928039495
 30
0.0
 40
0.3758803253505718
100
AcDbArc
 50
270.0
 51
49.81590005117721
  0
ARC
  5
D95F
330
2
100
AcDbEntity
  8
0
100
AcDbCircle
 10
67.56884861796248
 20
228.6796928039495
 30
0.0
 40
0.3758803253505718
100
AcDbArc
 50
130.1840999488228
 51
270.0
  0
LINE
  5
D960
330
2
100
AcDbEntity
  8
0
 48
0.1
100
AcDbLine
 10
84.89719144851688
 20
244.8038124785991
 30
0.0
 11
84.89719144851688
 21
255.8038124785991
 31
0.0
  0
ARC
  5
D961
330
2
100
AcDbEntity
  8
0
 48
0.1
100
AcDbCircle
 10
84.39719144851691
 20
244.8038124785991
 30
0.0
 40
0.5
100
AcDbArc
 50
269.9999999999951
 51
0.0000000000032569
  0
LINE
  5
D962
330
2
100
AcDbEntity
  8
0
100
AcDbLine
 10
42.39719144851631
 20
228.803812478599
 30
0.0
 11
42.39719144851631
 21
228.803812478599
 31
0.0
  0
LINE
  5
D963
330
2
100
AcDbEntity
  8
0
 48
2.0
100
AcDbLine
 10
55.06333272674578
 20
224.3762601590265
 30
0.0
 11
49.73089479868327
 21
224.3762601590265
 31
0.0
  0
ARC
  5
D964
330
2
100
AcDbEntity
  8
0
 48
2.0
100
AcDbCircle
 10
55.06333272674578
 20
226.3762601590265
 30
0.0
 40
2.0
100
AcDbArc
 50
270.0
 51
337.4009727453426
  0
LINE
  5
D965
330
2
100
AcDbEntity
  8
0
 48
2.0
100
AcDbLine
 10
59.37031730800504
 20
231.5190780964984
 30
0.0
 11
56.90976620953711
 21
225.607700861622
 31
0.0
  0
ARC
  5
D966
330
2
100
AcDbEntity
  8
0
 48
2.0
100
AcDbCircle
 10
59.04719144851651
 20
231.6535759735442
 30
0.0
 40
0.3500000000000013
100
AcDbArc
 50
337.4009727453426
 51
157.4009727453427
  0
LINE
  5
D967
330
2
100
AcDbEntity
  8
0
 48
2.0
100
AcDbLine
 10
56.26351449056016
 20
225.8766966157136
 30
0.0
 11
58.7240655890281
 21
231.78807385059
 31
0.0
  0
ARC
  5
D968
330
2
100
AcDbEntity
  8
0
 48
2.0
100
AcDbCircle
 10
55.06333272674578
 20
226.3762601590265
 30
0.0
 40
1.299999999999997
100
AcDbArc
 50
270.0
 51
337.4009727453426
  0
LINE
  5
D969
330
2
100
AcDbEntity
  8
0
 48
2.0
100
AcDbLine
 10
53.49719144851644
 20
225.0762601590265
 30
0.0
 11
55.06333272674578
 21
225.0762601590265
 31
0.0
  0
ARC
  5
D96A
330
2
100
AcDbEntity
  8
0
 48
2.0
100
AcDbCircle
 10
53.49719144851644
 20
226.0762601590266
 30
0.0
 40
1.0
100
AcDbArc
 50
180.0
 51
270.0
  0
LINE
  5
D96B
330
2
100
AcDbEntity
  8
0
 48
2.0
100
AcDbLine
 10
52.49719144851645
 20
232.1762601590265
 30
0.0
 11
52.49719144851645
 21
226.0762601590266
 31
0.0
  0
LINE
  5
D96C
330
2
100
AcDbEntity
  8
0
 48
2.0
100
AcDbLine
 10
53.14719144851654
 20
232.1762601590265
 30
0.0
 11
52.49719144851645
 21
232.1762601590265
 31
0.0
  0
ARC
  5
D96D
330
2
100
AcDbEntity
  8
0
 48
2.0
100
AcDbCircle
 10
53.14719144851654
 20
232.5262601590265
 30
0.0
 40
0.3499999999999979
100
AcDbArc
 50
270.0
 51
0.0
  0
ARC
  5
D96E
330
2
100
AcDbEntity
  8
0
 48
2.0
100
AcDbCircle
 10
53.14719144851654
 20
232.5262601590265
 30
0.0
 40
0.3500000000000014
100
AcDbArc
 50
0.0
 51
90.0
  0
LINE
  5
D96F
330
2
100
AcDbEntity
  8
0
 48
2.0
100
AcDbLine
 10
51.39191494058161
 20
232.8762601590265
 30
0.0
 11
53.14719144851654
 21
232.8762601590265
 31
0.0
  0
LINE
  5
D970
330
2
100
AcDbEntity
  8
0
100
AcDbLine
 10
53.49719144851644
 20
232.5262601590265
 30
0.0
 11
53.49719144851644
 21
232.5262601590265
 31
0.0
  0
LINE
  5
D971
330
2
100
AcDbEntity
  8
0
100
AcDbLine
 10
60.79719144851527
 20
248.4038124785989
 30
0.0
 11
60.79719144851527
 21
247.603812478597
 31
0.0
  0
LINE
  5
D972
330
2
100
AcDbEntity
  8
0
100
AcDbLine
 10
46.59719144851692
 20
227.0148699640818
 30
0.0
 11
43.6407230569556
 21
227.1434120680627
 31
0.0
  0
LINE
  5
D973
330
2
100
AcDbEntity
  8
0
100
AcDbLine
 10
46.59719144851692
 20
232.803812478599
 30
0.0
 11
46.59719144851692
 21
227.0148699640818
 31
0.0
  0
ARC
  5
D974
330
2
100
AcDbEntity
  8
0
100
AcDbCircle
 10
47.09719144851692
 20
232.803812478599
 30
0.0
 40
0.5
100
AcDbArc
 50
90.0
 51
180.0
  0
LINE
  5
D975
330
2
100
AcDbEntity
  8
0
100
AcDbLine
 10
50.89719144851699
 20
233.303812478599
 30
0.0
 11
47.09719144851692
 21
233.303812478599
 31
0.0
  0
ARC
  5
D976
330
2
100
AcDbEntity
  8
0
100
AcDbCircle
 10
50.89719144851699
 20
232.803812478599
 30
0.0
 40
0.5
100
AcDbArc
 50
8.331219816438192
 51
90.0
  0
LINE
  5
D977
330
2
100
AcDbEntity
  8
0
100
AcDbLine
 10
43.53212999626486
 20
224.6457716721751
 30
0.0
 11
49.73089479868349
 21
224.3762601590265
 31
0.0
  0
ARC
  5
D978
330
2
100
AcDbEntity
  8
0
100
AcDbCircle
 10
43.69719144851479
 20
228.4421850739243
 30
0.0
 40
3.800000000000011
100
AcDbArc
 50
180.0
 51
267.5104470780003
  0
LINE
  5
D979
330
2
100
AcDbEntity
  8
0
100
AcDbLine
 10
39.89719144851483
 20
256.303812478599
 30
0.0
 11
39.89719144851472
 21
228.4421850739243
 31
0.0
  0
LINE
  5
D97A
330
2
100
AcDbEntity
  8
0
100
AcDbLine
 10
43.39719144851494
 20
256.303812478599
 30
0.0
 11
40.51689354677444
 21
256.303812478599
 31
0.0
  0
ARC
  5
D97B
330
2
100
AcDbEntity
  8
0
100
AcDbCircle
 10
43.39719144851494
 20
256.803812478599
 30
0.0
 40
0.5
100
AcDbArc
 50
270.0
 51
0.0
  0
LINE
  5
D97C
330
2
100
AcDbEntity
  8
0
100
AcDbLine
 10
43.89719144851494
 20
257.3038124785989
 30
0.0
 11
43.89719144851494
 21
256.803812478599
 31
0.0
  0
LINE
  5
D97D
330
2
100
AcDbEntity
  8
0
100
AcDbLine
 10
44.89719144851494
 20
257.3038124785989
 30
0.0
 11
43.89719144851494
 21
257.3038124785989
 31
0.0
  0
LINE
  5
D97E
330
2
100
AcDbEntity
  8
0
100
AcDbLine
 10
44.89719144851494
 20
255.8038124785992
 30
0.0
 11
44.89719144851494
 21
257.3038124785989
 31
0.0
  0
ARC
  5
D97F
330
2
100
AcDbEntity
  8
0
100
AcDbCircle
 10
43.89719144851494
 20
255.8038124785992
 30
0.0
 40
1.000000000000014
100
AcDbArc
 50
270.0
 51
0.0
  0
LINE
  5
D980
330
2
100
AcDbEntity
  8
0
100
AcDbLine
 10
41.6971914485149
 20
254.8038124785992
 30
0.0
 11
43.89719144851494
 21
254.8038124785992
 31
0.0
  0
LINE
  5
D981
330
2
100
AcDbEntity
  8
0
100
AcDbLine
 10
41.6971914485149
 20
246.1038124785964
 30
0.0
 11
41.6971914485149
 21
254.8038124785992
 31
0.0
  0
LINE
  5
D982
330
2
100
AcDbEntity
  8
0
100
AcDbLine
 10
59.29719144851526
 20
246.103812478597
 30
0.0
 11
41.6971914485149
 21
246.1038124785964
 31
0.0
  0
ARC
  5
D983
330
2
100
AcDbEntity
  8
0
100
AcDbCircle
 10
59.29719144851515
 20
247.603812478597
 30
0.0
 40
1.500000000000014
100
AcDbArc
 50
270.0000000000065
 51
0.0
  0
LINE
  5
D984
330
2
100
AcDbEntity
  8
0
100
AcDbLine
 10
42.39719144851483
 20
228.4421850739243
 30
0.0
 11
42.39719144851483
 21
229.303812478599
 31
0.0
  0
ARC
  5
D985
330
2
100
AcDbEntity
  8
0
100
AcDbCircle
 10
43.69719144851479
 20
228.4421850739243
 30
0.0
 40
1.299999999999998
100
AcDbArc
 50
180.0
 51
267.5104470780003
  0
LINE
  5
D986
330
2
100
AcDbEntity
  8
0
100
AcDbLine
 10
68.99719144851508
 20
247.6038124785978
 30
0.0
 11
68.99719144851508
 21
255.3038124785989
 31
0.0
  0
LINE
  5
D987
330
2
100
AcDbEntity
  8
0
100
AcDbLine
 10
68.99719144851508
 20
255.3038124785989
 30
0.0
 11
70.49719144851508
 21
255.3038124785989
 31
0.0
  0
ARC
  5
D988
330
2
100
AcDbEntity
  8
0
100
AcDbCircle
 10
70.49719144851508
 20
256.303812478599
 30
0.0
 40
1.0
100
AcDbArc
 50
270.0
 51
0.0
  0
LINE
  5
D989
330
2
100
AcDbEntity
  8
0
100
AcDbLine
 10
71.49719144851508
 20
256.303812478599
 30
0.0
 11
71.49719144851508
 21
257.303812478599
 31
0.0
  0
LINE
  5
D98A
330
2
100
AcDbEntity
  8
0
100
AcDbLine
 10
71.49719144851508
 20
257.303812478599
 30
0.0
 11
66.99719144851508
 21
257.3038124785989
 31
0.0
  0
ARC
  5
D98B
330
2
100
AcDbEntity
  8
0
100
AcDbCircle
 10
66.99719144851508
 20
256.803812478599
 30
0.0
 40
0.5
100
AcDbArc
 50
90.0
 51
180.0
  0
LINE
  5
D98C
330
2
100
AcDbEntity
  8
0
100
AcDbLine
 10
66.49719144851508
 20
256.803812478599
 30
0.0
 11
66.49719144851508
 21
246.1038124785964
 31
0.0
  0
LINE
  5
D98D
330
2
100
AcDbEntity
  8
0
100
AcDbLine
 10
66.49719144851508
 20
246.1038124785964
 30
0.0
 11
63.29719144851515
 21
246.1038124785961
 31
0.0
  0
LINE
  5
D98E
330
2
100
AcDbEntity
  8
0
100
AcDbLine
 10
63.29719144851515
 20
246.1038124785961
 30
0.0
 11
63.29719144851515
 21
256.803812478599
 31
0.0
  0
ARC
  5
D98F
330
2
100
AcDbEntity
  8
0
100
AcDbCircle
 10
62.79719144851515
 20
256.803812478599
 30
0.0
 40
0.5
100
AcDbArc
 50
0.0
 51
90.0
  0
LINE
  5
D990
330
2
100
AcDbEntity
  8
0
100
AcDbLine
 10
62.79719144851515
 20
257.3038124785989
 30
0.0
 11
58.29719144851515
 21
257.3038124785989
 31
0.0
  0
LINE
  5
D991
330
2
100
AcDbEntity
  8
0
100
AcDbLine
 10
58.29719144851515
 20
257.3038124785989
 30
0.0
 11
58.29719144851527
 21
256.3038124785989
 31
0.0
  0
ARC
  5
D992
330
2
100
AcDbEntity
  8
0
100
AcDbCircle
 10
59.29719144851526
 20
256.303812478599
 30
0.0
 40
0.9999999999999964
100
AcDbArc
 50
180.0
 51
270.0
  0
LINE
  5
D993
330
2
100
AcDbEntity
  8
0
100
AcDbLine
 10
59.29719144851526
 20
255.3038124785989
 30
0.0
 11
60.79719144851527
 21
255.3038124785989
 31
0.0
  0
LINE
  5
D994
330
2
100
AcDbEntity
  8
0
100
AcDbLine
 10
60.79719144851527
 20
255.3038124785989
 30
0.0
 11
60.79719144851527
 21
247.603812478597
 31
0.0
  0
LINE
  5
D995
330
2
100
AcDbEntity
  8
0
100
AcDbLine
 10
42.39719144851483
 20
229.303812478599
 30
0.0
 11
42.39719144851483
 21
244.303812478599
 31
0.0
  0
LINE
  5
D996
330
2
100
AcDbEntity
  8
0
100
AcDbLine
 10
42.39719144851483
 20
244.303812478599
 30
0.0
 11
84.39719144851691
 21
244.303812478599
 31
0.0
  0
LINE
  5
D997
330
2
100
AcDbEntity
  8
0
100
AcDbLine
 10
84.89719144851472
 20
255.8038124785989
 30
0.0
 11
84.89719144851482
 21
256.303812478599
 31
0.0
  0
LINE
  5
D998
330
2
100
AcDbEntity
  8
0
100
AcDbLine
 10
84.27748935025523
 20
256.303812478599
 30
0.0
 11
81.39719144851472
 21
256.303812478599
 31
0.0
  0
ARC
  5
D999
330
2
100
AcDbEntity
  8
0
100
AcDbCircle
 10
81.39719144851472
 20
256.803812478599
 30
0.0
 40
0.5
100
AcDbArc
 50
180.0
 51
270.0
  0
LINE
  5
D99A
330
2
100
AcDbEntity
  8
0
100
AcDbLine
 10
80.89719144851471
 20
256.803812478599
 30
0.0
 11
80.89719144851471
 21
257.3038124785989
 31
0.0
  0
LINE
  5
D99B
330
2
100
AcDbEntity
  8
0
100
AcDbLine
 10
80.89719144851471
 20
257.3038124785989
 30
0.0
 11
79.89719144851472
 21
257.3038124785989
 31
0.0
  0
LINE
  5
D99C
330
2
100
AcDbEntity
  8
0
100
AcDbLine
 10
79.89719144851472
 20
257.3038124785989
 30
0.0
 11
79.89719144851472
 21
255.8038124785992
 31
0.0
  0
ARC
  5
D99D
330
2
100
AcDbEntity
  8
0
100
AcDbCircle
 10
80.89719144851471
 20
255.8038124785992
 30
0.0
 40
1.0
100
AcDbArc
 50
180.0
 51
270.0
  0
LINE
  5
D99E
330
2
100
AcDbEntity
  8
0
100
AcDbLine
 10
80.89719144851471
 20
254.8038124785992
 30
0.0
 11
83.09719144851476
 21
254.8038124785992
 31
0.0
  0
LINE
  5
D99F
330
2
100
AcDbEntity
  8
0
100
AcDbLine
 10
83.09719144851476
 20
254.8038124785992
 30
0.0
 11
83.09719144851488
 21
246.1038124785989
 31
0.0
  0
LINE
  5
D9A0
330
2
100
AcDbEntity
  8
0
100
AcDbLine
 10
83.09719144851488
 20
246.1038124785989
 30
0.0
 11
70.49719144851531
 21
246.1038124785978
 31
0.0
  0
ARC
  5
D9A1
330
2
100
AcDbEntity
  8
0
100
AcDbCircle
 10
70.49719144851508
 20
247.6038124785978
 30
0.0
 40
1.5
100
AcDbArc
 50
180.0
 51
270.0000000000065
  0
LINE
  5
D9A2
330
2
100
AcDbEntity
  8
0
100
AcDbLine
 10
68.99719144851508
 20
247.6038124785978
 30
0.0
 11
68.99719144851508
 21
248.4038124785989
 31
0.0
  0
LINE
  5
D9A3
330
2
100
AcDbEntity
  8
0
100
AcDbLine
 10
42.39719144851335
 20
228.8038124785988
 30
0.0
 11
42.39719144851335
 21
228.8038124785988
 31
0.0
  0
LINE
  5
D9A4
330
2
100
AcDbEntity
  8
0
100
AcDbLine
 10
43.9971914485144
 20
227.8038124785988
 30
0.0
 11
43.9971914485144
 21
227.8038124785988
 31
0.0
  0
LINE
  5
D9A5
330
2
100
AcDbEntity
  8
0
100
AcDbLine
 10
43.64719144851164
 20
227.8038124785988
 30
0.0
 11
43.64719144851176
 21
227.8038124785988
 31
0.0
  0
LINE
  5
D9A6
330
2
100
AcDbEntity
  8
0
100
AcDbLine
 10
43.59719144851545
 20
229.8038124785988
 30
0.0
 11
43.59719144851545
 21
242.8038124785989
 31
0.0
  0
ARC
  5
D9A7
330
2
100
AcDbEntity
  8
0
100
AcDbCircle
 10
45.09719144851544
 20
242.8038124785989
 30
0.0
 40
1.5
100
AcDbArc
 50
90.0
 51
180.0
  0
LINE
  5
D9A8
330
2
100
AcDbEntity
  8
0
100
AcDbLine
 10
85.89793191510887
 20
257.303812478599
 30
0.0
 11
86.39534137779532
 21
244.3807355555219
 31
0.0
  0
LINE
  5
D9B0
330
2
100
AcDbEntity
  8
0
100
AcDbLine
 10
46.59719144851544
 20
242.3038124785991
 30
0.0
 11
46.59719144851544
 21
228.8038124785988
 31
0.0
  0
ARC
  5
D9B1
330
2
100
AcDbEntity
  8
0
100
AcDbCircle
 10
45.59719144851544
 20
228.8038124785988
 30
0.0
 40
1.0
100
AcDbArc
 50
270.0
 51
0.0
  0
LINE
  5
D9B2
330
2
100
AcDbEntity
  8
0
100
AcDbLine
 10
45.59719144851544
 20
227.8038124785988
 30
0.0
 11
44.99719144851439
 21
227.8038124785988
 31
0.0
  0
LINE
  5
D9B3
330
2
100
AcDbEntity
  8
0
100
AcDbLine
 10
44.99719144851439
 20
227.8038124785988
 30
0.0
 11
44.99719144851439
 21
227.8038124785988
 31
0.0
  0
ARC
  5
D9B4
330
2
100
AcDbEntity
  8
0
100
AcDbCircle
 10
44.4971914485144
 20
227.8038124785988
 30
0.0
 40
0.4999999999999858
100
AcDbArc
 50
270.0
 51
0.0000000000032569
  0
LINE
  5
D9B5
330
2
100
AcDbEntity
  8
0
100
AcDbLine
 10
44.4971914485144
 20
227.3038124785988
 30
0.0
 11
44.4971914485144
 21
227.3038124785988
 31
0.0
  0
ARC
  5
D9B6
330
2
100
AcDbEntity
  8
0
100
AcDbCircle
 10
44.4971914485144
 20
227.8038124785988
 30
0.0
 40
0.5
100
AcDbArc
 50
180.0
 51
270.0
  0
LINE
  5
D9B7
330
2
100
AcDbEntity
  8
0
100
AcDbLine
 10
43.9971914485144
 20
227.8038124785988
 30
0.0
 11
43.39719144851335
 21
227.8038124785988
 31
0.0
  0
ARC
  5
D9B8
330
2
100
AcDbEntity
  8
0
100
AcDbCircle
 10
43.39719144851335
 20
228.8038124785988
 30
0.0
 40
1.0
100
AcDbArc
 50
180.0
 51
270.0
  0
ARC
  5
D9B9
330
2
100
AcDbEntity
  8
0
100
AcDbCircle
 10
43.39719144851335
 20
228.8038124785988
 30
0.0
 40
1.0
100
AcDbArc
 50
90.0
 51
180.0
  0
LINE
  5
D9BA
330
2
100
AcDbEntity
  8
0
100
AcDbLine
 10
43.39719144851335
 20
229.8038124785988
 30
0.0
 11
43.59719144851545
 21
229.8038124785988
 31
0.0
  0
ARC
  5
D9BB
330
2
100
AcDbEntity
  8
0
100
AcDbCircle
 10
82.39919224915537
 20
255.743812478599
 30
0.0
 40
2.560000000000033
100
AcDbArc
 50
12.63562509302109
 51
95.12799088309291
  0
ARC
  5
D9BC
330
2
100
AcDbEntity
  8
0
100
AcDbCircle
 10
82.39919224915537
 20
255.743812478599
 30
0.0
 40
1.960000000000014
100
AcDbArc
 50
16.60154959901984
 51
95.12799088309291
  0
ARC
  5
D9BD
330
2
100
AcDbEntity
  8
0
100
AcDbCircle
 10
82.19719144851479
 20
257.9947668709714
 30
0.0
 40
0.3000000000000198
100
AcDbArc
 50
95.12799088309938
 51
275.1279908830994
  0
ARC
  5
D9BE
330
2
100
AcDbEntity
  8
0
100
AcDbCircle
 10
42.3951906478743
 20
255.743812478599
 30
0.0
 40
2.560000000000034
100
AcDbArc
 50
84.8720091169071
 51
167.3643749069789
  0
ARC
  5
D9BF
330
2
100
AcDbEntity
  8
0
100
AcDbCircle
 10
42.3951906478743
 20
255.743812478599
 30
0.0
 40
1.960000000000014
100
AcDbArc
 50
84.8720091169071
 51
163.3984504009801
  0
ARC
  5
D9C0
330
2
100
AcDbEntity
  8
0
100
AcDbCircle
 10
42.59719144851476
 20
257.9947668709714
 30
0.0
 40
0.3000000000000198
100
AcDbArc
 50
264.8720091169006
 51
84.87200911690059
  0
LINE
  5
D9C1
330
2
100
AcDbEntity
  8
0
100
AcDbLine
 10
84.42897056217384
 20
257.3038124785989
 30
0.0
 11
85.89793191510876
 21
257.3038124785989
 31
0.0
  0
LINE
  5
D9C2
330
2
100
AcDbEntity
  8
0
100
AcDbLine
 10
69.44680681037119
 20
55.50381247859888
 30
0.0
 11
70.39724942447463
 21
55.50381247859888
 31
0.0
  0
ARC
  5
D9C3
330
2
100
AcDbEntity
  8
0
100
AcDbCircle
 10
70.39724942447463
 20
54.50381247859889
 30
0.0
 40
1.0
100
AcDbArc
 50
0.0
 51
90.0
  0
LINE
  5
D9C4
330
2
100
AcDbEntity
  8
0
100
AcDbLine
 10
71.39724942447464
 20
54.50381247859889
 30
0.0
 11
71.39724942447464
 21
49.50381247860008
 31
0.0
  0
LINE
  5
D9C5
330
2
100
AcDbEntity
  8
0
100
AcDbLine
 10
71.39724942447464
 20
49.50381247860008
 30
0.0
 11
73.79719144851463
 21
49.50381247860048
 31
0.0
  0
LINE
  5
D9C6
330
2
100
AcDbEntity
  8
0
100
AcDbLine
 10
73.79719144851549
 20
49.50381247860048
 30
0.0
 11
73.79719144851771
 21
102.3038124785914
 31
0.0
  0
ARC
  5
D9C7
330
2
100
AcDbEntity
  8
0
100
AcDbCircle
 10
73.29719144851765
 20
102.3038124785914
 30
0.0
 40
0.5000000000000285
100
AcDbArc
 50
359.9999999999935
 51
89.99999999992509
  0
LINE
  5
D9C8
330
2
100
AcDbEntity
  8
0
100
AcDbLine
 10
73.29719144851828
 20
102.803812478593
 30
0.0
 11
59.09719144851891
 21
102.8038124786109
 31
0.0
  0
ARC
  5
D9C9
330
2
100
AcDbEntity
  8
0
100
AcDbCircle
 10
59.09719144851823
 20
102.303812478611
 30
0.0
 40
0.4999999999999716
100
AcDbArc
 50
89.99999999992509
 51
180.0000000000065
  0
LINE
  5
D9CA
330
2
100
AcDbEntity
  8
0
100
AcDbLine
 10
58.5971914485114
 20
102.3038124786109
 30
0.0
 11
58.59719144851914
 21
62.60381247859879
 31
0.0
  0
ARC
  5
D9CB
330
2
100
AcDbEntity
  8
0
100
AcDbCircle
 10
58.09719144851914
 20
62.60381247859879
 30
0.0
 40
0.5
100
AcDbArc
 50
270.0
 51
0.0000000000032569
  0
LINE
  5
D9CC
330
2
100
AcDbEntity
  8
0
100
AcDbLine
 10
58.09719144851914
 20
62.1038124785988
 30
0.0
 11
57.59719144851686
 21
62.1038124785988
 31
0.0
  0
LINE
  5
D9CD
330
2
100
AcDbEntity
  8
0
100
AcDbLine
 10
57.59719144851686
 20
62.1038124785988
 30
0.0
 11
57.59719144851686
 21
51.30381247859816
 31
0.0
  0
ARC
  5
D9CE
330
2
100
AcDbEntity
  8
0
100
AcDbCircle
 10
59.39719144851682
 20
51.30381247859816
 30
0.0
 40
1.800000000000004
100
AcDbArc
 50
180.0
 51
270.0000000000098
  0
LINE
  5
D9CF
330
2
100
AcDbEntity
  8
0
100
AcDbLine
 10
59.39719144851716
 20
49.5038124785982
 30
0.0
 11
60.99713347255903
 21
49.50381247859849
 31
0.0
  0
LINE
  5
D9D0
330
2
100
AcDbEntity
  8
0
100
AcDbLine
 10
60.99713347255903
 20
49.50381247859849
 30
0.0
 11
60.99713347255903
 21
54.50381247859889
 31
0.0
  0
ARC
  5
D9D1
330
2
100
AcDbEntity
  8
0
100
AcDbCircle
 10
61.99713347255903
 20
54.50381247859889
 30
0.0
 40
1.0
100
AcDbArc
 50
90.0
 51
180.0
  0
LINE
  5
D9D2
330
2
100
AcDbEntity
  8
0
100
AcDbLine
 10
61.99713347255903
 20
55.50381247859888
 30
0.0
 11
62.94757608666248
 21
55.50381247859888
 31
0.0
  0
LINE
  5
D9D3
330
2
100
AcDbEntity
  8
0
100
AcDbLine
 10
70.19713347255907
 20
54.3038124785989
 30
0.0
 11
62.19713347255901
 21
54.3038124785989
 31
0.0
  0
LINE
  5
D9D4
330
2
100
AcDbEntity
  8
0
100
AcDbLine
 10
62.19713347255896
 20
54.3038124785989
 30
0.0
 11
62.19713347255896
 21
49.30381247859884
 31
0.0
  0
ARC
  5
D9D5
330
2
100
AcDbEntity
  8
0
100
AcDbCircle
 10
61.19713347255895
 20
49.30381247859884
 30
0.0
 40
0.9999999999999857
100
AcDbArc
 50
269.9999999999968
 51
0.0
  0
LINE
  5
D9D6
330
2
100
AcDbEntity
  8
0
100
AcDbLine
 10
61.19713347255895
 20
48.30381247859889
 30
0.0
 11
59.39719144851693
 21
48.30381247859889
 31
0.0
  0
ARC
  5
D9D7
330
2
100
AcDbEntity
  8
0
100
AcDbCircle
 10
59.39719144851693
 20
51.3038124785989
 30
0.0
 40
3.0
100
AcDbArc
 50
180.0
 51
270.0
  0
LINE
  5
D9D8
330
2
100
AcDbEntity
  8
0
100
AcDbLine
 10
56.39719144851693
 20
51.3038124785989
 30
0.0
 11
56.39719144851693
 21
63.30381247859884
 31
0.0
  0
LINE
  5
D9D9
330
2
100
AcDbEntity
  8
0
100
AcDbLine
 10
56.39719144851693
 20
63.30381247859884
 30
0.0
 11
57.3971914485191
 21
63.30381247859884
 31
0.0
  0
LINE
  5
D9DA
330
2
100
AcDbEntity
  8
0
100
AcDbLine
 10
57.3971914485191
 20
63.30381247859884
 30
0.0
 11
57.39719144851671
 21
124.0038124785987
 31
0.0
  0
ARC
  5
D9DB
330
2
100
AcDbEntity
  8
0
100
AcDbCircle
 10
57.69719144851677
 20
124.0038124785987
 30
0.0
 40
0.3000000000000114
100
AcDbArc
 50
90.0
 51
180.0
  0
LINE
  5
D9DC
330
2
100
AcDbEntity
  8
0
100
AcDbLine
 10
57.69719144851677
 20
124.3038124785988
 30
0.0
 11
58.69719144851689
 21
124.3038124785988
 31
0.0
  0
ARC
  5
D9DD
330
2
100
AcDbEntity
  8
0
100
AcDbCircle
 10
58.69719144851689
 20
124.0038124785987
 30
0.0
 40
0.3000000000000256
100
AcDbArc
 50
359.9999999999902
 51
89.99999999999349
  0
LINE
  5
D9DE
330
2
100
AcDbEntity
  8
0
100
AcDbLine
 10
58.99719144851684
 20
124.0038124785987
 30
0.0
 11
58.99719144851577
 21
108.3038124785989
 31
0.0
  0
LINE
  5
D9DF
330
2
100
AcDbEntity
  8
0
100
AcDbLine
 10
58.49719144851684
 20
107.5038124785989
 30
0.0
 11
58.49719144851684
 21
104.5038124786108
 31
0.0
  0
ARC
  5
D9E0
330
2
100
AcDbEntity
  8
0
100
AcDbCircle
 10
58.99719144851684
 20
104.5038124786108
 30
0.0
 40
0.5
100
AcDbArc
 50
180.0
 51
269.9999999999219
  0
LINE
  5
D9E1
330
2
100
AcDbEntity
  8
0
100
AcDbLine
 10
58.99719144851616
 20
104.0038124786108
 30
0.0
 11
62.27800786006247
 21
104.0038124786064
 31
0.0
  0
LINE
  5
D9E2
330
2
100
AcDbEntity
  8
0
100
AcDbLine
 10
70.11637503696864
 20
104.003812478596
 30
0.0
 11
73.49719144851741
 21
104.0038124785914
 31
0.0
  0
ARC
  5
D9E3
330
2
100
AcDbEntity
  8
0
100
AcDbCircle
 10
73.49719144851809
 20
104.5038124785914
 30
0.0
 40
0.5
100
AcDbArc
 50
269.9999999999219
 51
0.0000000000032569
  0
LINE
  5
D9E4
330
2
100
AcDbEntity
  8
0
100
AcDbLine
 10
73.99719144851809
 20
104.5038124785914
 30
0.0
 11
73.99719144851809
 21
107.5038124785989
 31
0.0
  0
LINE
  5
D9E5
330
2
100
AcDbEntity
  8
0
100
AcDbLine
 10
74.99719144851986
 20
49.30381247859895
 30
0.0
 11
74.99719144851991
 21
48.80381247859884
 31
0.0
  0
ARC
  5
D9E6
330
2
100
AcDbEntity
  8
0
100
AcDbCircle
 10
74.49719144851991
 20
48.80381247859879
 30
0.0
 40
0.5
100
AcDbArc
 50
270.0
 51
0.0000000000032569
  0
LINE
  5
D9E7
330
2
100
AcDbEntity
  8
0
100
AcDbLine
 10
74.49719144851991
 20
48.30381247859879
 30
0.0
 11
71.19724942447459
 21
48.30381247859884
 31
0.0
  0
ARC
  5
D9E8
330
2
100
AcDbEntity
  8
0
100
AcDbCircle
 10
71.19724942447465
 20
49.30381247859884
 30
0.0
 40
1.000000000000014
100
AcDbArc
 50
180.0
 51
269.9999999999968
  0
LINE
  5
D9E9
330
2
100
AcDbEntity
  8
0
100
AcDbLine
 10
70.19724942447459
 20
49.30381247859884
 30
0.0
 11
70.19724942447459
 21
54.3038124785989
 31
0.0
  0
ARC
  5
D9EA
330
2
100
AcDbEntity
  8
0
100
AcDbCircle
 10
66.19719144851689
 20
105.8038124786012
 30
0.0
 40
3.0
100
AcDbArc
 50
146.442690238077
 51
191.5369590328148
  0
ARC
  5
D9EB
330
2
100
AcDbEntity
  8
0
100
AcDbCircle
 10
66.19719144851689
 20
105.8038124786012
 30
0.0
 40
3.0
100
AcDbArc
 50
348.4630409671853
 51
33.55730976192
  0
LINE
  5
D9EC
330
2
100
AcDbEntity
  8
0
100
AcDbLine
 10
63.69719144851689
 20
107.5038124785987
 30
0.0
 11
63.69719144851689
 21
107.4621248737788
 31
0.0
  0
LINE
  5
D9ED
330
2
100
AcDbEntity
  8
0
100
AcDbLine
 10
68.69719144851689
 20
107.5038124785989
 30
0.0
 11
68.69719144851689
 21
107.4621248737788
 31
0.0
  0
ARC
  5
D9EE
330
2
100
AcDbEntity
  8
0
100
AcDbCircle
 10
70.11637503696994
 20
105.0038124786011
 30
0.0
 40
1.0
100
AcDbArc
 50
168.4630409671852
 51
270.0
  0
ARC
  5
D9EF
330
2
100
AcDbEntity
  8
0
100
AcDbCircle
 10
62.27800786006383
 20
105.0038124786011
 30
0.0
 40
1.0
100
AcDbArc
 50
270.0
 51
11.53695903281478
  0
ARC
  5
D9F0
330
2
100
AcDbEntity
  8
0
100
AcDbCircle
 10
66.19719144851683
 20
57.30381247859895
 30
0.0
 40
3.0
100
AcDbArc
 50
138.1896851042206
 51
201.8037479893818
  0
ARC
  5
D9F1
330
2
100
AcDbEntity
  8
0
100
AcDbCircle
 10
66.19719144851683
 20
57.30381247859895
 30
0.0
 40
3.0
100
AcDbArc
 50
338.1962520106183
 51
41.81031489577932
  0
ARC
  5
D9F2
330
2
100
AcDbEntity
  8
0
100
AcDbCircle
 10
69.44680681037119
 20
56.00381247859889
 30
0.0
 40
0.5
100
AcDbArc
 50
158.1962520106182
 51
270.0
  0
ARC
  5
D9F3
330
2
100
AcDbEntity
  8
0
100
AcDbCircle
 10
62.94757608666248
 20
56.00381247859889
 30
0.0
 40
0.5
100
AcDbArc
 50
270.0
 51
21.80374798938174
  0
LINE
  5
D9F4
330
2
100
AcDbEntity
  8
0
370
    -2
100
AcDbLine
 10
80.69719144851802
 20
51.10381247859885
 30
0.0
 11
80.69719144851802
 21
123.6438124785987
 31
0.0
  0
ARC
  5
D9F5
330
2
100
AcDbEntity
  8
0
370
    -2
100
AcDbCircle
 10
80.03719144851805
 20
123.6438124785987
 30
0.0
 40
0.6600000000001529
100
AcDbArc
 50
0.0
 51
90.0
  0
LINE
  5
D9F6
330
2
100
AcDbEntity
  8
0
370
    -2
100
AcDbLine
 10
74.99719144851986
 20
49.30381247859895
 30
0.0
 11
79.69719144851802
 21
49.30381247859873
 31
0.0
  0
ARC
  5
D9F7
330
2
100
AcDbEntity
  8
0
370
    -2
100
AcDbCircle
 10
79.69719144851802
 20
50.30381247859878
 30
0.0
 40
1.000000000000028
100
AcDbArc
 50
270.0
 51
359.9999999999968
  0
LINE
  5
D9F8
330
2
100
AcDbEntity
  8
0
370
    -2
100
AcDbLine
 10
80.69719144851802
 20
50.30381247859873
 30
0.0
 11
80.69719144851802
 21
51.10381247859891
 31
0.0
  0
LINE
  5
D9F9
330
2
100
AcDbEntity
  8
0
370
    -2
100
AcDbLine
 10
80.03719144851798
 20
124.3038124785996
 30
0.0
 11
73.39719144851727
 21
124.3038124785988
 31
0.0
  0
LINE
  5
D9FA
330
2
100
AcDbEntity
  8
0
370
    -2
100
AcDbLine
 10
73.39719144851716
 20
124.3038124785989
 30
0.0
 11
73.39719144851716
 21
108.3038124785989
 31
0.0
  0
LINE
  5
D9FB
330
2
100
AcDbEntity
  8
0
100
AcDbLine
 10
58.99719144851684
 20
108.3038124785989
 30
0.0
 11
60.2971914485168
 21
108.3038124785989
 31
0.0
  0
ARC
  5
D9FC
330
2
100
AcDbEntity
  8
0
100
AcDbCircle
 10
60.2971914485168
 20
107.9038124785988
 30
0.0
 40
0.4000000000000199
100
AcDbArc
 50
270.0
 51
90.0
  0
LINE
  5
D9FD
330
2
100
AcDbEntity
  8
0
100
AcDbLine
 10
60.2971914485168
 20
107.5038124785989
 30
0.0
 11
58.49719144851684
 21
107.5038124785989
 31
0.0
  0
LINE
  5
D9FE
330
2
100
AcDbEntity
  8
0
100
AcDbLine
 10
73.99719144851809
 20
107.5038124785989
 30
0.0
 11
72.09719144851681
 21
107.5038124785989
 31
0.0
  0
ARC
  5
D9FF
330
2
100
AcDbEntity
  8
0
100
AcDbCircle
 10
72.09719144851681
 20
107.9038124785988
 30
0.0
 40
0.3999999999999915
100
AcDbArc
 50
90.0
 51
270.0
  0
LINE
  5
DA00
330
2
100
AcDbEntity
  8
0
100
AcDbLine
 10
72.09719144851681
 20
108.3038124785988
 30
0.0
 11
73.39719144851682
 21
108.3038124785989
 31
0.0
  0
ARC
  5
DA01
330
2
100
AcDbEntity
  8
0
100
AcDbCircle
 10
68.39719144851693
 20
108.0038124786011
 30
0.0
 40
0.3
100
AcDbArc
 50
0.0000000000032569
 51
90.0
  0
ARC
  5
DA02
330
2
100
AcDbEntity
  8
0
100
AcDbCircle
 10
64.69719144851694
 20
107.8038124786012
 30
0.0
 40
0.5
100
AcDbArc
 50
0.0
 51
90.0
  0
LINE
  5
DA03
330
2
100
AcDbEntity
  8
0
100
AcDbLine
 10
67.19719144851694
 20
107.8038124786012
 30
0.0
 11
67.19719144851689
 21
107.3888992270157
 31
0.0
  0
LINE
  5
DA04
330
2
100
AcDbEntity
  8
0
100
AcDbLine
 10
63.9971914485169
 20
108.3038124786011
 30
0.0
 11
64.69719144851694
 21
108.3038124786011
 31
0.0
  0
ARC
  5
DA05
330
2
100
AcDbEntity
  8
0
100
AcDbCircle
 10
63.9971914485169
 20
108.0038124786011
 30
0.0
 40
0.3
100
AcDbArc
 50
90.0
 51
180.0000000000032
  0
LINE
  5
DA06
330
2
100
AcDbEntity
  8
0
100
AcDbLine
 10
67.69719144851695
 20
108.3038124786011
 30
0.0
 11
68.39719144851693
 21
108.3038124786011
 31
0.0
  0
ARC
  5
DA07
330
2
100
AcDbEntity
  8
0
100
AcDbCircle
 10
67.69719144851695
 20
107.8038124786012
 30
0.0
 40
0.5
100
AcDbArc
 50
90.0
 51
180.0
  0
LINE
  5
DA08
330
2
100
AcDbEntity
  8
0
100
AcDbLine
 10
63.69719144851689
 20
108.0038124786011
 30
0.0
 11
63.69719144851694
 21
107.4621248737789
 31
0.0
  0
LINE
  5
DA09
330
2
100
AcDbEntity
  8
0
100
AcDbLine
 10
68.69719144851689
 20
108.0038124786012
 30
0.0
 11
68.69719144851694
 21
107.4621248737788
 31
0.0
  0
LINE
  5
DA0A
330
2
100
AcDbEntity
  8
0
100
AcDbLine
 10
63.961123471017
 20
59.30381247859895
 30
0.0
 11
64.8254763031133
 21
59.30381247859895
 31
0.0
  0
LINE
  5
DA0B
330
2
100
AcDbEntity
  8
0
100
AcDbLine
 10
67.56890659392031
 20
59.30381247859895
 30
0.0
 11
68.4332594260166
 21
59.30381247859895
 31
0.0
  0
ARC
  5
DA0C
330
2
100
AcDbEntity
  8
0
100
AcDbCircle
 10
64.8254763031133
 20
58.92793215324838
 30
0.0
 40
0.3758803253505718
100
AcDbArc
 50
310.1840999488225
 51
90.0
  0
ARC
  5
DA0D
330
2
100
AcDbEntity
  8
0
100
AcDbCircle
 10
67.56890659392031
 20
58.92793215324838
 30
0.0
 40
0.3758803253505718
100
AcDbArc
 50
90.0
 51
229.8159000511774
  0
LINE
  5
DA0E
330
2
100
AcDbEntity
  8
0
 48
0.1
100
AcDbLine
 10
84.89719144851688
 20
39.80381247859867
 30
0.0
 11
84.89719144851688
 21
28.80381247859874
 31
0.0
  0
ARC
  5
DA0F
330
2
100
AcDbEntity
  8
0
 48
0.1
100
AcDbCircle
 10
84.39719144851691
 20
39.8038124785987
 30
0.0
 40
0.5
100
AcDbArc
 50
359.9999999999968
 51
90.00000000000488
  0
LINE
  5
DA10
330
2
100
AcDbEntity
  8
0
100
AcDbLine
 10
42.39719144851631
 20
55.80381247859879
 30
0.0
 11
42.39719144851631
 21
55.80381247859879
 31
0.0
  0
LINE
  5
DA11
330
2
100
AcDbEntity
  8
0
 48
2.0
100
AcDbLine
 10
55.06333272674578
 20
60.23136479817127
 30
0.0
 11
49.73089479868327
 21
60.2313647981713
 31
0.0
  0
ARC
  5
DA12
330
2
100
AcDbEntity
  8
0
 48
2.0
100
AcDbCircle
 10
55.06333272674578
 20
58.23136479817127
 30
0.0
 40
2.0
100
AcDbArc
 50
22.59902725465735
 51
90.0
  0
LINE
  5
DA13
330
2
100
AcDbEntity
  8
0
 48
2.0
100
AcDbLine
 10
59.37031730800504
 20
53.08854686069939
 30
0.0
 11
56.90976620953711
 21
58.99992409557585
 31
0.0
  0
ARC
  5
DA14
330
2
100
AcDbEntity
  8
0
 48
2.0
100
AcDbCircle
 10
59.04719144851651
 20
52.95404898365358
 30
0.0
 40
0.3500000000000013
100
AcDbArc
 50
202.5990272546573
 51
22.59902725465735
  0
LINE
  5
DA15
330
2
100
AcDbEntity
  8
0
 48
2.0
100
AcDbLine
 10
56.26351449056016
 20
58.73092834148422
 30
0.0
 11
58.7240655890281
 21
52.81955110660781
 31
0.0
  0
ARC
  5
DA16
330
2
100
AcDbEntity
  8
0
 48
2.0
100
AcDbCircle
 10
55.06333272674578
 20
58.23136479817127
 30
0.0
 40
1.299999999999997
100
AcDbArc
 50
22.59902725465735
 51
90.0
  0
LINE
  5
DA17
330
2
100
AcDbEntity
  8
0
 48
2.0
100
AcDbLine
 10
53.49719144851644
 20
59.53136479817124
 30
0.0
 11
55.06333272674578
 21
59.53136479817122
 31
0.0
  0
ARC
  5
DA18
330
2
100
AcDbEntity
  8
0
 48
2.0
100
AcDbCircle
 10
53.49719144851644
 20
58.53136479817123
 30
0.0
 40
1.0
100
AcDbArc
 50
90.0
 51
180.0
  0
LINE
  5
DA19
330
2
100
AcDbEntity
  8
0
 48
2.0
100
AcDbLine
 10
52.49719144851645
 20
52.43136479817128
 30
0.0
 11
52.49719144851645
 21
58.53136479817123
 31
0.0
  0
LINE
  5
DA1A
330
2
100
AcDbEntity
  8
0
 48
2.0
100
AcDbLine
 10
53.14719144851654
 20
52.43136479817128
 30
0.0
 11
52.49719144851645
 21
52.43136479817128
 31
0.0
  0
ARC
  5
DA1B
330
2
100
AcDbEntity
  8
0
 48
2.0
100
AcDbCircle
 10
53.14719144851654
 20
52.08136479817131
 30
0.0
 40
0.3499999999999979
100
AcDbArc
 50
0.0
 51
90.0
  0
ARC
  5
DA1C
330
2
100
AcDbEntity
  8
0
 48
2.0
100
AcDbCircle
 10
53.14719144851654
 20
52.08136479817131
 30
0.0
 40
0.3500000000000014
100
AcDbArc
 50
270.0
 51
0.0
  0
LINE
  5
DA1D
330
2
100
AcDbEntity
  8
0
 48
2.0
100
AcDbLine
 10
51.39191494058161
 20
51.73136479817128
 30
0.0
 11
53.14719144851654
 21
51.73136479817128
 31
0.0
  0
LINE
  5
DA1E
330
2
100
AcDbEntity
  8
0
100
AcDbLine
 10
53.49719144851644
 20
52.08136479817131
 30
0.0
 11
53.49719144851644
 21
52.08136479817131
 31
0.0
  0
LINE
  5
DA1F
330
2
100
AcDbEntity
  8
0
100
AcDbLine
 10
60.79719144851527
 20
36.20381247859885
 30
0.0
 11
60.79719144851527
 21
37.00381247860078
 31
0.0
  0
LINE
  5
DA20
330
2
100
AcDbEntity
  8
0
100
AcDbLine
 10
46.59719144851692
 20
57.59275499311605
 30
0.0
 11
43.6407230569556
 21
57.46421288913511
 31
0.0
  0
LINE
  5
DA21
330
2
100
AcDbEntity
  8
0
100
AcDbLine
 10
46.59719144851692
 20
51.80381247859881
 30
0.0
 11
46.59719144851692
 21
57.59275499311605
 31
0.0
  0
ARC
  5
DA22
330
2
100
AcDbEntity
  8
0
100
AcDbCircle
 10
47.09719144851692
 20
51.80381247859881
 30
0.0
 40
0.5
100
AcDbArc
 50
180.0
 51
270.0
  0
LINE
  5
DA23
330
2
100
AcDbEntity
  8
0
100
AcDbLine
 10
50.89719144851699
 20
51.30381247859881
 30
0.0
 11
47.09719144851692
 21
51.30381247859881
 31
0.0
  0
ARC
  5
DA24
330
2
100
AcDbEntity
  8
0
100
AcDbCircle
 10
50.89719144851699
 20
51.80381247859881
 30
0.0
 40
0.5
100
AcDbArc
 50
270.0
 51
351.6687801835618
  0
LINE
  5
DA25
330
2
100
AcDbEntity
  8
0
100
AcDbLine
 10
43.53212999626487
 20
59.9618532850227
 30
0.0
 11
49.73089479868349
 21
60.23136479817131
 31
0.0
  0
ARC
  5
DA26
330
2
100
AcDbEntity
  8
0
100
AcDbCircle
 10
43.69719144851479
 20
56.16543988327348
 30
0.0
 40
3.800000000000011
100
AcDbArc
 50
92.48955292199978
 51
180.0
  0
LINE
  5
DA27
330
2
100
AcDbEntity
  8
0
100
AcDbLine
 10
39.89719144851483
 20
28.30381247859887
 30
0.0
 11
39.89719144851472
 21
56.16543988327347
 31
0.0
  0
LINE
  5
DA28
330
2
100
AcDbEntity
  8
0
100
AcDbLine
 10
43.39719144851494
 20
28.30381247859885
 30
0.0
 11
40.51689354677444
 21
28.30381247859887
 31
0.0
  0
ARC
  5
DA29
330
2
100
AcDbEntity
  8
0
100
AcDbCircle
 10
43.39719144851494
 20
27.80381247859884
 30
0.0
 40
0.5
100
AcDbArc
 50
0.0
 51
90.0
  0
LINE
  5
DA2A
330
2
100
AcDbEntity
  8
0
100
AcDbLine
 10
43.89719144851494
 20
27.30381247859885
 30
0.0
 11
43.89719144851494
 21
27.80381247859884
 31
0.0
  0
LINE
  5
DA2B
330
2
100
AcDbEntity
  8
0
100
AcDbLine
 10
44.89719144851494
 20
27.30381247859885
 30
0.0
 11
43.89719144851494
 21
27.30381247859885
 31
0.0
  0
LINE
  5
DA2C
330
2
100
AcDbEntity
  8
0
100
AcDbLine
 10
44.89719144851494
 20
28.80381247859863
 30
0.0
 11
44.89719144851494
 21
27.30381247859885
 31
0.0
  0
ARC
  5
DA2D
330
2
100
AcDbEntity
  8
0
100
AcDbCircle
 10
43.89719144851494
 20
28.80381247859862
 30
0.0
 40
1.000000000000014
100
AcDbArc
 50
0.0000000000008142
 51
90.0
  0
LINE
  5
DA2E
330
2
100
AcDbEntity
  8
0
100
AcDbLine
 10
41.6971914485149
 20
29.80381247859865
 30
0.0
 11
43.89719144851494
 21
29.80381247859863
 31
0.0
  0
LINE
  5
DA2F
330
2
100
AcDbEntity
  8
0
100
AcDbLine
 10
41.6971914485149
 20
38.5038124786014
 30
0.0
 11
41.6971914485149
 21
29.80381247859865
 31
0.0
  0
LINE
  5
DA30
330
2
100
AcDbEntity
  8
0
100
AcDbLine
 10
59.29719144851526
 20
38.50381247860078
 30
0.0
 11
41.6971914485149
 21
38.5038124786014
 31
0.0
  0
ARC
  5
DA31
330
2
100
AcDbEntity
  8
0
100
AcDbCircle
 10
59.29719144851515
 20
37.00381247860078
 30
0.0
 40
1.500000000000014
100
AcDbArc
 50
0.0
 51
89.99999999999349
  0
LINE
  5
DA32
330
2
100
AcDbEntity
  8
0
100
AcDbLine
 10
42.39719144851483
 20
56.16543988327352
 30
0.0
 11
42.39719144851483
 21
55.30381247859878
 31
0.0
  0
ARC
  5
DA33
330
2
100
AcDbEntity
  8
0
100
AcDbCircle
 10
43.69719144851479
 20
56.16543988327354
 30
0.0
 40
1.299999999999998
100
AcDbArc
 50
92.48955292199978
 51
180.0000000000008
  0
LINE
  5
DA34
330
2
100
AcDbEntity
  8
0
100
AcDbLine
 10
68.99719144851508
 20
37.00381247859996
 30
0.0
 11
68.99719144851508
 21
29.30381247859884
 31
0.0
  0
LINE
  5
DA35
330
2
100
AcDbEntity
  8
0
100
AcDbLine
 10
68.99719144851508
 20
29.30381247859884
 30
0.0
 11
70.49719144851508
 21
29.30381247859883
 31
0.0
  0
ARC
  5
DA36
330
2
100
AcDbEntity
  8
0
100
AcDbCircle
 10
70.49719144851508
 20
28.30381247859883
 30
0.0
 40
1.0
100
AcDbArc
 50
0.0
 51
90.0
  0
LINE
  5
DA37
330
2
100
AcDbEntity
  8
0
100
AcDbLine
 10
71.49719144851508
 20
28.30381247859883
 30
0.0
 11
71.49719144851508
 21
27.30381247859879
 31
0.0
  0
LINE
  5
DA38
330
2
100
AcDbEntity
  8
0
100
AcDbLine
 10
71.49719144851508
 20
27.30381247859879
 30
0.0
 11
66.99719144851508
 21
27.30381247859885
 31
0.0
  0
ARC
  5
DA39
330
2
100
AcDbEntity
  8
0
100
AcDbCircle
 10
66.99719144851508
 20
27.80381247859884
 30
0.0
 40
0.5
100
AcDbArc
 50
180.0
 51
270.0
  0
LINE
  5
DA3A
330
2
100
AcDbEntity
  8
0
100
AcDbLine
 10
66.49719144851508
 20
27.80381247859884
 30
0.0
 11
66.49719144851508
 21
38.5038124786014
 31
0.0
  0
LINE
  5
DA3B
330
2
100
AcDbEntity
  8
0
100
AcDbLine
 10
66.49719144851508
 20
38.5038124786014
 30
0.0
 11
63.29719144851515
 21
38.50381247860163
 31
0.0
  0
LINE
  5
DA3C
330
2
100
AcDbEntity
  8
0
100
AcDbLine
 10
63.29719144851515
 20
38.50381247860163
 30
0.0
 11
63.29719144851515
 21
27.80381247859884
 31
0.0
  0
ARC
  5
DA3D
330
2
100
AcDbEntity
  8
0
100
AcDbCircle
 10
62.79719144851515
 20
27.80381247859884
 30
0.0
 40
0.5
100
AcDbArc
 50
270.0
 51
0.0
  0
LINE
  5
DA3E
330
2
100
AcDbEntity
  8
0
100
AcDbLine
 10
62.79719144851515
 20
27.30381247859885
 30
0.0
 11
58.29719144851515
 21
27.3038124785989
 31
0.0
  0
LINE
  5
DA3F
330
2
100
AcDbEntity
  8
0
100
AcDbLine
 10
58.29719144851515
 20
27.3038124785989
 30
0.0
 11
58.29719144851527
 21
28.30381247859887
 31
0.0
  0
ARC
  5
DA40
330
2
100
AcDbEntity
  8
0
100
AcDbCircle
 10
59.29719144851526
 20
28.30381247859885
 30
0.0
 40
0.9999999999999964
100
AcDbArc
 50
89.99999999999959
 51
179.9999999999986
  0
LINE
  5
DA41
330
2
100
AcDbEntity
  8
0
100
AcDbLine
 10
59.29719144851526
 20
29.30381247859884
 30
0.0
 11
60.79719144851527
 21
29.30381247859884
 31
0.0
  0
LINE
  5
DA42
330
2
100
AcDbEntity
  8
0
100
AcDbLine
 10
60.79719144851527
 20
29.30381247859884
 30
0.0
 11
60.79719144851527
 21
37.00381247860078
 31
0.0
  0
LINE
  5
DA43
330
2
100
AcDbEntity
  8
0
100
AcDbLine
 10
42.39719144851483
 20
55.30381247859878
 30
0.0
 11
42.39719144851483
 21
40.30381247859878
 31
0.0
  0
LINE
  5
DA44
330
2
100
AcDbEntity
  8
0
100
AcDbLine
 10
42.39719144851483
 20
40.30381247859878
 30
0.0
 11
84.39719144851691
 21
40.30381247859878
 31
0.0
  0
LINE
  5
DA45
330
2
100
AcDbEntity
  8
0
100
AcDbLine
 10
84.89719144851472
 20
28.80381247859886
 30
0.0
 11
84.89719144851482
 21
28.30381247859885
 31
0.0
  0
LINE
  5
DA46
330
2
100
AcDbEntity
  8
0
100
AcDbLine
 10
84.27748935025523
 20
28.30381247859885
 30
0.0
 11
81.39719144851472
 21
28.30381247859885
 31
0.0
  0
ARC
  5
DA47
330
2
100
AcDbEntity
  8
0
100
AcDbCircle
 10
81.39719144851472
 20
27.80381247859884
 30
0.0
 40
0.5
100
AcDbArc
 50
90.0
 51
180.0
  0
LINE
  5
DA48
330
2
100
AcDbEntity
  8
0
100
AcDbLine
 10
80.89719144851471
 20
27.80381247859884
 30
0.0
 11
80.89719144851471
 21
27.30381247859885
 31
0.0
  0
LINE
  5
DA49
330
2
100
AcDbEntity
  8
0
100
AcDbLine
 10
80.89719144851471
 20
27.30381247859885
 30
0.0
 11
79.89719144851472
 21
27.30381247859885
 31
0.0
  0
LINE
  5
DA4A
330
2
100
AcDbEntity
  8
0
100
AcDbLine
 10
79.89719144851472
 20
27.30381247859885
 30
0.0
 11
79.89719144851472
 21
28.80381247859862
 31
0.0
  0
ARC
  5
DA4B
330
2
100
AcDbEntity
  8
0
100
AcDbCircle
 10
80.89719144851471
 20
28.80381247859862
 30
0.0
 40
1.0
100
AcDbArc
 50
90.0
 51
180.0
  0
LINE
  5
DA4C
330
2
100
AcDbEntity
  8
0
100
AcDbLine
 10
80.89719144851471
 20
29.80381247859862
 30
0.0
 11
83.09719144851476
 21
29.80381247859862
 31
0.0
  0
LINE
  5
DA4D
330
2
100
AcDbEntity
  8
0
100
AcDbLine
 10
83.09719144851476
 20
29.80381247859862
 30
0.0
 11
83.09719144851488
 21
38.50381247859885
 31
0.0
  0
LINE
  5
DA4E
330
2
100
AcDbEntity
  8
0
100
AcDbLine
 10
83.09719144851488
 20
38.50381247859885
 30
0.0
 11
70.49719144851531
 21
38.50381247859996
 31
0.0
  0
ARC
  5
DA4F
330
2
100
AcDbEntity
  8
0
100
AcDbCircle
 10
70.49719144851508
 20
37.00381247859996
 30
0.0
 40
1.5
100
AcDbArc
 50
89.99999999999349
 51
180.0
  0
LINE
  5
DA50
330
2
100
AcDbEntity
  8
0
100
AcDbLine
 10
68.99719144851508
 20
37.00381247859996
 30
0.0
 11
68.99719144851508
 21
36.20381247859895
 31
0.0
  0
LINE
  5
DA51
330
2
100
AcDbEntity
  8
0
100
AcDbLine
 10
42.39719144851335
 20
55.80381247859898
 30
0.0
 11
42.39719144851335
 21
55.80381247859898
 31
0.0
  0
LINE
  5
DA52
330
2
100
AcDbEntity
  8
0
100
AcDbLine
 10
43.9971914485144
 20
56.80381247859898
 30
0.0
 11
43.9971914485144
 21
56.80381247859898
 31
0.0
  0
LINE
  5
DA53
330
2
100
AcDbEntity
  8
0
100
AcDbLine
 10
43.64719144851164
 20
56.80381247859898
 30
0.0
 11
43.64719144851176
 21
56.80381247859902
 31
0.0
  0
LINE
  5
DA54
330
2
100
AcDbEntity
  8
0
100
AcDbLine
 10
43.59719144851545
 20
54.80381247859899
 30
0.0
 11
43.59719144851545
 21
41.80381247859895
 31
0.0
  0
ARC
  5
DA55
330
2
100
AcDbEntity
  8
0
100
AcDbCircle
 10
45.09719144851544
 20
41.80381247859895
 30
0.0
 40
1.5
100
AcDbArc
 50
180.0
 51
270.0
  0
LINE
  5
DA56
330
2
100
AcDbEntity
  8
0
100
AcDbLine
 10
85.89793191510887
 20
27.30381247859877
 30
0.0
 11
86.40063419115824
 21
40.36440072656938
 31
0.0
  0
ARC
  5
DA57
330
2
100
AcDbEntity
  8
0
100
AcDbCircle
 10
84.40211402857869
 20
40.44132380349248
 30
0.0
 40
1.999999999999979
100
AcDbArc
 50
357.7957724960274
 51
86.07588082338125
  0
LINE
  5
DA58
330
2
100
AcDbEntity
  8
0
100
AcDbLine
 10
84.53898456627371
 20
42.43663492106563
 30
0.0
 11
72.58074098319116
 21
43.25692365433082
 31
0.0
  0
ARC
  5
DA59
330
2
100
AcDbEntity
  8
0
100
AcDbCircle
 10
71.21203560624144
 20
23.30381247859903
 30
0.0
 40
20.0000000000001
100
AcDbArc
 50
86.07588082338777
 51
90.0
  0
LINE
  5
DA5A
330
2
100
AcDbEntity
  8
0
100
AcDbLine
 10
71.21203560624156
 20
43.30381247859913
 30
0.0
 11
58.80386435737603
 21
43.3038124785991
 31
0.0
  0
ARC
  5
DA5B
330
2
100
AcDbEntity
  8
0
100
AcDbCircle
 10
58.80386435737603
 20
38.3038124785991
 30
0.0
 40
5.0
100
AcDbArc
 50
90.0
 51
110.5560452195883
  0
LINE
  5
DA5C
330
2
100
AcDbEntity
  8
0
100
AcDbLine
 10
57.04824714943402
 20
42.98545836644428
 30
0.0
 11
53.89719144851347
 21
41.80381247859901
 31
0.0
  0
LINE
  5
DA5D
330
2
100
AcDbEntity
  8
0
100
AcDbLine
 10
53.89719144851347
 20
41.80381247859901
 30
0.0
 11
46.59719144851544
 21
41.80381247859895
 31
0.0
  0
LINE
  5
DA5E
330
2
100
AcDbEntity
  8
0
100
AcDbLine
 10
46.59719144851544
 20
41.80381247859895
 30
0.0
 11
46.59719144851544
 21
55.80381247859898
 31
0.0
  0
ARC
  5
DA5F
330
2
100
AcDbEntity
  8
0
100
AcDbCircle
 10
45.59719144851544
 20
55.80381247859898
 30
0.0
 40
1.0
100
AcDbArc
 50
0.0
 51
90.0
  0
LINE
  5
DA60
330
2
100
AcDbEntity
  8
0
100
AcDbLine
 10
45.59719144851544
 20
56.80381247859898
 30
0.0
 11
44.99719144851439
 21
56.80381247859898
 31
0.0
  0
LINE
  5
DA61
330
2
100
AcDbEntity
  8
0
100
AcDbLine
 10
44.99719144851439
 20
56.80381247859898
 30
0.0
 11
44.99719144851439
 21
56.80381247859898
 31
0.0
  0
ARC
  5
DA62
330
2
100
AcDbEntity
  8
0
100
AcDbCircle
 10
44.4971914485144
 20
56.803812478599
 30
0.0
 40
0.4999999999999858
100
AcDbArc
 50
359.9999999999984
 51
90.0
  0
LINE
  5
DA63
330
2
100
AcDbEntity
  8
0
100
AcDbLine
 10
44.4971914485144
 20
57.30381247859899
 30
0.0
 11
44.4971914485144
 21
57.30381247859899
 31
0.0
  0
ARC
  5
DA64
330
2
100
AcDbEntity
  8
0
100
AcDbCircle
 10
44.4971914485144
 20
56.80381247859898
 30
0.0
 40
0.5
100
AcDbArc
 50
90.0
 51
180.0
  0
LINE
  5
DA65
330
2
100
AcDbEntity
  8
0
100
AcDbLine
 10
43.9971914485144
 20
56.80381247859898
 30
0.0
 11
43.39719144851335
 21
56.80381247859898
 31
0.0
  0
ARC
  5
DA66
330
2
100
AcDbEntity
  8
0
100
AcDbCircle
 10
43.39719144851335
 20
55.80381247859898
 30
0.0
 40
1.0
100
AcDbArc
 50
90.0
 51
180.0
  0
ARC
  5
DA67
330
2
100
AcDbEntity
  8
0
100
AcDbCircle
 10
43.39719144851335
 20
55.80381247859898
 30
0.0
 40
1.0
100
AcDbArc
 50
180.0
 51
270.0
  0
LINE
  5
DA68
330
2
100
AcDbEntity
  8
0
100
AcDbLine
 10
43.39719144851335
 20
54.80381247859899
 30
0.0
 11
43.59719144851545
 21
54.80381247859899
 31
0.0
  0
ARC
  5
DA69
330
2
100
AcDbEntity
  8
0
100
AcDbCircle
 10
82.39919224915537
 20
28.86381247859882
 30
0.0
 40
2.560000000000033
100
AcDbArc
 50
264.8720091169072
 51
347.3643749069787
  0
ARC
  5
DA6A
330
2
100
AcDbEntity
  8
0
100
AcDbCircle
 10
82.39919224915537
 20
28.86381247859882
 30
0.0
 40
1.960000000000014
100
AcDbArc
 50
264.8720091169072
 51
343.3984504009792
  0
ARC
  5
DA6B
330
2
100
AcDbEntity
  8
0
100
AcDbCircle
 10
82.19719144851479
 20
26.6128580862264
 30
0.0
 40
0.3000000000000198
100
AcDbArc
 50
84.87200911690068
 51
264.8720091169006
  0
ARC
  5
DA6C
330
2
100
AcDbEntity
  8
0
100
AcDbCircle
 10
42.3951906478743
 20
28.86381247859882
 30
0.0
 40
2.560000000000034
100
AcDbArc
 50
192.6356250930212
 51
275.1279908830928
  0
ARC
  5
DA6D
330
2
100
AcDbEntity
  8
0
100
AcDbCircle
 10
42.3951906478743
 20
28.86381247859882
 30
0.0
 40
1.960000000000014
100
AcDbArc
 50
196.6015495990206
 51
275.1279908830928
  0
ARC
  5
DA6E
330
2
100
AcDbEntity
  8
0
100
AcDbCircle
 10
42.59719144851476
 20
26.6128580862264
 30
0.0
 40
0.3000000000000198
100
AcDbArc
 50
275.1279908830993
 51
95.12799088309932
  0
LINE
  5
DA6F
330
2
100
AcDbEntity
  8
0
100
AcDbLine
 10
84.42897056217384
 20
27.30381247859885
 30
0.0
 11
85.89793191510876
 21
27.30381247859885
 31
0.0
  0
LINE
  5
DA70
330
2
100
AcDbEntity
  8
0
100
AcDbLine
 10
174.8437397443722
 20
143.3033191869029
 30
0.0
 11
157.3437397443749
 21
143.3033191869031
 31
0.0
  0
LINE
  5
DA71
330
2
100
AcDbEntity
  8
0
100
AcDbLine
 10
142.843739744372
 20
141.3033191869023
 30
0.0
 11
145.1746685090248
 21
141.0045364997967
 31
0.0
  0
LINE
  5
DA72
330
2
100
AcDbEntity
  8
0
100
AcDbLine
 10
142.843739744372
 20
141.9033191869022
 30
0.0
 11
145.2305719753787
 21
141.2987268440565
 31
0.0
  0
ARC
  5
DA73
330
2
100
AcDbEntity
  8
0
100
AcDbCircle
 10
145.193739744372
 20
141.1533191869023
 30
0.0
 40
0.15
100
AcDbArc
 50
262.6955544393867
 51
75.78576665395913
  0
LINE
  5
DA74
330
2
100
AcDbEntity
  8
0
100
AcDbLine
 10
141.8437397443722
 20
146.3033191869023
 30
0.0
 11
141.3437397443722
 21
146.3033191869023
 31
0.0
  0
LINE
  5
DA75
330
2
100
AcDbEntity
  8
0
100
AcDbLine
 10
174.8437397443723
 20
143.3033191869029
 30
0.0
 11
174.8437397443723
 21
136.6033191869027
 31
0.0
  0
LINE
  5
DA76
330
2
100
AcDbEntity
  8
0
100
AcDbLine
 10
174.8437397443723
 20
136.6033191869027
 30
0.0
 11
168.8437397443723
 21
136.6033191869024
 31
0.0
  0
ARC
  5
DA77
330
2
100
AcDbEntity
  8
0
100
AcDbCircle
 10
168.8437397443723
 20
136.1033191869024
 30
0.0
 40
0.5
100
AcDbArc
 50
90.0
 51
180.0
  0
LINE
  5
DA78
330
2
100
AcDbEntity
  8
0
100
AcDbLine
 10
168.3437397443723
 20
136.1033191869024
 30
0.0
 11
168.3437397443723
 21
132.3033191869024
 31
0.0
  0
ARC
  5
DA79
330
2
100
AcDbEntity
  8
0
100
AcDbCircle
 10
168.8437397443723
 20
132.3033191869024
 30
0.0
 40
0.5
100
AcDbArc
 50
180.0
 51
270.0
  0
ARC
  5
DA7A
330
2
100
AcDbEntity
  8
0
100
AcDbCircle
 10
176.8437397443723
 20
145.8033191869024
 30
0.0
 40
0.5
100
AcDbArc
 50
0.0
 51
90.0
  0
LINE
  5
DA7B
330
2
100
AcDbEntity
  8
0
100
AcDbLine
 10
176.8437397443723
 20
146.3033191869024
 30
0.0
 11
141.3437397443722
 21
146.3033191869023
 31
0.0
  0
LINE
  5
DA7C
330
2
100
AcDbEntity
  8
0
100
AcDbLine
 10
141.3437397443723
 20
145.6836170886428
 30
0.0
 11
141.3437397443722
 21
142.8033191869022
 31
0.0
  0
LINE
  5
DA7D
330
2
100
AcDbEntity
  8
0
100
AcDbLine
 10
140.8437397443722
 20
142.3033191869023
 30
0.0
 11
140.3437397443722
 21
142.3033191869023
 31
0.0
  0
LINE
  5
DA7E
330
2
100
AcDbEntity
  8
0
100
AcDbLine
 10
140.3437397443722
 20
142.3033191869023
 30
0.0
 11
140.3437397443722
 21
141.8033191869023
 31
0.0
  0
LINE
  5
DA7F
330
2
100
AcDbEntity
  8
0
100
AcDbLine
 10
140.8437397443722
 20
141.3033191869023
 30
0.0
 11
142.843739744372
 21
141.3033191869023
 31
0.0
  0
LINE
  5
DA80
330
2
100
AcDbEntity
  8
0
100
AcDbLine
 10
142.843739744372
 20
141.9033191869022
 30
0.0
 11
142.843739744372
 21
144.7033191869023
 31
0.0
  0
LINE
  5
DA81
330
2
100
AcDbEntity
  8
0
100
AcDbLine
 10
142.843739744372
 20
144.7033191869023
 30
0.0
 11
155.7437397443749
 21
144.7033191869024
 31
0.0
  0
LINE
  5
DA82
330
2
100
AcDbEntity
  8
0
100
AcDbLine
 10
140.3437397443722
 20
101.3033191869024
 30
0.0
 11
140.3437397443722
 21
100.3033191869024
 31
0.0
  0
LINE
  5
DA83
330
2
100
AcDbEntity
  8
0
100
AcDbLine
 10
140.3437397443722
 20
100.3033191869024
 30
0.0
 11
140.8437397443722
 21
100.3033191869024
 31
0.0
  0
ARC
  5
DA84
330
2
100
AcDbEntity
  8
0
100
AcDbCircle
 10
140.8437397443722
 20
99.80331918690241
 30
0.0
 40
0.5
100
AcDbArc
 50
0.0
 51
90.0
  0
LINE
  5
DA85
330
2
100
AcDbEntity
  8
0
100
AcDbLine
 10
141.3437397443735
 20
99.80331918690199
 30
0.0
 11
141.3437397443722
 21
96.92302128516185
 31
0.0
  0
LINE
  5
DA86
330
2
100
AcDbEntity
  8
0
100
AcDbLine
 10
141.3437397443702
 20
140.3040670918552
 30
0.0
 11
141.3437397443702
 21
140.3033191869022
 31
0.0
  0
LINE
  5
DA87
330
2
100
AcDbEntity
  8
0
100
AcDbLine
 10
141.3437397443702
 20
140.3033191869022
 30
0.0
 11
144.3437397443702
 21
141.3033191869022
 31
0.0
  0
LINE
  5
DA88
330
2
100
AcDbEntity
  8
0
100
AcDbLine
 10
144.3437397443702
 20
141.3033191869022
 30
0.0
 11
154.3748153659469
 21
140.4234002727284
 31
0.0
  0
LINE
  5
DA89
330
2
100
AcDbEntity
  8
0
100
AcDbLine
 10
140.3437397443722
 20
101.3033191869014
 30
0.0
 11
149.9437397443719
 21
101.3033191869014
 31
0.0
  0
LINE
  5
DA8A
330
2
100
AcDbEntity
  8
0
100
AcDbLine
 10
149.9437397443719
 20
101.3033191869014
 30
0.0
 11
149.9437397443719
 21
104.103319186901
 31
0.0
  0
LINE
  5
DA8B
330
2
100
AcDbEntity
  8
0
100
AcDbLine
 10
149.9437397443719
 20
104.103319186901
 30
0.0
 11
140.8437397443681
 21
104.103319186901
 31
0.0
  0
ARC
  5
DA8C
330
2
100
AcDbEntity
  8
0
100
AcDbCircle
 10
140.8437397443681
 20
104.603319186901
 30
0.0
 40
0.4999999999999716
100
AcDbArc
 50
179.9999999999935
 51
270.0000000000065
  0
LINE
  5
DA8D
330
2
100
AcDbEntity
  8
0
100
AcDbLine
 10
140.3437397443681
 20
104.6033191869011
 30
0.0
 11
140.3437397443683
 21
106.603319186901
 31
0.0
  0
LINE
  5
DA8E
330
2
100
AcDbEntity
  8
0
100
AcDbLine
 10
140.3437397443683
 20
106.603319186901
 30
0.0
 11
140.8437397443681
 21
106.603319186901
 31
0.0
  0
ARC
  5
DA8F
330
2
100
AcDbEntity
  8
0
100
AcDbCircle
 10
140.8437397443681
 20
106.1033191869011
 30
0.0
 40
0.5
100
AcDbArc
 50
0.0
 51
90.0
  0
LINE
  5
DA90
330
2
100
AcDbEntity
  8
0
100
AcDbLine
 10
141.3437397443681
 20
106.1033191869011
 30
0.0
 11
141.3437397443681
 21
105.603319186901
 31
0.0
  0
LINE
  5
DA91
330
2
100
AcDbEntity
  8
0
100
AcDbLine
 10
141.3437397443681
 20
105.603319186901
 30
0.0
 11
151.4437397443719
 21
105.603319186901
 31
0.0
  0
LINE
  5
DA92
330
2
100
AcDbEntity
  8
0
100
AcDbLine
 10
151.4437397443719
 20
105.603319186901
 30
0.0
 11
151.4437397443719
 21
101.3033191869029
 31
0.0
  0
LINE
  5
DA93
330
2
100
AcDbEntity
  8
0
100
AcDbLine
 10
151.4437397443719
 20
101.3033191869029
 30
0.0
 11
154.2437397443716
 21
101.3033191869029
 31
0.0
  0
LINE
  5
DA94
330
2
100
AcDbEntity
  8
0
100
AcDbLine
 10
154.2437397443716
 20
101.3033191869029
 30
0.0
 11
154.2437397443732
 21
129.4033191869021
 31
0.0
  0
LINE
  5
DA95
330
2
100
AcDbEntity
  8
0
100
AcDbLine
 10
154.2437397443732
 20
129.4033191869021
 30
0.0
 11
151.4437397443719
 21
129.4033191869021
 31
0.0
  0
LINE
  5
DA96
330
2
100
AcDbEntity
  8
0
100
AcDbLine
 10
151.4437397443719
 20
129.4033191869021
 30
0.0
 11
151.4437397443719
 21
125.0033191869021
 31
0.0
  0
LINE
  5
DA97
330
2
100
AcDbEntity
  8
0
100
AcDbLine
 10
151.4437397443719
 20
125.0033191869021
 30
0.0
 11
140.8437397443701
 21
125.0033191869021
 31
0.0
  0
ARC
  5
DA98
330
2
100
AcDbEntity
  8
0
100
AcDbCircle
 10
140.8437397443701
 20
125.5033191869021
 30
0.0
 40
0.5000000000000142
100
AcDbArc
 50
179.9999999999984
 51
270.0
  0
LINE
  5
DA99
330
2
100
AcDbEntity
  8
0
100
AcDbLine
 10
140.3437397443702
 20
125.5033191869021
 30
0.0
 11
140.3437397443704
 21
127.5033191869021
 31
0.0
  0
LINE
  5
DA9A
330
2
100
AcDbEntity
  8
0
100
AcDbLine
 10
140.3437397443704
 20
127.5033191869021
 30
0.0
 11
140.8437397443701
 21
127.5033191869021
 31
0.0
  0
ARC
  5
DA9B
330
2
100
AcDbEntity
  8
0
100
AcDbCircle
 10
140.8437397443701
 20
127.0033191869021
 30
0.0
 40
0.5
100
AcDbArc
 50
0.0
 51
90.0
  0
LINE
  5
DA9C
330
2
100
AcDbEntity
  8
0
100
AcDbLine
 10
141.3437397443702
 20
127.0033191869021
 30
0.0
 11
141.3437397443702
 21
126.5033191869021
 31
0.0
  0
LINE
  5
DA9D
330
2
100
AcDbEntity
  8
0
100
AcDbLine
 10
141.3437397443702
 20
126.5033191869021
 30
0.0
 11
149.9437397443719
 21
126.5033191869021
 31
0.0
  0
LINE
  5
DA9E
330
2
100
AcDbEntity
  8
0
100
AcDbLine
 10
149.9437397443719
 20
126.5033191869021
 30
0.0
 11
149.9437397443716
 21
130.4033191869021
 31
0.0
  0
ARC
  5
DA9F
330
2
100
AcDbEntity
  8
0
100
AcDbCircle
 10
150.4437397443716
 20
130.4033191869021
 30
0.0
 40
0.5
100
AcDbArc
 50
90.0
 51
180.0
  0
LINE
  5
DAA0
330
2
100
AcDbEntity
  8
0
100
AcDbLine
 10
150.4437397443716
 20
130.9033191869021
 30
0.0
 11
154.2437397443721
 21
130.9033191869021
 31
0.0
  0
LINE
  5
DAA1
330
2
100
AcDbEntity
  8
0
100
AcDbLine
 10
154.2437397443744
 20
130.9033191869021
 30
0.0
 11
154.2437397443747
 21
138.9291381868046
 31
0.0
  0
LINE
  5
DAA2
330
2
100
AcDbEntity
  8
0
100
AcDbLine
 10
154.2437397443747
 20
138.9291381868046
 30
0.0
 11
144.5227645905901
 21
139.781855305558
 31
0.0
  0
LINE
  5
DAA3
330
2
100
AcDbEntity
  8
0
100
AcDbLine
 10
144.5227645905901
 20
139.781855305558
 30
0.0
 11
141.0018536273787
 21
138.6082183178209
 31
0.0
  0
LINE
  5
DAA4
330
2
100
AcDbEntity
  8
0
100
AcDbLine
 10
140.3437397443704
 20
139.0825599668461
 30
0.0
 11
140.34373974437
 21
140.8033191869022
 31
0.0
  0
LINE
  5
DAA5
330
2
100
AcDbEntity
  8
0
100
AcDbLine
 10
140.34373974437
 20
140.8033191869022
 30
0.0
 11
140.8437397443701
 21
140.8033191869023
 31
0.0
  0
LINE
  5
DAA6
330
2
100
AcDbEntity
  8
0
100
AcDbLine
 10
141.3437397443703
 20
140.3033191869023
 30
0.0
 11
141.3437397443702
 21
140.3033191869022
 31
0.0
  0
LINE
  5
DAA7
330
2
100
AcDbEntity
  8
0
100
AcDbLine
 10
141.8437397443722
 20
146.3033191869019
 30
0.0
 11
141.3437397443722
 21
146.3033191869019
 31
0.0
  0
LINE
  5
DAA8
330
2
100
AcDbEntity
  8
0
100
AcDbLine
 10
141.3437397443702
 20
140.3040670918548
 30
0.0
 11
141.3437397443702
 21
140.3033191869018
 31
0.0
  0
ARC
  5
DAA9
330
2
100
AcDbEntity
  8
0
100
AcDbCircle
 10
154.2437397443747
 20
138.9291381868045
 30
0.0
 40
1.500000000000009
100
AcDbArc
 50
0.0000000000032569
 51
84.98688624496372
  0
LINE
  5
DAAA
330
2
100
AcDbEntity
  8
0
100
AcDbLine
 10
155.7437397443744
 20
144.7033191869024
 30
0.0
 11
155.7437397443747
 21
138.9291381868045
 31
0.0
  0
ARC
  5
DAAB
330
2
100
AcDbEntity
  8
0
100
AcDbCircle
 10
140.8437397443704
 20
139.0825599668457
 30
0.0
 40
0.4999999999999673
100
AcDbArc
 50
180.0000000000081
 51
288.434948822921
  0
ARC
  5
DAAC
330
2
100
AcDbEntity
  8
0
100
AcDbCircle
 10
140.8437397443704
 20
140.3033191869019
 30
0.0
 40
0.5000000000000142
100
AcDbArc
 50
0.0000000000032569
 51
90.00000000001953
  0
LINE
  5
DAAD
330
2
100
AcDbEntity
  8
0
100
AcDbLine
 10
141.3437397443704
 20
140.3033191869019
 30
0.0
 11
141.3437397443702
 21
140.3033191869018
 31
0.0
  0
ARC
  5
DAAE
330
2
100
AcDbEntity
  8
0
100
AcDbCircle
 10
140.8437397443723
 20
142.8033191869019
 30
0.0
 40
0.5
100
AcDbArc
 50
270.0000000000065
 51
0.0000000000016284
  0
ARC
  5
DAAF
330
2
100
AcDbEntity
  8
0
100
AcDbCircle
 10
140.8437397443724
 20
141.8033191869018
 30
0.0
 40
0.5
100
AcDbArc
 50
180.0000000000032
 51
270.0000000000065
  0
LINE
  5
DAB0
330
2
100
AcDbEntity
  8
0
100
AcDbLine
 10
157.3437397443745
 20
96.80331918690246
 30
0.0
 11
157.3437397443749
 21
143.3033191869032
 31
0.0
  0
LINE
  5
DAB1
330
2
100
AcDbEntity
  8
0
100
AcDbLine
 10
141.3437397443731
 20
96.30331918690202
 30
0.0
 11
156.8437397443756
 21
96.30331918690245
 31
0.0
  0
ARC
  5
DAB2
330
2
100
AcDbEntity
  8
0
100
AcDbCircle
 10
156.8437397443756
 20
96.80331918690246
 30
0.0
 40
0.5
100
AcDbArc
 50
270.0000000000065
 51
0.0000000000016284
  0
LINE
  5
DAB3
330
2
100
AcDbEntity
  8
0
 48
2.0
100
AcDbLine
 10
177.3437397443727
 20
128.1371779086734
 30
0.0
 11
177.3437397443727
 21
145.8033191869024
 31
0.0
  0
ARC
  5
DAB4
330
2
100
AcDbEntity
  8
0
 48
2.0
100
AcDbCircle
 10
175.3437397443726
 20
128.1371779086734
 30
0.0
 40
2.0
100
AcDbArc
 50
292.5990272546574
 51
0.0
  0
LINE
  5
DAB5
330
2
100
AcDbEntity
  8
0
 48
2.0
100
AcDbLine
 10
170.2009218069008
 20
123.8301933274142
 30
0.0
 11
176.1122990417773
 21
126.2907444258821
 31
0.0
  0
ARC
  5
DAB6
330
2
100
AcDbEntity
  8
0
 48
2.0
100
AcDbCircle
 10
170.066423929855
 20
124.1533191869027
 30
0.0
 40
0.3500000000000013
100
AcDbArc
 50
112.5990272546573
 51
292.5990272546574
  0
LINE
  5
DAB7
330
2
100
AcDbEntity
  8
0
 48
2.0
100
AcDbLine
 10
175.8433032876855
 20
126.9369961448591
 30
0.0
 11
169.9319260528092
 21
124.4764450463911
 31
0.0
  0
ARC
  5
DAB8
330
2
100
AcDbEntity
  8
0
 48
2.0
100
AcDbCircle
 10
175.3437397443726
 20
128.1371779086734
 30
0.0
 40
1.299999999999997
100
AcDbArc
 50
292.5990272546574
 51
0.0
  0
LINE
  5
DAB9
330
2
100
AcDbEntity
  8
0
 48
2.0
100
AcDbLine
 10
176.6437397443726
 20
129.7033191869027
 30
0.0
 11
176.6437397443726
 21
128.1371779086734
 31
0.0
  0
ARC
  5
DABA
330
2
100
AcDbEntity
  8
0
 48
2.0
100
AcDbCircle
 10
175.6437397443726
 20
129.7033191869027
 30
0.0
 40
1.0
100
AcDbArc
 50
0.0
 51
90.0
  0
LINE
  5
DABB
330
2
100
AcDbEntity
  8
0
 48
2.0
100
AcDbLine
 10
169.5437397443727
 20
130.7033191869027
 30
0.0
 11
175.6437397443726
 21
130.7033191869027
 31
0.0
  0
LINE
  5
DABC
330
2
100
AcDbEntity
  8
0
 48
2.0
100
AcDbLine
 10
169.5437397443727
 20
130.0533191869027
 30
0.0
 11
169.5437397443727
 21
130.7033191869027
 31
0.0
  0
LINE
  5
DABD
330
2
100
AcDbEntity
  8
0
 48
2.0
100
AcDbLine
 10
168.8437397443727
 20
131.8033191869028
 30
0.0
 11
168.8437397443727
 21
130.0533191869027
 31
0.0
  0
LINE
  5
DABE
330
2
100
AcDbEntity
  8
0
 48
2.0
100
AcDbLine
 10
169.1937397443727
 20
129.7033191869027
 30
0.0
 11
169.1937397443727
 21
129.7033191869027
 31
0.0
  0
ARC
  5
DABF
330
2
100
AcDbEntity
  8
0
100
AcDbCircle
 10
139.652785352
 20
143.6033191869018
 30
0.0
 40
0.3000000000000107
100
AcDbArc
 50
185.1279908831091
 51
5.127990883107502
  0
ARC
  5
DAC0
330
2
100
AcDbEntity
  8
0
100
AcDbCircle
 10
141.9037397443725
 20
143.8053199875425
 30
0.0
 40
1.960000000000029
100
AcDbArc
 50
106.6015495990229
 51
185.127990883096
  0
ARC
  5
DAC1
330
2
100
AcDbEntity
  8
0
100
AcDbCircle
 10
141.9037397443724
 20
143.8053199875425
 30
0.0
 40
2.560000000000035
100
AcDbArc
 50
102.6356250930213
 51
185.1279908830992
  0
ARC
  5
DAC2
330
2
100
AcDbEntity
  8
0
100
AcDbCircle
 10
139.6527853520014
 20
99.00331918690184
 30
0.0
 40
0.3000000000000647
100
AcDbArc
 50
354.8720091168974
 51
174.8720091168974
  0
ARC
  5
DAC3
330
2
100
AcDbEntity
  8
0
100
AcDbCircle
 10
141.9037397443738
 20
98.80131838626128
 30
0.0
 40
1.960000000000074
100
AcDbArc
 50
174.8720091169072
 51
253.3984504009771
  0
ARC
  5
DAC4
330
2
100
AcDbEntity
  8
0
100
AcDbCircle
 10
141.9037397443737
 20
98.80131838626127
 30
0.0
 40
2.559999999999996
100
AcDbArc
 50
174.872009116904
 51
257.3643749069788
  0
ARC
  5
DAC5
330
2
100
AcDbEntity
  8
0
 48
2.0
100
AcDbCircle
 10
169.1937397443727
 20
130.0533191869027
 30
0.0
 40
0.35
100
AcDbArc
 50
180.0
 51
0.0
  0
LINE
  5
DAC6
330
2
100
AcDbEntity
  8
0
100
AcDbLine
 10
222.9437397443758
 20
126.8033191869024
 30
0.0
 11
171.3437397443756
 21
126.8033191869024
 31
0.0
  0
ARC
  5
DAC7
330
2
100
AcDbEntity
  8
0
100
AcDbCircle
 10
171.3437397443756
 20
123.8033191869024
 30
0.0
 40
3.0
100
AcDbArc
 50
90.0
 51
180.0
  0
LINE
  5
DAC8
330
2
100
AcDbEntity
  8
0
100
AcDbLine
 10
168.3437397443756
 20
123.8033191869024
 30
0.0
 11
168.3437397443754
 21
123.8033191869038
 31
0.0
  0
LINE
  5
DAC9
330
2
100
AcDbEntity
  8
0
100
AcDbLine
 10
168.3437397443754
 20
123.8033191869038
 30
0.0
 11
169.8437397443754
 21
123.8033191869039
 31
0.0
  0
LINE
  5
DACA
330
2
100
AcDbEntity
  8
0
100
AcDbLine
 10
206.8437397443754
 20
124.2033191869023
 30
0.0
 11
221.8437397443752
 21
124.2033191869023
 31
0.0
  0
LINE
  5
DACB
330
2
100
AcDbEntity
  8
0
100
AcDbLine
 10
169.8437397443754
 20
123.8033191869039
 30
0.0
 11
169.8437397443754
 21
108.5033191869062
 31
0.0
  0
LINE
  5
DACC
330
2
100
AcDbEntity
  8
0
100
AcDbLine
 10
167.3437397443754
 20
108.0033191869062
 30
0.0
 11
167.3437397443754
 21
107.5094831605316
 31
0.0
  0
LINE
  5
DACD
330
2
100
AcDbEntity
  8
0
100
AcDbLine
 10
165.6603682940251
 20
105.5033191869062
 30
0.0
 11
163.8437397443754
 21
105.5033191869062
 31
0.0
  0
LINE
  5
DACE
330
2
100
AcDbEntity
  8
0
100
AcDbLine
 10
169.8437397443754
 20
108.5033191869062
 30
0.0
 11
167.8437397443754
 21
108.5033191869062
 31
0.0
  0
ARC
  5
DACF
330
2
100
AcDbEntity
  8
0
100
AcDbCircle
 10
167.8437397443754
 20
108.0033191869062
 30
0.0
 40
0.5
100
AcDbArc
 50
90.0
 51
180.0
  0
LINE
  5
DAD0
330
2
100
AcDbEntity
  8
0
100
AcDbLine
 10
165.6603682940251
 20
105.5033191869062
 30
0.0
 11
167.3437397443754
 21
107.5094831605316
 31
0.0
  0
ARC
  5
DAD1
330
2
100
AcDbEntity
  8
0
100
AcDbCircle
 10
163.8437397443754
 20
105.0033191869062
 30
0.0
 40
0.5
100
AcDbArc
 50
90.0
 51
179.9999999999772
  0
LINE
  5
DAD2
330
2
100
AcDbEntity
  8
0
100
AcDbLine
 10
206.8437397443754
 20
109.8033191869018
 30
0.0
 11
221.8437397443754
 21
109.8033191869025
 31
0.0
  0
LINE
  5
DAD3
330
2
100
AcDbEntity
  8
0
100
AcDbLine
 10
221.8437397443754
 20
109.8033191869025
 30
0.0
 11
221.8437397443754
 21
102.303319186902
 31
0.0
  0
LINE
  5
DAD4
330
2
100
AcDbEntity
  8
0
100
AcDbLine
 10
221.8437397443754
 20
102.303319186902
 30
0.0
 11
223.0437397443755
 21
102.303319186902
 31
0.0
  0
ARC
  5
DAD5
330
2
100
AcDbEntity
  8
0
100
AcDbCircle
 10
223.0437397443757
 20
102.0033191869021
 30
0.0
 40
0.2999999999998692
100
AcDbArc
 50
0.0
 51
90.00000000002605
  0
LINE
  5
DAD6
330
2
100
AcDbEntity
  8
0
100
AcDbLine
 10
223.3437397443754
 20
102.0033191869021
 30
0.0
 11
223.3437397443756
 21
101.5633191869019
 31
0.0
  0
ARC
  5
DAD7
330
2
100
AcDbEntity
  8
0
100
AcDbCircle
 10
223.0756780090151
 20
101.5695442661642
 30
0.0
 40
0.2681340067509704
100
AcDbArc
 50
263.1590819105916
 51
358.6696845294767
  0
ARC
  5
DAD8
330
2
100
AcDbEntity
  8
0
100
AcDbCircle
 10
165.3037397443743
 20
103.2633191869021
 30
0.0
 40
1.959999999999999
100
AcDbArc
 50
179.9999999998599
 51
270.0
  0
LINE
  5
DAD9
330
2
100
AcDbEntity
  8
0
100
AcDbLine
 10
223.0437397443759
 20
101.303319186902
 30
0.0
 11
165.3037397443743
 21
101.303319186902
 31
0.0
  0
LINE
  5
DADA
330
2
100
AcDbEntity
  8
0
100
AcDbLine
 10
163.3437397443761
 20
105.0033191869062
 30
0.0
 11
163.3437397443761
 21
103.2633191869021
 31
0.0
  0
LINE
  5
DADB
330
2
100
AcDbEntity
  8
0
100
AcDbLine
 10
206.8437397443754
 20
109.8033191869025
 30
0.0
 11
206.8437397443754
 21
111.1033191869023
 31
0.0
  0
ARC
  5
DADC
330
2
100
AcDbEntity
  8
0
100
AcDbCircle
 10
206.4437397443753
 20
111.1033191869023
 30
0.0
 40
0.3999999999999915
100
AcDbArc
 50
0.0
 51
180.0
  0
LINE
  5
DADD
330
2
100
AcDbEntity
  8
0
100
AcDbLine
 10
206.0437397443755
 20
111.1033191869023
 30
0.0
 11
206.0437397443755
 21
109.8033191869025
 31
0.0
  0
LINE
  5
DADE
330
2
100
AcDbEntity
  8
0
100
AcDbLine
 10
206.0437397443755
 20
124.2033191869023
 30
0.0
 11
206.0437397443752
 21
122.9033191869024
 31
0.0
  0
ARC
  5
DADF
330
2
100
AcDbEntity
  8
0
100
AcDbCircle
 10
206.4437397443753
 20
122.9033191869024
 30
0.0
 40
0.3999999999999915
100
AcDbArc
 50
180.0
 51
0.0
  0
LINE
  5
DAE0
330
2
100
AcDbEntity
  8
0
100
AcDbLine
 10
206.8437397443754
 20
122.9033191869024
 30
0.0
 11
206.8437397443754
 21
124.2033191869023
 31
0.0
  0
LINE
  5
DAE1
330
2
100
AcDbEntity
  8
0
100
AcDbLine
 10
221.8437397443752
 20
124.2033191869023
 30
0.0
 11
221.8437397443754
 21
126.0033191869023
 31
0.0
  0
LINE
  5
DAE2
330
2
100
AcDbEntity
  8
0
100
AcDbLine
 10
221.8437397443754
 20
126.0033191869023
 30
0.0
 11
222.9437397443753
 21
126.0033191869023
 31
0.0
  0
ARC
  5
DAE3
330
2
100
AcDbEntity
  8
0
100
AcDbCircle
 10
222.9437397443758
 20
126.4033191869023
 30
0.0
 40
0.4000000000000341
100
AcDbArc
 50
269.9999999999349
 51
90.00000000002605
  0
LINE
  5
DAE4
330
2
100
AcDbEntity
  8
0
100
AcDbLine
 10
206.0437397443755
 20
109.8033191869025
 30
0.0
 11
204.2437397443753
 21
109.8033191869025
 31
0.0
  0
LINE
  5
DAE5
330
2
100
AcDbEntity
  8
0
100
AcDbLine
 10
204.2437397443753
 20
109.8033191869025
 30
0.0
 11
204.2437397443753
 21
124.2033191869023
 31
0.0
  0
LINE
  5
DAE6
330
2
100
AcDbEntity
  8
0
100
AcDbLine
 10
204.2437397443753
 20
124.2033191869023
 30
0.0
 11
206.0437397443755
 21
124.2033191869023
 31
0.0
  0
LINE
  5
DAE7
330
2
100
AcDbEntity
  8
0
100
AcDbLine
 10
286.5437397443761
 20
126.8033191869024
 30
0.0
 11
338.1437397443763
 21
126.8033191869024
 31
0.0
  0
ARC
  5
DAE8
330
2
100
AcDbEntity
  8
0
100
AcDbCircle
 10
338.1437397443763
 20
123.8033191869024
 30
0.0
 40
3.0
100
AcDbArc
 50
0.0
 51
90.0
  0
LINE
  5
DAE9
330
2
100
AcDbEntity
  8
0
100
AcDbLine
 10
341.1437397443763
 20
123.8033191869024
 30
0.0
 11
341.1437397443765
 21
123.8033191869038
 31
0.0
  0
LINE
  5
DAEA
330
2
100
AcDbEntity
  8
0
100
AcDbLine
 10
341.1437397443765
 20
123.8033191869038
 30
0.0
 11
339.6437397443765
 21
123.8033191869039
 31
0.0
  0
LINE
  5
DAEB
330
2
100
AcDbEntity
  8
0
100
AcDbLine
 10
302.6437397443765
 20
124.2033191869023
 30
0.0
 11
287.6437397443767
 21
124.2033191869023
 31
0.0
  0
LINE
  5
DAEC
330
2
100
AcDbEntity
  8
0
100
AcDbLine
 10
339.6437397443765
 20
123.8033191869039
 30
0.0
 11
339.6437397443765
 21
108.5033191869062
 31
0.0
  0
LINE
  5
DAED
330
2
100
AcDbEntity
  8
0
100
AcDbLine
 10
342.1437397443765
 20
108.0033191869062
 30
0.0
 11
342.1437397443765
 21
107.5094831605316
 31
0.0
  0
LINE
  5
DAEE
330
2
100
AcDbEntity
  8
0
100
AcDbLine
 10
343.8271111947267
 20
105.5033191869062
 30
0.0
 11
345.6437397443765
 21
105.5033191869062
 31
0.0
  0
LINE
  5
DAEF
330
2
100
AcDbEntity
  8
0
100
AcDbLine
 10
339.6437397443765
 20
108.5033191869062
 30
0.0
 11
341.6437397443765
 21
108.5033191869062
 31
0.0
  0
ARC
  5
DAF0
330
2
100
AcDbEntity
  8
0
100
AcDbCircle
 10
341.6437397443765
 20
108.0033191869062
 30
0.0
 40
0.5
100
AcDbArc
 50
0.0
 51
90.0
  0
LINE
  5
DAF1
330
2
100
AcDbEntity
  8
0
100
AcDbLine
 10
343.8271111947267
 20
105.5033191869062
 30
0.0
 11
342.1437397443765
 21
107.5094831605316
 31
0.0
  0
ARC
  5
DAF2
330
2
100
AcDbEntity
  8
0
100
AcDbCircle
 10
345.6437397443765
 20
105.0033191869062
 30
0.0
 40
0.5
100
AcDbArc
 50
0.0000000000227982
 51
90.0
  0
LINE
  5
DAF3
330
2
100
AcDbEntity
  8
0
100
AcDbLine
 10
302.6437397443765
 20
109.8033191869018
 30
0.0
 11
287.6437397443765
 21
109.8033191869025
 31
0.0
  0
LINE
  5
DAF4
330
2
100
AcDbEntity
  8
0
100
AcDbLine
 10
287.6437397443765
 20
109.8033191869025
 30
0.0
 11
287.6437397443765
 21
102.303319186902
 31
0.0
  0
LINE
  5
DAF5
330
2
100
AcDbEntity
  8
0
100
AcDbLine
 10
287.6437397443765
 20
102.303319186902
 30
0.0
 11
286.4437397443765
 21
102.303319186902
 31
0.0
  0
ARC
  5
DAF6
330
2
100
AcDbEntity
  8
0
100
AcDbCircle
 10
286.4437397443762
 20
102.0033191869021
 30
0.0
 40
0.2999999999998692
100
AcDbArc
 50
89.99999999997395
 51
180.0
  0
LINE
  5
DAF7
330
2
100
AcDbEntity
  8
0
100
AcDbLine
 10
286.1437397443765
 20
102.0033191869021
 30
0.0
 11
286.1437397443763
 21
101.5633191869019
 31
0.0
  0
ARC
  5
DAF8
330
2
100
AcDbEntity
  8
0
100
AcDbCircle
 10
286.4118014797368
 20
101.5695442661642
 30
0.0
 40
0.2681340067509704
100
AcDbArc
 50
181.3303154705232
 51
276.8409180894084
  0
ARC
  5
DAF9
330
2
100
AcDbEntity
  8
0
100
AcDbCircle
 10
344.1837397443776
 20
103.2633191869021
 30
0.0
 40
1.959999999999999
100
AcDbArc
 50
270.0
 51
0.0000000001400462
  0
LINE
  5
DAFA
330
2
100
AcDbEntity
  8
0
100
AcDbLine
 10
286.4437397443761
 20
101.303319186902
 30
0.0
 11
344.1837397443776
 21
101.303319186902
 31
0.0
  0
LINE
  5
DAFB
330
2
100
AcDbEntity
  8
0
100
AcDbLine
 10
346.1437397443758
 20
105.0033191869062
 30
0.0
 11
346.1437397443758
 21
103.2633191869021
 31
0.0
  0
LINE
  5
DAFC
330
2
100
AcDbEntity
  8
0
100
AcDbLine
 10
302.6437397443765
 20
109.8033191869025
 30
0.0
 11
302.6437397443765
 21
111.1033191869023
 31
0.0
  0
ARC
  5
DAFD
330
2
100
AcDbEntity
  8
0
100
AcDbCircle
 10
303.0437397443766
 20
111.1033191869023
 30
0.0
 40
0.3999999999999915
100
AcDbArc
 50
0.0
 51
180.0
  0
LINE
  5
DAFE
330
2
100
AcDbEntity
  8
0
100
AcDbLine
 10
303.4437397443765
 20
111.1033191869023
 30
0.0
 11
303.4437397443765
 21
109.8033191869025
 31
0.0
  0
LINE
  5
DAFF
330
2
100
AcDbEntity
  8
0
100
AcDbLine
 10
303.4437397443765
 20
124.2033191869023
 30
0.0
 11
303.4437397443767
 21
122.9033191869024
 31
0.0
  0
ARC
  5
DB00
330
2
100
AcDbEntity
  8
0
100
AcDbCircle
 10
303.0437397443766
 20
122.9033191869024
 30
0.0
 40
0.3999999999999915
100
AcDbArc
 50
180.0
 51
0.0
  0
LINE
  5
DB01
330
2
100
AcDbEntity
  8
0
100
AcDbLine
 10
302.6437397443765
 20
122.9033191869024
 30
0.0
 11
302.6437397443765
 21
124.2033191869023
 31
0.0
  0
LINE
  5
DB02
330
2
100
AcDbEntity
  8
0
100
AcDbLine
 10
287.6437397443767
 20
124.2033191869023
 30
0.0
 11
287.6437397443765
 21
126.0033191869023
 31
0.0
  0
LINE
  5
DB03
330
2
100
AcDbEntity
  8
0
100
AcDbLine
 10
287.6437397443765
 20
126.0033191869023
 30
0.0
 11
286.5437397443766
 21
126.0033191869023
 31
0.0
  0
ARC
  5
DB04
330
2
100
AcDbEntity
  8
0
100
AcDbCircle
 10
286.5437397443761
 20
126.4033191869023
 30
0.0
 40
0.4000000000000341
100
AcDbArc
 50
89.99999999997395
 51
270.0000000000652
  0
LINE
  5
DB05
330
2
100
AcDbEntity
  8
0
100
AcDbLine
 10
303.4437397443765
 20
109.8033191869025
 30
0.0
 11
305.2437397443766
 21
109.8033191869025
 31
0.0
  0
LINE
  5
DB06
330
2
100
AcDbEntity
  8
0
100
AcDbLine
 10
305.2437397443766
 20
109.8033191869025
 30
0.0
 11
305.2437397443766
 21
124.2033191869023
 31
0.0
  0
LINE
  5
DB07
330
2
100
AcDbEntity
  8
0
100
AcDbLine
 10
305.2437397443766
 20
124.2033191869023
 30
0.0
 11
303.4437397443765
 21
124.2033191869023
 31
0.0
  0
LINE
  5
DB08
330
2
100
AcDbEntity
  8
0
100
AcDbLine
 10
335.8437397443802
 20
143.3033191869029
 30
0.0
 11
353.3437397443774
 21
143.3033191869031
 31
0.0
  0
LINE
  5
DB09
330
2
100
AcDbEntity
  8
0
100
AcDbLine
 10
367.8437397443804
 20
141.3033191869023
 30
0.0
 11
365.5128109797275
 21
141.0045364997967
 31
0.0
  0
LINE
  5
DB0A
330
2
100
AcDbEntity
  8
0
100
AcDbLine
 10
367.8437397443804
 20
141.9033191869022
 30
0.0
 11
365.4569075133737
 21
141.2987268440565
 31
0.0
  0
ARC
  5
DB0B
330
2
100
AcDbEntity
  8
0
100
AcDbCircle
 10
365.4937397443804
 20
141.1533191869023
 30
0.0
 40
0.15
100
AcDbArc
 50
104.2142333460408
 51
277.3044455606132
  0
LINE
  5
DB0C
330
2
100
AcDbEntity
  8
0
100
AcDbLine
 10
368.8437397443802
 20
146.3033191869023
 30
0.0
 11
369.3437397443802
 21
146.3033191869023
 31
0.0
  0
LINE
  5
DB0D
330
2
100
AcDbEntity
  8
0
100
AcDbLine
 10
335.8437397443801
 20
143.3033191869029
 30
0.0
 11
335.8437397443801
 21
136.6033191869027
 31
0.0
  0
LINE
  5
DB0E
330
2
100
AcDbEntity
  8
0
100
AcDbLine
 10
335.8437397443801
 20
136.6033191869027
 30
0.0
 11
341.84373974438
 21
136.6033191869024
 31
0.0
  0
ARC
  5
DB0F
330
2
100
AcDbEntity
  8
0
100
AcDbCircle
 10
341.84373974438
 20
136.1033191869024
 30
0.0
 40
0.5
100
AcDbArc
 50
0.0
 51
90.0
  0
LINE
  5
DB10
330
2
100
AcDbEntity
  8
0
100
AcDbLine
 10
342.3437397443801
 20
136.1033191869024
 30
0.0
 11
342.3437397443801
 21
132.3033191869024
 31
0.0
  0
ARC
  5
DB11
330
2
100
AcDbEntity
  8
0
100
AcDbCircle
 10
341.84373974438
 20
132.3033191869024
 30
0.0
 40
0.5
100
AcDbArc
 50
270.0
 51
0.0
  0
ARC
  5
DB12
330
2
100
AcDbEntity
  8
0
100
AcDbCircle
 10
333.8437397443801
 20
145.8033191869024
 30
0.0
 40
0.5
100
AcDbArc
 50
90.0
 51
180.0
  0
LINE
  5
DB13
330
2
100
AcDbEntity
  8
0
100
AcDbLine
 10
333.8437397443801
 20
146.3033191869024
 30
0.0
 11
369.3437397443802
 21
146.3033191869023
 31
0.0
  0
LINE
  5
DB14
330
2
100
AcDbEntity
  8
0
100
AcDbLine
 10
369.3437397443801
 20
145.6836170886428
 30
0.0
 11
369.3437397443802
 21
142.8033191869022
 31
0.0
  0
LINE
  5
DB15
330
2
100
AcDbEntity
  8
0
100
AcDbLine
 10
369.8437397443802
 20
142.3033191869023
 30
0.0
 11
370.3437397443802
 21
142.3033191869023
 31
0.0
  0
LINE
  5
DB16
330
2
100
AcDbEntity
  8
0
100
AcDbLine
 10
370.3437397443802
 20
142.3033191869023
 30
0.0
 11
370.3437397443802
 21
141.8033191869023
 31
0.0
  0
LINE
  5
DB17
330
2
100
AcDbEntity
  8
0
100
AcDbLine
 10
369.8437397443802
 20
141.3033191869023
 30
0.0
 11
367.8437397443804
 21
141.3033191869023
 31
0.0
  0
LINE
  5
DB18
330
2
100
AcDbEntity
  8
0
100
AcDbLine
 10
367.8437397443804
 20
141.9033191869022
 30
0.0
 11
367.8437397443804
 21
144.7033191869023
 31
0.0
  0
LINE
  5
DB19
330
2
100
AcDbEntity
  8
0
100
AcDbLine
 10
367.8437397443804
 20
144.7033191869023
 30
0.0
 11
354.9437397443775
 21
144.7033191869024
 31
0.0
  0
LINE
  5
DB1A
330
2
100
AcDbEntity
  8
0
100
AcDbLine
 10
370.3437397443802
 20
101.3033191869024
 30
0.0
 11
370.3437397443802
 21
100.3033191869024
 31
0.0
  0
LINE
  5
DB1B
330
2
100
AcDbEntity
  8
0
100
AcDbLine
 10
370.3437397443802
 20
100.3033191869024
 30
0.0
 11
369.8437397443802
 21
100.3033191869024
 31
0.0
  0
ARC
  5
DB1C
330
2
100
AcDbEntity
  8
0
100
AcDbCircle
 10
369.8437397443802
 20
99.80331918690241
 30
0.0
 40
0.5
100
AcDbArc
 50
90.0
 51
180.0
  0
LINE
  5
DB1D
330
2
100
AcDbEntity
  8
0
100
AcDbLine
 10
369.3437397443788
 20
99.80331918690199
 30
0.0
 11
369.3437397443802
 21
96.92302128516185
 31
0.0
  0
LINE
  5
DB1E
330
2
100
AcDbEntity
  8
0
100
AcDbLine
 10
369.3437397443822
 20
140.3040670918552
 30
0.0
 11
369.3437397443822
 21
140.3033191869022
 31
0.0
  0
LINE
  5
DB1F
330
2
100
AcDbEntity
  8
0
100
AcDbLine
 10
369.3437397443822
 20
140.3033191869022
 30
0.0
 11
366.3437397443822
 21
141.3033191869022
 31
0.0
  0
LINE
  5
DB20
330
2
100
AcDbEntity
  8
0
100
AcDbLine
 10
366.3437397443822
 20
141.3033191869022
 30
0.0
 11
356.3126641228055
 21
140.4234002727284
 31
0.0
  0
LINE
  5
DB21
330
2
100
AcDbEntity
  8
0
100
AcDbLine
 10
370.3437397443802
 20
101.3033191869014
 30
0.0
 11
360.7437397443805
 21
101.3033191869014
 31
0.0
  0
LINE
  5
DB22
330
2
100
AcDbEntity
  8
0
100
AcDbLine
 10
360.7437397443805
 20
101.3033191869014
 30
0.0
 11
360.7437397443805
 21
104.103319186901
 31
0.0
  0
LINE
  5
DB23
330
2
100
AcDbEntity
  8
0
100
AcDbLine
 10
360.7437397443805
 20
104.103319186901
 30
0.0
 11
369.8437397443843
 21
104.103319186901
 31
0.0
  0
ARC
  5
DB24
330
2
100
AcDbEntity
  8
0
100
AcDbCircle
 10
369.8437397443843
 20
104.603319186901
 30
0.0
 40
0.4999999999999716
100
AcDbArc
 50
269.9999999999935
 51
0.0000000000065138
  0
LINE
  5
DB25
330
2
100
AcDbEntity
  8
0
100
AcDbLine
 10
370.3437397443843
 20
104.6033191869011
 30
0.0
 11
370.3437397443841
 21
106.603319186901
 31
0.0
  0
LINE
  5
DB26
330
2
100
AcDbEntity
  8
0
100
AcDbLine
 10
370.3437397443841
 20
106.603319186901
 30
0.0
 11
369.8437397443843
 21
106.603319186901
 31
0.0
  0
ARC
  5
DB27
330
2
100
AcDbEntity
  8
0
100
AcDbCircle
 10
369.8437397443843
 20
106.1033191869011
 30
0.0
 40
0.5
100
AcDbArc
 50
90.0
 51
180.0
  0
LINE
  5
DB28
330
2
100
AcDbEntity
  8
0
100
AcDbLine
 10
369.3437397443843
 20
106.1033191869011
 30
0.0
 11
369.3437397443843
 21
105.603319186901
 31
0.0
  0
LINE
  5
DB29
330
2
100
AcDbEntity
  8
0
100
AcDbLine
 10
369.3437397443843
 20
105.603319186901
 30
0.0
 11
359.2437397443805
 21
105.603319186901
 31
0.0
  0
LINE
  5
DB2A
330
2
100
AcDbEntity
  8
0
100
AcDbLine
 10
359.2437397443805
 20
105.603319186901
 30
0.0
 11
359.2437397443805
 21
101.3033191869029
 31
0.0
  0
LINE
  5
DB2B
330
2
100
AcDbEntity
  8
0
100
AcDbLine
 10
359.2437397443805
 20
101.3033191869029
 30
0.0
 11
356.4437397443807
 21
101.3033191869029
 31
0.0
  0
LINE
  5
DB2C
330
2
100
AcDbEntity
  8
0
100
AcDbLine
 10
356.4437397443807
 20
101.3033191869029
 30
0.0
 11
356.4437397443792
 21
129.4033191869021
 31
0.0
  0
LINE
  5
DB2D
330
2
100
AcDbEntity
  8
0
100
AcDbLine
 10
356.4437397443792
 20
129.4033191869021
 30
0.0
 11
359.2437397443805
 21
129.4033191869021
 31
0.0
  0
LINE
  5
DB2E
330
2
100
AcDbEntity
  8
0
100
AcDbLine
 10
359.2437397443805
 20
129.4033191869021
 30
0.0
 11
359.2437397443805
 21
125.0033191869021
 31
0.0
  0
LINE
  5
DB2F
330
2
100
AcDbEntity
  8
0
100
AcDbLine
 10
359.2437397443805
 20
125.0033191869021
 30
0.0
 11
369.8437397443822
 21
125.0033191869021
 31
0.0
  0
ARC
  5
DB30
330
2
100
AcDbEntity
  8
0
100
AcDbCircle
 10
369.8437397443822
 20
125.5033191869021
 30
0.0
 40
0.5000000000000142
100
AcDbArc
 50
270.0
 51
0.0000000000016284
  0
LINE
  5
DB31
330
2
100
AcDbEntity
  8
0
100
AcDbLine
 10
370.3437397443822
 20
125.5033191869021
 30
0.0
 11
370.343739744382
 21
127.5033191869021
 31
0.0
  0
LINE
  5
DB32
330
2
100
AcDbEntity
  8
0
100
AcDbLine
 10
370.343739744382
 20
127.5033191869021
 30
0.0
 11
369.8437397443822
 21
127.5033191869021
 31
0.0
  0
ARC
  5
DB33
330
2
100
AcDbEntity
  8
0
100
AcDbCircle
 10
369.8437397443822
 20
127.0033191869021
 30
0.0
 40
0.5
100
AcDbArc
 50
90.0
 51
180.0
  0
LINE
  5
DB34
330
2
100
AcDbEntity
  8
0
100
AcDbLine
 10
369.3437397443822
 20
127.0033191869021
 30
0.0
 11
369.3437397443822
 21
126.5033191869021
 31
0.0
  0
LINE
  5
DB35
330
2
100
AcDbEntity
  8
0
100
AcDbLine
 10
369.3437397443822
 20
126.5033191869021
 30
0.0
 11
360.7437397443805
 21
126.5033191869021
 31
0.0
  0
LINE
  5
DB36
330
2
100
AcDbEntity
  8
0
100
AcDbLine
 10
360.7437397443805
 20
126.5033191869021
 30
0.0
 11
360.7437397443807
 21
130.4033191869021
 31
0.0
  0
ARC
  5
DB37
330
2
100
AcDbEntity
  8
0
100
AcDbCircle
 10
360.2437397443807
 20
130.4033191869021
 30
0.0
 40
0.5
100
AcDbArc
 50
0.0
 51
90.0
  0
LINE
  5
DB38
330
2
100
AcDbEntity
  8
0
100
AcDbLine
 10
360.2437397443807
 20
130.9033191869021
 30
0.0
 11
356.4437397443803
 21
130.9033191869021
 31
0.0
  0
LINE
  5
DB39
330
2
100
AcDbEntity
  8
0
100
AcDbLine
 10
356.4437397443779
 20
130.9033191869021
 30
0.0
 11
356.4437397443777
 21
138.9291381868046
 31
0.0
  0
LINE
  5
DB3A
330
2
100
AcDbEntity
  8
0
100
AcDbLine
 10
356.4437397443777
 20
138.9291381868046
 30
0.0
 11
366.1647148981623
 21
139.781855305558
 31
0.0
  0
LINE
  5
DB3B
330
2
100
AcDbEntity
  8
0
100
AcDbLine
 10
366.1647148981623
 20
139.781855305558
 30
0.0
 11
369.6856258613737
 21
138.6082183178209
 31
0.0
  0
LINE
  5
DB3C
330
2
100
AcDbEntity
  8
0
100
AcDbLine
 10
370.343739744382
 20
139.0825599668461
 30
0.0
 11
370.3437397443823
 21
140.8033191869022
 31
0.0
  0
LINE
  5
DB3D
330
2
100
AcDbEntity
  8
0
100
AcDbLine
 10
370.3437397443823
 20
140.8033191869022
 30
0.0
 11
369.8437397443822
 21
140.8033191869023
 31
0.0
  0
LINE
  5
DB3E
330
2
100
AcDbEntity
  8
0
100
AcDbLine
 10
369.3437397443821
 20
140.3033191869023
 30
0.0
 11
369.3437397443822
 21
140.3033191869022
 31
0.0
  0
LINE
  5
DB3F
330
2
100
AcDbEntity
  8
0
100
AcDbLine
 10
368.8437397443802
 20
146.3033191869019
 30
0.0
 11
369.3437397443802
 21
146.3033191869019
 31
0.0
  0
LINE
  5
DB40
330
2
100
AcDbEntity
  8
0
100
AcDbLine
 10
369.3437397443822
 20
140.3040670918548
 30
0.0
 11
369.3437397443822
 21
140.3033191869018
 31
0.0
  0
ARC
  5
DB41
330
2
100
AcDbEntity
  8
0
100
AcDbCircle
 10
356.4437397443777
 20
138.9291381868045
 30
0.0
 40
1.500000000000009
100
AcDbArc
 50
95.01311375503631
 51
179.9999999999967
  0
LINE
  5
DB42
330
2
100
AcDbEntity
  8
0
100
AcDbLine
 10
354.9437397443779
 20
144.7033191869024
 30
0.0
 11
354.9437397443777
 21
138.9291381868045
 31
0.0
  0
ARC
  5
DB43
330
2
100
AcDbEntity
  8
0
100
AcDbCircle
 10
369.843739744382
 20
139.0825599668457
 30
0.0
 40
0.4999999999999673
100
AcDbArc
 50
251.565051177079
 51
359.9999999999919
  0
ARC
  5
DB44
330
2
100
AcDbEntity
  8
0
100
AcDbCircle
 10
369.843739744382
 20
140.3033191869019
 30
0.0
 40
0.5000000000000142
100
AcDbArc
 50
89.99999999998046
 51
179.9999999999967
  0
LINE
  5
DB45
330
2
100
AcDbEntity
  8
0
100
AcDbLine
 10
369.343739744382
 20
140.3033191869019
 30
0.0
 11
369.3437397443822
 21
140.3033191869018
 31
0.0
  0
ARC
  5
DB46
330
2
100
AcDbEntity
  8
0
100
AcDbCircle
 10
369.8437397443801
 20
142.8033191869019
 30
0.0
 40
0.5
100
AcDbArc
 50
179.9999999999984
 51
269.9999999999935
  0
ARC
  5
DB47
330
2
100
AcDbEntity
  8
0
100
AcDbCircle
 10
369.8437397443799
 20
141.8033191869018
 30
0.0
 40
0.5
100
AcDbArc
 50
269.9999999999935
 51
359.9999999999968
  0
LINE
  5
DB48
330
2
100
AcDbEntity
  8
0
100
AcDbLine
 10
353.3437397443779
 20
96.80331918690246
 30
0.0
 11
353.3437397443774
 21
143.3033191869032
 31
0.0
  0
LINE
  5
DB49
330
2
100
AcDbEntity
  8
0
100
AcDbLine
 10
369.3437397443793
 20
96.30331918690202
 30
0.0
 11
353.8437397443768
 21
96.30331918690245
 31
0.0
  0
ARC
  5
DB4A
330
2
100
AcDbEntity
  8
0
100
AcDbCircle
 10
353.8437397443768
 20
96.80331918690246
 30
0.0
 40
0.5
100
AcDbArc
 50
179.9999999999984
 51
269.9999999999935
  0
LINE
  5
DB4B
330
2
100
AcDbEntity
  8
0
 48
2.0
100
AcDbLine
 10
333.3437397443797
 20
128.1371779086734
 30
0.0
 11
333.3437397443797
 21
145.8033191869024
 31
0.0
  0
ARC
  5
DB4C
330
2
100
AcDbEntity
  8
0
 48
2.0
100
AcDbCircle
 10
335.3437397443797
 20
128.1371779086734
 30
0.0
 40
2.0
100
AcDbArc
 50
180.0
 51
247.4009727453426
  0
LINE
  5
DB4D
330
2
100
AcDbEntity
  8
0
 48
2.0
100
AcDbLine
 10
340.4865576818516
 20
123.8301933274142
 30
0.0
 11
334.5751804469751
 21
126.2907444258821
 31
0.0
  0
ARC
  5
DB4E
330
2
100
AcDbEntity
  8
0
 48
2.0
100
AcDbCircle
 10
340.6210555588974
 20
124.1533191869027
 30
0.0
 40
0.3500000000000013
100
AcDbArc
 50
247.4009727453426
 51
67.40097274534267
  0
LINE
  5
DB4F
330
2
100
AcDbEntity
  8
0
 48
2.0
100
AcDbLine
 10
334.8441762010669
 20
126.9369961448591
 30
0.0
 11
340.7555534359432
 21
124.4764450463911
 31
0.0
  0
ARC
  5
DB50
330
2
100
AcDbEntity
  8
0
 48
2.0
100
AcDbCircle
 10
335.3437397443797
 20
128.1371779086734
 30
0.0
 40
1.299999999999997
100
AcDbArc
 50
180.0
 51
247.4009727453426
  0
LINE
  5
DB51
330
2
100
AcDbEntity
  8
0
 48
2.0
100
AcDbLine
 10
334.0437397443797
 20
129.7033191869027
 30
0.0
 11
334.0437397443797
 21
128.1371779086734
 31
0.0
  0
ARC
  5
DB52
330
2
100
AcDbEntity
  8
0
 48
2.0
100
AcDbCircle
 10
335.0437397443798
 20
129.7033191869027
 30
0.0
 40
1.0
100
AcDbArc
 50
90.0
 51
180.0
  0
LINE
  5
DB53
330
2
100
AcDbEntity
  8
0
 48
2.0
100
AcDbLine
 10
341.1437397443797
 20
130.7033191869027
 30
0.0
 11
335.0437397443798
 21
130.7033191869027
 31
0.0
  0
LINE
  5
DB54
330
2
100
AcDbEntity
  8
0
 48
2.0
100
AcDbLine
 10
341.1437397443797
 20
130.0533191869027
 30
0.0
 11
341.1437397443797
 21
130.7033191869027
 31
0.0
  0
LINE
  5
DB55
330
2
100
AcDbEntity
  8
0
 48
2.0
100
AcDbLine
 10
341.8437397443797
 20
131.8033191869028
 30
0.0
 11
341.8437397443797
 21
130.0533191869027
 31
0.0
  0
LINE
  5
DB56
330
2
100
AcDbEntity
  8
0
 48
2.0
100
AcDbLine
 10
341.4937397443797
 20
129.7033191869027
 30
0.0
 11
341.4937397443797
 21
129.7033191869027
 31
0.0
  0
ARC
  5
DB57
330
2
100
AcDbEntity
  8
0
100
AcDbCircle
 10
371.0346941367524
 20
143.6033191869018
 30
0.0
 40
0.3000000000000107
100
AcDbArc
 50
174.8720091168925
 51
354.8720091168909
  0
ARC
  5
DB58
330
2
100
AcDbEntity
  8
0
100
AcDbCircle
 10
368.7837397443799
 20
143.8053199875425
 30
0.0
 40
1.960000000000029
100
AcDbArc
 50
354.8720091169038
 51
73.39845040097704
  0
ARC
  5
DB59
330
2
100
AcDbEntity
  8
0
100
AcDbCircle
 10
368.78373974438
 20
143.8053199875425
 30
0.0
 40
2.560000000000035
100
AcDbArc
 50
354.8720091169006
 51
77.36437490697873
  0
ARC
  5
DB5A
330
2
100
AcDbEntity
  8
0
100
AcDbCircle
 10
371.034694136751
 20
99.00331918690184
 30
0.0
 40
0.3000000000000647
100
AcDbArc
 50
5.127990883102636
 51
185.1279908831026
  0
ARC
  5
DB5B
330
2
100
AcDbEntity
  8
0
100
AcDbCircle
 10
368.7837397443785
 20
98.80131838626128
 30
0.0
 40
1.960000000000074
100
AcDbArc
 50
286.601549599023
 51
5.127990883092905
  0
ARC
  5
DB5C
330
2
100
AcDbEntity
  8
0
100
AcDbCircle
 10
368.7837397443786
 20
98.80131838626127
 30
0.0
 40
2.559999999999996
100
AcDbArc
 50
282.6356250930213
 51
5.127990883096149
  0
ARC
  5
DB5D
330
2
100
AcDbEntity
  8
0
 48
2.0
100
AcDbCircle
 10
341.4937397443797
 20
130.0533191869027
 30
0.0
 40
0.35
100
AcDbArc
 50
180.0
 51
0.0
  0
LINE
  5
DB5E
330
2
100
AcDbEntity
  8
0
100
AcDbLine
 10
201.3443259829764
 20
139.3033191869027
 30
0.0
 11
182.3443259829749
 21
139.3033191869025
 31
0.0
1001
AcDbBlockRepETag
1070
     1
1071
        0
1005
DB5E
  0
LINE
  5
DB5F
330
2
100
AcDbEntity
  8
0
100
AcDbLine
 10
200.3443259829758
 20
130.8033191869032
 30
0.0
 11
183.3443259829764
 21
130.803319186902
 31
0.0
1001
AcDbBlockRepETag
1070
     1
1071
        3
1005
DB5F
  0
LINE
  5
DB60
330
2
100
AcDbEntity
  8
0
100
AcDbLine
 10
201.3443259829743
 20
126.8033191869024
 30
0.0
 11
182.3443259829764
 21
126.8033191869031
 31
0.0
1001
AcDbBlockRepETag
1070
     1
1071
        4
1005
DB60
  0
LINE
  5
DB61
330
2
100
AcDbEntity
  8
0
100
AcDbLine
 10
201.3443259829743
 20
126.8033191869024
 30
0.0
 11
201.3443259829764
 21
139.3033191869027
 31
0.0
1001
AcDbBlockRepETag
1070
     1
1071
        5
1005
DB61
  0
ARC
  5
DB62
330
2
100
AcDbEntity
  8
0
100
AcDbCircle
 10
200.3443259829751
 20
129.8033191869029
 30
0.0
 40
0.9999999999999971
100
AcDbArc
 50
359.9999913485721
 51
90.00000068323647
1001
AcDbBlockRepETag
1070
     1
1071
        6
1005
DB62
  0
LINE
  5
DB63
330
2
100
AcDbEntity
  8
0
100
AcDbLine
 10
182.3443259829764
 20
126.8033191869031
 30
0.0
 11
182.3443259829749
 21
139.3033191869025
 31
0.0
1001
AcDbBlockRepETag
1070
     1
1071
        7
1005
DB63
  0
ARC
  5
DB64
330
2
100
AcDbEntity
  8
0
100
AcDbCircle
 10
183.3443259829757
 20
129.8033191869027
 30
0.0
 40
1.000000000000001
100
AcDbArc
 50
89.99999749555085
 51
180.0000086514018
1001
AcDbBlockRepETag
1070
     1
1071
        8
1005
DB64
  0
ARC
  5
DB65
330
2
100
AcDbEntity
  8
0
100
AcDbCircle
 10
183.3443259829755
 20
146.1420948216684
 30
0.0
 40
1.000000000000001
100
AcDbArc
 50
113.0513190386011
 51
179.999991348572
1001
AcDbBlockRepETag
1070
     1
1071
        9
1005
DB65
  0
LINE
  5
DB66
330
2
100
AcDbEntity
  8
0
100
AcDbLine
 10
182.3443259829764
 20
126.8033191869031
 30
0.0
 11
182.3443259829764
 21
146.142094821669
 31
0.0
1001
AcDbBlockRepETag
1070
     1
1071
       10
1005
DB66
  0
LINE
  5
DB67
330
2
100
AcDbEntity
  8
0
100
AcDbLine
 10
201.3443107241863
 20
139.3033497044805
 30
0.0
 11
215.5403022402976
 21
156.4364368626831
 31
0.0
1001
AcDbBlockRepETag
1070
     1
1071
       11
1005
DB67
  0
LINE
  5
DB68
330
2
100
AcDbEntity
  8
0
100
AcDbLine
 10
205.8443336123677
 20
156.8033497044809
 30
0.0
 11
182.9527930850279
 21
147.062291354872
 31
0.0
1001
AcDbBlockRepETag
1070
     1
1071
       12
1005
DB68
  0
ARC
  5
DB69
330
2
100
AcDbEntity
  8
ALH
 48
0.5
100
AcDbCircle
 10
214.6245460147154
 20
157.8033191869035
 30
0.0
 40
1.000000000000001
100
AcDbArc
 50
269.9999956742926
 51
11.3099376706666
1001
AcDbBlockRepETag
1070
     1
1071
       13
1005
DB69
  0
ARC
  5
DB6A
330
2
100
AcDbEntity
  8
0
100
AcDbCircle
 10
214.7702979678371
 20
157.0744373509653
 30
0.0
 40
0.9999999999999936
100
AcDbArc
 50
320.3558248774408
 51
11.3099376706666
1001
AcDbBlockRepETag
1070
     1
1071
       14
1005
DB6A
  0
LINE
  5
DB6B
330
2
100
AcDbEntity
  8
ALH
100
AcDbLine
 10
207.0641822451821
 20
156.8033191869029
 30
0.0
 11
214.6245460147129
 21
156.8033191869021
 31
0.0
1001
AcDbBlockRepETag
1070
     1
1071
       15
1005
DB6B
  0
ARC
  5
DB6C
330
2
100
AcDbEntity
  8
ALH
 48
0.5
100
AcDbCircle
 10
207.0641822451819
 20
157.8033191869023
 30
0.0
 40
0.9999999999999948
100
AcDbArc
 50
168.6900622156557
 51
269.9999956742926
1001
AcDbBlockRepETag
1070
     1
1071
       16
1005
DB6C
  0
LINE
  5
DB6D
330
2
100
AcDbEntity
  8
0
100
AcDbLine
 10
213.0051154727232
 20
170.9994861790903
 30
0.0
 11
215.7508887881499
 21
157.2706043431523
 31
0.0
1001
AcDbBlockRepETag
1070
     1
1071
       17
1005
DB6D
  0
LINE
  5
DB6E
330
2
100
AcDbEntity
  8
0
100
AcDbLine
 10
205.8443336123706
 20
156.8033191869027
 30
0.0
 11
208.6835517520181
 21
170.9994251439337
 31
0.0
1001
AcDbBlockRepETag
1070
     1
1071
       18
1005
DB6E
  0
ARC
  5
DB6F
330
2
100
AcDbEntity
  8
0
100
AcDbCircle
 10
212.0245704287753
 20
170.8033497044808
 30
0.0
 40
0.9999999999999996
100
AcDbArc
 50
11.3099276527653
 51
90.00000432573349
1001
AcDbBlockRepETag
1070
     1
1071
       19
1005
DB6F
  0
ARC
  5
DB70
330
2
100
AcDbEntity
  8
0
100
AcDbCircle
 10
209.6641578311202
 20
170.8033497044799
 30
0.0
 40
1.000000000000001
100
AcDbArc
 50
90.00000432573349
 51
168.6900724609206
1001
AcDbBlockRepETag
1070
     1
1071
       20
1005
DB70
  0
LINE
  5
DB71
330
2
100
AcDbEntity
  8
0
100
AcDbLine
 10
209.6641578311185
 20
171.8033497044803
 30
0.0
 11
212.0245704287778
 21
171.8033497044806
 31
0.0
1001
AcDbBlockRepETag
1070
     1
1071
       21
1005
DB71
  0
LINE
  5
DB72
330
2
100
AcDbEntity
  8
0
100
AcDbLine
 10
201.3443259829764
 20
88.80331918690208
 30
0.0
 11
182.3443259829749
 21
88.80331918690231
 31
0.0
1001
AcDbBlockRepETag
1070
     1
1071
        0
1005
DB72
  0
LINE
  5
DB73
330
2
100
AcDbEntity
  8
0
100
AcDbLine
 10
200.3443259829758
 20
97.30331918690158
 30
0.0
 11
183.3443259829764
 21
97.30331918690277
 31
0.0
1001
AcDbBlockRepETag
1070
     1
1071
        3
1005
DB73
  0
LINE
  5
DB74
330
2
100
AcDbEntity
  8
0
100
AcDbLine
 10
201.3443259829743
 20
101.3033191869024
 30
0.0
 11
182.3443259829764
 21
101.3033191869017
 31
0.0
1001
AcDbBlockRepETag
1070
     1
1071
        4
1005
DB74
  0
LINE
  5
DB75
330
2
100
AcDbEntity
  8
0
100
AcDbLine
 10
201.3443259829743
 20
101.3033191869024
 30
0.0
 11
201.3443259829764
 21
88.80331918690208
 31
0.0
1001
AcDbBlockRepETag
1070
     1
1071
        5
1005
DB75
  0
ARC
  5
DB76
330
2
100
AcDbEntity
  8
0
100
AcDbCircle
 10
200.3443259829751
 20
98.30331918690191
 30
0.0
 40
0.9999999999999971
100
AcDbArc
 50
269.9999993167635
 51
0.0000086514279086
1001
AcDbBlockRepETag
1070
     1
1071
        6
1005
DB76
  0
LINE
  5
DB77
330
2
100
AcDbEntity
  8
0
100
AcDbLine
 10
182.3443259829764
 20
101.3033191869017
 30
0.0
 11
182.3443259829749
 21
88.80331918690231
 31
0.0
1001
AcDbBlockRepETag
1070
     1
1071
        7
1005
DB77
  0
ARC
  5
DB78
330
2
100
AcDbEntity
  8
0
100
AcDbCircle
 10
183.3443259829757
 20
98.30331918690214
 30
0.0
 40
1.000000000000001
100
AcDbArc
 50
179.9999913485981
 51
270.0000025044492
1001
AcDbBlockRepETag
1070
     1
1071
        8
1005
DB78
  0
ARC
  5
DB79
330
2
100
AcDbEntity
  8
0
100
AcDbCircle
 10
183.3443259829755
 20
81.96454355213646
 30
0.0
 40
1.000000000000001
100
AcDbArc
 50
180.0000086514279
 51
246.9486809613988
1001
AcDbBlockRepETag
1070
     1
1071
        9
1005
DB79
  0
LINE
  5
DB7A
330
2
100
AcDbEntity
  8
0
100
AcDbLine
 10
182.3443259829764
 20
101.3033191869017
 30
0.0
 11
182.3443259829764
 21
81.96454355213578
 31
0.0
1001
AcDbBlockRepETag
1070
     1
1071
       10
1005
DB7A
  0
LINE
  5
DB7B
330
2
100
AcDbEntity
  8
0
100
AcDbLine
 10
201.3443107241863
 20
88.8032886693243
 30
0.0
 11
215.5403022402976
 21
71.67020151112175
 31
0.0
1001
AcDbBlockRepETag
1070
     1
1071
       11
1005
DB7B
  0
LINE
  5
DB7C
330
2
100
AcDbEntity
  8
0
100
AcDbLine
 10
205.8443336123677
 20
71.30328866932384
 30
0.0
 11
182.9527930850279
 21
81.04434701893282
 31
0.0
1001
AcDbBlockRepETag
1070
     1
1071
       12
1005
DB7C
  0
ARC
  5
DB7D
330
2
100
AcDbEntity
  8
ALH
 48
0.5
100
AcDbCircle
 10
214.6245460147154
 20
70.30331918690134
 30
0.0
 40
1.000000000000001
100
AcDbArc
 50
348.6900623293334
 51
90.00000432570741
1001
AcDbBlockRepETag
1070
     1
1071
       13
1005
DB7D
  0
ARC
  5
DB7E
330
2
100
AcDbEntity
  8
0
100
AcDbCircle
 10
214.7702979678371
 20
71.03220102283953
 30
0.0
 40
0.9999999999999936
100
AcDbArc
 50
348.6900623293334
 51
39.6441751225592
1001
AcDbBlockRepETag
1070
     1
1071
       14
1005
DB7E
  0
LINE
  5
DB7F
330
2
100
AcDbEntity
  8
ALH
100
AcDbLine
 10
207.0641822451821
 20
71.30331918690192
 30
0.0
 11
214.6245460147129
 21
71.30331918690266
 31
0.0
1001
AcDbBlockRepETag
1070
     1
1071
       15
1005
DB7F
  0
ARC
  5
DB80
330
2
100
AcDbEntity
  8
ALH
 48
0.5
100
AcDbCircle
 10
207.0641822451819
 20
70.30331918690248
 30
0.0
 40
0.9999999999999948
100
AcDbArc
 50
90.00000432570741
 51
191.3099377843442
1001
AcDbBlockRepETag
1070
     1
1071
       16
1005
DB80
  0
LINE
  5
DB81
330
2
100
AcDbEntity
  8
0
100
AcDbLine
 10
213.0051154727232
 20
57.10715219471447
 30
0.0
 11
215.7508887881499
 21
70.83603403065254
 31
0.0
1001
AcDbBlockRepETag
1070
     1
1071
       17
1005
DB81
  0
LINE
  5
DB82
330
2
100
AcDbEntity
  8
0
100
AcDbLine
 10
205.8443336123706
 20
71.30331918690209
 30
0.0
 11
208.6835517520181
 21
57.10721322987106
 31
0.0
1001
AcDbBlockRepETag
1070
     1
1071
       18
1005
DB82
  0
ARC
  5
DB83
330
2
100
AcDbEntity
  8
0
100
AcDbCircle
 10
212.0245704287753
 20
57.30328866932402
 30
0.0
 40
0.9999999999999996
100
AcDbArc
 50
269.9999956742665
 51
348.6900723472347
1001
AcDbBlockRepETag
1070
     1
1071
       19
1005
DB83
  0
ARC
  5
DB84
330
2
100
AcDbEntity
  8
0
100
AcDbCircle
 10
209.6641578311202
 20
57.30328866932487
 30
0.0
 40
1.000000000000001
100
AcDbArc
 50
191.3099275390793
 51
269.9999956742665
1001
AcDbBlockRepETag
1070
     1
1071
       20
1005
DB84
  0
LINE
  5
DB85
330
2
100
AcDbEntity
  8
0
100
AcDbLine
 10
209.6641578311185
 20
56.30328866932453
 30
0.0
 11
212.0245704287778
 21
56.30328866932419
 31
0.0
1001
AcDbBlockRepETag
1070
     1
1071
       21
1005
DB85
  0
LINE
  5
DB86
330
2
100
AcDbEntity
  8
0
  6
ByBlock
 62
     0
 48
5.0
100
AcDbLine
 10
347.7437397443755
 20
123.5033191869024
 30
0.0
 11
347.7437397443755
 21
95.31795589094505
 31
0.0
1001
AcDbBlockRepETag
1070
     1
1071
        0
1005
DB86
  0
LINE
  5
DB87
330
2
100
AcDbEntity
  8
0
  6
ByBlock
 62
     0
 48
5.0
100
AcDbLine
 10
349.7437397443755
 20
123.5033191869024
 30
0.0
 11
349.7437397443755
 21
95.31795589094505
 31
0.0
1001
AcDbBlockRepETag
1070
     1
1071
        1
1005
DB87
  0
LINE
  5
DB88
330
2
100
AcDbEntity
  8
0
  6
ByBlock
 62
     0
 48
5.0
100
AcDbLine
 10
351.3437397443754
 20
94.79954425764852
 30
0.0
 11
351.3437397443754
 21
123.5033191869024
 31
0.0
1001
AcDbBlockRepETag
1070
     1
1071
        2
1005
DB88
  0
LINE
  5
DB89
330
2
100
AcDbEntity
  8
0
  6
ByBlock
 62
     0
 48
5.0
100
AcDbLine
 10
346.1437397443755
 20
94.79954425764852
 30
0.0
 11
346.1437397443755
 21
123.5033191869024
 31
0.0
1001
AcDbBlockRepETag
1070
     1
1071
        3
1005
DB89
  0
ARC
  5
DB8A
330
2
100
AcDbEntity
  8
0
  6
ByBlock
 62
     0
 48
5.0
100
AcDbCircle
 10
348.7437397443755
 20
89.5033191869024
 30
0.0
 40
5.9
100
AcDbArc
 50
116.1471460412665
 51
63.8528539587338
1001
AcDbBlockRepETag
1070
     1
1071
        4
1005
DB8A
  0
ARC
  5
DB8B
330
2
100
AcDbEntity
  8
0
  6
ByBlock
 62
     0
 48
5.0
100
AcDbCircle
 10
348.7437397443755
 20
89.5033191869024
 30
0.0
 40
5.9
100
AcDbArc
 50
80.24174340461851
 51
99.7582565953815
1001
AcDbBlockRepETag
1070
     1
1071
        4
1005
DB8A
  0
LINE
  5
DB8C
330
2
100
AcDbEntity
  8
0
  6
ByBlock
 62
     0
 48
5.0
100
AcDbLine
 10
346.1437397443755
 20
123.5033191869024
 30
0.0
 11
347.7437397443755
 21
123.5033191869024
 31
0.0
1001
AcDbBlockRepETag
1070
     1
1071
        6
1005
DB8C
  0
LINE
  5
DB8D
330
2
100
AcDbEntity
  8
0
  6
ByBlock
 62
     0
 48
5.0
100
AcDbLine
 10
351.3437397443754
 20
123.5033191869024
 30
0.0
 11
349.7437397443755
 21
123.5033191869024
 31
0.0
1001
AcDbBlockRepETag
1070
     1
1071
        7
1005
DB8D
  0
LINE
  5
DCC2
330
2
100
AcDbEntity
  8
0
100
AcDbLine
 10
84.39682121521583
 20
242.3038124785989
 30
0.0
 11
46.59719144851718
 21
242.3038124785991
 31
0.0
  0
ARC
  5
DCC3
330
2
100
AcDbEntity
  8
0
100
AcDbCircle
 10
84.39682121521585
 20
244.3038124785989
 30
0.0
 40
2.0
100
AcDbArc
 50
269.9999999999996
 51
2.204227503972018
  0
ENDSEC
  0
SECTION
  2
OBJECTS
  0
DICTIONARY
  5
9
330
0
100
AcDbDictionary
281
     1
  3
ACAD_CIP_PREVIOUS_PRODUCT_INFO
350
6543
  3
ACAD_COLOR
350
FE
  3
ACAD_DETAILVIEWSTYLE
350
653C
  3
ACAD_GROUP
350
23
  3
ACAD_LAYOUT
350
D
  3
ACAD_MATERIAL
350
FD
  3
ACAD_MLEADERSTYLE
350
6537
  3
ACAD_MLINESTYLE
350
24
  3
ACAD_PLOTSETTINGS
350
25
  3
ACAD_PLOTSTYLENAME
350
8
  3
ACAD_SCALELIST
350
6525
  3
ACAD_SECTIONVIEWSTYLE
350
6539
  3
ACAD_TABLESTYLE
350
C85
  3
ACAD_VISUALSTYLE
350
C74
  3
AcadDim
350
2EE6
  3
ACDB_RECOMPOSE_DATA
350
DCE2
  3
AcDbVariableDictionary
350
21E
  0
DICTIONARY
  5
E64
330
1D
100
AcDbDictionary
280
     1
281
     1
  0
DICTIONARY
  5
115
330
14
100
AcDbDictionary
280
     1
281
     1
  3
ACAD_LAYERFILTERS
360
1762
  3
ACAD_LAYERSTATES
360
116
  3
ACLYDICTIONARY
360
1761
  0
DICTIONARY
  5
6544
330
6
100
AcDbDictionary
280
     1
281
     1
  3
ADSK_XREC_LAYER_RECONCILED
360
6545
  0
DICTIONARY
  5
6546
330
26
100
AcDbDictionary
280
     1
281
     1
  3
ADSK_XREC_LAYER_RECONCILED
360
6547
  0
DICTIONARY
  5
654E
330
111
100
AcDbDictionary
280
     1
281
     1
  3
ADSK_XREC_LAYER_RECONCILED
360
654F
  0
DICTIONARY
  5
6554
330
E15
100
AcDbDictionary
280
     1
281
     1
  3
ADSK_XREC_LAYER_RECONCILED
360
6555
  0
DICTIONARY
  5
655E
330
14E0
100
AcDbDictionary
280
     1
281
     1
  3
ADSK_XREC_LAYER_RECONCILED
360
655F
  0
DICTIONARY
  5
3
330
2
100
AcDbDictionary
280
     1
281
     1
  3
ACAD_LAYOUTSELFREF
360
648E
  3
ACAD_SORTENTS
360
D1D
  0
DICTIONARY
  5
F
330
E
100
AcDbDictionary
280
     1
281
     1
  3
ACAD_LAYOUTSELFREF
360
6497
  0
XRECORD
  5
6543
102
{ACAD_REACTORS
330
9
102
}
330
9
100
AcDbXrecord
280
     1
300
ACDLT
300
2013
300
ACDLT_F_S
  0
DICTIONARY
  5
FE
102
{ACAD_REACTORS
330
9
102
}
330
9
100
AcDbDictionary
281
     1
  0
DICTIONARY
  5
653C
102
{ACAD_REACTORS
330
9
102
}
330
9
100
AcDbDictionary
281
     1
  3
Imperial24
350
653D
  0
DICTIONARY
  5
23
102
{ACAD_REACTORS
330
9
102
}
330
9
100
AcDbDictionary
281
     1
  0
DICTIONARY
  5
D
102
{ACAD_REACTORS
330
9
102
}
330
9
100
AcDbDictionary
281
     1
  3
Model
350
C
  3
ﾚｲｱｳﾄ1
350
13
  0
DICTIONARY
  5
FD
102
{ACAD_REACTORS
330
9
102
}
330
9
100
AcDbDictionary
281
     1
  3
ByBlock
350
C72
  3
ByLayer
350
C71
  3
Global
350
C73
  0
DICTIONARY
  5
6537
102
{ACAD_REACTORS
330
9
102
}
330
9
100
AcDbDictionary
281
     1
  3
Standard
350
6538
  0
DICTIONARY
  5
24
102
{ACAD_REACTORS
330
9
102
}
330
9
100
AcDbDictionary
281
     1
  3
STANDARD
350
27
  0
DICTIONARY
  5
25
102
{ACAD_REACTORS
330
9
102
}
330
9
100
AcDbDictionary
281
     1
  0
ACDBDICTIONARYWDFLT
  5
8
102
{ACAD_REACTORS
330
9
102
}
330
9
100
AcDbDictionary
281
     1
  3
Normal
350
7
100
AcDbDictionaryWithDefault
340
7
  0
DICTIONARY
  5
6525
102
{ACAD_REACTORS
330
9
102
}
330
9
100
AcDbDictionary
281
     1
  3
A0
350
6526
  3
A1
350
6527
  3
A2
350
6528
  3
A3
350
6529
  3
A4
350
652A
  3
A5
350
652B
  3
A6
350
652C
  3
A7
350
652D
  3
A8
350
652E
  3
A9
350
652F
  3
B0
350
6530
  3
B1
350
6531
  3
B2
350
6532
  3
B3
350
6533
  3
B4
350
6534
  3
B5
350
6535
  3
B6
350
6536
  0
DICTIONARY
  5
6539
102
{ACAD_REACTORS
330
9
102
}
330
9
100
AcDbDictionary
281
     1
  3
Imperial24
350
653B
  0
DICTIONARY
  5
C85
102
{ACAD_REACTORS
330
9
102
}
330
9
100
AcDbDictionary
281
     1
  3
Standard
350
C86
  0
DICTIONARY
  5
C74
102
{ACAD_REACTORS
330
9
102
}
330
9
100
AcDbDictionary
281
     1
  3
2dWireframe
350
C7A
  3
3D Hidden
350
C7C
  3
3dWireframe
350
C7B
  3
Basic
350
C79
  3
Brighten
350
C80
  3
ColorChange
350
C84
  3
Conceptual
350
C7D
  3
Dim
350
C7F
  3
EdgeColorOff
350
6524
  3
Facepattern
350
C83
  3
Flat
350
C75
  3
FlatWithEdges
350
C76
  3
Gouraud
350
C77
  3
GouraudWithEdges
350
C78
  3
Hidden
350
651C
  3
JitterOff
350
6522
  3
Linepattern
350
C82
  3
OverhangOff
350
6523
  3
Realistic
350
C7E
  3
Shaded
350
6521
  3
Shaded with edges
350
6520
  3
Shades of Gray
350
651D
  3
Sketchy
350
651E
  3
Thicken
350
C81
  3
Wireframe
350
651B
  3
X-Ray
350
651F
  0
XRECORD
  5
2EE6
102
{ACAD_REACTORS
330
9
102
}
330
9
100
AcDbXrecord
280
     1
 90
   990106
  3

 60
     0
 61
     0
 62
     4
 63
     4
 64
     1
 65
     0
 66
     0
 67
     3
 68
     1
 69
     0
 70
     0
 71
     0
 72
     0
 40
0.0
170
     2
340
0
  0
XRECORD
  5
DCE2
102
{ACAD_REACTORS
330
9
102
}
330
9
100
AcDbXrecord
280
     1
 90
        1
330
C86
  0
DICTIONARY
  5
21E
102
{ACAD_REACTORS
330
9
102
}
330
9
100
AcDbDictionary
281
     1
  3
CANNOSCALE
350
656B
  3
CMLEADERSTYLE
350
6567
  3
CTABLESTYLE
350
E8E
  3
CVIEWDETAILSTYLE
350
6568
  3
CVIEWSECTIONSTYLE
350
6569
  3
DIMASSOC
350
21F
  3
INDEXCTL
350
E90
  3
LAYEREVAL
350
656D
  3
LAYERNOTIFY
350
656E
  3
LIGHTINGUNITS
350
656C
  3
MSLTSCALE
350
656A
  3
PROJECTNAME
350
220
  3
SORTENTS
350
E8F
  0
DICTIONARY
  5
1762
102
{ACAD_REACTORS
330
115
102
}
330
115
100
AcDbDictionary
281
     1
  0
DICTIONARY
  5
116
102
{ACAD_REACTORS
330
115
102
}
330
115
100
AcDbDictionary
281
     1
  0
DICTIONARY
  5
1761
102
{ACAD_REACTORS
330
115
102
}
330
115
100
AcDbDictionary
281
     1
1001
ACAD
1000
<All
  0
XRECORD
  5
6545
102
{ACAD_REACTORS
330
6544
102
}
330
6544
100
AcDbXrecord
280
     1
290
     1
  0
XRECORD
  5
6547
102
{ACAD_REACTORS
330
6546
102
}
330
6546
100
AcDbXrecord
280
     1
290
     1
  0
XRECORD
  5
654F
102
{ACAD_REACTORS
330
654E
102
}
330
654E
100
AcDbXrecord
280
     1
290
     1
  0
XRECORD
  5
6555
102
{ACAD_REACTORS
330
6554
102
}
330
6554
100
AcDbXrecord
280
     1
290
     1
  0
XRECORD
  5
655F
102
{ACAD_REACTORS
330
655E
102
}
330
655E
100
AcDbXrecord
280
     1
290
     1
  0
XRECORD
  5
648E
102
{ACAD_REACTORS
330
3
102
}
330
3
100
AcDbXrecord
280
     1
340
2
  0
SORTENTSTABLE
  5
D1D
102
{ACAD_REACTORS
330
3
102
}
330
3
100
AcDbSortentsTable
330
2
331
A109
  5
D9C6
331
B139
  5
DA52
331
B02B
  5
DA0E
331
B09A
  5
DA2D
331
D9F8
  5
D9AE
331
D982
  5
DAC3
331
D94B
  5
DA8C
331
D9C1
  5
DB03
331
A111
  5
D9CE
331
DB2B
  5
D942
331
DAEC
  5
D9DB
331
DA3F
  5
B10E
331
DA00
  5
D9B6
331
D9C9
  5
D97F
331
D953
  5
DA94
331
D914
  5
DA55
331
D98A
  5
DACB
331
A0DA
  5
A0DF
331
DA76
  5
DB0A
331
DAB5
  5
DB49
331
DB62
  5
DB7F
331
DB33
  5
D94A
331
DAF4
  5
D9E3
331
DA47
  5
B117
331
DA08
  5
D9BE
331
D9D1
  5
D987
331
D95B
  5
DA9C
331
D91C
  5
DA5D
331
D992
  5
DAD3
331
DA7E
  5
DB12
331
DABD
  5
DB51
331
DB6A
  5
DB87
331
DB3B
  5
D952
331
DAFC
  5
D9EB
331
DA4F
  5
B12B
331
DA10
  5
A155
331
D99A
  5
DADB
331
D924
  5
DA65
331
DA86
  5
DB1A
331
DAC5
  5
DB59
331
DB72
  5
A107
331
DB04
  5
D9F3
331
DA8E
  5
DB22
331
DB7A
  5
A113
331
B10A
  5
DA34
331
B033
  5
DA18
331
A0E2
  5
A0E7
331
B112
  5
DA3C
331
B05B
  5
DA1D
331
A0EA
  5
A0F1
331
D6B1
  5
A0F2
331
B11A
  5
DA42
331
DA18
  5
B02C
331
D9A2
  5
DAE3
331
D92C
  5
DA6D
331
D963
  5
DAA4
331
D9D9
  5
D98F
331
A149
  5
D9FB
331
A0F2
  5
A0FB
331
B122
  5
DA43
331
B07B
  5
DA20
331
DB0C
  5
D923
331
DA20
  5
B034
331
D9E1
  5
D997
331
D934
  5
DA75
331
D96B
  5
DAAC
331
A151
  5
DA03
331
A0FA
  5
A103
331
DA57
  5
B137
331
DA96
  5
DB2A
331
DACD
  5
DB61
331
DB43
  5
D95A
331
DB82
  5
A145
331
DB4B
  5
D964
331
DB14
  5
D92B
331
DA28
  5
B07C
331
D9E9
  5
D99F
331
D93C
  5
DA7D
331
D973
  5
DAB4
331
D9B2
  5
DAF4
331
DA5F
  5
BD8D
331
DA9E
  5
DB32
331
DAD5
  5
DB69
331
DB8A
  5
A14E
331
DCC2
  5
DCC3
331
DB1C
  5
D933
331
DA30
  5
B08D
331
D9F1
  5
D9A7
331
D97B
  5
DABC
331
D944
  5
DA85
331
D9BA
  5
DAFC
331
DA67
  5
D916
331
DAA6
  5
DB3A
331
DADD
  5
DB71
331
DB53
  5
D96C
331
DB24
  5
D93B
331
DA6F
  5
D91E
331
DAAE
  5
DB42
331
DAE5
  5
DB79
331
DB5B
  5
D974
331
B12A
  5
DA47
331
B08B
  5
DA27
331
B132
  5
DA4E
331
A10A
  5
D9C7
331
B02C
  5
DA0F
331
DA38
  5
B107
331
D9F9
  5
D9AF
331
D9C2
  5
D978
331
D983
  5
DAC4
331
D94C
  5
DA8D
331
A112
  5
D9CF
331
A0D3
  5
A0D8
331
DB2C
  5
D943
331
DAED
  5
D9DC
331
DA40
  5
B10F
331
DA01
  5
D9B7
331
D9CA
  5
D980
331
D954
  5
DA95
331
D915
  5
DA56
331
D98B
  5
DACC
331
A0DB
  5
A0E0
331
DA77
  5
DB0B
331
DAB6
  5
DB4A
331
DB63
  5
DB80
331
DB34
  5
D94B
331
DAF5
  5
D9E4
331
DA48
  5
B118
331
DA09
  5
D9BF
331
D9D2
  5
D988
331
D993
  5
DAD4
331
D91D
  5
DA5E
331
D95C
  5
DA9D
331
DA7F
  5
DB13
331
DABE
  5
DB52
331
DB6B
  5
DB88
331
DB3C
  5
D953
331
DAFD
  5
D9EC
331
DA11
  5
A946
331
D99B
  5
DADC
331
D925
  5
DA66
331
DA87
  5
DB1B
331
DAC6
  5
DB5A
331
DB73
  5
A108
331
DB05
  5
D9F4
331
DA8F
  5
DB23
331
DB7B
  5
A114
331
B10B
  5
DA35
331
B034
  5
DA19
331
A0E3
  5
A0E8
331
B113
  5
DA3D
331
A0EB
  5
A0F3
331
DA19
  5
B02D
331
D9A3
  5
DAE4
331
D92D
  5
DA6E
331
D964
  5
DAA5
331
D9DA
  5
D990
331
A14A
  5
D9FC
331
A0F3
  5
A0FC
331
DA50
  5
B12C
331
B07C
  5
DA21
331
DB0D
  5
D924
331
DA21
  5
B035
331
D9E2
  5
D998
331
D935
  5
DA76
331
D96C
  5
DAAD
331
A152
  5
DA04
331
A0FB
  5
A104
331
DA58
  5
B139
331
DA97
  5
DB2B
331
DACE
  5
DB62
331
DB44
  5
D95B
331
DB83
  5
A146
331
DB8B
  5
A14F
331
DB15
  5
D92C
331
DA29
  5
B086
331
D9EA
  5
D9A0
331
D974
  5
DAB5
331
D93D
  5
DA7E
331
D9B3
  5
DAF5
331
DA60
  5
BD8E
331
DA9F
  5
DB33
331
DAD6
  5
DB6A
331
DB4C
  5
D965
331
DCC3
  5
DAEC
331
DB1D
  5
D934
331
DA31
  5
B08E
331
D9F2
  5
D9A8
331
D97C
  5
DABD
331
D945
  5
DA86
331
D9BB
  5
DAFD
331
DA68
  5
D917
331
DAA7
  5
DB3B
331
DADE
  5
DB72
331
DB54
  5
D96D
331
DB25
  5
D93C
331
DAAF
  5
DB43
331
DAE6
  5
DB7A
331
DB5C
  5
D975
331
B12B
  5
DA48
331
B08C
  5
DA28
331
B025
  5
DA08
331
B133
  5
DA4F
331
A10B
  5
D9C8
331
B02D
  5
DA11
331
DA39
  5
B108
331
D9FA
  5
D9B0
331
D9C3
  5
D979
331
D984
  5
DAC5
331
D94D
  5
DA8E
331
A113
  5
D9D0
331
A0D4
  5
A0D9
331
DA70
  5
DB04
331
B104
  5
DA2E
331
DB2D
  5
D944
331
DAEE
  5
D9DD
331
DA41
  5
B110
331
DA02
  5
D9B8
331
D9CB
  5
D981
331
D955
  5
DA96
331
D916
  5
DA57
331
D98C
  5
DACD
331
A0DC
  5
A0E1
331
DA78
  5
DB0C
331
DAB7
  5
DB4B
331
DB64
  5
DB81
331
DB35
  5
D94C
331
DAF6
  5
D9E5
331
DA49
  5
B11A
331
DA0A
  5
D9C0
331
D9D3
  5
D989
331
D994
  5
DAD5
331
D95D
  5
DA9E
331
D91E
  5
DA5F
331
DA80
  5
DB14
331
DABF
  5
DB53
331
DB6C
  5
DB89
331
DB3D
  5
D954
331
DAFE
  5
D9ED
331
DA12
  5
B026
331
D99C
  5
DADD
331
D926
  5
DA67
331
DA88
  5
DB1C
331
DAC7
  5
DB5B
331
DB74
  5
A10B
331
DB06
  5
D9F5
331
DB7C
  5
A115
331
D4D3
  5
DA53
331
B10C
  5
DA36
331
B035
  5
DA1A
331
A0E4
  5
A0E9
331
B114
  5
DA3E
331
A0EC
  5
A0F5
331
DA1A
  5
B02E
331
D9A4
  5
DAE5
331
D92E
  5
DA6F
331
D965
  5
DAA6
331
D9DB
  5
D991
331
A14B
  5
D9FD
331
A0F4
  5
A0FD
331
DA51
  5
B12D
331
DA90
  5
DB24
331
B124
  5
DA44
331
DB0E
  5
D925
331
DA22
  5
B036
331
D9E3
  5
D999
331
D936
  5
DA77
331
D96D
  5
DAAE
331
A153
  5
DA05
331
DA59
  5
B13A
331
DA98
  5
DB2C
331
DACF
  5
DB63
331
DB45
  5
D95C
331
DB84
  5
A147
331
DB8C
  5
A150
331
DB16
  5
D92D
331
DA2A
  5
B087
331
D9EB
  5
D9A1
331
D975
  5
DAB6
331
D93E
  5
DA7F
331
D9B4
  5
DAF6
331
DA61
  5
BD8F
331
DAA0
  5
DB34
331
DAD7
  5
DB6B
331
DB4D
  5
D966
331
DB1E
  5
D935
331
DA32
  5
B098
331
D9F3
  5
D9A9
331
D97D
  5
DABE
331
D946
  5
DA87
331
D9BC
  5
DAFE
331
DA69
  5
D918
331
DAA8
  5
DB3C
331
DADF
  5
DB73
331
DB55
  5
D96E
331
DB26
  5
D93D
331
DAE7
  5
D9D6
331
DB5D
  5
D976
331
B12C
  5
DA49
331
A104
  5
D977
331
B08D
  5
DA29
331
B026
  5
DA09
331
B134
  5
DA50
331
A10C
  5
D9C9
331
B02E
  5
DA12
331
DA3A
  5
B109
331
D9FB
  5
D9B1
331
D9C4
  5
D97A
331
D985
  5
DAC6
331
D94E
  5
DA8F
331
A114
  5
D9D1
331
A0D5
  5
A0DA
331
DA71
  5
DB05
331
DAB0
  5
DB44
331
B105
  5
DA2F
331
DB2E
  5
D945
331
DAEF
  5
D9DE
331
DA42
  5
B111
331
DA03
  5
D9B9
331
D9CC
  5
D982
331
D956
  5
DA97
331
D917
  5
DA58
331
D98D
  5
DACE
331
A0DD
  5
A0E2
331
DA79
  5
DB0D
331
DAB8
  5
DB4C
331
DB65
  5
DB82
331
DB36
  5
D94D
331
DAF7
  5
D9E6
331
DA4A
  5
B122
331
DA0B
  5
D9C1
331
D9D4
  5
D98A
331
D995
  5
DAD6
331
D95E
  5
DA9F
331
D91F
  5
DA60
331
DA81
  5
DB15
331
DAC0
  5
DB54
331
DB6D
  5
DB8A
331
DB3E
  5
D955
331
DAFF
  5
D9EE
331
DA13
  5
B027
331
D99D
  5
DADE
331
D927
  5
DA68
331
DA89
  5
DB1D
331
DB75
  5
A10C
331
DB07
  5
D9F6
331
DB7D
  5
A116
331
D4D4
  5
DA54
331
B10D
  5
DA37
331
B036
  5
DA1B
331
A0E5
  5
A0EA
331
B115
  5
DA3F
331
A0ED
  5
A0F6
331
B066
  5
DA1F
331
DA1B
  5
B02F
331
D9A5
  5
DAE6
331
D92F
  5
DA70
331
D966
  5
DAA7
331
D9DC
  5
D992
331
A14C
  5
D9FE
331
A0F5
  5
A0FE
331
DA52
  5
B12E
331
DA91
  5
DB25
331
DAC8
  5
DB5C
331
DB0F
  5
D926
331
DA23
  5
B05A
331
D9E4
  5
D99A
331
D937
  5
DA78
331
D96E
  5
DAAF
331
A154
  5
DA06
331
DA5A
  5
B13B
331
DA99
  5
DB2D
331
DAD0
  5
DB64
331
DB46
  5
D95D
331
DB85
  5
A148
331
DB8D
  5
A151
331
DB17
  5
D92E
331
DA2B
  5
B088
331
D9EC
  5
D9A2
331
D976
  5
DAB7
331
D93F
  5
DA80
331
D9B5
  5
DAF7
331
DA62
  5
BD91
331
DAA1
  5
DB35
331
DAD8
  5
DB6C
331
DB4E
  5
D967
331
DB1F
  5
D936
331
DA33
  5
B099
331
D9F4
  5
D9AA
331
D97E
  5
DABF
331
D947
  5
DA88
331
D9BD
  5
DAFF
331
DA6A
  5
D919
331
DAA9
  5
DB3D
331
DAE0
  5
DB74
331
DB56
  5
D96F
331
DB27
  5
D93E
331
DB5E
  5
DB7B
331
B12D
  5
DA4A
331
B086
  5
DA22
331
B08E
  5
DA2A
331
B027
  5
DA0A
331
A10D
  5
D9CA
331
B13D
  5
A0F4
331
B02F
  5
DA13
331
DAE8
  5
D9D7
331
DA3B
  5
B10A
331
D9FC
  5
D9B2
331
D9C5
  5
D97B
331
D986
  5
DAC7
331
D94F
  5
DA90
331
A115
  5
D9D2
331
A0D6
  5
A0DB
331
DA72
  5
DB06
331
DAB1
  5
DB45
331
B106
  5
DA30
331
DB2F
  5
D946
331
DAF0
  5
D9DF
331
DA43
  5
B112
331
DA04
  5
D9BA
331
D9CD
  5
D983
331
D957
  5
DA98
331
D918
  5
DA59
331
D98E
  5
DACF
331
A0DE
  5
A0E3
331
DA7A
  5
DB0E
331
DAB9
  5
DB4D
331
DB66
  5
DB83
331
DB37
  5
D94E
331
DAF8
  5
D9E7
331
DA4B
  5
B124
331
DA0C
  5
D9C2
331
D9D5
  5
D98B
331
D996
  5
DAD7
331
D95F
  5
DAA0
331
D920
  5
DA61
331
DA82
  5
DB16
331
DAC1
  5
DB55
331
DB6E
  5
DB8B
331
DB3F
  5
D956
331
DB00
  5
D9EF
331
DA14
  5
B028
331
D99E
  5
DADF
331
DA8A
  5
DB1E
331
DB76
  5
A10D
331
DB7E
  5
A117
331
B10E
  5
DA38
331
A0E6
  5
A0EB
331
D928
  5
DA69
331
A145
  5
D9F7
331
A0EE
  5
A0F7
331
DB08
  5
D91F
331
DA1C
  5
B030
331
D9A6
  5
DAE7
331
D930
  5
DA71
331
D967
  5
DAA8
331
D9DD
  5
D993
331
A14D
  5
D9FF
331
A0F6
  5
A0FF
331
DA53
  5
B12F
331
DA92
  5
DB26
331
DAC9
  5
DB5D
331
DB47
  5
D95E
331
DB10
  5
D927
331
DA24
  5
B05B
331
D9E5
  5
D99B
331
D938
  5
DA79
331
D96F
  5
DAB0
331
A155
  5
DA07
331
DA5B
  5
B13C
331
DA9A
  5
DB2E
331
DAD1
  5
DB65
331
DB86
  5
A14A
331
DB18
  5
D92F
331
DA2C
  5
B089
331
D9ED
  5
D9A3
331
D977
  5
DAB8
331
D940
  5
DA81
331
D9B6
  5
DAF8
331
DA63
  5
D4E8
331
DAA2
  5
DB36
331
DAD9
  5
DB6D
331
DB4F
  5
D968
331
DB20
  5
D937
331
DA34
  5
B09A
331
D9F5
  5
D9AB
331
D97F
  5
DAC0
331
D9BE
  5
DB00
331
DA6B
  5
D91A
331
DAAA
  5
DB3E
331
DAE1
  5
DB75
331
DB57
  5
D970
331
DB5F
  5
DB7C
331
B12E
  5
DA4B
331
B087
  5
DA23
331
B136
  5
DA51
331
B028
  5
DA0B
331
D948
  5
DA89
331
A10E
  5
D9CB
331
B13E
  5
DA10
331
DB28
  5
D93F
331
DAE9
  5
D9D8
331
DA3C
  5
B10B
331
D9FD
  5
D9B3
331
D9C6
  5
D97C
331
D950
  5
DA91
331
D987
  5
DAC8
331
A116
  5
D9D3
331
A0D7
  5
A0DC
331
DA73
  5
DB07
331
DAB2
  5
DB46
331
B107
  5
DA31
331
DB30
  5
D947
331
DAF1
  5
D9E0
331
DA44
  5
B113
331
DA05
  5
D9BB
331
D9CE
  5
D984
331
D958
  5
DA99
331
D919
  5
DA5A
331
D98F
  5
DAD0
331
A0DF
  5
A0E4
331
DA7B
  5
DB0F
331
DABA
  5
DB4E
331
DB67
  5
DB84
331
DB38
  5
D94F
331
DAF9
  5
D9E8
331
DA4C
  5
B128
331
DA0D
  5
D9C3
331
D9D6
  5
D98C
331
D997
  5
DAD8
331
D921
  5
DA62
331
DA83
  5
DB17
331
DAC2
  5
DB56
331
DB6F
  5
DB8C
331
DB01
  5
D9F0
331
DA15
  5
B029
331
D99F
  5
DAE0
331
DA8B
  5
DB1F
331
DB77
  5
A110
331
DB7F
  5
A118
331
B030
  5
DA14
331
B10F
  5
DA39
331
A0E7
  5
A0EC
331
B060
  5
DA1E
331
B117
  5
DA40
331
D929
  5
DA6A
331
D960
  5
DAA1
331
A146
  5
D9F8
331
A0EF
  5
A0F8
331
DB09
  5
D920
331
DA1D
  5
B031
331
D9A7
  5
DAE8
331
D931
  5
DA72
331
D968
  5
DAA9
331
D9DE
  5
D994
331
A14E
  5
DA00
331
A0F7
  5
A100
331
DA54
  5
B133
331
DA93
  5
DB27
331
DACA
  5
DB5E
331
DB40
  5
D957
331
DB48
  5
D95F
331
DB11
  5
D928
331
DA25
  5
B060
331
D9E6
  5
D99C
331
D939
  5
DA7A
331
D970
  5
DAB1
331
A0FF
  5
A152
331
DA5C
  5
B13D
331
DA9B
  5
DB2F
331
DAD2
  5
DB66
331
DB87
  5
A14B
331
DB19
  5
D930
331
DA2D
  5
B08A
331
D9EE
  5
D9A4
331
D978
  5
DAB9
331
D941
  5
DA82
331
D9B7
  5
DAF9
331
DA64
  5
D4E9
331
DAA3
  5
DB37
331
DADA
  5
DB6E
331
DB50
  5
D969
331
DB21
  5
D938
331
DA35
  5
B104
331
D9F6
  5
D9AC
331
D9BF
  5
DB01
331
DA6C
  5
D91B
331
DAAB
  5
DB3F
331
DAE2
  5
DB76
331
DB58
  5
D971
331
B12F
  5
DA4C
331
B088
  5
DA24
331
B098
  5
DA2B
331
B029
  5
DA0C
331
A107
  5
D9C4
331
D980
  5
DAC1
331
D949
  5
DA8A
331
B13F
  5
DA15
331
A10F
  5
D9CC
331
DB29
  5
D940
331
DAEA
  5
D9D9
331
DA74
  5
DB08
331
DAB3
  5
DB47
331
DB60
  5
DB7D
331
DA3D
  5
B10C
331
D9FE
  5
D9B4
331
D9C7
  5
D97D
331
D951
  5
DA92
331
D988
  5
DAC9
331
A117
  5
D9D4
331
A0D8
  5
A0DD
331
DB31
  5
D948
331
DAF2
  5
D9E1
331
DA45
  5
B114
331
DA06
  5
D9BC
331
D9CF
  5
D985
331
D959
  5
DA9A
331
D91A
  5
DA5B
331
D990
  5
DAD1
331
DA7C
  5
DB10
331
DABB
  5
DB4F
331
DB68
  5
DB85
331
DB39
  5
D950
331
DAFA
  5
D9E9
331
DA4D
  5
B129
331
DA0E
  5
A153
331
D9D7
  5
D98D
331
D998
  5
DAD9
331
D922
  5
DA63
331
DA84
  5
DB18
331
DAC3
  5
DB57
331
DB70
  5
DB8D
331
DB02
  5
D9F1
331
DA16
  5
B02A
331
DA8C
  5
DB20
331
DB78
  5
A111
331
B108
  5
DA32
331
B031
  5
DA16
331
B110
  5
DA3A
331
A0E0
  5
A0E5
331
B118
  5
DA41
331
A0E8
  5
A0EF
331
D9A0
  5
DAE1
331
D92A
  5
DA6B
331
D961
  5
DAA2
331
A147
  5
D9F9
331
A0F0
  5
A0F9
331
DB0A
  5
D921
331
DA1E
  5
B032
331
D9DF
  5
D995
331
D9A8
  5
DAE9
331
D932
  5
DA73
331
D969
  5
DAAA
331
A14F
  5
DA01
331
A0F8
  5
A101
331
DA55
  5
B134
331
DA94
  5
DB28
331
DACB
  5
DB5F
331
DB41
  5
D958
331
DB80
  5
A131
331
DB88
  5
A14C
331
DB49
  5
D960
331
DB12
  5
D929
331
DA26
  5
B066
331
D9E7
  5
D99D
331
D93A
  5
DA7B
331
D971
  5
DAB2
331
D9B0
  5
DAF2
331
DA5D
  5
BD8B
331
DA9C
  5
DB30
331
DAD3
  5
DB67
331
DB1A
  5
D931
331
DA2E
  5
B08B
331
D9EF
  5
D9A5
331
D979
  5
DABA
331
D942
  5
DA83
331
D9B8
  5
DAFA
331
DA65
  5
D914
331
DAA4
  5
DB38
331
DADB
  5
DB6F
331
DB51
  5
D96A
331
DB22
  5
D939
331
DA36
  5
B105
331
D9F7
  5
D9AD
331
DA6D
  5
D91C
331
DAAC
  5
DB40
331
DAE3
  5
DB77
331
DB59
  5
D972
331
B128
  5
DA45
331
B089
  5
DA25
331
B130
  5
DA4D
331
B099
  5
DA2C
331
B02A
  5
DA0D
331
A108
  5
D9C5
331
D981
  5
DAC2
331
D94A
  5
DA8B
331
D9C0
  5
DB02
331
A110
  5
D9CD
331
DB2A
  5
D941
331
DAEB
  5
D9DA
331
DA3E
  5
B10D
331
D9FF
  5
D9B5
331
D9C8
  5
D97E
331
D952
  5
DA93
331
D989
  5
DACA
331
A0D9
  5
A0DE
331
DA75
  5
DB09
331
DAB4
  5
DB48
331
DB61
  5
DB7E
331
DB32
  5
D949
331
DAF3
  5
D9E2
331
DA46
  5
B115
331
DA07
  5
D9BD
331
D9D0
  5
D986
331
D95A
  5
DA9B
331
D91B
  5
DA5C
331
D991
  5
DAD2
331
DA7D
  5
DB11
331
DABC
  5
DB50
331
DB69
  5
DB86
331
DB3A
  5
D951
331
DAFB
  5
D9EA
331
DA4E
  5
B12A
331
DA0F
  5
A154
331
D999
  5
DADA
331
D923
  5
DA64
331
DA85
  5
DB19
331
DAC4
  5
DB58
331
DB71
  5
DC37
331
DB03
  5
D9F2
331
DA17
  5
B02B
331
DA8D
  5
DB21
331
DB79
  5
A112
331
B109
  5
DA33
331
B032
  5
DA17
331
B111
  5
DA3B
331
B05A
  5
DA1C
331
A0E1
  5
A0E6
331
A118
  5
D9D5
331
A0E9
  5
A0F0
331
D9A1
  5
DAE2
331
D92B
  5
DA6C
331
D962
  5
DAA3
331
D9D8
  5
D98E
331
A148
  5
D9FA
331
D6C8
  5
A0ED
331
A0F1
  5
A0FA
331
DB0B
  5
D922
331
DA1F
  5
B033
331
D9E0
  5
D996
331
D933
  5
DA74
331
D96A
  5
DAAB
331
A150
  5
DA02
331
A0F9
  5
A102
331
DA56
  5
B136
331
DA95
  5
DB29
331
DACC
  5
DB60
331
DB42
  5
D959
331
DB81
  5
A132
331
DB89
  5
A14D
331
DB4A
  5
D961
331
DB13
  5
D92A
331
DA27
  5
B07B
331
D9E8
  5
D99E
331
D93B
  5
DA7C
331
D972
  5
DAB3
331
D9B1
  5
DAF3
331
DA5E
  5
BD8C
331
DA9D
  5
DB31
331
DAD4
  5
DB68
331
DB1B
  5
D932
331
DA2F
  5
B08C
331
D9F0
  5
D9A6
331
D97A
  5
DABB
331
D943
  5
DA84
331
D9B9
  5
DAFB
331
DA66
  5
D915
331
DAA5
  5
DB39
331
DADC
  5
DB70
331
DB52
  5
D96B
331
DB23
  5
D93A
331
DA37
  5
B106
331
DA6E
  5
D91D
331
DAAD
  5
DB41
331
DAE4
  5
DB78
331
DB5A
  5
D973
331
B129
  5
DA46
331
B08A
  5
DA26
  0
XRECORD
  5
6497
102
{ACAD_REACTORS
330
F
102
}
330
F
100
AcDbXrecord
280
     1
340
E
  0
ACDBDETAILVIEWSTYLE
  5
653D
102
{ACAD_REACTORS
330
653C
102
}
330
653C
100
AcDbModelDocViewStyle
 70
     0
  3
Imperial24
290
     1
100
AcDbDetailViewStyle
 70
     0
 71
     0
 90
        3
 71
     1
340
16
 62
   256
 40
0.24
340
0
 62
   256
 40
0.24
300

 40
0.36
280
     3
 71
     2
340
A
 90
       25
 62
   256
 71
     3
340
16
 62
   256
 40
0.24
 90
        1
 40
0.75
 90
        1
300
%<\AcVar ViewType \f "%tc1">% %<\AcVar ViewDetailId>%\PSCALE %<\AcVar ViewScale \f "%sn">%
 71
     4
340
A
 90
       25
 62
   256
340
A
 90
       25
 62
   256
280
     0
  0
LAYOUT
  5
C
102
{ACAD_REACTORS
330
D
102
}
330
D
100
AcDbPlotSettings
  1

  2
Canon LBP-830
  4
A3
  6

 40
5.873749732971191
 41
5.873747825622558
 42
5.873748779296875
 43
5.873748779296875
 44
296.9259948730469
 45
419.9466552734374
 46
0.0
 47
0.0
 48
3.04025694931704
 49
-23.99575925119666
140
137.2216949342541
141
75.89725909520268
142
1.0
143
1.0
 70
 11952
 72
     1
 73
     1
 74
     1
  7
CanonLBP-830 light.ctb
 75
    16
147
1.0
 76
     0
 77
     2
 78
   300
148
0.0265742595820484
149
0.0168511432175365
100
AcDbLayout
  1
Model
 70
     1
 71
     0
 10
0.0
 20
0.0
 11
12.0
 21
9.0
 12
0.0
 22
0.0
 32
0.0
 14
0.0
 24
0.0
 34
0.0
 15
0.0
 25
0.0
 35
0.0
146
0.0
 13
0.0
 23
0.0
 33
0.0
 16
1.0
 26
0.0
 36
0.0
 17
0.0
 27
1.0
 37
0.0
 76
     0
330
2
331
C33
  0
LAYOUT
  5
13
102
{ACAD_REACTORS
330
D
102
}
330
D
100
AcDbPlotSettings
  1

  2
Canon LBP-830 LIPS4
  4

  6

 40
0.0
 41
0.0
 42
0.0
 43
0.0
 44
0.0
 45
0.0
 46
0.0
 47
0.0
 48
0.0
 49
0.0
140
0.0
141
0.0
142
1.0
143
1.0
 70
   688
 72
     0
 73
     0
 74
     5
  7
CanonLBP-830 light.ctb
 75
    16
147
1.0
 76
     0
 77
     2
 78
   300
148
0.0
149
0.0
100
AcDbLayout
  1
ﾚｲｱｳﾄ1
 70
     1
 71
     1
 10
0.0
 20
0.0
 11
12.0
 21
9.0
 12
0.0
 22
0.0
 32
0.0
 14
1.000000000000000E+20
 24
1.000000000000000E+20
 34
1.000000000000000E+20
 15
-1.000000000000000E+20
 25
-1.000000000000000E+20
 35
-1.000000000000000E+20
146
0.0
 13
0.0
 23
0.0
 33
0.0
 16
1.0
 26
0.0
 36
0.0
 17
0.0
 27
1.0
 37
0.0
 76
     0
330
E
  0
MATERIAL
  5
C72
102
{ACAD_REACTORS
330
FD
102
}
330
FD
100
AcDbMaterial
  1
ByBlock
 73
     1
 78
     1
172
     1
176
     1
270
     1
274
     1
 94
       63
  0
MATERIAL
  5
C71
102
{ACAD_REACTORS
330
FD
102
}
330
FD
100
AcDbMaterial
  1
ByLayer
 73
     1
 78
     1
172
     1
176
     1
270
     1
274
     1
 94
       63
  0
MATERIAL
  5
C73
102
{ACAD_REACTORS
330
FD
102
}
330
FD
100
AcDbMaterial
  1
Global
 73
     1
 78
     1
172
     1
176
     1
270
     1
274
     1
 94
       63
  0
MLEADERSTYLE
  5
6538
102
{ACAD_REACTORS
330
6537
102
}
330
6537
100
AcDbMLeaderStyle
179
     2
170
     2
171
     1
172
     0
 90
        2
 40
0.0
 41
0.0
173
     1
 91
-1056964608
340
19
 92
       -2
290
     1
 42
0.09
291
     1
 43
0.36
  3
Standard
 44
0.18
300

342
16
174
     1
178
     6
175
     1
176
     0
 93
-1056964608
 45
0.18
292
     0
297
     0
 46
0.18
 94
-1056964608
 47
1.0
 49
1.0
140
1.0
293
     1
141
0.0
294
     1
177
     0
142
1.0
295
     1
296
     0
143
0.125
271
     0
272
     9
273
     9
298
     1
  0
MLINESTYLE
  5
27
102
{ACAD_REACTORS
330
24
102
}
330
24
100
AcDbMlineStyle
  2
STANDARD
 70
     0
  3

 62
     0
 51
90.0
 52
90.0
 71
     2
 49
0.5
 62
   256
  6
BYLAYER
 49
-0.5
 62
   256
  6
BYLAYER
  0
ACDBPLACEHOLDER
  5
7
102
{ACAD_REACTORS
330
8
102
}
330
8
  0
SCALE
  5
6526
102
{ACAD_REACTORS
330
6525
102
}
330
6525
100
AcDbScale
 70
     0
300
1:1
140
1.0
141
1.0
290
     1
  0
SCALE
  5
6527
102
{ACAD_REACTORS
330
6525
102
}
330
6525
100
AcDbScale
 70
     0
300
1/128" = 1'-0"
140
0.0078125
141
12.0
290
     0
  0
SCALE
  5
6528
102
{ACAD_REACTORS
330
6525
102
}
330
6525
100
AcDbScale
 70
     0
300
1/64" = 1'-0"
140
0.015625
141
12.0
290
     0
  0
SCALE
  5
6529
102
{ACAD_REACTORS
330
6525
102
}
330
6525
100
AcDbScale
 70
     0
300
1/32" = 1'-0"
140
0.03125
141
12.0
290
     0
  0
SCALE
  5
652A
102
{ACAD_REACTORS
330
6525
102
}
330
6525
100
AcDbScale
 70
     0
300
1/16" = 1'-0"
140
0.0625
141
12.0
290
     0
  0
SCALE
  5
652B
102
{ACAD_REACTORS
330
6525
102
}
330
6525
100
AcDbScale
 70
     0
300
3/32" = 1'-0"
140
0.09375
141
12.0
290
     0
  0
SCALE
  5
652C
102
{ACAD_REACTORS
330
6525
102
}
330
6525
100
AcDbScale
 70
     0
300
1/8" = 1'-0"
140
0.125
141
12.0
290
     0
  0
SCALE
  5
652D
102
{ACAD_REACTORS
330
6525
102
}
330
6525
100
AcDbScale
 70
     0
300
3/16" = 1'-0"
140
0.1875
141
12.0
290
     0
  0
SCALE
  5
652E
102
{ACAD_REACTORS
330
6525
102
}
330
6525
100
AcDbScale
 70
     0
300
1/4" = 1'-0"
140
0.25
141
12.0
290
     0
  0
SCALE
  5
652F
102
{ACAD_REACTORS
330
6525
102
}
330
6525
100
AcDbScale
 70
     0
300
3/8" = 1'-0"
140
0.375
141
12.0
290
     0
  0
SCALE
  5
6530
102
{ACAD_REACTORS
330
6525
102
}
330
6525
100
AcDbScale
 70
     0
300
1/2" = 1'-0"
140
0.5
141
12.0
290
     0
  0
SCALE
  5
6531
102
{ACAD_REACTORS
330
6525
102
}
330
6525
100
AcDbScale
 70
     0
300
3/4" = 1'-0"
140
0.75
141
12.0
290
     0
  0
SCALE
  5
6532
102
{ACAD_REACTORS
330
6525
102
}
330
6525
100
AcDbScale
 70
     0
300
1" = 1'-0"
140
1.0
141
12.0
290
     0
  0
SCALE
  5
6533
102
{ACAD_REACTORS
330
6525
102
}
330
6525
100
AcDbScale
 70
     0
300
1-1/2" = 1'-0"
140
1.5
141
12.0
290
     0
  0
SCALE
  5
6534
102
{ACAD_REACTORS
330
6525
102
}
330
6525
100
AcDbScale
 70
     0
300
3" = 1'-0"
140
3.0
141
12.0
290
     0
  0
SCALE
  5
6535
102
{ACAD_REACTORS
330
6525
102
}
330
6525
100
AcDbScale
 70
     0
300
6" = 1'-0"
140
6.0
141
12.0
290
     0
  0
SCALE
  5
6536
102
{ACAD_REACTORS
330
6525
102
}
330
6525
100
AcDbScale
 70
     0
300
1'-0" = 1'-0"
140
12.0
141
12.0
290
     0
  0
ACDBSECTIONVIEWSTYLE
  5
653B
102
{ACAD_REACTORS
330
6539
102
}
330
6539
100
AcDbModelDocViewStyle
 70
     0
  3
Imperial24
290
     1
100
AcDbSectionViewStyle
 70
     0
 71
     0
 90
       78
 71
     1
340
16
 62
   256
 40
0.24
340
0
340
0
 62
   256
 40
0.24
300
I, O, Q, S, X, Z
 40
0.48
 90
        3
 40
0.18
 90
        1
 71
     2
340
653A
 90
       25
 62
   256
340
A
 90
       50
 62
   256
 40
0.24
 40
0.0
 40
0.24
 71
     3
340
16
 62
   256
 40
0.24
 90
        1
 40
0.75
 90
        1
300
%<\AcVar ViewType \f "%tc1">% %<\AcVar ViewSectionStartId>%-%<\AcVar ViewSectionEndId>%\PSCALE %<\AcVar ViewScale \f "%sn">%
 71
     4
 62
   256
 62
   257
300
ANSI31
 40
1.0
 90
        0
290
     0
290
     0
 90
        6
 40
0.0
 40
1.570796326794896
 40
0.2617993877991494
 40
1.308996938995747
 40
-0.2617993877991494
 40
1.832595714594046
  0
TABLESTYLE
  5
C86
102
{ACAD_XDICTIONARY
360
DCE0
102
}
102
{ACAD_REACTORS
330
C85
102
}
330
C85
100
AcDbTableStyle
280
     0
  3
Standard
 70
     0
 71
     0
 40
0.06
 41
0.06
280
     0
281
     0
  7
STANDARD
140
0.18
170
     2
 62
     0
 63
     7
283
     0
 90
      512
 91
        0
  1

274
    -2
284
     1
 64
     0
275
    -2
285
     1
 65
     0
276
    -2
286
     1
 66
     0
277
    -2
287
     1
 67
     0
278
    -2
288
     1
 68
     0
279
    -2
289
     1
 69
     0
  7
STANDARD
140
0.25
170
     5
 62
     0
 63
     7
283
     0
 90
      512
 91
        0
  1

274
    -2
284
     1
 64
     0
275
    -2
285
     1
 65
     0
276
    -2
286
     1
 66
     0
277
    -2
287
     1
 67
     0
278
    -2
288
     1
 68
     0
279
    -2
289
     1
 69
     0
  7
STANDARD
140
0.18
170
     5
 62
     0
 63
     7
283
     0
 90
      512
 91
        0
  1

274
    -2
284
     1
 64
     0
275
    -2
285
     1
 65
     0
276
    -2
286
     1
 66
     0
277
    -2
287
     1
 67
     0
278
    -2
288
     1
 68
     0
279
    -2
289
     1
 69
     0
  0
VISUALSTYLE
  5
C7A
102
{ACAD_REACTORS
330
C74
102
}
330
C74
100
AcDbVisualStyle
  2
2dWireframe
 70
     4
177
     3
291
     0
 70
    58
 90
        0
176
     1
 90
        2
176
     1
 90
        0
176
     1
 90
        0
176
     1
 40
0.6
176
     1
 40
30.0
176
     1
 62
     7
176
     1
 90
        1
176
     1
 90
        4
176
     1
 62
     7
176
     1
 62
   257
176
     1
 90
        1
176
     1
 90
        1
176
     1
 40
1.0
176
     1
 90
        0
176
     1
 62
   257
176
     1
 40
1.0
176
     1
 90
        1
176
     1
 90
        6
176
     1
 90
        2
176
     1
 62
     7
176
     1
 90
        5
176
     1
 90
        0
176
     1
 90
        0
176
     1
290
     0
176
     1
 90
        1
176
     1
 40
0.0
176
     1
 90
        0
176
     1
290
     1
176
     1
290
     1
176
     1
290
     0
176
     1
290
     0
176
     1
290
     0
176
     1
290
     0
176
     1
290
     0
176
     1
290
     0
176
     1
290
     0
176
     1
 90
       50
176
     1
 40
0.0
176
     1
 40
1.0
176
     1
 90
        0
176
     1
 62
    18
420
        0
176
     1
 90
       50
176
     1
 90
        3
176
     1
 62
     5
420
      255
176
     1
290
     0
176
     1
 90
       50
176
     1
 90
       50
176
     1
 90
       50
176
     1
290
     0
176
     1
 90
       50
176
     1
 62
   256
176
     0
 40
1.0
176
     0
 90
        2
176
     1
  1
strokes_ogs.tif
176
     1
290
     0
176
     1
 40
1.0
176
     1
 40
1.0
176
     1
  0
VISUALSTYLE
  5
C7C
102
{ACAD_REACTORS
330
C74
102
}
330
C74
100
AcDbVisualStyle
  2
3D Hidden
 70
     6
177
     3
291
     0
 70
    58
 90
        1
176
     1
 90
        2
176
     1
 90
        2
176
     1
 90
        0
176
     1
 40
0.6
176
     1
 40
30.0
176
     1
 62
     7
176
     1
 90
        2
176
     1
 90
        2
176
     1
 62
     7
176
     1
 62
   257
176
     1
 90
        2
176
     1
 90
        1
176
     1
 40
40.0
176
     1
 90
        0
176
     1
 62
   257
176
     1
 40
1.0
176
     1
 90
        1
176
     1
 90
        6
176
     1
 90
        2
176
     1
 62
     7
176
     1
 90
        3
176
     1
 90
        0
176
     1
 90
        0
176
     1
290
     0
176
     1
 90
        1
176
     1
 40
0.0
176
     1
 90
        0
176
     1
290
     0
176
     1
290
     1
176
     1
290
     1
176
     1
290
     0
176
     1
290
     0
176
     1
290
     0
176
     1
290
     0
176
     1
290
     0
176
     1
290
     0
176
     1
 90
       50
176
     1
 40
0.0
176
     1
 40
1.0
176
     1
 90
        0
176
     1
 62
    18
420
        0
176
     1
 90
       50
176
     1
 90
        3
176
     1
 62
     5
420
      255
176
     1
290
     0
176
     1
 90
       50
176
     1
 90
       50
176
     1
 90
       50
176
     1
290
     0
176
     1
 90
       50
176
     1
 62
   256
176
     0
 40
1.0
176
     0
 90
        2
176
     1
  1
strokes_ogs.tif
176
     1
290
     0
176
     1
 40
1.0
176
     1
 40
1.0
176
     1
  0
VISUALSTYLE
  5
C7B
102
{ACAD_REACTORS
330
C74
102
}
330
C74
100
AcDbVisualStyle
  2
3dWireframe
 70
     5
177
     3
291
     0
 70
    58
 90
        0
176
     1
 90
        2
176
     1
 90
        0
176
     1
 90
        0
176
     1
 40
0.6
176
     1
 40
30.0
176
     1
 62
     7
176
     1
 90
        1
176
     1
 90
        4
176
     1
 62
     7
176
     1
 62
   257
176
     1
 90
        1
176
     1
 90
        1
176
     1
 40
1.0
176
     1
 90
        0
176
     1
 62
   257
176
     1
 40
1.0
176
     1
 90
        1
176
     1
 90
        6
176
     1
 90
        2
176
     1
 62
     7
176
     1
 90
        5
176
     1
 90
        0
176
     1
 90
        0
176
     1
290
     0
176
     1
 90
        1
176
     1
 40
0.0
176
     1
 90
        0
176
     1
290
     0
176
     1
290
     1
176
     1
290
     1
176
     1
290
     0
176
     1
290
     0
176
     1
290
     0
176
     1
290
     0
176
     1
290
     0
176
     1
290
     0
176
     1
 90
       50
176
     1
 40
0.0
176
     1
 40
1.0
176
     1
 90
        0
176
     1
 62
    18
420
        0
176
     1
 90
       50
176
     1
 90
        3
176
     1
 62
     5
420
      255
176
     1
290
     0
176
     1
 90
       50
176
     1
 90
       50
176
     1
 90
       50
176
     1
290
     0
176
     1
 90
       50
176
     1
 62
   256
176
     0
 40
1.0
176
     0
 90
        2
176
     1
  1
strokes_ogs.tif
176
     1
290
     0
176
     1
 40
1.0
176
     1
 40
1.0
176
     1
  0
VISUALSTYLE
  5
C79
102
{ACAD_REACTORS
330
C74
102
}
330
C74
100
AcDbVisualStyle
  2
Basic
 70
     7
177
     3
291
     1
 70
    58
 90
        1
176
     1
 90
        0
176
     1
 90
        1
176
     1
 90
        0
176
     1
 40
0.6
176
     1
 40
30.0
176
     1
 62
     7
176
     1
 90
        0
176
     1
 90
        4
176
     1
 62
     7
176
     1
 62
   257
176
     1
 90
        1
176
     1
 90
        1
176
     1
 40
1.0
176
     1
 90
        8
176
     1
 62
     7
176
     1
 40
1.0
176
     1
 90
        1
176
     1
 90
        6
176
     1
 90
        2
176
     1
 62
     7
176
     1
 90
        5
176
     1
 90
        0
176
     1
 90
        0
176
     1
290
     0
176
     1
 90
        1
176
     1
 40
0.0
176
     1
 90
        0
176
     1
290
     0
176
     1
290
     1
176
     1
290
     1
176
     1
290
     0
176
     1
290
     0
176
     1
290
     0
176
     1
290
     0
176
     1
290
     0
176
     1
290
     0
176
     1
 90
       50
176
     1
 40
0.0
176
     1
 40
1.0
176
     1
 90
        0
176
     1
 62
    18
420
        0
176
     1
 90
       50
176
     1
 90
        3
176
     1
 62
     5
420
      255
176
     1
290
     0
176
     1
 90
       50
176
     1
 90
       50
176
     1
 90
       50
176
     1
290
     0
176
     1
 90
       50
176
     1
 62
   256
176
     0
 40
1.0
176
     0
 90
        2
176
     1
  1
strokes_ogs.tif
176
     1
290
     0
176
     1
 40
1.0
176
     1
 40
1.0
176
     1
  0
VISUALSTYLE
  5
C80
102
{ACAD_REACTORS
330
C74
102
}
330
C74
100
AcDbVisualStyle
  2
Brighten
 70
    12
177
     3
291
     1
 70
    58
 90
        2
176
     1
 90
        2
176
     1
 90
        0
176
     1
 90
        0
176
     1
 40
0.6
176
     1
 40
30.0
176
     1
 62
     7
176
     1
 90
        1
176
     1
 90
        4
176
     1
 62
     7
176
     1
 62
   257
176
     1
 90
        1
176
     1
 90
        1
176
     1
 40
1.0
176
     1
 90
        8
176
     1
 62
     7
176
     1
 40
1.0
176
     1
 90
        1
176
     1
 90
        6
176
     1
 90
        2
176
     1
 62
     7
176
     1
 90
        5
176
     1
 90
        0
176
     1
 90
        0
176
     1
290
     0
176
     1
 90
        1
176
     1
 40
50.0
176
     1
 90
        0
176
     1
290
     0
176
     1
290
     1
176
     1
290
     1
176
     1
290
     0
176
     1
290
     0
176
     1
290
     0
176
     1
290
     0
176
     1
290
     0
176
     1
290
     0
176
     1
 90
       50
176
     1
 40
0.0
176
     1
 40
1.0
176
     1
 90
        0
176
     1
 62
    18
420
        0
176
     1
 90
       50
176
     1
 90
        3
176
     1
 62
     5
420
      255
176
     1
290
     0
176
     1
 90
       50
176
     1
 90
       50
176
     1
 90
       50
176
     1
290
     0
176
     1
 90
       50
176
     1
 62
   256
176
     0
 40
1.0
176
     0
 90
        2
176
     1
  1
strokes_ogs.tif
176
     1
290
     0
176
     1
 40
1.0
176
     1
 40
1.0
176
     1
  0
VISUALSTYLE
  5
C84
102
{ACAD_REACTORS
330
C74
102
}
330
C74
100
AcDbVisualStyle
  2
ColorChange
 70
    16
177
     3
291
     1
 70
    58
 90
        2
176
     1
 90
        2
176
     1
 90
        3
176
     1
 90
        0
176
     1
 40
0.6
176
     1
 40
30.0
176
     1
 62
     8
176
     1
 90
        1
176
     1
 90
        4
176
     1
 62
     7
176
     1
 62
   257
176
     1
 90
        1
176
     1
 90
        1
176
     1
 40
1.0
176
     1
 90
        8
176
     1
 62
     8
176
     1
 40
1.0
176
     1
 90
        1
176
     1
 90
        6
176
     1
 90
        2
176
     1
 62
     7
176
     1
 90
        5
176
     1
 90
        0
176
     1
 90
        0
176
     1
290
     0
176
     1
 90
        1
176
     1
 40
0.0
176
     1
 90
        0
176
     1
290
     0
176
     1
290
     1
176
     1
290
     1
176
     1
290
     0
176
     1
290
     0
176
     1
290
     0
176
     1
290
     0
176
     1
290
     0
176
     1
290
     0
176
     1
 90
       50
176
     1
 40
0.0
176
     1
 40
1.0
176
     1
 90
        0
176
     1
 62
    18
420
        0
176
     1
 90
       50
176
     1
 90
        3
176
     1
 62
     5
420
      255
176
     1
290
     0
176
     1
 90
       50
176
     1
 90
       50
176
     1
 90
       50
176
     1
290
     0
176
     1
 90
       50
176
     1
 62
   256
176
     0
 40
1.0
176
     0
 90
        2
176
     1
  1
strokes_ogs.tif
176
     1
290
     0
176
     1
 40
1.0
176
     1
 40
1.0
176
     1
  0
VISUALSTYLE
  5
C7D
102
{ACAD_REACTORS
330
C74
102
}
330
C74
100
AcDbVisualStyle
  2
Conceptual
 70
     9
177
     3
291
     0
 70
    58
 90
        3
176
     1
 90
        2
176
     1
 90
        0
176
     1
 90
        0
176
     1
 40
0.6
176
     1
 40
30.0
176
     1
 62
     7
176
     1
 90
        2
176
     1
 90
        2
176
     1
 62
     7
176
     1
 62
   257
176
     1
 90
        1
176
     1
 90
        1
176
     1
 40
40.0
176
     1
 90
        8
176
     1
 62
     7
176
     1
 40
1.0
176
     1
 90
        1
176
     1
 90
        6
176
     1
 90
        2
176
     1
 62
     7
176
     1
 90
        3
176
     1
 90
        0
176
     1
 90
        0
176
     1
290
     0
176
     1
 90
        1
176
     1
 40
0.0
176
     1
 90
        0
176
     1
290
     0
176
     1
290
     1
176
     1
290
     1
176
     1
290
     0
176
     1
290
     0
176
     1
290
     0
176
     1
290
     0
176
     1
290
     0
176
     1
290
     0
176
     1
 90
       50
176
     1
 40
0.0
176
     1
 40
1.0
176
     1
 90
        0
176
     1
 62
    18
420
        0
176
     1
 90
       50
176
     1
 90
        3
176
     1
 62
     5
420
      255
176
     1
290
     0
176
     1
 90
       50
176
     1
 90
       50
176
     1
 90
       50
176
     1
290
     0
176
     1
 90
       50
176
     1
 62
   256
176
     0
 40
1.0
176
     0
 90
        2
176
     1
  1
strokes_ogs.tif
176
     1
290
     0
176
     1
 40
1.0
176
     1
 40
1.0
176
     1
  0
VISUALSTYLE
  5
C7F
102
{ACAD_REACTORS
330
C74
102
}
330
C74
100
AcDbVisualStyle
  2
Dim
 70
    11
177
     3
291
     1
 70
    58
 90
        2
176
     1
 90
        2
176
     1
 90
        0
176
     1
 90
        0
176
     1
 40
0.6
176
     1
 40
30.0
176
     1
 62
     7
176
     1
 90
        1
176
     1
 90
        4
176
     1
 62
     7
176
     1
 62
   257
176
     1
 90
        1
176
     1
 90
        1
176
     1
 40
1.0
176
     1
 90
        8
176
     1
 62
     7
176
     1
 40
1.0
176
     1
 90
        1
176
     1
 90
        6
176
     1
 90
        2
176
     1
 62
     7
176
     1
 90
        5
176
     1
 90
        0
176
     1
 90
        0
176
     1
290
     0
176
     1
 90
        1
176
     1
 40
-50.0
176
     1
 90
        0
176
     1
290
     0
176
     1
290
     1
176
     1
290
     1
176
     1
290
     0
176
     1
290
     0
176
     1
290
     0
176
     1
290
     0
176
     1
290
     0
176
     1
290
     0
176
     1
 90
       50
176
     1
 40
0.0
176
     1
 40
1.0
176
     1
 90
        0
176
     1
 62
    18
420
        0
176
     1
 90
       50
176
     1
 90
        3
176
     1
 62
     5
420
      255
176
     1
290
     0
176
     1
 90
       50
176
     1
 90
       50
176
     1
 90
       50
176
     1
290
     0
176
     1
 90
       50
176
     1
 62
   256
176
     0
 40
1.0
176
     0
 90
        2
176
     1
  1
strokes_ogs.tif
176
     1
290
     0
176
     1
 40
1.0
176
     1
 40
1.0
176
     1
  0
VISUALSTYLE
  5
6524
102
{ACAD_REACTORS
330
C74
102
}
330
C74
100
AcDbVisualStyle
  2
EdgeColorOff
 70
    22
177
     3
291
     1
 70
    58
 90
        2
176
     0
 90
        2
176
     0
 90
        0
176
     0
 90
        0
176
     0
 40
0.6
176
     0
 40
30.0
176
     0
 62
     7
420
 16777215
176
     0
 90
        1
176
     0
 90
        4
176
     0
 62
     7
176
     0
 62
   257
176
     0
 90
        1
176
     0
 90
        1
176
     0
 40
1.0
176
     0
 90
        8
176
     2
 62
     7
176
     0
 40
1.0
176
     0
 90
        1
176
     0
 90
        6
176
     0
 90
        2
176
     0
 62
     7
176
     0
 90
        5
176
     0
 90
        0
176
     0
 90
        0
176
     0
290
     0
176
     0
 90
        1
176
     0
 40
0.0
176
     0
 90
        0
176
     0
290
     0
176
     0
290
     1
176
     0
290
     1
176
     0
290
     0
176
     0
290
     0
176
     0
290
     0
176
     0
290
     0
176
     0
290
     0
176
     0
290
     0
176
     0
 90
       50
176
     0
 40
0.0
176
     0
 40
1.0
176
     0
 90
        0
176
     0
 62
    18
420
        0
176
     0
 90
       50
176
     0
 90
        3
176
     0
 62
     5
420
      255
176
     0
290
     0
176
     0
 90
       50
176
     0
 90
       50
176
     0
 90
       50
176
     0
290
     0
176
     0
 90
       50
176
     0
 62
   256
176
     0
 40
1.0
176
     0
 90
        2
176
     0
  1
strokes_ogs.tif
176
     0
290
     0
176
     0
 40
1.0
176
     0
 40
1.0
176
     0
  0
VISUALSTYLE
  5
C83
102
{ACAD_REACTORS
330
C74
102
}
330
C74
100
AcDbVisualStyle
  2
Facepattern
 70
    15
177
     3
291
     1
 70
    58
 90
        2
176
     1
 90
        2
176
     1
 90
        0
176
     1
 90
        0
176
     1
 40
0.6
176
     1
 40
30.0
176
     1
 62
     7
176
     1
 90
        1
176
     1
 90
        4
176
     1
 62
     7
176
     1
 62
   257
176
     1
 90
        1
176
     1
 90
        1
176
     1
 40
1.0
176
     1
 90
        8
176
     1
 62
     7
176
     1
 40
1.0
176
     1
 90
        1
176
     1
 90
        6
176
     1
 90
        2
176
     1
 62
     7
176
     1
 90
        5
176
     1
 90
        0
176
     1
 90
        0
176
     1
290
     0
176
     1
 90
        1
176
     1
 40
0.0
176
     1
 90
        0
176
     1
290
     0
176
     1
290
     1
176
     1
290
     1
176
     1
290
     0
176
     1
290
     0
176
     1
290
     0
176
     1
290
     0
176
     1
290
     0
176
     1
290
     0
176
     1
 90
       50
176
     1
 40
0.0
176
     1
 40
1.0
176
     1
 90
        0
176
     1
 62
    18
420
        0
176
     1
 90
       50
176
     1
 90
        3
176
     1
 62
     5
420
      255
176
     1
290
     0
176
     1
 90
       50
176
     1
 90
       50
176
     1
 90
       50
176
     1
290
     0
176
     1
 90
       50
176
     1
 62
   256
176
     0
 40
1.0
176
     0
 90
        2
176
     1
  1
strokes_ogs.tif
176
     1
290
     0
176
     1
 40
1.0
176
     1
 40
1.0
176
     1
  0
VISUALSTYLE
  5
C75
102
{ACAD_REACTORS
330
C74
102
}
330
C74
100
AcDbVisualStyle
  2
Flat
 70
     0
177
     3
291
     1
 70
    58
 90
        2
176
     1
 90
        1
176
     1
 90
        1
176
     1
 90
        2
176
     1
 40
0.6
176
     1
 40
30.0
176
     1
 62
     7
176
     1
 90
        0
176
     1
 90
        4
176
     1
 62
     7
176
     1
 62
   257
176
     1
 90
        1
176
     1
 90
        1
176
     1
 40
1.0
176
     1
 90
        8
176
     1
 62
     7
176
     1
 40
1.0
176
     1
 90
        1
176
     1
 90
        6
176
     1
 90
        2
176
     1
 62
     7
176
     1
 90
        5
176
     1
 90
        0
176
     1
 90
        0
176
     1
290
     0
176
     1
 90
       13
176
     1
 40
0.0
176
     1
 90
        0
176
     1
290
     0
176
     1
290
     1
176
     1
290
     1
176
     1
290
     0
176
     1
290
     0
176
     1
290
     0
176
     1
290
     0
176
     1
290
     0
176
     1
290
     0
176
     1
 90
       50
176
     1
 40
0.0
176
     1
 40
1.0
176
     1
 90
        0
176
     1
 62
    18
420
        0
176
     1
 90
       50
176
     1
 90
        3
176
     1
 62
     5
420
      255
176
     1
290
     0
176
     1
 90
       50
176
     1
 90
       50
176
     1
 90
       50
176
     1
290
     0
176
     1
 90
       50
176
     1
 62
   256
176
     0
 40
1.0
176
     0
 90
        2
176
     1
  1
strokes_ogs.tif
176
     1
290
     0
176
     1
 40
1.0
176
     1
 40
1.0
176
     1
  0
VISUALSTYLE
  5
C76
102
{ACAD_REACTORS
330
C74
102
}
330
C74
100
AcDbVisualStyle
  2
FlatWithEdges
 70
     1
177
     3
291
     1
 70
    58
 90
        2
176
     1
 90
        1
176
     1
 90
        1
176
     1
 90
        2
176
     1
 40
0.6
176
     1
 40
30.0
176
     1
 62
     7
176
     1
 90
        1
176
     1
 90
        4
176
     1
 62
     7
176
     1
 62
   257
176
     1
 90
        1
176
     1
 90
        1
176
     1
 40
1.0
176
     1
 90
        0
176
     1
 62
   257
176
     1
 40
1.0
176
     1
 90
        1
176
     1
 90
        6
176
     1
 90
        2
176
     1
 62
     7
176
     1
 90
        5
176
     1
 90
        0
176
     1
 90
        0
176
     1
290
     0
176
     1
 90
       13
176
     1
 40
0.0
176
     1
 90
        0
176
     1
290
     0
176
     1
290
     1
176
     1
290
     1
176
     1
290
     0
176
     1
290
     0
176
     1
290
     0
176
     1
290
     0
176
     1
290
     0
176
     1
290
     0
176
     1
 90
       50
176
     1
 40
0.0
176
     1
 40
1.0
176
     1
 90
        0
176
     1
 62
    18
420
        0
176
     1
 90
       50
176
     1
 90
        3
176
     1
 62
     5
420
      255
176
     1
290
     0
176
     1
 90
       50
176
     1
 90
       50
176
     1
 90
       50
176
     1
290
     0
176
     1
 90
       50
176
     1
 62
   256
176
     0
 40
1.0
176
     0
 90
        2
176
     1
  1
strokes_ogs.tif
176
     1
290
     0
176
     1
 40
1.0
176
     1
 40
1.0
176
     1
  0
VISUALSTYLE
  5
C77
102
{ACAD_REACTORS
330
C74
102
}
330
C74
100
AcDbVisualStyle
  2
Gouraud
 70
     2
177
     3
291
     1
 70
    58
 90
        2
176
     1
 90
        2
176
     1
 90
        1
176
     1
 90
        2
176
     1
 40
0.6
176
     1
 40
30.0
176
     1
 62
     7
176
     1
 90
        0
176
     1
 90
        4
176
     1
 62
     7
176
     1
 62
   257
176
     1
 90
        1
176
     1
 90
        1
176
     1
 40
1.0
176
     1
 90
        0
176
     1
 62
     7
176
     1
 40
1.0
176
     1
 90
        1
176
     1
 90
        6
176
     1
 90
        2
176
     1
 62
     7
176
     1
 90
        5
176
     1
 90
        0
176
     1
 90
        0
176
     1
290
     0
176
     1
 90
       13
176
     1
 40
0.0
176
     1
 90
        0
176
     1
290
     0
176
     1
290
     1
176
     1
290
     1
176
     1
290
     0
176
     1
290
     0
176
     1
290
     0
176
     1
290
     0
176
     1
290
     0
176
     1
290
     0
176
     1
 90
       50
176
     1
 40
0.0
176
     1
 40
1.0
176
     1
 90
        0
176
     1
 62
    18
420
        0
176
     1
 90
       50
176
     1
 90
        3
176
     1
 62
     5
420
      255
176
     1
290
     0
176
     1
 90
       50
176
     1
 90
       50
176
     1
 90
       50
176
     1
290
     0
176
     1
 90
       50
176
     1
 62
   256
176
     0
 40
1.0
176
     0
 90
        2
176
     1
  1
strokes_ogs.tif
176
     1
290
     0
176
     1
 40
1.0
176
     1
 40
1.0
176
     1
  0
VISUALSTYLE
  5
C78
102
{ACAD_REACTORS
330
C74
102
}
330
C74
100
AcDbVisualStyle
  2
GouraudWithEdges
 70
     3
177
     3
291
     1
 70
    58
 90
        2
176
     1
 90
        2
176
     1
 90
        1
176
     1
 90
        2
176
     1
 40
0.6
176
     1
 40
30.0
176
     1
 62
     7
176
     1
 90
        1
176
     1
 90
        4
176
     1
 62
     7
176
     1
 62
   257
176
     1
 90
        1
176
     1
 90
        1
176
     1
 40
1.0
176
     1
 90
        0
176
     1
 62
   257
176
     1
 40
1.0
176
     1
 90
        1
176
     1
 90
        6
176
     1
 90
        2
176
     1
 62
     7
176
     1
 90
        5
176
     1
 90
        0
176
     1
 90
        0
176
     1
290
     0
176
     1
 90
       13
176
     1
 40
0.0
176
     1
 90
        0
176
     1
290
     0
176
     1
290
     1
176
     1
290
     1
176
     1
290
     0
176
     1
290
     0
176
     1
290
     0
176
     1
290
     0
176
     1
290
     0
176
     1
290
     0
176
     1
 90
       50
176
     1
 40
0.0
176
     1
 40
1.0
176
     1
 90
        0
176
     1
 62
    18
420
        0
176
     1
 90
       50
176
     1
 90
        3
176
     1
 62
     5
420
      255
176
     1
290
     0
176
     1
 90
       50
176
     1
 90
       50
176
     1
 90
       50
176
     1
290
     0
176
     1
 90
       50
176
     1
 62
   256
176
     0
 40
1.0
176
     0
 90
        2
176
     1
  1
strokes_ogs.tif
176
     1
290
     0
176
     1
 40
1.0
176
     1
 40
1.0
176
     1
  0
VISUALSTYLE
  5
651C
102
{ACAD_REACTORS
330
C74
102
}
330
C74
100
AcDbVisualStyle
  2
Hidden
 70
     6
177
     3
291
     0
 70
    58
 90
        1
176
     1
 90
        2
176
     1
 90
        2
176
     1
 90
        0
176
     1
 40
0.6
176
     1
 40
30.0
176
     1
 62
     7
420
 16777215
176
     1
 90
        2
176
     1
 90
        2
176
     1
 62
     7
176
     1
 62
   257
176
     1
 90
        2
176
     1
 90
        1
176
     1
 40
40.0
176
     1
 90
        0
176
     1
 62
   257
176
     1
 40
1.0
176
     1
 90
        1
176
     1
 90
        6
176
     1
 90
        2
176
     1
 62
     7
176
     1
 90
        3
176
     1
 90
        0
176
     1
 90
        0
176
     1
290
     0
176
     1
 90
        1
176
     1
 40
0.0
176
     1
 90
        0
176
     1
290
     0
176
     1
290
     1
176
     1
290
     1
176
     1
290
     0
176
     1
290
     0
176
     1
290
     0
176
     1
290
     0
176
     1
290
     0
176
     1
290
     0
176
     1
 90
       50
176
     1
 40
0.0
176
     1
 40
1.0
176
     1
 90
        0
176
     1
 62
    18
420
        0
176
     1
 90
       50
176
     1
 90
        3
176
     1
 62
     5
420
      255
176
     1
290
     0
176
     1
 90
       50
176
     1
 90
       50
176
     1
 90
       50
176
     1
290
     0
176
     1
 90
       50
176
     1
 62
   256
176
     0
 40
1.0
176
     0
 90
        2
176
     1
  1
strokes_ogs.tif
176
     1
290
     0
176
     1
 40
1.0
176
     1
 40
1.0
176
     1
  0
VISUALSTYLE
  5
6522
102
{ACAD_REACTORS
330
C74
102
}
330
C74
100
AcDbVisualStyle
  2
JitterOff
 70
    20
177
     3
291
     1
 70
    58
 90
        2
176
     0
 90
        2
176
     0
 90
        0
176
     0
 90
        0
176
     0
 40
0.6
176
     0
 40
30.0
176
     0
 62
     7
420
 16777215
176
     0
 90
        1
176
     0
 90
        4
176
     0
 62
     7
176
     0
 62
   257
176
     0
 90
        1
176
     0
 90
        1
176
     0
 40
1.0
176
     0
 90
       10
176
     2
 62
     7
176
     0
 40
1.0
176
     0
 90
        1
176
     0
 90
        6
176
     0
 90
        2
176
     0
 62
     7
176
     0
 90
        5
176
     0
 90
        0
176
     0
 90
        0
176
     0
290
     0
176
     0
 90
        1
176
     0
 40
0.0
176
     0
 90
        0
176
     0
290
     0
176
     0
290
     1
176
     0
290
     1
176
     0
290
     0
176
     0
290
     0
176
     0
290
     0
176
     0
290
     0
176
     0
290
     0
176
     0
290
     0
176
     0
 90
       50
176
     0
 40
0.0
176
     0
 40
1.0
176
     0
 90
        0
176
     0
 62
    18
420
        0
176
     0
 90
       50
176
     0
 90
        3
176
     0
 62
     5
420
      255
176
     0
290
     0
176
     0
 90
       50
176
     0
 90
       50
176
     0
 90
       50
176
     0
290
     0
176
     0
 90
       50
176
     0
 62
   256
176
     0
 40
1.0
176
     0
 90
        2
176
     0
  1
strokes_ogs.tif
176
     0
290
     0
176
     0
 40
1.0
176
     0
 40
1.0
176
     0
  0
VISUALSTYLE
  5
C82
102
{ACAD_REACTORS
330
C74
102
}
330
C74
100
AcDbVisualStyle
  2
Linepattern
 70
    14
177
     3
291
     1
 70
    58
 90
        2
176
     1
 90
        2
176
     1
 90
        0
176
     1
 90
        0
176
     1
 40
0.6
176
     1
 40
30.0
176
     1
 62
     7
176
     1
 90
        1
176
     1
 90
        4
176
     1
 62
     7
176
     1
 62
   257
176
     1
 90
        7
176
     1
 90
        7
176
     1
 40
1.0
176
     1
 90
        8
176
     1
 62
     7
176
     1
 40
1.0
176
     1
 90
        1
176
     1
 90
        6
176
     1
 90
        2
176
     1
 62
     7
176
     1
 90
        5
176
     1
 90
        0
176
     1
 90
        0
176
     1
290
     0
176
     1
 90
        1
176
     1
 40
0.0
176
     1
 90
        0
176
     1
290
     0
176
     1
290
     1
176
     1
290
     1
176
     1
290
     0
176
     1
290
     0
176
     1
290
     0
176
     1
290
     0
176
     1
290
     0
176
     1
290
     0
176
     1
 90
       50
176
     1
 40
0.0
176
     1
 40
1.0
176
     1
 90
        0
176
     1
 62
    18
420
        0
176
     1
 90
       50
176
     1
 90
        3
176
     1
 62
     5
420
      255
176
     1
290
     0
176
     1
 90
       50
176
     1
 90
       50
176
     1
 90
       50
176
     1
290
     0
176
     1
 90
       50
176
     1
 62
   256
176
     0
 40
1.0
176
     0
 90
        2
176
     1
  1
strokes_ogs.tif
176
     1
290
     0
176
     1
 40
1.0
176
     1
 40
1.0
176
     1
  0
VISUALSTYLE
  5
6523
102
{ACAD_REACTORS
330
C74
102
}
330
C74
100
AcDbVisualStyle
  2
OverhangOff
 70
    21
177
     3
291
     1
 70
    58
 90
        2
176
     0
 90
        2
176
     0
 90
        0
176
     0
 90
        0
176
     0
 40
0.6
176
     0
 40
30.0
176
     0
 62
     7
420
 16777215
176
     0
 90
        1
176
     0
 90
        4
176
     0
 62
     7
176
     0
 62
   257
176
     0
 90
        1
176
     0
 90
        1
176
     0
 40
1.0
176
     0
 90
        9
176
     2
 62
     7
176
     0
 40
1.0
176
     0
 90
        1
176
     0
 90
        6
176
     0
 90
        2
176
     0
 62
     7
176
     0
 90
        5
176
     0
 90
        0
176
     0
 90
        0
176
     0
290
     0
176
     0
 90
        1
176
     0
 40
0.0
176
     0
 90
        0
176
     0
290
     0
176
     0
290
     1
176
     0
290
     1
176
     0
290
     0
176
     0
290
     0
176
     0
290
     0
176
     0
290
     0
176
     0
290
     0
176
     0
290
     0
176
     0
 90
       50
176
     0
 40
0.0
176
     0
 40
1.0
176
     0
 90
        0
176
     0
 62
    18
420
        0
176
     0
 90
       50
176
     0
 90
        3
176
     0
 62
     5
420
      255
176
     0
290
     0
176
     0
 90
       50
176
     0
 90
       50
176
     0
 90
       50
176
     0
290
     0
176
     0
 90
       50
176
     0
 62
   256
176
     0
 40
1.0
176
     0
 90
        2
176
     0
  1
strokes_ogs.tif
176
     0
290
     0
176
     0
 40
1.0
176
     0
 40
1.0
176
     0
  0
VISUALSTYLE
  5
C7E
102
{ACAD_REACTORS
330
C74
102
}
330
C74
100
AcDbVisualStyle
  2
Realistic
 70
     8
177
     3
291
     0
 70
    58
 90
        2
176
     1
 90
        2
176
     1
 90
        0
176
     1
 90
        0
176
     1
 40
0.6
176
     1
 40
30.0
176
     1
 62
     7
176
     1
 90
        1
176
     1
 90
        0
176
     1
 62
     7
176
     1
 62
   257
176
     1
 90
        1
176
     1
 90
        1
176
     1
 40
1.0
176
     1
 90
        8
176
     1
 62
     8
176
     1
 40
1.0
176
     1
 90
        1
176
     1
 90
        6
176
     1
 90
        2
176
     1
 62
     7
176
     1
 90
        5
176
     1
 90
        0
176
     1
 90
        0
176
     1
290
     0
176
     1
 90
       13
176
     1
 40
0.0
176
     1
 90
        0
176
     1
290
     0
176
     1
290
     1
176
     1
290
     1
176
     1
290
     0
176
     1
290
     0
176
     1
290
     0
176
     1
290
     0
176
     1
290
     0
176
     1
290
     0
176
     1
 90
       50
176
     1
 40
0.0
176
     1
 40
1.0
176
     1
 90
        0
176
     1
 62
    18
420
        0
176
     1
 90
       50
176
     1
 90
        3
176
     1
 62
     5
420
      255
176
     1
290
     0
176
     1
 90
       50
176
     1
 90
       50
176
     1
 90
       50
176
     1
290
     0
176
     1
 90
       50
176
     1
 62
   256
176
     0
 40
1.0
176
     0
 90
        2
176
     1
  1
strokes_ogs.tif
176
     1
290
     0
176
     1
 40
1.0
176
     1
 40
1.0
176
     1
  0
VISUALSTYLE
  5
6521
102
{ACAD_REACTORS
330
C74
102
}
330
C74
100
AcDbVisualStyle
  2
Shaded
 70
    27
177
     3
291
     0
 70
    58
 90
        2
176
     1
 90
        2
176
     1
 90
        1
176
     1
 90
        2
176
     1
 40
0.6
176
     1
 40
30.0
176
     1
 62
     7
420
 16777215
176
     1
 90
        0
176
     1
 90
        4
176
     1
 62
     7
176
     1
 62
   257
176
     1
 90
        1
176
     1
 90
        1
176
     1
 40
1.0
176
     1
 90
        8
176
     1
 62
   257
176
     1
 40
1.0
176
     1
 90
        1
176
     1
 90
        6
176
     1
 90
        2
176
     1
 62
     8
420
  7895160
176
     1
 90
        3
176
     1
 90
        0
176
     1
 90
        0
176
     1
290
     0
176
     1
 90
        5
176
     1
 40
0.0
176
     1
 90
        0
176
     1
290
     0
176
     1
290
     1
176
     1
290
     1
176
     1
290
     0
176
     1
290
     0
176
     1
290
     0
176
     1
290
     0
176
     1
290
     0
176
     1
290
     0
176
     1
 90
       50
176
     1
 40
0.0
176
     1
 40
1.0
176
     1
 90
        0
176
     1
 62
    18
420
        0
176
     1
 90
       50
176
     1
 90
        3
176
     1
 62
     5
420
      255
176
     1
290
     0
176
     1
 90
       50
176
     1
 90
       50
176
     1
 90
       50
176
     1
290
     0
176
     1
 90
       50
176
     1
 62
   256
176
     0
 40
1.0
176
     0
 90
        2
176
     1
  1
strokes_ogs.tif
176
     1
290
     0
176
     1
 40
1.0
176
     1
 40
1.0
176
     1
  0
VISUALSTYLE
  5
6520
102
{ACAD_REACTORS
330
C74
102
}
330
C74
100
AcDbVisualStyle
  2
Shaded with edges
 70
    26
177
     3
291
     0
 70
    58
 90
        2
176
     1
 90
        2
176
     1
 90
        1
176
     1
 90
        2
176
     1
 40
0.6
176
     1
 40
30.0
176
     1
 62
     7
420
 16777215
176
     1
 90
        1
176
     1
 90
       10
176
     1
 62
     7
176
     1
 62
   257
176
     1
 90
        2
176
     1
 90
        1
176
     1
 40
1.0
176
     1
 90
        8
176
     1
 62
   257
176
     1
 40
1.0
176
     1
 90
        1
176
     1
 90
        6
176
     1
 90
        2
176
     1
 62
     7
176
     1
 90
        3
176
     1
 90
        0
176
     1
 90
        0
176
     1
290
     0
176
     1
 90
        5
176
     1
 40
0.0
176
     1
 90
        0
176
     1
290
     0
176
     1
290
     1
176
     1
290
     1
176
     1
290
     0
176
     1
290
     0
176
     1
290
     0
176
     1
290
     0
176
     1
290
     0
176
     1
290
     0
176
     1
 90
       50
176
     1
 40
0.0
176
     1
 40
1.0
176
     1
 90
        0
176
     1
 62
    18
420
        0
176
     1
 90
       50
176
     1
 90
        3
176
     1
 62
     5
420
      255
176
     1
290
     0
176
     1
 90
       50
176
     1
 90
       50
176
     1
 90
       50
176
     1
290
     0
176
     1
 90
       50
176
     1
 62
   256
176
     0
 40
1.0
176
     0
 90
        2
176
     1
  1
strokes_ogs.tif
176
     1
290
     0
176
     1
 40
1.0
176
     1
 40
1.0
176
     1
  0
VISUALSTYLE
  5
651D
102
{ACAD_REACTORS
330
C74
102
}
330
C74
100
AcDbVisualStyle
  2
Shades of Gray
 70
    23
177
     3
291
     0
 70
    58
 90
        2
176
     1
 90
        2
176
     1
 90
        3
176
     1
 90
        0
176
     1
 40
0.6
176
     1
 40
30.0
176
     1
 62
     7
420
 16777215
176
     1
 90
        2
176
     1
 90
        2
176
     1
 62
     7
176
     1
 62
     7
176
     1
 90
        1
176
     1
 90
        1
176
     1
 40
40.0
176
     1
 90
        8
176
     1
 62
     7
176
     1
 40
1.0
176
     1
 90
        1
176
     1
 90
        6
176
     1
 90
        2
176
     1
 62
     7
176
     1
 90
        3
176
     1
 90
        0
176
     1
 90
        0
176
     1
290
     0
176
     1
 90
        1
176
     1
 40
0.0
176
     1
 90
        0
176
     1
290
     0
176
     1
290
     1
176
     1
290
     1
176
     1
290
     0
176
     1
290
     0
176
     1
290
     0
176
     1
290
     0
176
     1
290
     0
176
     1
290
     0
176
     1
 90
       50
176
     1
 40
0.0
176
     1
 40
1.0
176
     1
 90
        0
176
     1
 62
    18
420
        0
176
     1
 90
       50
176
     1
 90
        3
176
     1
 62
     5
420
      255
176
     1
290
     0
176
     1
 90
       50
176
     1
 90
       50
176
     1
 90
       50
176
     1
290
     0
176
     1
 90
       50
176
     1
 62
   256
176
     0
 40
1.0
176
     0
 90
        2
176
     1
  1
strokes_ogs.tif
176
     1
290
     0
176
     1
 40
1.0
176
     1
 40
1.0
176
     1
  0
VISUALSTYLE
  5
651E
102
{ACAD_REACTORS
330
C74
102
}
330
C74
100
AcDbVisualStyle
  2
Sketchy
 70
    24
177
     3
291
     0
 70
    58
 90
        1
176
     1
 90
        2
176
     1
 90
        2
176
     1
 90
        0
176
     1
 40
0.6
176
     1
 40
30.0
176
     1
 62
     7
420
 16777215
176
     1
 90
        2
176
     1
 90
        2
176
     1
 62
     7
176
     1
 62
     7
176
     1
 90
        1
176
     1
 90
        1
176
     1
 40
40.0
176
     1
 90
       11
176
     1
 62
     7
176
     1
 40
1.0
176
     1
 90
        1
176
     1
 90
        6
176
     1
 90
        2
176
     1
 62
     7
176
     1
 90
        6
176
     1
 90
        0
176
     1
 90
        0
176
     1
290
     0
176
     1
 90
        1
176
     1
 40
0.0
176
     1
 90
        0
176
     1
290
     0
176
     1
290
     1
176
     1
290
     1
176
     1
290
     0
176
     1
290
     0
176
     1
290
     0
176
     1
290
     0
176
     1
290
     0
176
     1
290
     0
176
     1
 90
       50
176
     1
 40
0.0
176
     1
 40
1.0
176
     1
 90
        0
176
     1
 62
    18
420
        0
176
     1
 90
       50
176
     1
 90
        3
176
     1
 62
     5
420
      255
176
     1
290
     0
176
     1
 90
       50
176
     1
 90
       50
176
     1
 90
       50
176
     1
290
     0
176
     1
 90
       50
176
     1
 62
   256
176
     0
 40
1.0
176
     0
 90
        2
176
     1
  1
strokes_ogs.tif
176
     1
290
     0
176
     1
 40
1.0
176
     1
 40
1.0
176
     1
  0
VISUALSTYLE
  5
C81
102
{ACAD_REACTORS
330
C74
102
}
330
C74
100
AcDbVisualStyle
  2
Thicken
 70
    13
177
     3
291
     1
 70
    58
 90
        2
176
     1
 90
        2
176
     1
 90
        0
176
     1
 90
        0
176
     1
 40
0.6
176
     1
 40
30.0
176
     1
 62
     7
176
     1
 90
        1
176
     1
 90
        4
176
     1
 62
     7
176
     1
 62
   257
176
     1
 90
        1
176
     1
 90
        1
176
     1
 40
1.0
176
     1
 90
       12
176
     1
 62
     7
176
     1
 40
1.0
176
     1
 90
        1
176
     1
 90
        6
176
     1
 90
        2
176
     1
 62
     7
176
     1
 90
        5
176
     1
 90
        0
176
     1
 90
        0
176
     1
290
     0
176
     1
 90
        1
176
     1
 40
0.0
176
     1
 90
        0
176
     1
290
     0
176
     1
290
     1
176
     1
290
     1
176
     1
290
     0
176
     1
290
     0
176
     1
290
     0
176
     1
290
     0
176
     1
290
     0
176
     1
290
     0
176
     1
 90
       50
176
     1
 40
0.0
176
     1
 40
1.0
176
     1
 90
        0
176
     1
 62
    18
420
        0
176
     1
 90
       50
176
     1
 90
        3
176
     1
 62
     5
420
      255
176
     1
290
     0
176
     1
 90
       50
176
     1
 90
       50
176
     1
 90
       50
176
     1
290
     0
176
     1
 90
       50
176
     1
 62
   256
176
     0
 40
1.0
176
     0
 90
        2
176
     1
  1
strokes_ogs.tif
176
     1
290
     0
176
     1
 40
1.0
176
     1
 40
1.0
176
     1
  0
VISUALSTYLE
  5
651B
102
{ACAD_REACTORS
330
C74
102
}
330
C74
100
AcDbVisualStyle
  2
Wireframe
 70
     5
177
     3
291
     0
 70
    58
 90
        0
176
     1
 90
        2
176
     1
 90
        0
176
     1
 90
        0
176
     1
 40
0.6
176
     1
 40
30.0
176
     1
 62
     7
420
 16777215
176
     1
 90
        1
176
     1
 90
        4
176
     1
 62
     7
176
     1
 62
   257
176
     1
 90
        1
176
     1
 90
        1
176
     1
 40
1.0
176
     1
 90
        0
176
     1
 62
   257
176
     1
 40
1.0
176
     1
 90
        1
176
     1
 90
        6
176
     1
 90
        2
176
     1
 62
     7
176
     1
 90
        3
176
     1
 90
        0
176
     1
 90
        0
176
     1
290
     0
176
     1
 90
        1
176
     1
 40
0.0
176
     1
 90
        0
176
     1
290
     0
176
     1
290
     1
176
     1
290
     1
176
     1
290
     0
176
     1
290
     0
176
     1
290
     0
176
     1
290
     0
176
     1
290
     0
176
     1
290
     0
176
     1
 90
       50
176
     1
 40
0.0
176
     1
 40
1.0
176
     1
 90
        0
176
     1
 62
    18
420
        0
176
     1
 90
       50
176
     1
 90
        3
176
     1
 62
     5
420
      255
176
     1
290
     0
176
     1
 90
       50
176
     1
 90
       50
176
     1
 90
       50
176
     1
290
     0
176
     1
 90
       50
176
     1
 62
   256
176
     0
 40
1.0
176
     0
 90
        2
176
     1
  1
strokes_ogs.tif
176
     1
290
     0
176
     1
 40
1.0
176
     1
 40
1.0
176
     1
  0
VISUALSTYLE
  5
651F
102
{ACAD_REACTORS
330
C74
102
}
330
C74
100
AcDbVisualStyle
  2
X-Ray
 70
    25
177
     3
291
     0
 70
    58
 90
        2
176
     1
 90
        2
176
     1
 90
        1
176
     1
 90
        1
176
     1
 40
0.5
176
     1
 40
30.0
176
     1
 62
     7
420
 16777215
176
     1
 90
        1
176
     1
 90
        0
176
     1
 62
     7
176
     1
 62
   257
176
     1
 90
        1
176
     1
 90
        1
176
     1
 40
1.0
176
     1
 90
        8
176
     1
 62
     7
176
     1
 40
1.0
176
     1
 90
        1
176
     1
 90
        6
176
     1
 90
        2
176
     1
 62
     7
176
     1
 90
        3
176
     1
 90
        0
176
     1
 90
        0
176
     1
290
     0
176
     1
 90
       13
176
     1
 40
0.0
176
     1
 90
        0
176
     1
290
     0
176
     1
290
     1
176
     1
290
     1
176
     1
290
     0
176
     1
290
     0
176
     1
290
     0
176
     1
290
     0
176
     1
290
     0
176
     1
290
     0
176
     1
 90
       50
176
     1
 40
0.0
176
     1
 40
1.0
176
     1
 90
        0
176
     1
 62
    18
420
        0
176
     1
 90
       50
176
     1
 90
        3
176
     1
 62
     5
420
      255
176
     1
290
     0
176
     1
 90
       50
176
     1
 90
       50
176
     1
 90
       50
176
     1
290
     0
176
     1
 90
       50
176
     1
 62
   256
176
     0
 40
1.0
176
     0
 90
        2
176
     1
  1
strokes_ogs.tif
176
     1
290
     0
176
     1
 40
1.0
176
     1
 40
1.0
176
     1
  0
DICTIONARYVAR
  5
656B
102
{ACAD_REACTORS
330
21E
102
}
330
21E
100
DictionaryVariables
280
     0
  1
1:1
  0
DICTIONARYVAR
  5
6567
102
{ACAD_REACTORS
330
21E
102
}
330
21E
100
DictionaryVariables
280
     0
  1
STANDARD
  0
DICTIONARYVAR
  5
E8E
102
{ACAD_REACTORS
330
21E
102
}
330
21E
100
DictionaryVariables
280
     0
  1
STANDARD
  0
DICTIONARYVAR
  5
6568
102
{ACAD_REACTORS
330
21E
102
}
330
21E
100
DictionaryVariables
280
     0
  1
Imperial24
  0
DICTIONARYVAR
  5
6569
102
{ACAD_REACTORS
330
21E
102
}
330
21E
100
DictionaryVariables
280
     0
  1
Imperial24
  0
DICTIONARYVAR
  5
21F
102
{ACAD_REACTORS
330
21E
102
}
330
21E
100
DictionaryVariables
280
     0
  1
1
  0
DICTIONARYVAR
  5
E90
102
{ACAD_REACTORS
330
21E
102
}
330
21E
100
DictionaryVariables
280
     0
  1
0
  0
DICTIONARYVAR
  5
656D
102
{ACAD_REACTORS
330
21E
102
}
330
21E
100
DictionaryVariables
280
     0
  1
1
  0
DICTIONARYVAR
  5
656E
102
{ACAD_REACTORS
330
21E
102
}
330
21E
100
DictionaryVariables
280
     0
  1
15
  0
DICTIONARYVAR
  5
656C
102
{ACAD_REACTORS
330
21E
102
}
330
21E
100
DictionaryVariables
280
     0
  1
0
  0
DICTIONARYVAR
  5
656A
102
{ACAD_REACTORS
330
21E
102
}
330
21E
100
DictionaryVariables
280
     0
  1
0
  0
DICTIONARYVAR
  5
220
102
{ACAD_REACTORS
330
21E
102
}
330
21E
100
DictionaryVariables
280
     0
  1

  0
DICTIONARYVAR
  5
E8F
102
{ACAD_REACTORS
330
21E
102
}
330
21E
100
DictionaryVariables
280
     0
  1
127
  0
DICTIONARY
  5
DCE0
330
C86
100
AcDbDictionary
280
     1
281
     1
  3
ACAD_ROUNDTRIP_2008_TABLESTYLE_CELLSTYLEMAP
360
DCE1
  0
CELLSTYLEMAP
  5
DCE1
102
{ACAD_REACTORS
330
DCE0
102
}
330
DCE0
100
AcDbCellStyleMap
 90
        3
300
CELLSTYLE
  1
TABLEFORMAT_BEGIN
 90
        5
170
     1
 91
        0
 92
    32768
 62
   257
 93
        1
300
CONTENTFORMAT
  1
CONTENTFORMAT_BEGIN
 90
        0
 91
        0
 92
      512
 93
        0
300

 40
0.0
140
1.0
 94
        5
 62
     0
340
16
144
0.25
309
CONTENTFORMAT_END
171
     0
 94
        6
 95
        1
302
GRIDFORMAT
  1
GRIDFORMAT_BEGIN
 90
        0
 91
        1
 62
     0
 92
       -2
340
0
 93
        0
 40
0.045
309
GRIDFORMAT_END
 95
        2
302
GRIDFORMAT
  1
GRIDFORMAT_BEGIN
 90
        0
 91
        1
 62
     0
 92
       -2
340
0
 93
        0
 40
0.045
309
GRIDFORMAT_END
 95
        4
302
GRIDFORMAT
  1
GRIDFORMAT_BEGIN
 90
        0
 91
        1
 62
     0
 92
       -2
340
0
 93
        0
 40
0.045
309
GRIDFORMAT_END
 95
        8
302
GRIDFORMAT
  1
GRIDFORMAT_BEGIN
 90
        0
 91
        1
 62
     0
 92
       -2
340
0
 93
        0
 40
0.045
309
GRIDFORMAT_END
 95
       16
302
GRIDFORMAT
  1
GRIDFORMAT_BEGIN
 90
        0
 91
        1
 62
     0
 92
       -2
340
0
 93
        0
 40
0.045
309
GRIDFORMAT_END
 95
       32
302
GRIDFORMAT
  1
GRIDFORMAT_BEGIN
 90
        0
 91
        1
 62
     0
 92
       -2
340
0
 93
        0
 40
0.045
309
GRIDFORMAT_END
309
TABLEFORMAT_END
  1
CELLSTYLE_BEGIN
 90
        1
 91
        1
300
_TITLE
309
CELLSTYLE_END
300
CELLSTYLE
  1
TABLEFORMAT_BEGIN
 90
        5
170
     1
 91
        0
 92
        0
 62
   257
 93
        1
300
CONTENTFORMAT
  1
CONTENTFORMAT_BEGIN
 90
        0
 91
        0
 92
      512
 93
        0
300

 40
0.0
140
1.0
 94
        5
 62
     0
340
16
144
0.18
309
CONTENTFORMAT_END
171
     0
 94
        6
 95
        1
302
GRIDFORMAT
  1
GRIDFORMAT_BEGIN
 90
        0
 91
        1
 62
     0
 92
       -2
340
0
 93
        0
 40
0.045
309
GRIDFORMAT_END
 95
        2
302
GRIDFORMAT
  1
GRIDFORMAT_BEGIN
 90
        0
 91
        1
 62
     0
 92
       -2
340
0
 93
        0
 40
0.045
309
GRIDFORMAT_END
 95
        4
302
GRIDFORMAT
  1
GRIDFORMAT_BEGIN
 90
        0
 91
        1
 62
     0
 92
       -2
340
0
 93
        0
 40
0.045
309
GRIDFORMAT_END
 95
        8
302
GRIDFORMAT
  1
GRIDFORMAT_BEGIN
 90
        0
 91
        1
 62
     0
 92
       -2
340
0
 93
        0
 40
0.045
309
GRIDFORMAT_END
 95
       16
302
GRIDFORMAT
  1
GRIDFORMAT_BEGIN
 90
        0
 91
        1
 62
     0
 92
       -2
340
0
 93
        0
 40
0.045
309
GRIDFORMAT_END
 95
       32
302
GRIDFORMAT
  1
GRIDFORMAT_BEGIN
 90
        0
 91
        1
 62
     0
 92
       -2
340
0
 93
        0
 40
0.045
309
GRIDFORMAT_END
309
TABLEFORMAT_END
  1
CELLSTYLE_BEGIN
 90
        2
 91
        1
300
_HEADER
309
CELLSTYLE_END
300
CELLSTYLE
  1
TABLEFORMAT_BEGIN
 90
        5
170
     1
 91
        0
 92
        0
 62
   257
 93
        1
300
CONTENTFORMAT
  1
CONTENTFORMAT_BEGIN
 90
        0
 91
        0
 92
      512
 93
        0
300

 40
0.0
140
1.0
 94
        2
 62
     0
340
16
144
0.18
309
CONTENTFORMAT_END
171
     0
 94
        6
 95
        1
302
GRIDFORMAT
  1
GRIDFORMAT_BEGIN
 90
        0
 91
        1
 62
     0
 92
       -2
340
0
 93
        0
 40
0.045
309
GRIDFORMAT_END
 95
        2
302
GRIDFORMAT
  1
GRIDFORMAT_BEGIN
 90
        0
 91
        1
 62
     0
 92
       -2
340
0
 93
        0
 40
0.045
309
GRIDFORMAT_END
 95
        4
302
GRIDFORMAT
  1
GRIDFORMAT_BEGIN
 90
        0
 91
        1
 62
     0
 92
       -2
340
0
 93
        0
 40
0.045
309
GRIDFORMAT_END
 95
        8
302
GRIDFORMAT
  1
GRIDFORMAT_BEGIN
 90
        0
 91
        1
 62
     0
 92
       -2
340
0
 93
        0
 40
0.045
309
GRIDFORMAT_END
 95
       16
302
GRIDFORMAT
  1
GRIDFORMAT_BEGIN
 90
        0
 91
        1
 62
     0
 92
       -2
340
0
 93
        0
 40
0.045
309
GRIDFORMAT_END
 95
       32
302
GRIDFORMAT
  1
GRIDFORMAT_BEGIN
 90
        0
 91
        1
 62
     0
 92
       -2
340
0
 93
        0
 40
0.045
309
GRIDFORMAT_END
309
TABLEFORMAT_END
  1
CELLSTYLE_BEGIN
 90
        3
 91
        2
300
_DATA
309
CELLSTYLE_END
  0
ENDSEC
  0
SECTION
  2
ACDSDATA
 70
     2
 71
     7
  0
ACDSSCHEMA
 90
        0
  1
AcDb_Thumbnail_Schema
  2
AcDbDs::ID
280
    10
 91
        8
  2
Thumbnail_Data
280
    15
 91
        0
101
ACDSRECORD
 95
        0
 90
        1
  2
AcDbDs::TreatedAsObjectData
280
     1
291
     1
101
ACDSRECORD
 95
        0
 90
        2
  2
AcDbDs::Legacy
280
     1
291
     1
101
ACDSRECORD
  1
AcDbDs::ID
 90
        3
  2
AcDs:Indexable
280
     1
291
     1
101
ACDSRECORD
  1
AcDbDs::ID
 90
        4
  2
AcDbDs::HandleAttribute
280
     7
282
     1
  0
ACDSSCHEMA
 90
        1
  1
AcDbDs::TreatedAsObjectDataSchema
  2
AcDbDs::TreatedAsObjectData
280
     1
 91
        0
  0
ACDSSCHEMA
 90
        2
  1
AcDbDs::LegacySchema
  2
AcDbDs::Legacy
280
     1
 91
        0
  0
ACDSSCHEMA
 90
        3
  1
AcDbDs::IndexedPropertySchema
  2
AcDs:Indexable
280
     1
 91
        0
  0
ACDSSCHEMA
 90
        4
  1
AcDbDs::HandleAttributeSchema
  2
AcDbDs::HandleAttribute
280
     7
 91
        1
284
     1
  0
ACDSRECORD
 90
        0
  2
AcDbDs::ID
280
    10
320
C
  2
Thumbnail_Data
280
    15
 94
     3055
310
89504E470D0A1A0A0000000D4948445200000100000000790803000000E1F60FE900000300504C5445000000000000C8C8C80000000000000000000000000000000000000000000000000000330000660000990000CC0000FF0033000033330033660033990033CC0033FF0066000066330066660066990066CC0066FF0099
310
000099330099660099990099CC0099FF00CC0000CC3300CC6600CC9900CCCC00CCFF00FF0000FF3300FF6600FF9900FFCC00FFFF3300003300333300663300993300CC3300FF3333003333333333663333993333CC3333FF3366003366333366663366993366CC3366FF3399003399333399663399993399CC3399FF33CC00
310
33CC3333CC6633CC9933CCCC33CCFF33FF0033FF3333FF6633FF9933FFCC33FFFF6600006600336600666600996600CC6600FF6633006633336633666633996633CC6633FF6666006666336666666666996666CC6666FF6699006699336699666699996699CC6699FF66CC0066CC3366CC6666CC9966CCCC66CCFF66FF0066
310
FF3366FF6666FF9966FFCC66FFFF9900009900339900669900999900CC9900FF9933009933339933669933999933CC9933FF9966009966339966669966999966CC9966FF9999009999339999669999999999CC9999FF99CC0099CC3399CC6699CC9999CCCC99CCFF99FF0099FF3399FF6699FF9999FFCC99FFFFCC0000CC00
310
33CC0066CC0099CC00CCCC00FFCC3300CC3333CC3366CC3399CC33CCCC33FFCC6600CC6633CC6666CC6699CC66CCCC66FFCC9900CC9933CC9966CC9999CC99CCCC99FFCCCC00CCCC33CCCC66CCCC99CCCCCCCCCCFFCCFF00CCFF33CCFF66CCFF99CCFFCCCCFFFFFF0000FF0033FF0066FF0099FF00CCFF00FFFF3300FF3333
310
FF3366FF3399FF33CCFF33FFFF6600FF6633FF6666FF6699FF66CCFF66FFFF9900FF9933FF9966FF9999FF99CCFF99FFFFCC00FFCC33FFCC66FFCC99FFCCCCFFCCFFFFFF00FFFF33FFFF66FFFF99FFFFCCFFFFFF0000000D0D0D1A1A1A2828283535354343435050505D5D5D6B6B6B787878868686939393A1A1A1AEAEAEBB
310
BBBBC9C9C9D6D6D6E4E4E4F1F1F1FFFFFF00000000000000000000000000000000000000000000000000000000000008F1915C0000038D4944415478DAED9D4DB6EB200880D990FB9FDD3575C2FCF5BE1B153418F38F82839CF434B1F21510891A80DE824315B8BEDC51E76DC501380007E0001C8003B8BECEC0CA6A079CBF
310
9E1200C4C31219E593DF731681980040CE228B287E7000C601D8300132F8A84621B302C8BA8D367B010600C471A819005C15589860C209628A07F2C1541CC0CCC02400209DC0EF3506014014DF2200CC00C010806A38982E30A601CBD101380007E0001C800370000EC001500026F2010EC04DC001380007E0005852D42C80
310
9816B76A02CBC14DC0360030ED033A01DC1121AFD5A90E40A80AAB9A3F56DD21B954E7F326005B00CAC6F3AA51FAAA0940FEAC0E004C0F008D0388B32444536E0140DEE26101547FA50370007D8DC5CFB79805F037989EC2091E0090A65B1F8A15870790A7DAC24000C83CC12E00D2DA022013CAB01934CA00CA49AA3A0144
310
5D97D73696721C5D2C793F80FFB21F02402F5A5C1F4A8DEDD680948C5CE230CD1A504E26E7F32B4F03A86A520880F679884403CE00E023906700ECED0542FD9FF12B4F00A8EA1A09005D6E72D409CABFAA13403453BEC4E49C09A426680780C056D5E155264000A06A1F40831FB9236F2CC86C6C9490B4E9F584489DA2ACB2
310
9FB4FB929C40FFCE1029AA7CDD074829B1750095149D26B066EA5A00C00900705C03D40310BBC122259A85904683F9E1834A00F28391DD1A1086D48053007002007819808D6E5033006C012083216997236CF502280F87F2FACDD700A4B9110D00649705B80C4011566BD680C44A6E5BDB09B4F262AF8F05B241B635803C43
310
6B85C21DE93FEE335FD7806D002479D39645B8A071D30FCD8C6904502E310CD558AED56F6C86C75F0001356B4025DCB500BE1A90BE0C6601A04200C2FC80B0B205C919003F4B191240D5586B1A204540FB9DE0A03E002F0230AA13AC9F0E07391FD00000E302007AAB4D0009011E3781C101A47CBA5D00DFBB3E9F0F9A0640
310
6B770036018CE503AA7D554F0288B70DA70129C1D3B191D2AC00B077D5581BC0E63E7C5A010042E76E724D009B522A06C065370880F9023C6802830380F51D356705B0B2A76879555F42641200BDBBCA86BF39B68566149FFA005455C456BDD20D8ABB0A878D85936BA50160E7FDFA76967E6225F11B4EB0F406B8E1037648
310
131CC0D800E0800F385B9E06100CBE6162EB2523B3EF2DCE4C348BC8CEDE95DC013C07E0483C331100E6E588CC1AA47700CF00D0ABFFE0EF1A73000EC02400E2838C6AC0CD00E67CEFF03F34A1F52931246E480000000049454E44AE426082608282D45AB1C252C759418070FB0FDF4B78C8CA5D34156E14C0B4082016CF5F
310
FA560910A7B3E9B518D910403E0486585B640B4367F21080B422A7BF2D4BE2F8E02E46A7BB0D6D1F6B199B8917597E1174E52EF20C1D1EB5F44674B998F03235DDDA5E6E5968631168B9AB4C5386DE892F0B9840801A2B1180B0D17C885B5C632C89EB994D667CCAD9F038D4C206F75D2C779300E7A1BF24A1060162FACD02
310
24BFA731D936672BEEAD6C1C634900193B22405EEE62DB5CF2E3403109EE1A93B3D0261EB27297FCA264BAB8817C4984BAC64A2C7216085B104F50EE17D9E6F8DBE19DB6B9ECF578A3F32B7B3DDEE23863B6B92DAEB1826D4EBEB23BFCBBC2CDFB12D436A7B6B91902B4C6F54C32CCB6E6EF2F202F15406D731A1A1A1A1A1A
310
1A1A1A1A1A1F1CFF00FB94E4F4EF7E04CD0000000049454E44AE4260825587C281B5C3FF7653D5FF00B12E573BDDCA1B350000000049454E44AE426082706899C962F66D12B9E1EB4C530EC54D7C5F079E00B079E32A00A0630071B95B364C517C3100AA012C7B012418275C6302C03FF06C38F60D560072C3B70160FB803E
310
00CC3E76CA3526BF5025353CCB3607F96CA30D807DC750659B73DF0DA0FC42C51600E601AC6D73EE1880341096B639EF8E0030F1B5B6B963F71A3DB7CDD5E27C547B36D86CB8E5B99BF37054B7CDB53E3C6B9B6B89CFB9C65A5A5CF2B5BAAFD9E6C262DD6C73BDB63932DB9CD9E6CC36F77DB6B9AD3638A41D135B58585858
310
58585858585858585858585834E23F1B4059B849F368280000000049454E44AE42608200725E0FDCA7CF8B005A1539775806D0A818F600601BA5494D13C9D3150056450600B50C8A2A4F03A03501D601F02AB3005895C701FC43003D0056650280AC6273347633043800B72ACD10500360556C0E470500F53E1DF60F470500
310
A28A5C3F80190254E689F479E0FF6CE040FD004945533F80F7805551F5809CF75DD40FA81BEDD70F70AE2E0E305A85408810497FCB74C897AEFD0734ADA141FA0FDACD0000000049454E44AE4260826A755807B05321BD10408AD02280ED6970F5C42E3EB8E897E9E94900143E300DD02BC8A5522A1AD4AEA90C610B60EBFC
310
B68A99B25CCE91717C701660CD291F04D0EC5A69CF67618029C5EBA0025405FB2500B17E1A4E83B9548A1703E026B0773ECAB22EAD779D43ADF1F5A0091CE9B7143BB03ED520A1EC5B3A62023138ABF1910680A708DA04306D0EE31AC0B45EF80039FE0F00A065AAF7631FC0CAFAA4F7CC0474003C7CE8C7D69B800AC098E1
310
5AE1560006BB3631119C9B1353D8AF44F1B5D799008DDFAB33821701289648A44DD10D0A5E1B72BCB9546DADFE2F00869D084A63BA1FDCD83D00972BC08500FAB0F2F8F9F583DB002E96AA82574482FF050053813B5BC4AF0D853500C36178B0C785CDAA5AB96F7CD8EA27C7C473A9B684DC10AB33DE06E00401A026B7E146
310
1A5EE0D83D0CF158B830BDCF4EBB0AC05E38B66AC0D6E56A7E30FC63AC0600C41F1BC1E632CDC1DA936C293700973BC1FDF34F6900FFF23F3FFFFCFC0C0148DCB62A223B0ED6AD3F5903AC68B3BC1CC096096C11C8B3A785F05400F889D246DAD005FA0480D71B32052805D65588DFC500764D00F634000A030960CB04BA5F
310
68D5AF02F49E2D7F65F36A13D817F9E77E725D8F1F89AFD33F7FF52C40EF593A03B6D66D07016C8B993265CA942953A64C993265CA9429536E91B92E95A3FEBB2B73D152FC1733135E28C5043001FC1DA13CEBDF0590D3BD725EF85B00FE742800030068A64C993265CA942953A6DC27FF02EB5F9BED4E895F5A0000000049
310
454E44AE426082
  0
ENDSEC
  0
EOF
