  0
SECTION
  2
HEADER
  9
$ACADVER
  1
AC1015
  9
$ACADMAINTVER
 70
    10
  9
$DWGCODEPAGE
  3
ANSI_932
  9
$INSBASE
 10
0.0
 20
0.0
 30
0.0
  9
$EXTMIN
 10
0.0
 20
0.0
 30
0.0
  9
$EXTMAX
 10
395.0
 20
275.0
 30
0.0
  9
$LIMMIN
 10
0.0
 20
0.0
  9
$LIMMAX
 10
395.0
 20
275.0
  9
$ORTHOMODE
 70
     0
  9
$REGENMODE
 70
     0
  9
$FILLMODE
 70
     1
  9
$QTEXTMODE
 70
     0
  9
$MIRRTEXT
 70
     1
  9
$LTSCALE
 40
5.0
  9
$ATTMODE
 70
     1
  9
$TEXTSIZE
 40
3.0
  9
$TRACEWID
 40
0.05
  9
$TEXTSTYLE
  7
STD
  9
$CLAYER
  8
0
  9
$CELTYPE
  6
BYLAYER
  9
$CECOLOR
 62
   256
  9
$CELTSCALE
 40
1.0
  9
$DISPSILH
 70
     0
  9
$DIMSCALE
 40
1.0
  9
$DIMASZ
 40
0.8
  9
$DIMEXO
 40
1.5
  9
$DIMDLI
 40
3.0
  9
$DIMRND
 40
0.0
  9
$DIMDLE
 40
0.0
  9
$DIMEXE
 40
1.199999999999999
  9
$DIMTP
 40
0.0
  9
$DIMTM
 40
0.0
  9
$DIMTXT
 40
3.0
  9
$DIMCEN
 40
0.0
  9
$DIMTSZ
 40
0.0
  9
$DIMTOL
 70
     0
  9
$DIMLIM
 70
     0
  9
$DIMTIH
 70
     0
  9
$DIMTOH
 70
     0
  9
$DIMSE1
 70
     0
  9
$DIMSE2
 70
     0
  9
$DIMTAD
 70
     1
  9
$DIMZIN
 70
     8
  9
$DIMBLK
  1

  9
$DIMASO
 70
     1
  9
$DIMSHO
 70
     1
  9
$DIMPOST
  1

  9
$DIMAPOST
  1

  9
$DIMALT
 70
     0
  9
$DIMALTD
 70
     1
  9
$DIMALTF
 40
0.03937
  9
$DIMLFAC
 40
1.0
  9
$DIMTOFL
 70
     1
  9
$DIMTVP
 40
0.0
  9
$DIMTIX
 70
     0
  9
$DIMSOXD
 70
     0
  9
$DIMSAH
 70
     1
  9
$DIMBLK1
  1
DOT
  9
$DIMBLK2
  1
DOT
  9
$DIMSTYLE
  2
1
  9
$DIMCLRD
 70
   256
  9
$DIMCLRE
 70
   256
  9
$DIMCLRT
 70
   256
  9
$DIMTFAC
 40
1.0
  9
$DIMGAP
 40
1.0
  9
$DIMJUST
 70
     0
  9
$DIMSD1
 70
     0
  9
$DIMSD2
 70
     0
  9
$DIMTOLJ
 70
     1
  9
$DIMTZIN
 70
     8
  9
$DIMALTZ
 70
     0
  9
$DIMALTTZ
 70
     0
  9
$DIMUPT
 70
     0
  9
$DIMDEC
 70
     2
  9
$DIMTDEC
 70
     2
  9
$DIMALTU
 70
     2
  9
$DIMALTTD
 70
     1
  9
$DIMTXSTY
  7
STANDARD
  9
$DIMAUNIT
 70
     0
  9
$DIMADEC
 70
     2
  9
$DIMALTRND
 40
0.0
  9
$DIMAZIN
 70
     2
  9
$DIMDSEP
 70
    46
  9
$DIMATFIT
 70
     2
  9
$DIMFRAC
 70
     0
  9
$DIMLDRBLK
  1
DOT
  9
$DIMLUNIT
 70
     2
  9
$DIMLWD
 70
    -1
  9
$DIMLWE
 70
    -1
  9
$DIMTMOVE
 70
     0
  9
$LUNITS
 70
     2
  9
$LUPREC
 70
     8
  9
$SKETCHINC
 40
0.1
  9
$FILLETRAD
 40
0.5
  9
$AUNITS
 70
     0
  9
$AUPREC
 70
     8
  9
$MENU
  1
ACAD
  9
$ELEVATION
 40
0.0
  9
$PELEVATION
 40
0.0
  9
$THICKNESS
 40
0.0
  9
$LIMCHECK
 70
     0
  9
$CHAMFERA
 40
0.0
  9
$CHAMFERB
 40
0.0
  9
$CHAMFERC
 40
0.0
  9
$CHAMFERD
 40
0.0
  9
$SKPOLY
 70
     0
  9
$TDCREATE
 40
2450991.630578704
  9
$TDUCREATE
 40
2450991.255578704
  9
$TDUPDATE
 40
2453595.505684676
  9
$TDUUPDATE
 40
2453595.130684676
  9
$TDINDWG
 40
11.7156143519
  9
$TDUSRTIMER
 40
11.7156143519
  9
$USRTIMER
 70
     1
  9
$ANGBASE
 50
0.0
  9
$ANGDIR
 70
     0
  9
$PDMODE
 70
     0
  9
$PDSIZE
 40
0.0
  9
$PLINEWID
 40
0.0
  9
$SPLFRAME
 70
     0
  9
$SPLINETYPE
 70
     6
  9
$SPLINESEGS
 70
     8
  9
$HANDSEED
  5
5866
  9
$SURFTAB1
 70
     6
  9
$SURFTAB2
 70
     6
  9
$SURFTYPE
 70
     6
  9
$SURFU
 70
     6
  9
$SURFV
 70
     6
  9
$UCSBASE
  2

  9
$UCSNAME
  2

  9
$UCSORG
 10
0.0
 20
0.0
 30
0.0
  9
$UCSXDIR
 10
1.0
 20
0.0
 30
0.0
  9
$UCSYDIR
 10
0.0
 20
1.0
 30
0.0
  9
$UCSORTHOREF
  2

  9
$UCSORTHOVIEW
 70
     0
  9
$UCSORGTOP
 10
0.0
 20
0.0
 30
0.0
  9
$UCSORGBOTTOM
 10
0.0
 20
0.0
 30
0.0
  9
$UCSORGLEFT
 10
0.0
 20
0.0
 30
0.0
  9
$UCSORGRIGHT
 10
0.0
 20
0.0
 30
0.0
  9
$UCSORGFRONT
 10
0.0
 20
0.0
 30
0.0
  9
$UCSORGBACK
 10
0.0
 20
0.0
 30
0.0
  9
$PUCSBASE
  2

  9
$PUCSNAME
  2

  9
$PUCSORG
 10
0.0
 20
0.0
 30
0.0
  9
$PUCSXDIR
 10
1.0
 20
0.0
 30
0.0
  9
$PUCSYDIR
 10
0.0
 20
1.0
 30
0.0
  9
$PUCSORTHOREF
  2

  9
$PUCSORTHOVIEW
 70
     0
  9
$PUCSORGTOP
 10
0.0
 20
0.0
 30
0.0
  9
$PUCSORGBOTTOM
 10
0.0
 20
0.0
 30
0.0
  9
$PUCSORGLEFT
 10
0.0
 20
0.0
 30
0.0
  9
$PUCSORGRIGHT
 10
0.0
 20
0.0
 30
0.0
  9
$PUCSORGFRONT
 10
0.0
 20
0.0
 30
0.0
  9
$PUCSORGBACK
 10
0.0
 20
0.0
 30
0.0
  9
$USERI1
 70
     0
  9
$USERI2
 70
     0
  9
$USERI3
 70
     1
  9
$USERI4
 70
     0
  9
$USERI5
 70
    15
  9
$USERR1
 40
0.0
  9
$USERR2
 40
0.0
  9
$USERR3
 40
0.0
  9
$USERR4
 40
0.0
  9
$USERR5
 40
0.0
  9
$WORLDVIEW
 70
     1
  9
$SHADEDGE
 70
     3
  9
$SHADEDIF
 70
    70
  9
$TILEMODE
 70
     1
  9
$MAXACTVP
 70
    16
  9
$PINSBASE
 10
0.0
 20
0.0
 30
0.0
  9
$PLIMCHECK
 70
     0
  9
$PEXTMIN
 10
1.000000000000000E+20
 20
1.000000000000000E+20
 30
1.000000000000000E+20
  9
$PEXTMAX
 10
-1.000000000000000E+20
 20
-1.000000000000000E+20
 30
-1.000000000000000E+20
  9
$PLIMMIN
 10
0.0
 20
0.0
  9
$PLIMMAX
 10
12.0
 20
9.0
  9
$UNITMODE
 70
     0
  9
$VISRETAIN
 70
     0
  9
$PLINEGEN
 70
     0
  9
$PSLTSCALE
 70
     0
  9
$TREEDEPTH
 70
  3020
  9
$CMLSTYLE
  2
STANDARD
  9
$CMLJUST
 70
     0
  9
$CMLSCALE
 40
1.0
  9
$PROXYGRAPHICS
 70
     1
  9
$MEASUREMENT
 70
     0
  9
$CELWEIGHT
370
    -1
  9
$ENDCAPS
280
     0
  9
$JOINSTYLE
280
     0
  9
$LWDISPLAY
290
     0
  9
$INSUNITS
 70
     0
  9
$HYPERLINKBASE
  1

  9
$STYLESHEET
  1
aclt.ctb
  9
$XEDIT
290
     1
  9
$CEPSNTYPE
380
     0
  9
$PSTYLEMODE
290
     1
  9
$FINGERPRINTGUID
  2
{7DC9BDA7-AE70-42B4-93E2-7922A45B66AB}
  9
$VERSIONGUID
  2
{B4EDA232-2643-4F09-A3B2-7846309E747F}
  9
$EXTNAMES
290
     1
  9
$PSVPSCALE
 40
0.0
  9
$OLESTARTUP
290
     0
  0
ENDSEC
  0
SECTION
  2
CLASSES
  0
CLASS
  1
LWPOLYLINE
  2
AcDbPolyline
  3
AutoCAD 2000
 90
    32768
280
     0
281
     1
  0
CLASS
  1
XRECORD
  2
AcDbXrecord
  3
AutoCAD 2000
 90
    32768
280
     0
281
     0
  0
CLASS
  1
HATCH
  2
AcDbHatch
  3
AutoCAD 2000
 90
    32768
280
     0
281
     1
  0
CLASS
  1
DICTIONARYVAR
  2
AcDbDictionaryVar
  3
AutoCAD 2000
 90
        0
280
     0
281
     0
  0
CLASS
  1
ACDBDICTIONARYWDFLT
  2
AcDbDictionaryWithDefault
  3
AutoCAD 2000
 90
        0
280
     0
281
     0
  0
CLASS
  1
ACDBPLACEHOLDER
  2
AcDbPlaceHolder
  3
AutoCAD 2000
 90
        0
280
     0
281
     0
  0
CLASS
  1
LAYOUT
  2
AcDbLayout
  3
AutoCAD 2000
 90
        0
280
     0
281
     0
  0
CLASS
  1
LONG_TRANSACTION
  2
AcDbLongTransaction
  3
AutoCAD 2000
 90
    32768
280
     0
281
     0
  0
CLASS
  1
LWPOLYLINE
  2
AcDbPolyline
  3
AutoCAD 2000
 90
    32768
280
     0
281
     1
  0
CLASS
  1
HATCH
  2
AcDbHatch
  3
AutoCAD 2000
 90
    32768
280
     0
281
     1
  0
CLASS
  1
XRECORD
  2
AcDbXrecord
  3
AutoCAD 2000
 90
    32768
280
     0
281
     0
  0
CLASS
  1
LONG_TRANSACTION
  2
AcDbLongTransaction
  3
AutoCAD 2000
 90
    32768
280
     0
281
     0
  0
CLASS
  1
LWPOLYLINE
  2
AcDbPolyline
  3
AutoCAD 2000
 90
    32768
280
     0
281
     1
  0
CLASS
  1
HATCH
  2
AcDbHatch
  3
AutoCAD 2000
 90
    32768
280
     0
281
     1
  0
CLASS
  1
XRECORD
  2
AcDbXrecord
  3
AutoCAD 2000
 90
    32768
280
     0
281
     0
  0
CLASS
  1
LONG_TRANSACTION
  2
AcDbLongTransaction
  3
AutoCAD 2000
 90
    32768
280
     0
281
     0
  0
CLASS
  1
LWPOLYLINE
  2
AcDbPolyline
  3
AutoCAD 2000
 90
    32768
280
     0
281
     1
  0
CLASS
  1
HATCH
  2
AcDbHatch
  3
AutoCAD 2000
 90
    32768
280
     0
281
     1
  0
CLASS
  1
XRECORD
  2
AcDbXrecord
  3
AutoCAD 2000
 90
    32768
280
     0
281
     0
  0
CLASS
  1
LONG_TRANSACTION
  2
AcDbLongTransaction
  3
AutoCAD 2000
 90
    32768
280
     0
281
     0
  0
CLASS
  1
LWPOLYLINE
  2
AcDbPolyline
  3
AutoCAD 2000
 90
    32768
280
     0
281
     1
  0
CLASS
  1
HATCH
  2
AcDbHatch
  3
AutoCAD 2000
 90
    32768
280
     0
281
     1
  0
CLASS
  1
XRECORD
  2
AcDbXrecord
  3
AutoCAD 2000
 90
    32768
280
     0
281
     0
  0
CLASS
  1
LONG_TRANSACTION
  2
AcDbLongTransaction
  3
AutoCAD 2000
 90
    32768
280
     0
281
     0
  0
CLASS
  1
LWPOLYLINE
  2
AcDbPolyline
  3
AutoCAD 2000
 90
    32768
280
     0
281
     1
  0
CLASS
  1
HATCH
  2
AcDbHatch
  3
AutoCAD 2000
 90
    32768
280
     0
281
     1
  0
CLASS
  1
XRECORD
  2
AcDbXrecord
  3
AutoCAD 2000
 90
    32768
280
     0
281
     0
  0
CLASS
  1
LONG_TRANSACTION
  2
AcDbLongTransaction
  3
AutoCAD 2000
 90
    32768
280
     0
281
     0
  0
CLASS
  1
LWPOLYLINE
  2
AcDbPolyline
  3
AutoCAD 2000
 90
    32768
280
     0
281
     1
  0
CLASS
  1
HATCH
  2
AcDbHatch
  3
AutoCAD 2000
 90
    32768
280
     0
281
     1
  0
CLASS
  1
XRECORD
  2
AcDbXrecord
  3
AutoCAD 2000
 90
    32768
280
     0
281
     0
  0
CLASS
  1
LONG_TRANSACTION
  2
AcDbLongTransaction
  3
AutoCAD 2000
 90
    32768
280
     0
281
     0
  0
CLASS
  1
LWPOLYLINE
  2
AcDbPolyline
  3
AutoCAD 2000
 90
    32768
280
     0
281
     1
  0
CLASS
  1
HATCH
  2
AcDbHatch
  3
AutoCAD 2000
 90
    32768
280
     0
281
     1
  0
CLASS
  1
XRECORD
  2
AcDbXrecord
  3
AutoCAD 2000
 90
    32768
280
     0
281
     0
  0
CLASS
  1
LONG_TRANSACTION
  2
AcDbLongTransaction
  3
AutoCAD 2000
 90
    32768
280
     0
281
     0
  0
CLASS
  1
LWPOLYLINE
  2
AcDbPolyline
  3
AutoCAD 2000
 90
    32768
280
     0
281
     1
  0
CLASS
  1
HATCH
  2
AcDbHatch
  3
AutoCAD 2000
 90
    32768
280
     0
281
     1
  0
CLASS
  1
XRECORD
  2
AcDbXrecord
  3
AutoCAD 2000
 90
    32768
280
     0
281
     0
  0
CLASS
  1
LONG_TRANSACTION
  2
AcDbLongTransaction
  3
AutoCAD 2000
 90
    32768
280
     0
281
     0
  0
CLASS
  1
LWPOLYLINE
  2
AcDbPolyline
  3
AutoCAD 2000
 90
    32768
280
     0
281
     1
  0
CLASS
  1
HATCH
  2
AcDbHatch
  3
AutoCAD 2000
 90
    32768
280
     0
281
     1
  0
CLASS
  1
XRECORD
  2
AcDbXrecord
  3
AutoCAD 2000
 90
    32768
280
     0
281
     0
  0
CLASS
  1
LONG_TRANSACTION
  2
AcDbLongTransaction
  3
AutoCAD 2000
 90
    32768
280
     0
281
     0
  0
CLASS
  1
LWPOLYLINE
  2
AcDbPolyline
  3
AutoCAD 2000
 90
    32768
280
     0
281
     1
  0
CLASS
  1
HATCH
  2
AcDbHatch
  3
AutoCAD 2000
 90
    32768
280
     0
281
     1
  0
CLASS
  1
XRECORD
  2
AcDbXrecord
  3
AutoCAD 2000
 90
    32768
280
     0
281
     0
  0
CLASS
  1
LONG_TRANSACTION
  2
AcDbLongTransaction
  3
AutoCAD 2000
 90
    32768
280
     0
281
     0
  0
CLASS
  1
LWPOLYLINE
  2
AcDbPolyline
  3
AutoCAD 2000
 90
    32768
280
     0
281
     1
  0
CLASS
  1
HATCH
  2
AcDbHatch
  3
AutoCAD 2000
 90
    32768
280
     0
281
     1
  0
CLASS
  1
XRECORD
  2
AcDbXrecord
  3
AutoCAD 2000
 90
    32768
280
     0
281
     0
  0
CLASS
  1
LONG_TRANSACTION
  2
AcDbLongTransaction
  3
AutoCAD 2000
 90
    32768
280
     0
281
     0
  0
CLASS
  1
LWPOLYLINE
  2
AcDbPolyline
  3
AutoCAD 2000
 90
    32768
280
     0
281
     1
  0
CLASS
  1
HATCH
  2
AcDbHatch
  3
AutoCAD 2000
 90
    32768
280
     0
281
     1
  0
CLASS
  1
XRECORD
  2
AcDbXrecord
  3
AutoCAD 2000
 90
    32768
280
     0
281
     0
  0
CLASS
  1
LONG_TRANSACTION
  2
AcDbLongTransaction
  3
AutoCAD 2000
 90
    32768
280
     0
281
     0
  0
CLASS
  1
LWPOLYLINE
  2
AcDbPolyline
  3
AutoCAD 2000
 90
    32768
280
     0
281
     1
  0
CLASS
  1
HATCH
  2
AcDbHatch
  3
AutoCAD 2000
 90
    32768
280
     0
281
     1
  0
CLASS
  1
XRECORD
  2
AcDbXrecord
  3
AutoCAD 2000
 90
    32768
280
     0
281
     0
  0
CLASS
  1
LONG_TRANSACTION
  2
AcDbLongTransaction
  3
AutoCAD 2000
 90
    32768
280
     0
281
     0
  0
CLASS
  1
LWPOLYLINE
  2
AcDbPolyline
  3
AutoCAD 2000
 90
    32768
280
     0
281
     1
  0
CLASS
  1
HATCH
  2
AcDbHatch
  3
AutoCAD 2000
 90
    32768
280
     0
281
     1
  0
CLASS
  1
XRECORD
  2
AcDbXrecord
  3
AutoCAD 2000
 90
    32768
280
     0
281
     0
  0
CLASS
  1
LONG_TRANSACTION
  2
AcDbLongTransaction
  3
AutoCAD 2000
 90
    32768
280
     0
281
     0
  0
CLASS
  1
LWPOLYLINE
  2
AcDbPolyline
  3
AutoCAD 2000
 90
    32768
280
     0
281
     1
  0
CLASS
  1
HATCH
  2
AcDbHatch
  3
AutoCAD 2000
 90
    32768
280
     0
281
     1
  0
CLASS
  1
XRECORD
  2
AcDbXrecord
  3
AutoCAD 2000
 90
    32768
280
     0
281
     0
  0
CLASS
  1
LONG_TRANSACTION
  2
AcDbLongTransaction
  3
AutoCAD 2000
 90
    32768
280
     0
281
     0
  0
CLASS
  1
LWPOLYLINE
  2
AcDbPolyline
  3
AutoCAD 2000
 90
    32768
280
     0
281
     1
  0
CLASS
  1
HATCH
  2
AcDbHatch
  3
AutoCAD 2000
 90
    32768
280
     0
281
     1
  0
CLASS
  1
XRECORD
  2
AcDbXrecord
  3
AutoCAD 2000
 90
    32768
280
     0
281
     0
  0
CLASS
  1
LONG_TRANSACTION
  2
AcDbLongTransaction
  3
AutoCAD 2000
 90
    32768
280
     0
281
     0
  0
CLASS
  1
LWPOLYLINE
  2
AcDbPolyline
  3
AutoCAD 2000
 90
    32768
280
     0
281
     1
  0
CLASS
  1
HATCH
  2
AcDbHatch
  3
AutoCAD 2000
 90
    32768
280
     0
281
     1
  0
CLASS
  1
XRECORD
  2
AcDbXrecord
  3
AutoCAD 2000
 90
    32768
280
     0
281
     0
  0
CLASS
  1
LONG_TRANSACTION
  2
AcDbLongTransaction
  3
AutoCAD 2000
 90
    32768
280
     0
281
     0
  0
CLASS
  1
LWPOLYLINE
  2
AcDbPolyline
  3
AutoCAD 2000
 90
    32768
280
     0
281
     1
  0
CLASS
  1
HATCH
  2
AcDbHatch
  3
AutoCAD 2000
 90
    32768
280
     0
281
     1
  0
CLASS
  1
XRECORD
  2
AcDbXrecord
  3
AutoCAD 2000
 90
    32768
280
     0
281
     0
  0
CLASS
  1
LONG_TRANSACTION
  2
AcDbLongTransaction
  3
AutoCAD 2000
 90
    32768
280
     0
281
     0
  0
CLASS
  1
LWPOLYLINE
  2
AcDbPolyline
  3
AutoCAD 2000
 90
    32768
280
     0
281
     1
  0
CLASS
  1
HATCH
  2
AcDbHatch
  3
AutoCAD 2000
 90
    32768
280
     0
281
     1
  0
CLASS
  1
XRECORD
  2
AcDbXrecord
  3
AutoCAD 2000
 90
    32768
280
     0
281
     0
  0
CLASS
  1
LONG_TRANSACTION
  2
AcDbLongTransaction
  3
AutoCAD 2000
 90
    32768
280
     0
281
     0
  0
CLASS
  1
LWPOLYLINE
  2
AcDbPolyline
  3
AutoCAD 2000
 90
    32768
280
     0
281
     1
  0
CLASS
  1
HATCH
  2
AcDbHatch
  3
AutoCAD 2000
 90
    32768
280
     0
281
     1
  0
CLASS
  1
XRECORD
  2
AcDbXrecord
  3
AutoCAD 2000
 90
    32768
280
     0
281
     0
  0
CLASS
  1
LONG_TRANSACTION
  2
AcDbLongTransaction
  3
AutoCAD 2000
 90
    32768
280
     0
281
     0
  0
CLASS
  1
LWPOLYLINE
  2
AcDbPolyline
  3
AutoCAD 2000
 90
    32768
280
     0
281
     1
  0
CLASS
  1
HATCH
  2
AcDbHatch
  3
AutoCAD 2000
 90
    32768
280
     0
281
     1
  0
CLASS
  1
XRECORD
  2
AcDbXrecord
  3
AutoCAD 2000
 90
    32768
280
     0
281
     0
  0
CLASS
  1
LONG_TRANSACTION
  2
AcDbLongTransaction
  3
AutoCAD 2000
 90
    32768
280
     0
281
     0
  0
CLASS
  1
LWPOLYLINE
  2
AcDbPolyline
  3
AutoCAD 2000
 90
    32768
280
     0
281
     1
  0
CLASS
  1
HATCH
  2
AcDbHatch
  3
AutoCAD 2000
 90
    32768
280
     0
281
     1
  0
CLASS
  1
XRECORD
  2
AcDbXrecord
  3
AutoCAD 2000
 90
    32768
280
     0
281
     0
  0
CLASS
  1
LONG_TRANSACTION
  2
AcDbLongTransaction
  3
AutoCAD 2000
 90
    32768
280
     0
281
     0
  0
CLASS
  1
LWPOLYLINE
  2
AcDbPolyline
  3
AutoCAD 2000
 90
    32768
280
     0
281
     1
  0
CLASS
  1
HATCH
  2
AcDbHatch
  3
AutoCAD 2000
 90
    32768
280
     0
281
     1
  0
CLASS
  1
XRECORD
  2
AcDbXrecord
  3
AutoCAD 2000
 90
    32768
280
     0
281
     0
  0
CLASS
  1
LONG_TRANSACTION
  2
AcDbLongTransaction
  3
AutoCAD 2000
 90
    32768
280
     0
281
     0
  0
CLASS
  1
LWPOLYLINE
  2
AcDbPolyline
  3
AutoCAD 2000
 90
    32768
280
     0
281
     1
  0
CLASS
  1
HATCH
  2
AcDbHatch
  3
AutoCAD 2000
 90
    32768
280
     0
281
     1
  0
CLASS
  1
XRECORD
  2
AcDbXrecord
  3
AutoCAD 2000
 90
    32768
280
     0
281
     0
  0
CLASS
  1
LONG_TRANSACTION
  2
AcDbLongTransaction
  3
AutoCAD 2000
 90
    32768
280
     0
281
     0
  0
CLASS
  1
LWPOLYLINE
  2
AcDbPolyline
  3
AutoCAD 2000
 90
    32768
280
     0
281
     1
  0
CLASS
  1
HATCH
  2
AcDbHatch
  3
AutoCAD 2000
 90
    32768
280
     0
281
     1
  0
CLASS
  1
XRECORD
  2
AcDbXrecord
  3
AutoCAD 2000
 90
    32768
280
     0
281
     0
  0
CLASS
  1
LONG_TRANSACTION
  2
AcDbLongTransaction
  3
AutoCAD 2000
 90
    32768
280
     0
281
     0
  0
CLASS
  1
LWPOLYLINE
  2
AcDbPolyline
  3
AutoCAD 2000
 90
    32768
280
     0
281
     1
  0
CLASS
  1
HATCH
  2
AcDbHatch
  3
AutoCAD 2000
 90
    32768
280
     0
281
     1
  0
CLASS
  1
XRECORD
  2
AcDbXrecord
  3
AutoCAD 2000
 90
    32768
280
     0
281
     0
  0
CLASS
  1
LONG_TRANSACTION
  2
AcDbLongTransaction
  3
AutoCAD 2000
 90
    32768
280
     0
281
     0
  0
CLASS
  1
LWPOLYLINE
  2
AcDbPolyline
  3
AutoCAD 2000
 90
    32768
280
     0
281
     1
  0
CLASS
  1
HATCH
  2
AcDbHatch
  3
AutoCAD 2000
 90
    32768
280
     0
281
     1
  0
CLASS
  1
XRECORD
  2
AcDbXrecord
  3
AutoCAD 2000
 90
    32768
280
     0
281
     0
  0
CLASS
  1
LONG_TRANSACTION
  2
AcDbLongTransaction
  3
AutoCAD 2000
 90
    32768
280
     0
281
     0
  0
CLASS
  1
LWPOLYLINE
  2
AcDbPolyline
  3
AutoCAD 2000
 90
    32768
280
     0
281
     1
  0
CLASS
  1
HATCH
  2
AcDbHatch
  3
AutoCAD 2000
 90
    32768
280
     0
281
     1
  0
CLASS
  1
XRECORD
  2
AcDbXrecord
  3
AutoCAD 2000
 90
    32768
280
     0
281
     0
  0
CLASS
  1
LONG_TRANSACTION
  2
AcDbLongTransaction
  3
AutoCAD 2000
 90
    32768
280
     0
281
     0
  0
CLASS
  1
LWPOLYLINE
  2
AcDbPolyline
  3
AutoCAD 2000
 90
    32768
280
     0
281
     1
  0
CLASS
  1
HATCH
  2
AcDbHatch
  3
AutoCAD 2000
 90
    32768
280
     0
281
     1
  0
CLASS
  1
XRECORD
  2
AcDbXrecord
  3
AutoCAD 2000
 90
    32768
280
     0
281
     0
  0
CLASS
  1
LONG_TRANSACTION
  2
AcDbLongTransaction
  3
AutoCAD 2000
 90
    32768
280
     0
281
     0
  0
CLASS
  1
LWPOLYLINE
  2
AcDbPolyline
  3
AutoCAD 2000
 90
    32768
280
     0
281
     1
  0
CLASS
  1
HATCH
  2
AcDbHatch
  3
AutoCAD 2000
 90
    32768
280
     0
281
     1
  0
CLASS
  1
XRECORD
  2
AcDbXrecord
  3
AutoCAD 2000
 90
    32768
280
     0
281
     0
  0
CLASS
  1
LONG_TRANSACTION
  2
AcDbLongTransaction
  3
AutoCAD 2000
 90
    32768
280
     0
281
     0
  0
CLASS
  1
LWPOLYLINE
  2
AcDbPolyline
  3
AutoCAD 2000
 90
    32768
280
     0
281
     1
  0
CLASS
  1
HATCH
  2
AcDbHatch
  3
AutoCAD 2000
 90
    32768
280
     0
281
     1
  0
CLASS
  1
XRECORD
  2
AcDbXrecord
  3
AutoCAD 2000
 90
    32768
280
     0
281
     0
  0
CLASS
  1
LONG_TRANSACTION
  2
AcDbLongTransaction
  3
AutoCAD 2000
 90
    32768
280
     0
281
     0
  0
CLASS
  1
LWPOLYLINE
  2
AcDbPolyline
  3
AutoCAD 2000
 90
    32768
280
     0
281
     1
  0
CLASS
  1
HATCH
  2
AcDbHatch
  3
AutoCAD 2000
 90
    32768
280
     0
281
     1
  0
CLASS
  1
XRECORD
  2
AcDbXrecord
  3
AutoCAD 2000
 90
    32768
280
     0
281
     0
  0
CLASS
  1
LONG_TRANSACTION
  2
AcDbLongTransaction
  3
AutoCAD 2000
 90
    32768
280
     0
281
     0
  0
CLASS
  1
LWPOLYLINE
  2
AcDbPolyline
  3
AutoCAD 2000
 90
    32768
280
     0
281
     1
  0
CLASS
  1
HATCH
  2
AcDbHatch
  3
AutoCAD 2000
 90
    32768
280
     0
281
     1
  0
CLASS
  1
XRECORD
  2
AcDbXrecord
  3
AutoCAD 2000
 90
    32768
280
     0
281
     0
  0
CLASS
  1
LONG_TRANSACTION
  2
AcDbLongTransaction
  3
AutoCAD 2000
 90
    32768
280
     0
281
     0
  0
CLASS
  1
LWPOLYLINE
  2
AcDbPolyline
  3
AutoCAD 2000
 90
    32768
280
     0
281
     1
  0
CLASS
  1
HATCH
  2
AcDbHatch
  3
AutoCAD 2000
 90
    32768
280
     0
281
     1
  0
CLASS
  1
XRECORD
  2
AcDbXrecord
  3
AutoCAD 2000
 90
    32768
280
     0
281
     0
  0
CLASS
  1
LONG_TRANSACTION
  2
AcDbLongTransaction
  3
AutoCAD 2000
 90
    32768
280
     0
281
     0
  0
CLASS
  1
LWPOLYLINE
  2
AcDbPolyline
  3
AutoCAD 2000
 90
    32768
280
     0
281
     1
  0
CLASS
  1
HATCH
  2
AcDbHatch
  3
AutoCAD 2000
 90
    32768
280
     0
281
     1
  0
CLASS
  1
XRECORD
  2
AcDbXrecord
  3
AutoCAD 2000
 90
    32768
280
     0
281
     0
  0
CLASS
  1
LONG_TRANSACTION
  2
AcDbLongTransaction
  3
AutoCAD 2000
 90
    32768
280
     0
281
     0
  0
CLASS
  1
LWPOLYLINE
  2
AcDbPolyline
  3
AutoCAD 2000
 90
    32768
280
     0
281
     1
  0
CLASS
  1
HATCH
  2
AcDbHatch
  3
AutoCAD 2000
 90
    32768
280
     0
281
     1
  0
CLASS
  1
XRECORD
  2
AcDbXrecord
  3
AutoCAD 2000
 90
    32768
280
     0
281
     0
  0
CLASS
  1
LONG_TRANSACTION
  2
AcDbLongTransaction
  3
AutoCAD 2000
 90
    32768
280
     0
281
     0
  0
CLASS
  1
LWPOLYLINE
  2
AcDbPolyline
  3
AutoCAD 2000
 90
    32768
280
     0
281
     1
  0
CLASS
  1
HATCH
  2
AcDbHatch
  3
AutoCAD 2000
 90
    32768
280
     0
281
     1
  0
CLASS
  1
XRECORD
  2
AcDbXrecord
  3
AutoCAD 2000
 90
    32768
280
     0
281
     0
  0
CLASS
  1
LONG_TRANSACTION
  2
AcDbLongTransaction
  3
AutoCAD 2000
 90
    32768
280
     0
281
     0
  0
CLASS
  1
LWPOLYLINE
  2
AcDbPolyline
  3
AutoCAD 2000
 90
    32768
280
     0
281
     1
  0
CLASS
  1
HATCH
  2
AcDbHatch
  3
AutoCAD 2000
 90
    32768
280
     0
281
     1
  0
CLASS
  1
XRECORD
  2
AcDbXrecord
  3
AutoCAD 2000
 90
    32768
280
     0
281
     0
  0
CLASS
  1
LONG_TRANSACTION
  2
AcDbLongTransaction
  3
AutoCAD 2000
 90
    32768
280
     0
281
     0
  0
CLASS
  1
LWPOLYLINE
  2
AcDbPolyline
  3
AutoCAD 2000
 90
    32768
280
     0
281
     1
  0
CLASS
  1
HATCH
  2
AcDbHatch
  3
AutoCAD 2000
 90
    32768
280
     0
281
     1
  0
CLASS
  1
XRECORD
  2
AcDbXrecord
  3
AutoCAD 2000
 90
    32768
280
     0
281
     0
  0
CLASS
  1
LONG_TRANSACTION
  2
AcDbLongTransaction
  3
AutoCAD 2000
 90
    32768
280
     0
281
     0
  0
CLASS
  1
LWPOLYLINE
  2
AcDbPolyline
  3
AutoCAD 2000
 90
    32768
280
     0
281
     1
  0
CLASS
  1
HATCH
  2
AcDbHatch
  3
AutoCAD 2000
 90
    32768
280
     0
281
     1
  0
CLASS
  1
XRECORD
  2
AcDbXrecord
  3
AutoCAD 2000
 90
    32768
280
     0
281
     0
  0
CLASS
  1
LONG_TRANSACTION
  2
AcDbLongTransaction
  3
AutoCAD 2000
 90
    32768
280
     0
281
     0
  0
CLASS
  1
LWPOLYLINE
  2
AcDbPolyline
  3
AutoCAD 2000
 90
    32768
280
     0
281
     1
  0
CLASS
  1
HATCH
  2
AcDbHatch
  3
AutoCAD 2000
 90
    32768
280
     0
281
     1
  0
CLASS
  1
XRECORD
  2
AcDbXrecord
  3
AutoCAD 2000
 90
    32768
280
     0
281
     0
  0
CLASS
  1
LONG_TRANSACTION
  2
AcDbLongTransaction
  3
AutoCAD 2000
 90
    32768
280
     0
281
     0
  0
CLASS
  1
LWPOLYLINE
  2
AcDbPolyline
  3
AutoCAD 2000
 90
    32768
280
     0
281
     1
  0
CLASS
  1
HATCH
  2
AcDbHatch
  3
AutoCAD 2000
 90
    32768
280
     0
281
     1
  0
CLASS
  1
XRECORD
  2
AcDbXrecord
  3
AutoCAD 2000
 90
    32768
280
     0
281
     0
  0
CLASS
  1
LONG_TRANSACTION
  2
AcDbLongTransaction
  3
AutoCAD 2000
 90
    32768
280
     0
281
     0
  0
CLASS
  1
LWPOLYLINE
  2
AcDbPolyline
  3
AutoCAD 2000
 90
    32768
280
     0
281
     1
  0
CLASS
  1
HATCH
  2
AcDbHatch
  3
AutoCAD 2000
 90
    32768
280
     0
281
     1
  0
CLASS
  1
XRECORD
  2
AcDbXrecord
  3
AutoCAD 2000
 90
    32768
280
     0
281
     0
  0
CLASS
  1
LONG_TRANSACTION
  2
AcDbLongTransaction
  3
AutoCAD 2000
 90
    32768
280
     0
281
     0
  0
CLASS
  1
LWPOLYLINE
  2
AcDbPolyline
  3
AutoCAD 2000
 90
    32768
280
     0
281
     1
  0
CLASS
  1
HATCH
  2
AcDbHatch
  3
AutoCAD 2000
 90
    32768
280
     0
281
     1
  0
CLASS
  1
XRECORD
  2
AcDbXrecord
  3
AutoCAD 2000
 90
    32768
280
     0
281
     0
  0
CLASS
  1
LONG_TRANSACTION
  2
AcDbLongTransaction
  3
AutoCAD 2000
 90
    32768
280
     0
281
     0
  0
CLASS
  1
LWPOLYLINE
  2
AcDbPolyline
  3
AutoCAD 2000
 90
    32768
280
     0
281
     1
  0
CLASS
  1
HATCH
  2
AcDbHatch
  3
AutoCAD 2000
 90
    32768
280
     0
281
     1
  0
CLASS
  1
XRECORD
  2
AcDbXrecord
  3
AutoCAD 2000
 90
    32768
280
     0
281
     0
  0
CLASS
  1
LONG_TRANSACTION
  2
AcDbLongTransaction
  3
AutoCAD 2000
 90
    32768
280
     0
281
     0
  0
CLASS
  1
LWPOLYLINE
  2
AcDbPolyline
  3
AutoCAD 2000
 90
    32768
280
     0
281
     1
  0
CLASS
  1
HATCH
  2
AcDbHatch
  3
AutoCAD 2000
 90
    32768
280
     0
281
     1
  0
CLASS
  1
XRECORD
  2
AcDbXrecord
  3
AutoCAD 2000
 90
    32768
280
     0
281
     0
  0
CLASS
  1
LONG_TRANSACTION
  2
AcDbLongTransaction
  3
AutoCAD 2000
 90
    32768
280
     0
281
     0
  0
CLASS
  1
LWPOLYLINE
  2
AcDbPolyline
  3
AutoCAD 2000
 90
    32768
280
     0
281
     1
  0
CLASS
  1
HATCH
  2
AcDbHatch
  3
AutoCAD 2000
 90
    32768
280
     0
281
     1
  0
CLASS
  1
XRECORD
  2
AcDbXrecord
  3
AutoCAD 2000
 90
    32768
280
     0
281
     0
  0
CLASS
  1
LONG_TRANSACTION
  2
AcDbLongTransaction
  3
AutoCAD 2000
 90
    32768
280
     0
281
     0
  0
CLASS
  1
LWPOLYLINE
  2
AcDbPolyline
  3
AutoCAD 2000
 90
    32768
280
     0
281
     1
  0
CLASS
  1
HATCH
  2
AcDbHatch
  3
AutoCAD 2000
 90
    32768
280
     0
281
     1
  0
CLASS
  1
XRECORD
  2
AcDbXrecord
  3
AutoCAD 2000
 90
    32768
280
     0
281
     0
  0
CLASS
  1
LONG_TRANSACTION
  2
AcDbLongTransaction
  3
AutoCAD 2000
 90
    32768
280
     0
281
     0
  0
CLASS
  1
LWPOLYLINE
  2
AcDbPolyline
  3
AutoCAD 2000
 90
    32768
280
     0
281
     1
  0
CLASS
  1
HATCH
  2
AcDbHatch
  3
AutoCAD 2000
 90
    32768
280
     0
281
     1
  0
CLASS
  1
XRECORD
  2
AcDbXrecord
  3
AutoCAD 2000
 90
    32768
280
     0
281
     0
  0
CLASS
  1
LONG_TRANSACTION
  2
AcDbLongTransaction
  3
AutoCAD 2000
 90
    32768
280
     0
281
     0
  0
CLASS
  1
LWPOLYLINE
  2
AcDbPolyline
  3
AutoCAD 2000
 90
    32768
280
     0
281
     1
  0
CLASS
  1
HATCH
  2
AcDbHatch
  3
AutoCAD 2000
 90
    32768
280
     0
281
     1
  0
CLASS
  1
XRECORD
  2
AcDbXrecord
  3
AutoCAD 2000
 90
    32768
280
     0
281
     0
  0
CLASS
  1
LONG_TRANSACTION
  2
AcDbLongTransaction
  3
AutoCAD 2000
 90
    32768
280
     0
281
     0
  0
CLASS
  1
LWPOLYLINE
  2
AcDbPolyline
  3
AutoCAD 2000
 90
    32768
280
     0
281
     1
  0
CLASS
  1
HATCH
  2
AcDbHatch
  3
AutoCAD 2000
 90
    32768
280
     0
281
     1
  0
CLASS
  1
XRECORD
  2
AcDbXrecord
  3
AutoCAD 2000
 90
    32768
280
     0
281
     0
  0
CLASS
  1
LONG_TRANSACTION
  2
AcDbLongTransaction
  3
AutoCAD 2000
 90
    32768
280
     0
281
     0
  0
CLASS
  1
LWPOLYLINE
  2
AcDbPolyline
  3
AutoCAD 2000
 90
    32768
280
     0
281
     1
  0
CLASS
  1
HATCH
  2
AcDbHatch
  3
AutoCAD 2000
 90
    32768
280
     0
281
     1
  0
CLASS
  1
XRECORD
  2
AcDbXrecord
  3
AutoCAD 2000
 90
    32768
280
     0
281
     0
  0
CLASS
  1
LONG_TRANSACTION
  2
AcDbLongTransaction
  3
AutoCAD 2000
 90
    32768
280
     0
281
     0
  0
CLASS
  1
LWPOLYLINE
  2
AcDbPolyline
  3
AutoCAD 2000
 90
    32768
280
     0
281
     1
  0
CLASS
  1
HATCH
  2
AcDbHatch
  3
AutoCAD 2000
 90
    32768
280
     0
281
     1
  0
CLASS
  1
XRECORD
  2
AcDbXrecord
  3
AutoCAD 2000
 90
    32768
280
     0
281
     0
  0
CLASS
  1
LONG_TRANSACTION
  2
AcDbLongTransaction
  3
AutoCAD 2000
 90
    32768
280
     0
281
     0
  0
CLASS
  1
LWPOLYLINE
  2
AcDbPolyline
  3
AutoCAD 2000
 90
    32768
280
     0
281
     1
  0
CLASS
  1
HATCH
  2
AcDbHatch
  3
AutoCAD 2000
 90
    32768
280
     0
281
     1
  0
CLASS
  1
XRECORD
  2
AcDbXrecord
  3
AutoCAD 2000
 90
    32768
280
     0
281
     0
  0
CLASS
  1
LONG_TRANSACTION
  2
AcDbLongTransaction
  3
AutoCAD 2000
 90
    32768
280
     0
281
     0
  0
CLASS
  1
LWPOLYLINE
  2
AcDbPolyline
  3
AutoCAD 2000
 90
    32768
280
     0
281
     1
  0
CLASS
  1
HATCH
  2
AcDbHatch
  3
AutoCAD 2000
 90
    32768
280
     0
281
     1
  0
CLASS
  1
XRECORD
  2
AcDbXrecord
  3
AutoCAD 2000
 90
    32768
280
     0
281
     0
  0
CLASS
  1
LONG_TRANSACTION
  2
AcDbLongTransaction
  3
AutoCAD 2000
 90
    32768
280
     0
281
     0
  0
CLASS
  1
LWPOLYLINE
  2
AcDbPolyline
  3
AutoCAD 2000
 90
    32768
280
     0
281
     1
  0
CLASS
  1
HATCH
  2
AcDbHatch
  3
AutoCAD 2000
 90
    32768
280
     0
281
     1
  0
CLASS
  1
XRECORD
  2
AcDbXrecord
  3
AutoCAD 2000
 90
    32768
280
     0
281
     0
  0
CLASS
  1
LONG_TRANSACTION
  2
AcDbLongTransaction
  3
AutoCAD 2000
 90
    32768
280
     0
281
     0
  0
CLASS
  1
LWPOLYLINE
  2
AcDbPolyline
  3
AutoCAD 2000
 90
    32768
280
     0
281
     1
  0
CLASS
  1
HATCH
  2
AcDbHatch
  3
AutoCAD 2000
 90
    32768
280
     0
281
     1
  0
CLASS
  1
XRECORD
  2
AcDbXrecord
  3
AutoCAD 2000
 90
    32768
280
     0
281
     0
  0
CLASS
  1
LONG_TRANSACTION
  2
AcDbLongTransaction
  3
AutoCAD 2000
 90
    32768
280
     0
281
     0
  0
CLASS
  1
LWPOLYLINE
  2
AcDbPolyline
  3
AutoCAD 2000
 90
    32768
280
     0
281
     1
  0
CLASS
  1
HATCH
  2
AcDbHatch
  3
AutoCAD 2000
 90
    32768
280
     0
281
     1
  0
CLASS
  1
XRECORD
  2
AcDbXrecord
  3
AutoCAD 2000
 90
    32768
280
     0
281
     0
  0
CLASS
  1
LONG_TRANSACTION
  2
AcDbLongTransaction
  3
AutoCAD 2000
 90
    32768
280
     0
281
     0
  0
CLASS
  1
LWPOLYLINE
  2
AcDbPolyline
  3
AutoCAD 2000
 90
    32768
280
     0
281
     1
  0
CLASS
  1
HATCH
  2
AcDbHatch
  3
AutoCAD 2000
 90
    32768
280
     0
281
     1
  0
CLASS
  1
XRECORD
  2
AcDbXrecord
  3
AutoCAD 2000
 90
    32768
280
     0
281
     0
  0
CLASS
  1
LONG_TRANSACTION
  2
AcDbLongTransaction
  3
AutoCAD 2000
 90
    32768
280
     0
281
     0
  0
CLASS
  1
LWPOLYLINE
  2
AcDbPolyline
  3
AutoCAD 2000
 90
    32768
280
     0
281
     1
  0
CLASS
  1
HATCH
  2
AcDbHatch
  3
AutoCAD 2000
 90
    32768
280
     0
281
     1
  0
CLASS
  1
XRECORD
  2
AcDbXrecord
  3
AutoCAD 2000
 90
    32768
280
     0
281
     0
  0
CLASS
  1
LONG_TRANSACTION
  2
AcDbLongTransaction
  3
AutoCAD 2000
 90
    32768
280
     0
281
     0
  0
CLASS
  1
LWPOLYLINE
  2
AcDbPolyline
  3
AutoCAD 2000
 90
    32768
280
     0
281
     1
  0
CLASS
  1
HATCH
  2
AcDbHatch
  3
AutoCAD 2000
 90
    32768
280
     0
281
     1
  0
CLASS
  1
XRECORD
  2
AcDbXrecord
  3
AutoCAD 2000
 90
    32768
280
     0
281
     0
  0
CLASS
  1
LONG_TRANSACTION
  2
AcDbLongTransaction
  3
AutoCAD 2000
 90
    32768
280
     0
281
     0
  0
CLASS
  1
LWPOLYLINE
  2
AcDbPolyline
  3
AutoCAD 2000
 90
    32768
280
     0
281
     1
  0
CLASS
  1
HATCH
  2
AcDbHatch
  3
AutoCAD 2000
 90
    32768
280
     0
281
     1
  0
CLASS
  1
XRECORD
  2
AcDbXrecord
  3
AutoCAD 2000
 90
    32768
280
     0
281
     0
  0
CLASS
  1
LONG_TRANSACTION
  2
AcDbLongTransaction
  3
AutoCAD 2000
 90
    32768
280
     0
281
     0
  0
CLASS
  1
LWPOLYLINE
  2
AcDbPolyline
  3
AutoCAD 2000
 90
    32768
280
     0
281
     1
  0
CLASS
  1
HATCH
  2
AcDbHatch
  3
AutoCAD 2000
 90
    32768
280
     0
281
     1
  0
CLASS
  1
XRECORD
  2
AcDbXrecord
  3
AutoCAD 2000
 90
    32768
280
     0
281
     0
  0
CLASS
  1
LONG_TRANSACTION
  2
AcDbLongTransaction
  3
AutoCAD 2000
 90
    32768
280
     0
281
     0
  0
CLASS
  1
LWPOLYLINE
  2
AcDbPolyline
  3
AutoCAD 2000
 90
    32768
280
     0
281
     1
  0
CLASS
  1
HATCH
  2
AcDbHatch
  3
AutoCAD 2000
 90
    32768
280
     0
281
     1
  0
CLASS
  1
XRECORD
  2
AcDbXrecord
  3
AutoCAD 2000
 90
    32768
280
     0
281
     0
  0
CLASS
  1
LONG_TRANSACTION
  2
AcDbLongTransaction
  3
AutoCAD 2000
 90
    32768
280
     0
281
     0
  0
CLASS
  1
LWPOLYLINE
  2
AcDbPolyline
  3
AutoCAD 2000
 90
    32768
280
     0
281
     1
  0
CLASS
  1
HATCH
  2
AcDbHatch
  3
AutoCAD 2000
 90
    32768
280
     0
281
     1
  0
CLASS
  1
XRECORD
  2
AcDbXrecord
  3
AutoCAD 2000
 90
    32768
280
     0
281
     0
  0
CLASS
  1
LONG_TRANSACTION
  2
AcDbLongTransaction
  3
AutoCAD 2000
 90
    32768
280
     0
281
     0
  0
CLASS
  1
LWPOLYLINE
  2
AcDbPolyline
  3
AutoCAD 2000
 90
    32768
280
     0
281
     1
  0
CLASS
  1
HATCH
  2
AcDbHatch
  3
AutoCAD 2000
 90
    32768
280
     0
281
     1
  0
CLASS
  1
XRECORD
  2
AcDbXrecord
  3
AutoCAD 2000
 90
    32768
280
     0
281
     0
  0
CLASS
  1
LONG_TRANSACTION
  2
AcDbLongTransaction
  3
AutoCAD 2000
 90
    32768
280
     0
281
     0
  0
CLASS
  1
LWPOLYLINE
  2
AcDbPolyline
  3
AutoCAD 2000
 90
    32768
280
     0
281
     1
  0
CLASS
  1
HATCH
  2
AcDbHatch
  3
AutoCAD 2000
 90
    32768
280
     0
281
     1
  0
CLASS
  1
XRECORD
  2
AcDbXrecord
  3
AutoCAD 2000
 90
    32768
280
     0
281
     0
  0
CLASS
  1
LONG_TRANSACTION
  2
AcDbLongTransaction
  3
AutoCAD 2000
 90
    32768
280
     0
281
     0
  0
CLASS
  1
LWPOLYLINE
  2
AcDbPolyline
  3
AutoCAD 2000
 90
    32768
280
     0
281
     1
  0
CLASS
  1
HATCH
  2
AcDbHatch
  3
AutoCAD 2000
 90
    32768
280
     0
281
     1
  0
CLASS
  1
XRECORD
  2
AcDbXrecord
  3
AutoCAD 2000
 90
    32768
280
     0
281
     0
  0
CLASS
  1
LONG_TRANSACTION
  2
AcDbLongTransaction
  3
AutoCAD 2000
 90
    32768
280
     0
281
     0
  0
CLASS
  1
LWPOLYLINE
  2
AcDbPolyline
  3
AutoCAD 2000
 90
    32768
280
     0
281
     1
  0
CLASS
  1
HATCH
  2
AcDbHatch
  3
AutoCAD 2000
 90
    32768
280
     0
281
     1
  0
CLASS
  1
XRECORD
  2
AcDbXrecord
  3
AutoCAD 2000
 90
    32768
280
     0
281
     0
  0
CLASS
  1
LONG_TRANSACTION
  2
AcDbLongTransaction
  3
AutoCAD 2000
 90
    32768
280
     0
281
     0
  0
CLASS
  1
LWPOLYLINE
  2
AcDbPolyline
  3
AutoCAD 2000
 90
    32768
280
     0
281
     1
  0
CLASS
  1
HATCH
  2
AcDbHatch
  3
AutoCAD 2000
 90
    32768
280
     0
281
     1
  0
CLASS
  1
XRECORD
  2
AcDbXrecord
  3
AutoCAD 2000
 90
    32768
280
     0
281
     0
  0
CLASS
  1
LONG_TRANSACTION
  2
AcDbLongTransaction
  3
AutoCAD 2000
 90
    32768
280
     0
281
     0
  0
CLASS
  1
LWPOLYLINE
  2
AcDbPolyline
  3
AutoCAD 2000
 90
    32768
280
     0
281
     1
  0
CLASS
  1
HATCH
  2
AcDbHatch
  3
AutoCAD 2000
 90
    32768
280
     0
281
     1
  0
CLASS
  1
XRECORD
  2
AcDbXrecord
  3
AutoCAD 2000
 90
    32768
280
     0
281
     0
  0
CLASS
  1
LONG_TRANSACTION
  2
AcDbLongTransaction
  3
AutoCAD 2000
 90
    32768
280
     0
281
     0
  0
CLASS
  1
LWPOLYLINE
  2
AcDbPolyline
  3
AutoCAD 2000
 90
    32768
280
     0
281
     1
  0
CLASS
  1
HATCH
  2
AcDbHatch
  3
AutoCAD 2000
 90
    32768
280
     0
281
     1
  0
CLASS
  1
XRECORD
  2
AcDbXrecord
  3
AutoCAD 2000
 90
    32768
280
     0
281
     0
  0
CLASS
  1
LONG_TRANSACTION
  2
AcDbLongTransaction
  3
AutoCAD 2000
 90
    32768
280
     0
281
     0
  0
CLASS
  1
LWPOLYLINE
  2
AcDbPolyline
  3
AutoCAD 2000
 90
    32768
280
     0
281
     1
  0
CLASS
  1
HATCH
  2
AcDbHatch
  3
AutoCAD 2000
 90
    32768
280
     0
281
     1
  0
CLASS
  1
XRECORD
  2
AcDbXrecord
  3
AutoCAD 2000
 90
    32768
280
     0
281
     0
  0
CLASS
  1
LONG_TRANSACTION
  2
AcDbLongTransaction
  3
AutoCAD 2000
 90
    32768
280
     0
281
     0
  0
CLASS
  1
LWPOLYLINE
  2
AcDbPolyline
  3
AutoCAD 2000
 90
    32768
280
     0
281
     1
  0
CLASS
  1
HATCH
  2
AcDbHatch
  3
AutoCAD 2000
 90
    32768
280
     0
281
     1
  0
CLASS
  1
XRECORD
  2
AcDbXrecord
  3
AutoCAD 2000
 90
    32768
280
     0
281
     0
  0
CLASS
  1
LONG_TRANSACTION
  2
AcDbLongTransaction
  3
AutoCAD 2000
 90
    32768
280
     0
281
     0
  0
CLASS
  1
LWPOLYLINE
  2
AcDbPolyline
  3
AutoCAD 2000
 90
    32768
280
     0
281
     1
  0
CLASS
  1
HATCH
  2
AcDbHatch
  3
AutoCAD 2000
 90
    32768
280
     0
281
     1
  0
CLASS
  1
XRECORD
  2
AcDbXrecord
  3
AutoCAD 2000
 90
    32768
280
     0
281
     0
  0
CLASS
  1
LONG_TRANSACTION
  2
AcDbLongTransaction
  3
AutoCAD 2000
 90
    32768
280
     0
281
     0
  0
CLASS
  1
LWPOLYLINE
  2
AcDbPolyline
  3
AutoCAD 2000
 90
    32768
280
     0
281
     1
  0
CLASS
  1
HATCH
  2
AcDbHatch
  3
AutoCAD 2000
 90
    32768
280
     0
281
     1
  0
CLASS
  1
XRECORD
  2
AcDbXrecord
  3
AutoCAD 2000
 90
    32768
280
     0
281
     0
  0
CLASS
  1
LONG_TRANSACTION
  2
AcDbLongTransaction
  3
AutoCAD 2000
 90
    32768
280
     0
281
     0
  0
CLASS
  1
LWPOLYLINE
  2
AcDbPolyline
  3
AutoCAD 2000
 90
    32768
280
     0
281
     1
  0
CLASS
  1
HATCH
  2
AcDbHatch
  3
AutoCAD 2000
 90
    32768
280
     0
281
     1
  0
CLASS
  1
XRECORD
  2
AcDbXrecord
  3
AutoCAD 2000
 90
    32768
280
     0
281
     0
  0
CLASS
  1
LONG_TRANSACTION
  2
AcDbLongTransaction
  3
AutoCAD 2000
 90
    32768
280
     0
281
     0
  0
CLASS
  1
LWPOLYLINE
  2
AcDbPolyline
  3
AutoCAD 2000
 90
    32768
280
     0
281
     1
  0
CLASS
  1
HATCH
  2
AcDbHatch
  3
AutoCAD 2000
 90
    32768
280
     0
281
     1
  0
CLASS
  1
XRECORD
  2
AcDbXrecord
  3
AutoCAD 2000
 90
    32768
280
     0
281
     0
  0
CLASS
  1
LONG_TRANSACTION
  2
AcDbLongTransaction
  3
AutoCAD 2000
 90
    32768
280
     0
281
     0
  0
CLASS
  1
LWPOLYLINE
  2
AcDbPolyline
  3
AutoCAD 2000
 90
    32768
280
     0
281
     1
  0
CLASS
  1
HATCH
  2
AcDbHatch
  3
AutoCAD 2000
 90
    32768
280
     0
281
     1
  0
CLASS
  1
XRECORD
  2
AcDbXrecord
  3
AutoCAD 2000
 90
    32768
280
     0
281
     0
  0
CLASS
  1
LONG_TRANSACTION
  2
AcDbLongTransaction
  3
AutoCAD 2000
 90
    32768
280
     0
281
     0
  0
CLASS
  1
LWPOLYLINE
  2
AcDbPolyline
  3
AutoCAD 2000
 90
    32768
280
     0
281
     1
  0
CLASS
  1
HATCH
  2
AcDbHatch
  3
AutoCAD 2000
 90
    32768
280
     0
281
     1
  0
CLASS
  1
XRECORD
  2
AcDbXrecord
  3
AutoCAD 2000
 90
    32768
280
     0
281
     0
  0
CLASS
  1
LONG_TRANSACTION
  2
AcDbLongTransaction
  3
AutoCAD 2000
 90
    32768
280
     0
281
     0
  0
CLASS
  1
LWPOLYLINE
  2
AcDbPolyline
  3
AutoCAD 2000
 90
    32768
280
     0
281
     1
  0
CLASS
  1
HATCH
  2
AcDbHatch
  3
AutoCAD 2000
 90
    32768
280
     0
281
     1
  0
CLASS
  1
XRECORD
  2
AcDbXrecord
  3
AutoCAD 2000
 90
    32768
280
     0
281
     0
  0
CLASS
  1
LONG_TRANSACTION
  2
AcDbLongTransaction
  3
AutoCAD 2000
 90
    32768
280
     0
281
     0
  0
CLASS
  1
LWPOLYLINE
  2
AcDbPolyline
  3
AutoCAD 2000
 90
    32768
280
     0
281
     1
  0
CLASS
  1
HATCH
  2
AcDbHatch
  3
AutoCAD 2000
 90
    32768
280
     0
281
     1
  0
CLASS
  1
XRECORD
  2
AcDbXrecord
  3
AutoCAD 2000
 90
    32768
280
     0
281
     0
  0
CLASS
  1
LONG_TRANSACTION
  2
AcDbLongTransaction
  3
AutoCAD 2000
 90
    32768
280
     0
281
     0
  0
CLASS
  1
LWPOLYLINE
  2
AcDbPolyline
  3
AutoCAD 2000
 90
    32768
280
     0
281
     1
  0
CLASS
  1
HATCH
  2
AcDbHatch
  3
AutoCAD 2000
 90
    32768
280
     0
281
     1
  0
CLASS
  1
XRECORD
  2
AcDbXrecord
  3
AutoCAD 2000
 90
    32768
280
     0
281
     0
  0
CLASS
  1
LONG_TRANSACTION
  2
AcDbLongTransaction
  3
AutoCAD 2000
 90
    32768
280
     0
281
     0
  0
CLASS
  1
LWPOLYLINE
  2
AcDbPolyline
  3
AutoCAD 2000
 90
    32768
280
     0
281
     1
  0
CLASS
  1
HATCH
  2
AcDbHatch
  3
AutoCAD 2000
 90
    32768
280
     0
281
     1
  0
CLASS
  1
XRECORD
  2
AcDbXrecord
  3
AutoCAD 2000
 90
    32768
280
     0
281
     0
  0
CLASS
  1
LONG_TRANSACTION
  2
AcDbLongTransaction
  3
AutoCAD 2000
 90
    32768
280
     0
281
     0
  0
CLASS
  1
LWPOLYLINE
  2
AcDbPolyline
  3
AutoCAD 2000
 90
    32768
280
     0
281
     1
  0
CLASS
  1
HATCH
  2
AcDbHatch
  3
AutoCAD 2000
 90
    32768
280
     0
281
     1
  0
CLASS
  1
XRECORD
  2
AcDbXrecord
  3
AutoCAD 2000
 90
    32768
280
     0
281
     0
  0
CLASS
  1
LONG_TRANSACTION
  2
AcDbLongTransaction
  3
AutoCAD 2000
 90
    32768
280
     0
281
     0
  0
CLASS
  1
LWPOLYLINE
  2
AcDbPolyline
  3
AutoCAD 2000
 90
    32768
280
     0
281
     1
  0
CLASS
  1
HATCH
  2
AcDbHatch
  3
AutoCAD 2000
 90
    32768
280
     0
281
     1
  0
CLASS
  1
XRECORD
  2
AcDbXrecord
  3
AutoCAD 2000
 90
    32768
280
     0
281
     0
  0
CLASS
  1
LONG_TRANSACTION
  2
AcDbLongTransaction
  3
AutoCAD 2000
 90
    32768
280
     0
281
     0
  0
CLASS
  1
LWPOLYLINE
  2
AcDbPolyline
  3
AutoCAD 2000
 90
    32768
280
     0
281
     1
  0
CLASS
  1
HATCH
  2
AcDbHatch
  3
AutoCAD 2000
 90
    32768
280
     0
281
     1
  0
CLASS
  1
XRECORD
  2
AcDbXrecord
  3
AutoCAD 2000
 90
    32768
280
     0
281
     0
  0
CLASS
  1
LONG_TRANSACTION
  2
AcDbLongTransaction
  3
AutoCAD 2000
 90
    32768
280
     0
281
     0
  0
CLASS
  1
LWPOLYLINE
  2
AcDbPolyline
  3
AutoCAD 2000
 90
    32768
280
     0
281
     1
  0
CLASS
  1
HATCH
  2
AcDbHatch
  3
AutoCAD 2000
 90
    32768
280
     0
281
     1
  0
CLASS
  1
XRECORD
  2
AcDbXrecord
  3
AutoCAD 2000
 90
    32768
280
     0
281
     0
  0
CLASS
  1
LONG_TRANSACTION
  2
AcDbLongTransaction
  3
AutoCAD 2000
 90
    32768
280
     0
281
     0
  0
CLASS
  1
LWPOLYLINE
  2
AcDbPolyline
  3
AutoCAD 2000
 90
    32768
280
     0
281
     1
  0
CLASS
  1
HATCH
  2
AcDbHatch
  3
AutoCAD 2000
 90
    32768
280
     0
281
     1
  0
CLASS
  1
XRECORD
  2
AcDbXrecord
  3
AutoCAD 2000
 90
    32768
280
     0
281
     0
  0
CLASS
  1
LONG_TRANSACTION
  2
AcDbLongTransaction
  3
AutoCAD 2000
 90
    32768
280
     0
281
     0
  0
CLASS
  1
LWPOLYLINE
  2
AcDbPolyline
  3
AutoCAD 2000
 90
    32768
280
     0
281
     1
  0
CLASS
  1
HATCH
  2
AcDbHatch
  3
AutoCAD 2000
 90
    32768
280
     0
281
     1
  0
CLASS
  1
XRECORD
  2
AcDbXrecord
  3
AutoCAD 2000
 90
    32768
280
     0
281
     0
  0
CLASS
  1
LONG_TRANSACTION
  2
AcDbLongTransaction
  3
AutoCAD 2000
 90
    32768
280
     0
281
     0
  0
CLASS
  1
LWPOLYLINE
  2
AcDbPolyline
  3
AutoCAD 2000
 90
    32768
280
     0
281
     1
  0
CLASS
  1
HATCH
  2
AcDbHatch
  3
AutoCAD 2000
 90
    32768
280
     0
281
     1
  0
CLASS
  1
XRECORD
  2
AcDbXrecord
  3
AutoCAD 2000
 90
    32768
280
     0
281
     0
  0
CLASS
  1
LONG_TRANSACTION
  2
AcDbLongTransaction
  3
AutoCAD 2000
 90
    32768
280
     0
281
     0
  0
CLASS
  1
LWPOLYLINE
  2
AcDbPolyline
  3
AutoCAD 2000
 90
    32768
280
     0
281
     1
  0
CLASS
  1
HATCH
  2
AcDbHatch
  3
AutoCAD 2000
 90
    32768
280
     0
281
     1
  0
CLASS
  1
XRECORD
  2
AcDbXrecord
  3
AutoCAD 2000
 90
    32768
280
     0
281
     0
  0
CLASS
  1
LONG_TRANSACTION
  2
AcDbLongTransaction
  3
AutoCAD 2000
 90
    32768
280
     0
281
     0
  0
CLASS
  1
LWPOLYLINE
  2
AcDbPolyline
  3
AutoCAD 2000
 90
    32768
280
     0
281
     1
  0
CLASS
  1
HATCH
  2
AcDbHatch
  3
AutoCAD 2000
 90
    32768
280
     0
281
     1
  0
CLASS
  1
XRECORD
  2
AcDbXrecord
  3
AutoCAD 2000
 90
    32768
280
     0
281
     0
  0
CLASS
  1
LONG_TRANSACTION
  2
AcDbLongTransaction
  3
AutoCAD 2000
 90
    32768
280
     0
281
     0
  0
CLASS
  1
LWPOLYLINE
  2
AcDbPolyline
  3
AutoCAD 2000
 90
    32768
280
     0
281
     1
  0
CLASS
  1
HATCH
  2
AcDbHatch
  3
AutoCAD 2000
 90
    32768
280
     0
281
     1
  0
CLASS
  1
XRECORD
  2
AcDbXrecord
  3
AutoCAD 2000
 90
    32768
280
     0
281
     0
  0
CLASS
  1
LONG_TRANSACTION
  2
AcDbLongTransaction
  3
AutoCAD 2000
 90
    32768
280
     0
281
     0
  0
CLASS
  1
LWPOLYLINE
  2
AcDbPolyline
  3
AutoCAD 2000
 90
    32768
280
     0
281
     1
  0
CLASS
  1
HATCH
  2
AcDbHatch
  3
AutoCAD 2000
 90
    32768
280
     0
281
     1
  0
CLASS
  1
XRECORD
  2
AcDbXrecord
  3
AutoCAD 2000
 90
    32768
280
     0
281
     0
  0
CLASS
  1
LONG_TRANSACTION
  2
AcDbLongTransaction
  3
AutoCAD 2000
 90
    32768
280
     0
281
     0
  0
CLASS
  1
LWPOLYLINE
  2
AcDbPolyline
  3
AutoCAD 2000
 90
    32768
280
     0
281
     1
  0
CLASS
  1
HATCH
  2
AcDbHatch
  3
AutoCAD 2000
 90
    32768
280
     0
281
     1
  0
CLASS
  1
XRECORD
  2
AcDbXrecord
  3
AutoCAD 2000
 90
    32768
280
     0
281
     0
  0
CLASS
  1
LONG_TRANSACTION
  2
AcDbLongTransaction
  3
AutoCAD 2000
 90
    32768
280
     0
281
     0
  0
CLASS
  1
LWPOLYLINE
  2
AcDbPolyline
  3
AutoCAD 2000
 90
    32768
280
     0
281
     1
  0
CLASS
  1
HATCH
  2
AcDbHatch
  3
AutoCAD 2000
 90
    32768
280
     0
281
     1
  0
CLASS
  1
XRECORD
  2
AcDbXrecord
  3
AutoCAD 2000
 90
    32768
280
     0
281
     0
  0
CLASS
  1
LONG_TRANSACTION
  2
AcDbLongTransaction
  3
AutoCAD 2000
 90
    32768
280
     0
281
     0
  0
CLASS
  1
LWPOLYLINE
  2
AcDbPolyline
  3
AutoCAD 2000
 90
    32768
280
     0
281
     1
  0
CLASS
  1
HATCH
  2
AcDbHatch
  3
AutoCAD 2000
 90
    32768
280
     0
281
     1
  0
CLASS
  1
XRECORD
  2
AcDbXrecord
  3
AutoCAD 2000
 90
    32768
280
     0
281
     0
  0
CLASS
  1
LONG_TRANSACTION
  2
AcDbLongTransaction
  3
AutoCAD 2000
 90
    32768
280
     0
281
     0
  0
CLASS
  1
LWPOLYLINE
  2
AcDbPolyline
  3
AutoCAD 2000
 90
    32768
280
     0
281
     1
  0
CLASS
  1
HATCH
  2
AcDbHatch
  3
AutoCAD 2000
 90
    32768
280
     0
281
     1
  0
CLASS
  1
XRECORD
  2
AcDbXrecord
  3
AutoCAD 2000
 90
    32768
280
     0
281
     0
  0
CLASS
  1
LONG_TRANSACTION
  2
AcDbLongTransaction
  3
AutoCAD 2000
 90
    32768
280
     0
281
     0
  0
CLASS
  1
LWPOLYLINE
  2
AcDbPolyline
  3
AutoCAD 2000
 90
    32768
280
     0
281
     1
  0
CLASS
  1
HATCH
  2
AcDbHatch
  3
AutoCAD 2000
 90
    32768
280
     0
281
     1
  0
CLASS
  1
XRECORD
  2
AcDbXrecord
  3
AutoCAD 2000
 90
    32768
280
     0
281
     0
  0
CLASS
  1
LONG_TRANSACTION
  2
AcDbLongTransaction
  3
AutoCAD 2000
 90
    32768
280
     0
281
     0
  0
CLASS
  1
LWPOLYLINE
  2
AcDbPolyline
  3
AutoCAD 2000
 90
    32768
280
     0
281
     1
  0
CLASS
  1
HATCH
  2
AcDbHatch
  3
AutoCAD 2000
 90
    32768
280
     0
281
     1
  0
CLASS
  1
XRECORD
  2
AcDbXrecord
  3
AutoCAD 2000
 90
    32768
280
     0
281
     0
  0
CLASS
  1
LONG_TRANSACTION
  2
AcDbLongTransaction
  3
AutoCAD 2000
 90
    32768
280
     0
281
     0
  0
CLASS
  1
LWPOLYLINE
  2
AcDbPolyline
  3
AutoCAD 2000
 90
    32768
280
     0
281
     1
  0
CLASS
  1
HATCH
  2
AcDbHatch
  3
AutoCAD 2000
 90
    32768
280
     0
281
     1
  0
CLASS
  1
XRECORD
  2
AcDbXrecord
  3
AutoCAD 2000
 90
    32768
280
     0
281
     0
  0
CLASS
  1
LONG_TRANSACTION
  2
AcDbLongTransaction
  3
AutoCAD 2000
 90
    32768
280
     0
281
     0
  0
CLASS
  1
LWPOLYLINE
  2
AcDbPolyline
  3
AutoCAD 2000
 90
    32768
280
     0
281
     1
  0
CLASS
  1
HATCH
  2
AcDbHatch
  3
AutoCAD 2000
 90
    32768
280
     0
281
     1
  0
CLASS
  1
XRECORD
  2
AcDbXrecord
  3
AutoCAD 2000
 90
    32768
280
     0
281
     0
  0
CLASS
  1
LONG_TRANSACTION
  2
AcDbLongTransaction
  3
AutoCAD 2000
 90
    32768
280
     0
281
     0
  0
CLASS
  1
LWPOLYLINE
  2
AcDbPolyline
  3
AutoCAD 2000
 90
    32768
280
     0
281
     1
  0
CLASS
  1
HATCH
  2
AcDbHatch
  3
AutoCAD 2000
 90
    32768
280
     0
281
     1
  0
CLASS
  1
XRECORD
  2
AcDbXrecord
  3
AutoCAD 2000
 90
    32768
280
     0
281
     0
  0
CLASS
  1
LONG_TRANSACTION
  2
AcDbLongTransaction
  3
AutoCAD 2000
 90
    32768
280
     0
281
     0
  0
CLASS
  1
LWPOLYLINE
  2
AcDbPolyline
  3
AutoCAD 2000
 90
    32768
280
     0
281
     1
  0
CLASS
  1
HATCH
  2
AcDbHatch
  3
AutoCAD 2000
 90
    32768
280
     0
281
     1
  0
CLASS
  1
XRECORD
  2
AcDbXrecord
  3
AutoCAD 2000
 90
    32768
280
     0
281
     0
  0
CLASS
  1
LONG_TRANSACTION
  2
AcDbLongTransaction
  3
AutoCAD 2000
 90
    32768
280
     0
281
     0
  0
CLASS
  1
LWPOLYLINE
  2
AcDbPolyline
  3
AutoCAD 2000
 90
    32768
280
     0
281
     1
  0
CLASS
  1
HATCH
  2
AcDbHatch
  3
AutoCAD 2000
 90
    32768
280
     0
281
     1
  0
CLASS
  1
XRECORD
  2
AcDbXrecord
  3
AutoCAD 2000
 90
    32768
280
     0
281
     0
  0
CLASS
  1
LONG_TRANSACTION
  2
AcDbLongTransaction
  3
AutoCAD 2000
 90
    32768
280
     0
281
     0
  0
CLASS
  1
LWPOLYLINE
  2
AcDbPolyline
  3
AutoCAD 2000
 90
    32768
280
     0
281
     1
  0
CLASS
  1
HATCH
  2
AcDbHatch
  3
AutoCAD 2000
 90
    32768
280
     0
281
     1
  0
CLASS
  1
XRECORD
  2
AcDbXrecord
  3
AutoCAD 2000
 90
    32768
280
     0
281
     0
  0
CLASS
  1
LONG_TRANSACTION
  2
AcDbLongTransaction
  3
AutoCAD 2000
 90
    32768
280
     0
281
     0
  0
CLASS
  1
LWPOLYLINE
  2
AcDbPolyline
  3
AutoCAD 2000
 90
    32768
280
     0
281
     1
  0
CLASS
  1
HATCH
  2
AcDbHatch
  3
AutoCAD 2000
 90
    32768
280
     0
281
     1
  0
CLASS
  1
XRECORD
  2
AcDbXrecord
  3
AutoCAD 2000
 90
    32768
280
     0
281
     0
  0
CLASS
  1
LONG_TRANSACTION
  2
AcDbLongTransaction
  3
AutoCAD 2000
 90
    32768
280
     0
281
     0
  0
CLASS
  1
LWPOLYLINE
  2
AcDbPolyline
  3
AutoCAD 2000
 90
    32768
280
     0
281
     1
  0
CLASS
  1
HATCH
  2
AcDbHatch
  3
AutoCAD 2000
 90
    32768
280
     0
281
     1
  0
CLASS
  1
XRECORD
  2
AcDbXrecord
  3
AutoCAD 2000
 90
    32768
280
     0
281
     0
  0
CLASS
  1
LONG_TRANSACTION
  2
AcDbLongTransaction
  3
AutoCAD 2000
 90
    32768
280
     0
281
     0
  0
CLASS
  1
LWPOLYLINE
  2
AcDbPolyline
  3
AutoCAD 2000
 90
    32768
280
     0
281
     1
  0
CLASS
  1
HATCH
  2
AcDbHatch
  3
AutoCAD 2000
 90
    32768
280
     0
281
     1
  0
CLASS
  1
XRECORD
  2
AcDbXrecord
  3
AutoCAD 2000
 90
    32768
280
     0
281
     0
  0
CLASS
  1
LONG_TRANSACTION
  2
AcDbLongTransaction
  3
AutoCAD 2000
 90
    32768
280
     0
281
     0
  0
CLASS
  1
LWPOLYLINE
  2
AcDbPolyline
  3
AutoCAD 2000
 90
    32768
280
     0
281
     1
  0
CLASS
  1
HATCH
  2
AcDbHatch
  3
AutoCAD 2000
 90
    32768
280
     0
281
     1
  0
CLASS
  1
XRECORD
  2
AcDbXrecord
  3
AutoCAD 2000
 90
    32768
280
     0
281
     0
  0
CLASS
  1
LONG_TRANSACTION
  2
AcDbLongTransaction
  3
AutoCAD 2000
 90
    32768
280
     0
281
     0
  0
CLASS
  1
LWPOLYLINE
  2
AcDbPolyline
  3
AutoCAD 2000
 90
    32768
280
     0
281
     1
  0
CLASS
  1
HATCH
  2
AcDbHatch
  3
AutoCAD 2000
 90
    32768
280
     0
281
     1
  0
CLASS
  1
XRECORD
  2
AcDbXrecord
  3
AutoCAD 2000
 90
    32768
280
     0
281
     0
  0
ENDSEC
  0
SECTION
  2
TABLES
  0
TABLE
  2
VPORT
  5
1D
330
0
100
AcDbSymbolTable
 70
     2
  0
VPORT
  5
5865
330
1D
100
AcDbSymbolTableRecord
100
AcDbViewportTableRecord
  2
*Active
 70
     0
 10
0.0
 20
0.0
 11
1.0
 21
1.0
 12
197.5000105770475
 22
165.6811379790063
 13
0.0
 23
0.0
 14
7.0
 24
7.0
 15
10.0
 25
10.0
 16
0.0
 26
0.0
 36
1.0
 17
0.0
 27
0.0
 37
0.0
 40
334.6063356594164
 41
1.520467836257309
 42
50.0
 43
0.0
 44
0.0
 50
0.0
 51
0.0
 71
     0
 72
   100
 73
     1
 74
     0
 75
     0
 76
     0
 77
     0
 78
     0
281
     0
 65
     1
110
0.0
120
0.0
130
0.0
111
1.0
121
0.0
131
0.0
112
0.0
122
1.0
132
0.0
 79
     0
146
0.0
  0
ENDTAB
  0
TABLE
  2
LTYPE
  5
18
330
0
100
AcDbSymbolTable
 70
     1
  0
LTYPE
  5
19
330
18
100
AcDbSymbolTableRecord
100
AcDbLinetypeTableRecord
  2
BYBLOCK
 70
     0
  3

 72
    65
 73
     0
 40
0.0
  0
LTYPE
  5
1A
330
18
100
AcDbSymbolTableRecord
100
AcDbLinetypeTableRecord
  2
BYLAYER
 70
     0
  3

 72
    65
 73
     0
 40
0.0
  0
LTYPE
  5
9
330
18
100
AcDbSymbolTableRecord
100
AcDbLinetypeTableRecord
  2
CONTINUOUS
 70
     0
  3
Solid line
 72
    65
 73
     0
 40
0.0
  0
ENDTAB
  0
TABLE
  2
LAYER
  5
12
102
{ACAD_XDICTIONARY
360
13
102
}
330
0
100
AcDbSymbolTable
 70
     4
  0
LAYER
  5
5
330
12
100
AcDbSymbolTableRecord
100
AcDbLayerTableRecord
  2
0
 70
     0
 62
     7
  6
CONTINUOUS
370
    -3
390
6
  0
LAYER
  5
36
330
12
100
AcDbSymbolTableRecord
100
AcDbLayerTableRecord
  2
ADM
 70
     0
 62
     4
  6
CONTINUOUS
370
    -3
390
6
  0
LAYER
  5
118
330
12
100
AcDbSymbolTableRecord
100
AcDbLayerTableRecord
  2
DEFPOINTS
 70
     0
 62
     7
  6
CONTINUOUS
290
     0
370
    -3
390
6
  0
LAYER
  5
29
330
12
100
AcDbSymbolTableRecord
100
AcDbLayerTableRecord
  2
AHJ
 70
     0
 62
     1
  6
CONTINUOUS
370
    -3
390
6
  0
ENDTAB
  0
TABLE
  2
STYLE
  5
15
330
0
100
AcDbSymbolTable
 70
     2
  0
STYLE
  5
16
330
15
100
AcDbSymbolTableRecord
100
AcDbTextStyleTableRecord
  2
STANDARD
 70
     0
 40
0.0
 41
0.8
 50
0.0
 71
     0
 42
5.0
  3
romans.shx
  4
extfont.shx
  0
STYLE
  5
32
330
15
100
AcDbSymbolTableRecord
100
AcDbTextStyleTableRecord
  2
STD
 70
     0
 40
0.0
 41
1.0
 50
0.0
 71
     0
 42
3.0
  3
TXT
  4
BIGFONT.shx
  0
ENDTAB
  0
TABLE
  2
VIEW
  5
1B
330
0
100
AcDbSymbolTable
 70
     0
  0
ENDTAB
  0
TABLE
  2
UCS
  5
1C
330
0
100
AcDbSymbolTable
 70
     0
  0
ENDTAB
  0
TABLE
  2
APPID
  5
1F
330
0
100
AcDbSymbolTable
 70
     7
  0
APPID
  5
20
330
1F
100
AcDbSymbolTableRecord
100
AcDbRegAppTableRecord
  2
ACAD
 70
     0
  0
APPID
  5
8EA
330
1F
100
AcDbSymbolTableRecord
100
AcDbRegAppTableRecord
  2
CONTENTBLOCKICON
 70
     0
  0
APPID
  5
2389
330
1F
100
AcDbSymbolTableRecord
100
AcDbRegAppTableRecord
  2
GENIUS_GENODEF_13
 70
     0
  0
APPID
  5
238A
330
1F
100
AcDbSymbolTableRecord
100
AcDbRegAppTableRecord
  2
GENIUS_GENOBJ-N-CEN_13
 70
     0
  0
APPID
  5
238B
330
1F
100
AcDbSymbolTableRecord
100
AcDbRegAppTableRecord
  2
GENIUS_GENOBJ-N-FIL_13
 70
     0
  0
APPID
  5
238C
330
1F
100
AcDbSymbolTableRecord
100
AcDbRegAppTableRecord
  2
GENIUS_GENREC_14
 70
     0
  0
APPID
  5
238D
330
1F
100
AcDbSymbolTableRecord
100
AcDbRegAppTableRecord
  2
GENIUS_GENOBJ-N-REC_13
 70
     0
  0
ENDTAB
  0
TABLE
  2
DIMSTYLE
  5
21
330
0
100
AcDbSymbolTable
 70
     2
100
AcDbDimStyleTable
 71
     0
  0
DIMSTYLE
105
34
102
{ACAD_REACTORS
330
52D3
330
52D5
330
52F4
330
52F9
330
5338
330
5344
330
5347
330
53BB
330
53F7
330
5721
102
}
330
21
100
AcDbSymbolTableRecord
100
AcDbDimStyleTableRecord
  2
1
 70
     0
 41
0.8
 42
1.5
 43
3.0
 44
1.199999999999999
 73
     0
 74
     0
 77
     1
 78
     8
 79
     2
140
3.0
141
0.0
143
0.03937
147
1.0
171
     1
173
     1
176
   256
177
   256
178
   256
179
     2
271
     2
272
     2
274
     1
284
     8
289
     2
340
16
341
2D
343
2D
344
2D
371
    -1
372
    -1
  0
DIMSTYLE
105
34FF
330
21
100
AcDbSymbolTableRecord
100
AcDbDimStyleTableRecord
  2
Standard
 70
     0
340
16
  0
ENDTAB
  0
TABLE
  2
BLOCK_RECORD
  5
1
330
0
100
AcDbSymbolTable
 70
    12
  0
BLOCK_RECORD
  5
2
102
{ACAD_XDICTIONARY
360
3
102
}
330
1
100
AcDbSymbolTableRecord
100
AcDbBlockTableRecord
  2
*MODEL_SPACE
340
B
  0
BLOCK_RECORD
  5
D
102
{ACAD_XDICTIONARY
360
E
102
}
330
1
100
AcDbSymbolTableRecord
100
AcDbBlockTableRecord
  2
*PAPER_SPACE
340
11
  0
BLOCK_RECORD
  5
2D
330
1
100
AcDbSymbolTableRecord
100
AcDbBlockTableRecord
  2
_DOT
340
0
102
{BLKREFS
331
565C
331
565D
331
566E
331
566F
331
5677
331
5678
331
5689
331
568A
331
5692
331
5693
331
569B
331
569C
331
56A4
331
56A5
102
}
  0
BLOCK_RECORD
  5
27
330
1
100
AcDbSymbolTableRecord
100
AcDbBlockTableRecord
  2
DOT
340
0
102
{BLKREFS
331
57A9
331
57AA
331
5680
331
5681
331
5767
331
5768
102
}
  0
BLOCK_RECORD
  5
547F
330
1
100
AcDbSymbolTableRecord
100
AcDbBlockTableRecord
  2
*D2
340
0
  0
BLOCK_RECORD
  5
548B
330
1
100
AcDbSymbolTableRecord
100
AcDbBlockTableRecord
  2
*D3
340
0
  0
BLOCK_RECORD
  5
5497
330
1
100
AcDbSymbolTableRecord
100
AcDbBlockTableRecord
  2
*D4
340
0
  0
BLOCK_RECORD
  5
54B0
330
1
100
AcDbSymbolTableRecord
100
AcDbBlockTableRecord
  2
*D5
340
0
  0
BLOCK_RECORD
  5
54BC
330
1
100
AcDbSymbolTableRecord
100
AcDbBlockTableRecord
  2
*D6
340
0
  0
BLOCK_RECORD
  5
54C8
330
1
100
AcDbSymbolTableRecord
100
AcDbBlockTableRecord
  2
*D7
340
0
  0
BLOCK_RECORD
  5
54D4
330
1
100
AcDbSymbolTableRecord
100
AcDbBlockTableRecord
  2
*D8
340
0
  0
BLOCK_RECORD
  5
54E0
330
1
100
AcDbSymbolTableRecord
100
AcDbBlockTableRecord
  2
*D9
340
0
  0
BLOCK_RECORD
  5
54EC
330
1
100
AcDbSymbolTableRecord
100
AcDbBlockTableRecord
  2
*D10
340
0
  0
BLOCK_RECORD
  5
5722
330
1
100
AcDbSymbolTableRecord
100
AcDbBlockTableRecord
  2
*D11
340
0
  0
ENDTAB
  0
ENDSEC
  0
SECTION
  2
BLOCKS
  0
BLOCK
  5
4
330
2
100
AcDbEntity
  8
0
100
AcDbBlockBegin
  2
*MODEL_SPACE
 70
     0
 10
0.0
 20
0.0
 30
0.0
  3
*MODEL_SPACE
  1

  0
ENDBLK
  5
A
330
2
100
AcDbEntity
  8
0
100
AcDbBlockEnd
  0
BLOCK
  5
F
330
D
100
AcDbEntity
 67
     1
  8
0
100
AcDbBlockBegin
  2
*PAPER_SPACE
 70
     0
 10
0.0
 20
0.0
 30
0.0
  3
*PAPER_SPACE
  1

  0
ENDBLK
  5
10
330
D
100
AcDbEntity
 67
     1
  8
0
100
AcDbBlockEnd
  0
BLOCK
  5
30
330
2D
100
AcDbEntity
  8
0
100
AcDbBlockBegin
  2
_DOT
 70
     0
 10
0.0
 20
0.0
 30
0.0
  3
_DOT
  1

  0
LWPOLYLINE
  5
2E
330
2D
100
AcDbEntity
  8
0
  6
ByBlock
 62
     0
100
AcDbPolyline
 90
        2
 70
     1
 43
0.5
 10
-0.25
 20
0.0
 42
1.0
 10
0.25
 20
0.0
 42
1.0
  0
LINE
  5
2F
330
2D
100
AcDbEntity
  8
0
  6
ByBlock
 62
     0
100
AcDbLine
 10
-0.5
 20
0.0
 30
0.0
 11
-1.0
 21
0.0
 31
0.0
  0
ENDBLK
  5
31
330
2D
100
AcDbEntity
  8
0
100
AcDbBlockEnd
  0
BLOCK
  5
2B
330
27
100
AcDbEntity
  8
0
100
AcDbBlockBegin
  2
DOT
 70
     0
 10
0.0
 20
0.0
 30
0.0
  3
DOT
  1

  0
LWPOLYLINE
  5
28
330
27
100
AcDbEntity
  8
AHJ
  6
ByBlock
 62
     0
100
AcDbPolyline
 90
        2
 70
     1
 43
0.5
 10
-0.25
 20
0.0
 42
1.0
 10
0.25
 20
0.0
 42
1.0
  0
LINE
  5
2A
330
27
100
AcDbEntity
  8
AHJ
  6
ByBlock
 62
     0
100
AcDbLine
 10
-0.5
 20
0.0
 30
0.0
 11
-1.0
 21
0.0
 31
0.0
  0
ENDBLK
  5
2C
330
27
100
AcDbEntity
  8
0
100
AcDbBlockEnd
  0
BLOCK
  5
5489
330
547F
100
AcDbEntity
  8
0
100
AcDbBlockBegin
  2
*D2
 70
     1
 10
0.0
 20
0.0
 30
0.0
  3
*D2
  1

  0
LINE
  5
5659
330
547F
100
AcDbEntity
  8
ADM
100
AcDbLine
 10
160.9999999999994
 20
61.81140744142394
 30
0.0
 11
160.9999999999994
 21
28.79999999999993
 31
0.0
  0
LINE
  5
565A
330
547F
100
AcDbEntity
  8
ADM
100
AcDbLine
 10
375.0
 20
61.81140744142304
 30
0.0
 11
375.0
 21
28.79999999999993
 31
0.0
  0
LINE
  5
565B
330
547F
100
AcDbEntity
  8
ADM
100
AcDbLine
 10
161.7999999999994
 20
29.99999999999993
 30
0.0
 11
374.2
 21
29.99999999999993
 31
0.0
  0
INSERT
  5
565C
330
547F
100
AcDbEntity
  8
ADM
100
AcDbBlockReference
  2
_DOT
 10
160.9999999999994
 20
29.99999999999993
 30
0.0
 41
0.8
 42
0.8
 43
0.8
 50
180.0
  0
INSERT
  5
565D
330
547F
100
AcDbEntity
  8
ADM
100
AcDbBlockReference
  2
_DOT
 10
375.0
 20
29.99999999999993
 30
0.0
 41
0.8
 42
0.8
 43
0.8
  0
MTEXT
  5
565E
330
547F
100
AcDbEntity
  8
ADM
100
AcDbMText
 10
267.9999999999997
 20
32.49999999999993
 30
0.0
 40
3.0
 41
0.0
 71
     5
 72
     5
  1
\A1;W
 73
     1
 44
1.0
1001
ACAD
1000
MTEXTBEGIN
1070
    73
1070
     1
1070
    44
1040
1.0
1070
    74
1070
     0
1000
MTEXTEND
  0
POINT
  5
565F
330
547F
100
AcDbEntity
  8
DEFPOINTS
 62
     0
100
AcDbPoint
 10
160.9999999999994
 20
63.31140744142395
 30
0.0
  0
POINT
  5
5660
330
547F
100
AcDbEntity
  8
DEFPOINTS
 62
     0
100
AcDbPoint
 10
375.0
 20
63.31140744142303
 30
0.0
  0
POINT
  5
5661
330
547F
100
AcDbEntity
  8
DEFPOINTS
 62
     0
100
AcDbPoint
 10
375.0
 20
29.99999999999993
 30
0.0
  0
ENDBLK
  5
548A
330
547F
100
AcDbEntity
  8
0
100
AcDbBlockEnd
  0
BLOCK
  5
5495
330
548B
100
AcDbEntity
  8
0
100
AcDbBlockBegin
  2
*D3
 70
     1
 10
0.0
 20
0.0
 30
0.0
  3
*D3
  1

  0
LINE
  5
57A6
330
548B
100
AcDbEntity
  8
ADM
100
AcDbLine
 10
82.99999999999988
 20
220.0
 30
0.0
 11
122.1999999999999
 21
220.0
 31
0.0
  0
LINE
  5
57A7
330
548B
100
AcDbEntity
  8
ADM
100
AcDbLine
 10
82.99999999999988
 20
40.0
 30
0.0
 11
122.1999999999999
 21
39.99999999999999
 31
0.0
  0
LINE
  5
57A8
330
548B
100
AcDbEntity
  8
ADM
100
AcDbLine
 10
120.9999999999999
 20
219.1999999999999
 30
0.0
 11
120.9999999999999
 21
40.79999999999999
 31
0.0
  0
INSERT
  5
57A9
330
548B
100
AcDbEntity
  8
ADM
100
AcDbBlockReference
  2
DOT
 10
120.9999999999999
 20
220.0
 30
0.0
 41
0.8
 42
0.8
 43
0.8
 50
90.0
  0
INSERT
  5
57AA
330
548B
100
AcDbEntity
  8
ADM
100
AcDbBlockReference
  2
DOT
 10
120.9999999999999
 20
39.99999999999999
 30
0.0
 41
0.8
 42
0.8
 43
0.8
 50
270.0
  0
MTEXT
  5
57AB
330
548B
100
AcDbEntity
  8
ADM
100
AcDbMText
 10
118.4999999999999
 20
130.0
 30
0.0
 40
3.0
 41
0.0
 71
     5
 72
     5
  1
\A1;H
 11
0.0000000000000001
 21
1.0
 31
0.0
 73
     1
 44
1.0
1001
ACAD
1000
MTEXTBEGIN
1070
    73
1070
     1
1070
    44
1040
1.0
1070
    74
1070
     0
1000
MTEXTEND
  0
POINT
  5
57AC
330
548B
100
AcDbEntity
  8
DEFPOINTS
 62
     0
100
AcDbPoint
 10
81.49999999999989
 20
220.0
 30
0.0
  0
POINT
  5
57AD
330
548B
100
AcDbEntity
  8
DEFPOINTS
 62
     0
100
AcDbPoint
 10
81.49999999999989
 20
40.0
 30
0.0
  0
POINT
  5
57AE
330
548B
100
AcDbEntity
  8
DEFPOINTS
 62
     0
100
AcDbPoint
 10
120.9999999999999
 20
39.99999999999999
 30
0.0
  0
ENDBLK
  5
5496
330
548B
100
AcDbEntity
  8
0
100
AcDbBlockEnd
  0
BLOCK
  5
54A1
330
5497
100
AcDbEntity
  8
0
100
AcDbBlockBegin
  2
*D4
 70
     1
 10
0.0
 20
0.0
 30
0.0
  3
*D4
  1

  0
LINE
  5
566B
330
5497
100
AcDbEntity
  8
ADM
100
AcDbLine
 10
173.9999999999989
 20
60.4999999999999
 30
0.0
 11
173.9999999999989
 21
35.8
 31
0.0
  0
LINE
  5
566C
330
5497
100
AcDbEntity
  8
ADM
100
AcDbLine
 10
160.9999999999994
 20
61.81140744142394
 30
0.0
 11
160.9999999999994
 21
35.8
 31
0.0
  0
LINE
  5
566D
330
5497
100
AcDbEntity
  8
ADM
100
AcDbLine
 10
173.1999999999989
 20
36.99999999999999
 30
0.0
 11
161.7999999999994
 21
36.99999999999999
 31
0.0
  0
INSERT
  5
566E
330
5497
100
AcDbEntity
  8
ADM
100
AcDbBlockReference
  2
_DOT
 10
173.9999999999989
 20
36.99999999999999
 30
0.0
 41
0.8
 42
0.8
 43
0.8
  0
INSERT
  5
566F
330
5497
100
AcDbEntity
  8
ADM
100
AcDbBlockReference
  2
_DOT
 10
160.9999999999994
 20
36.99999999999999
 30
0.0
 41
0.8
 42
0.8
 43
0.8
 50
180.0
  0
MTEXT
  5
5670
330
5497
100
AcDbEntity
  8
ADM
100
AcDbMText
 10
167.4999999999992
 20
39.49999999999999
 30
0.0
 40
3.0
 41
0.0
 71
     5
 72
     5
  1
\A1;13
 73
     1
 44
1.0
1001
ACAD
1000
MTEXTBEGIN
1070
    73
1070
     1
1070
    44
1040
1.0
1070
    74
1070
     0
1000
MTEXTEND
  0
POINT
  5
5671
330
5497
100
AcDbEntity
  8
DEFPOINTS
 62
     0
100
AcDbPoint
 10
173.9999999999989
 20
61.99999999999989
 30
0.0
  0
POINT
  5
5672
330
5497
100
AcDbEntity
  8
DEFPOINTS
 62
     0
100
AcDbPoint
 10
160.9999999999994
 20
63.31140744142395
 30
0.0
  0
POINT
  5
5673
330
5497
100
AcDbEntity
  8
DEFPOINTS
 62
     0
100
AcDbPoint
 10
160.9999999999994
 20
36.99999999999999
 30
0.0
  0
ENDBLK
  5
54A2
330
5497
100
AcDbEntity
  8
0
100
AcDbBlockEnd
  0
BLOCK
  5
54BA
330
54B0
100
AcDbEntity
  8
0
100
AcDbBlockBegin
  2
*D5
 70
     1
 10
0.0
 20
0.0
 30
0.0
  3
*D5
  1

  0
LINE
  5
5674
330
54B0
100
AcDbEntity
  8
ADM
100
AcDbLine
 10
160.4999999999994
 20
125.9999999999999
 30
0.0
 11
144.7999999999994
 21
125.9999999999999
 31
0.0
  0
LINE
  5
5675
330
54B0
100
AcDbEntity
  8
ADM
100
AcDbLine
 10
160.4999999999991
 20
61.99999999999995
 30
0.0
 11
144.7999999999994
 21
61.99999999999995
 31
0.0
  0
LINE
  5
5676
330
54B0
100
AcDbEntity
  8
ADM
100
AcDbLine
 10
145.9999999999994
 20
125.1999999999999
 30
0.0
 11
145.9999999999993
 21
62.79999999999994
 31
0.0
  0
INSERT
  5
5677
330
54B0
100
AcDbEntity
  8
ADM
100
AcDbBlockReference
  2
_DOT
 10
145.9999999999994
 20
125.9999999999999
 30
0.0
 41
0.8
 42
0.8
 43
0.8
 50
90.0
  0
INSERT
  5
5678
330
54B0
100
AcDbEntity
  8
ADM
100
AcDbBlockReference
  2
_DOT
 10
145.9999999999993
 20
61.99999999999995
 30
0.0
 41
0.8
 42
0.8
 43
0.8
 50
270.0
  0
MTEXT
  5
5679
330
54B0
100
AcDbEntity
  8
ADM
100
AcDbMText
 10
143.4999999999994
 20
93.99999999999998
 30
0.0
 40
3.0
 41
0.0
 71
     5
 72
     5
  1
\A1;64
 11
0.0000000000000001
 21
1.0
 31
0.0
 73
     1
 44
1.0
1001
ACAD
1000
MTEXTBEGIN
1070
    73
1070
     1
1070
    44
1040
1.0
1070
    74
1070
     0
1000
MTEXTEND
  0
POINT
  5
567A
330
54B0
100
AcDbEntity
  8
DEFPOINTS
 62
     0
100
AcDbPoint
 10
161.9999999999994
 20
125.9999999999999
 30
0.0
  0
POINT
  5
567B
330
54B0
100
AcDbEntity
  8
DEFPOINTS
 62
     0
100
AcDbPoint
 10
161.9999999999991
 20
61.99999999999995
 30
0.0
  0
POINT
  5
567C
330
54B0
100
AcDbEntity
  8
DEFPOINTS
 62
     0
100
AcDbPoint
 10
145.9999999999993
 20
61.99999999999995
 30
0.0
  0
ENDBLK
  5
54BB
330
54B0
100
AcDbEntity
  8
0
100
AcDbBlockEnd
  0
BLOCK
  5
54C6
330
54BC
100
AcDbEntity
  8
0
100
AcDbBlockBegin
  2
*D6
 70
     1
 10
0.0
 20
0.0
 30
0.0
  3
*D6
  1

  0
LINE
  5
567D
330
54BC
100
AcDbEntity
  8
ADM
100
AcDbLine
 10
90.49999999999997
 20
210.0
 30
0.0
 11
115.2
 21
210.0
 31
0.0
  0
LINE
  5
567E
330
54BC
100
AcDbEntity
  8
ADM
100
AcDbLine
 10
82.99999999999988
 20
220.0
 30
0.0
 11
115.2
 21
220.0
 31
0.0
  0
LINE
  5
567F
330
54BC
100
AcDbEntity
  8
ADM
100
AcDbLine
 10
114.0
 20
210.8
 30
0.0
 11
114.0
 21
219.1999999999999
 31
0.0
  0
INSERT
  5
5680
330
54BC
100
AcDbEntity
  8
ADM
100
AcDbBlockReference
  2
DOT
 10
114.0
 20
210.0
 30
0.0
 41
0.8
 42
0.8
 43
0.8
 50
270.0
  0
INSERT
  5
5681
330
54BC
100
AcDbEntity
  8
ADM
100
AcDbBlockReference
  2
DOT
 10
114.0
 20
220.0
 30
0.0
 41
0.8
 42
0.8
 43
0.8
 50
90.0
  0
MTEXT
  5
5682
330
54BC
100
AcDbEntity
  8
ADM
100
AcDbMText
 10
111.4999999999999
 20
215.0
 30
0.0
 40
3.0
 41
0.0
 71
     5
 72
     5
  1
\A1;10
 11
0.0000000000000001
 21
1.0
 31
0.0
 73
     1
 44
1.0
1001
ACAD
1000
MTEXTBEGIN
1070
    73
1070
     1
1070
    44
1040
1.0
1070
    74
1070
     0
1000
MTEXTEND
  0
POINT
  5
5683
330
54BC
100
AcDbEntity
  8
DEFPOINTS
 62
     0
100
AcDbPoint
 10
88.99999999999996
 20
210.0
 30
0.0
  0
POINT
  5
5684
330
54BC
100
AcDbEntity
  8
DEFPOINTS
 62
     0
100
AcDbPoint
 10
81.49999999999989
 20
220.0
 30
0.0
  0
POINT
  5
5685
330
54BC
100
AcDbEntity
  8
DEFPOINTS
 62
     0
100
AcDbPoint
 10
114.0
 20
220.0
 30
0.0
  0
ENDBLK
  5
54C7
330
54BC
100
AcDbEntity
  8
0
100
AcDbBlockEnd
  0
BLOCK
  5
54D2
330
54C8
100
AcDbEntity
  8
0
100
AcDbBlockBegin
  2
*D7
 70
     1
 10
0.0
 20
0.0
 30
0.0
  3
*D7
  1

  0
LINE
  5
5686
330
54C8
100
AcDbEntity
  8
ADM
100
AcDbLine
 10
233.0
 20
60.50000000000022
 30
0.0
 11
233.0
 21
35.79999999999996
 31
0.0
  0
LINE
  5
5687
330
54C8
100
AcDbEntity
  8
ADM
100
AcDbLine
 10
302.9999999999998
 20
60.49999999999986
 30
0.0
 11
302.9999999999998
 21
35.79999999999996
 31
0.0
  0
LINE
  5
5688
330
54C8
100
AcDbEntity
  8
ADM
100
AcDbLine
 10
233.8
 20
36.99999999999996
 30
0.0
 11
302.1999999999998
 21
36.99999999999996
 31
0.0
  0
INSERT
  5
5689
330
54C8
100
AcDbEntity
  8
ADM
100
AcDbBlockReference
  2
_DOT
 10
233.0
 20
36.99999999999996
 30
0.0
 41
0.8
 42
0.8
 43
0.8
 50
180.0
  0
INSERT
  5
568A
330
54C8
100
AcDbEntity
  8
ADM
100
AcDbBlockReference
  2
_DOT
 10
302.9999999999998
 20
36.99999999999996
 30
0.0
 41
0.8
 42
0.8
 43
0.8
  0
MTEXT
  5
568B
330
54C8
100
AcDbEntity
  8
ADM
100
AcDbMText
 10
267.9999999999999
 20
39.49999999999996
 30
0.0
 40
3.0
 41
0.0
 71
     5
 72
     5
  1
\A1;70
 73
     1
 44
1.0
1001
ACAD
1000
MTEXTBEGIN
1070
    73
1070
     1
1070
    44
1040
1.0
1070
    74
1070
     0
1000
MTEXTEND
  0
POINT
  5
568C
330
54C8
100
AcDbEntity
  8
DEFPOINTS
 62
     0
100
AcDbPoint
 10
233.0
 20
62.00000000000023
 30
0.0
  0
POINT
  5
568D
330
54C8
100
AcDbEntity
  8
DEFPOINTS
 62
     0
100
AcDbPoint
 10
302.9999999999998
 20
61.99999999999985
 30
0.0
  0
POINT
  5
568E
330
54C8
100
AcDbEntity
  8
DEFPOINTS
 62
     0
100
AcDbPoint
 10
302.9999999999998
 20
36.99999999999996
 30
0.0
  0
ENDBLK
  5
54D3
330
54C8
100
AcDbEntity
  8
0
100
AcDbBlockEnd
  0
BLOCK
  5
54DE
330
54D4
100
AcDbEntity
  8
0
100
AcDbBlockBegin
  2
*D8
 70
     1
 10
0.0
 20
0.0
 30
0.0
  3
*D8
  1

  0
LINE
  5
568F
330
54D4
100
AcDbEntity
  8
ADM
100
AcDbLine
 10
241.5999999999996
 20
136.0
 30
0.0
 11
216.8
 21
136.0
 31
0.0
  0
LINE
  5
5690
330
54D4
100
AcDbEntity
  8
ADM
100
AcDbLine
 10
241.5999999999998
 20
51.99999999999997
 30
0.0
 11
216.8
 21
51.99999999999998
 31
0.0
  0
LINE
  5
5691
330
54D4
100
AcDbEntity
  8
ADM
100
AcDbLine
 10
218.0
 20
135.1999999999999
 30
0.0
 11
218.0
 21
52.79999999999997
 31
0.0
  0
INSERT
  5
5692
330
54D4
100
AcDbEntity
  8
ADM
100
AcDbBlockReference
  2
_DOT
 10
218.0
 20
136.0
 30
0.0
 41
0.8
 42
0.8
 43
0.8
 50
90.0
  0
INSERT
  5
5693
330
54D4
100
AcDbEntity
  8
ADM
100
AcDbBlockReference
  2
_DOT
 10
218.0
 20
51.99999999999998
 30
0.0
 41
0.8
 42
0.8
 43
0.8
 50
270.0
  0
MTEXT
  5
5694
330
54D4
100
AcDbEntity
  8
ADM
100
AcDbMText
 10
215.5
 20
94.00000000000002
 30
0.0
 40
3.0
 41
0.0
 71
     5
 72
     5
  1
\A1;84
 11
0.0000000000000001
 21
1.0
 31
0.0
 73
     1
 44
1.0
1001
ACAD
1000
MTEXTBEGIN
1070
    73
1070
     1
1070
    44
1040
1.0
1070
    74
1070
     0
1000
MTEXTEND
  0
POINT
  5
5695
330
54D4
100
AcDbEntity
  8
DEFPOINTS
 62
     0
100
AcDbPoint
 10
243.0999999999996
 20
136.0
 30
0.0
  0
POINT
  5
5696
330
54D4
100
AcDbEntity
  8
DEFPOINTS
 62
     0
100
AcDbPoint
 10
243.0999999999997
 20
51.99999999999997
 30
0.0
  0
POINT
  5
5697
330
54D4
100
AcDbEntity
  8
DEFPOINTS
 62
     0
100
AcDbPoint
 10
218.0
 20
51.99999999999998
 30
0.0
  0
ENDBLK
  5
54DF
330
54D4
100
AcDbEntity
  8
0
100
AcDbBlockEnd
  0
BLOCK
  5
54EA
330
54E0
100
AcDbEntity
  8
0
100
AcDbBlockBegin
  2
*D9
 70
     1
 10
0.0
 20
0.0
 30
0.0
  3
*D9
  1

  0
LINE
  5
5698
330
54E0
100
AcDbEntity
  8
ADM
100
AcDbLine
 10
362.0
 20
60.50000000000029
 30
0.0
 11
362.0
 21
35.79999999999994
 31
0.0
  0
LINE
  5
5699
330
54E0
100
AcDbEntity
  8
ADM
100
AcDbLine
 10
375.0
 20
61.81140744142297
 30
0.0
 11
375.0
 21
35.79999999999994
 31
0.0
  0
LINE
  5
569A
330
54E0
100
AcDbEntity
  8
ADM
100
AcDbLine
 10
362.8
 20
36.99999999999993
 30
0.0
 11
374.1999999999999
 21
36.99999999999993
 31
0.0
  0
INSERT
  5
569B
330
54E0
100
AcDbEntity
  8
ADM
100
AcDbBlockReference
  2
_DOT
 10
362.0
 20
36.99999999999993
 30
0.0
 41
0.8
 42
0.8
 43
0.8
 50
180.0
  0
INSERT
  5
569C
330
54E0
100
AcDbEntity
  8
ADM
100
AcDbBlockReference
  2
_DOT
 10
375.0
 20
36.99999999999993
 30
0.0
 41
0.8
 42
0.8
 43
0.8
  0
MTEXT
  5
569D
330
54E0
100
AcDbEntity
  8
ADM
100
AcDbMText
 10
368.5
 20
39.49999999999993
 30
0.0
 40
3.0
 41
0.0
 71
     5
 72
     5
  1
\A1;13
 73
     1
 44
1.0
1001
ACAD
1000
MTEXTBEGIN
1070
    73
1070
     1
1070
    44
1040
1.0
1070
    74
1070
     0
1000
MTEXTEND
  0
POINT
  5
569E
330
54E0
100
AcDbEntity
  8
DEFPOINTS
 62
     0
100
AcDbPoint
 10
362.0
 20
62.00000000000029
 30
0.0
  0
POINT
  5
569F
330
54E0
100
AcDbEntity
  8
DEFPOINTS
 62
     0
100
AcDbPoint
 10
375.0
 20
63.31140744142297
 30
0.0
  0
POINT
  5
56A0
330
54E0
100
AcDbEntity
  8
DEFPOINTS
 62
     0
100
AcDbPoint
 10
375.0
 20
36.99999999999993
 30
0.0
  0
ENDBLK
  5
54EB
330
54E0
100
AcDbEntity
  8
0
100
AcDbBlockEnd
  0
BLOCK
  5
54F6
330
54EC
100
AcDbEntity
  8
0
100
AcDbBlockBegin
  2
*D10
 70
     1
 10
0.0
 20
0.0
 30
0.0
  3
*D10
  1

  0
LINE
  5
56A1
330
54EC
100
AcDbEntity
  8
ADM
100
AcDbLine
 10
292.2499999999998
 20
248.0
 30
0.0
 11
334.1999999999996
 21
247.9999999999999
 31
0.0
  0
LINE
  5
56A2
330
54EC
100
AcDbEntity
  8
ADM
100
AcDbLine
 10
294.3999999999996
 20
172.0
 30
0.0
 11
334.1999999999996
 21
171.9999999999999
 31
0.0
  0
LINE
  5
56A3
330
54EC
100
AcDbEntity
  8
ADM
100
AcDbLine
 10
332.9999999999997
 20
247.1999999999999
 30
0.0
 11
332.9999999999997
 21
172.7999999999999
 31
0.0
  0
INSERT
  5
56A4
330
54EC
100
AcDbEntity
  8
ADM
100
AcDbBlockReference
  2
_DOT
 10
332.9999999999997
 20
247.9999999999999
 30
0.0
 41
0.8
 42
0.8
 43
0.8
 50
90.0
  0
INSERT
  5
56A5
330
54EC
100
AcDbEntity
  8
ADM
100
AcDbBlockReference
  2
_DOT
 10
332.9999999999997
 20
171.9999999999999
 30
0.0
 41
0.8
 42
0.8
 43
0.8
 50
270.0
  0
MTEXT
  5
56A6
330
54EC
100
AcDbEntity
  8
ADM
100
AcDbMText
 10
330.4999999999996
 20
210.0
 30
0.0
 40
3.0
 41
0.0
 71
     5
 72
     5
  1
\A1;76
 11
0.0000000000000001
 21
1.0
 31
0.0
 73
     1
 44
1.0
1001
ACAD
1000
MTEXTBEGIN
1070
    73
1070
     1
1070
    44
1040
1.0
1070
    74
1070
     0
1000
MTEXTEND
  0
POINT
  5
56A7
330
54EC
100
AcDbEntity
  8
DEFPOINTS
 62
     0
100
AcDbPoint
 10
290.7499999999998
 20
248.0
 30
0.0
  0
POINT
  5
56A8
330
54EC
100
AcDbEntity
  8
DEFPOINTS
 62
     0
100
AcDbPoint
 10
292.8999999999996
 20
172.0
 30
0.0
  0
POINT
  5
56A9
330
54EC
100
AcDbEntity
  8
DEFPOINTS
 62
     0
100
AcDbPoint
 10
332.9999999999997
 20
171.9999999999999
 30
0.0
  0
ENDBLK
  5
54F7
330
54EC
100
AcDbEntity
  8
0
100
AcDbBlockEnd
  0
BLOCK
  5
572E
330
5722
100
AcDbEntity
  8
0
100
AcDbBlockBegin
  2
*D11
 70
     1
 10
0.0
 20
0.0
 30
0.0
  3
*D11
  1

  0
LINE
  5
5762
330
5722
100
AcDbEntity
  8
ADM
100
AcDbLine
 10
90.49999999999997
 20
43.0
 30
0.0
 11
115.1999999999999
 21
42.99999999999999
 31
0.0
  0
LINE
  5
5763
330
5722
100
AcDbEntity
  8
ADM
100
AcDbLine
 10
82.99999999999988
 20
40.0
 30
0.0
 11
115.1999999999999
 21
39.99999999999999
 31
0.0
  0
LINE
  5
5764
330
5722
100
AcDbEntity
  8
ADM
100
AcDbLine
 10
113.9999999999999
 20
43.79999999999999
 30
0.0
 11
113.9999999999999
 21
44.59999999999999
 31
0.0
  0
LINE
  5
5765
330
5722
100
AcDbEntity
  8
ADM
100
AcDbLine
 10
113.9999999999999
 20
39.19999999999999
 30
0.0
 11
113.9999999999999
 21
34.79999999999999
 31
0.0
  0
LINE
  5
5766
330
5722
100
AcDbEntity
  8
ADM
100
AcDbLine
 10
113.9999999999999
 20
42.99999999999999
 30
0.0
 11
113.9999999999999
 21
39.99999999999999
 31
0.0
  0
INSERT
  5
5767
330
5722
100
AcDbEntity
  8
ADM
100
AcDbBlockReference
  2
DOT
 10
113.9999999999999
 20
42.99999999999999
 30
0.0
 41
0.8
 42
0.8
 43
0.8
 50
270.0
  0
INSERT
  5
5768
330
5722
100
AcDbEntity
  8
ADM
100
AcDbBlockReference
  2
DOT
 10
113.9999999999999
 20
39.99999999999999
 30
0.0
 41
0.8
 42
0.8
 43
0.8
 50
90.0
  0
MTEXT
  5
5769
330
5722
100
AcDbEntity
  8
ADM
100
AcDbMText
 10
111.4999999999999
 20
36.60000000000001
 30
0.0
 40
3.0
 41
0.0
 71
     5
 72
     5
  1
\A1;3
 11
0.0000000000000001
 21
1.0
 31
0.0
 73
     1
 44
1.0
1001
ACAD
1000
MTEXTBEGIN
1070
    73
1070
     1
1070
    44
1040
1.0
1070
    74
1070
     0
1000
MTEXTEND
  0
POINT
  5
576A
330
5722
100
AcDbEntity
  8
DEFPOINTS
 62
     0
100
AcDbPoint
 10
88.99999999999996
 20
43.0
 30
0.0
  0
POINT
  5
576B
330
5722
100
AcDbEntity
  8
DEFPOINTS
 62
     0
100
AcDbPoint
 10
81.49999999999989
 20
40.0
 30
0.0
  0
POINT
  5
576C
330
5722
100
AcDbEntity
  8
DEFPOINTS
 62
     0
100
AcDbPoint
 10
113.9999999999999
 20
39.99999999999999
 30
0.0
  0
ENDBLK
  5
572F
330
5722
100
AcDbEntity
  8
0
100
AcDbBlockEnd
  0
ENDSEC
  0
SECTION
  2
ENTITIES
  0
LINE
  5
52D1
330
2
100
AcDbEntity
  8
0
100
AcDbLine
 10
0.0
 20
0.0
 30
0.0
 11
395.0
 21
0.0
 31
0.0
  0
LINE
  5
52D2
330
2
100
AcDbEntity
  8
0
100
AcDbLine
 10
395.0
 20
275.0
 30
0.0
 11
0.0
 21
275.0
 31
0.0
  0
DIMENSION
  5
52D3
330
2
100
AcDbEntity
  8
ADM
100
AcDbDimension
  2
*D2
 10
375.0
 20
29.99999999999993
 30
0.0
 11
267.9999999999997
 21
32.49999999999993
 31
0.0
 70
    32
  1
W
 71
     5
 42
-1.0
  3
1
100
AcDbAlignedDimension
 13
160.9999999999994
 23
63.31140744142395
 33
0.0
 14
375.0
 24
63.31140744142303
 34
0.0
100
AcDbRotatedDimension
1001
ACAD
1000
DSTYLE
1002
{
1070
    40
1040
1.0
1002
}
  0
LINE
  5
52D4
330
2
100
AcDbEntity
  8
0
100
AcDbLine
 10
0.0
 20
275.0
 30
0.0
 11
0.0
 21
0.0
 31
0.0
  0
DIMENSION
  5
52D5
330
2
100
AcDbEntity
  8
ADM
100
AcDbDimension
  2
*D3
 10
120.9999999999999
 20
39.99999999999999
 30
0.0
 11
118.4999999999999
 21
130.0
 31
0.0
 70
    32
  1
H
 71
     5
 42
-1.0
  3
1
100
AcDbAlignedDimension
 13
81.49999999999989
 23
220.0
 33
0.0
 14
81.49999999999989
 24
40.0
 34
0.0
 50
90.0
100
AcDbRotatedDimension
1001
ACAD
1000
DSTYLE
1002
{
1070
    40
1040
1.0
1070
     6
1000
DOT
1070
     7
1000
DOT
1002
}
  0
LINE
  5
52D6
330
2
100
AcDbEntity
  8
0
100
AcDbLine
 10
24.99999999999997
 20
219.4999999999999
 30
0.0
 11
24.99999999999997
 21
131.0
 31
0.0
  0
LINE
  5
52D7
330
2
100
AcDbEntity
  8
0
100
AcDbLine
 10
15.0
 20
219.5
 30
0.0
 11
15.0
 21
131.0
 31
0.0
  0
LINE
  5
52D8
330
2
100
AcDbEntity
  8
0
100
AcDbLine
 10
98.99999999999998
 20
219.4999999999999
 30
0.0
 11
98.99999999999998
 21
131.0
 31
0.0
  0
LINE
  5
52D9
330
2
100
AcDbEntity
  8
0
100
AcDbLine
 10
24.49999999999997
 20
219.4999999999999
 30
0.0
 11
24.49999999999997
 21
131.0
 31
0.0
  0
LINE
  5
52DA
330
2
100
AcDbEntity
  8
0
100
AcDbLine
 10
89.49999999999997
 20
219.4999999999999
 30
0.0
 11
89.49999999999997
 21
131.0
 31
0.0
  0
LINE
  5
52DB
330
2
100
AcDbEntity
  8
0
100
AcDbLine
 10
89.0
 20
219.4999999999999
 30
0.0
 11
89.0
 21
131.0
 31
0.0
  0
LINE
  5
52DC
330
2
100
AcDbEntity
  8
0
100
AcDbLine
 10
31.99999999999988
 20
43.0
 30
0.0
 11
81.49999999999989
 21
43.0
 31
0.0
  0
LINE
  5
52DD
330
2
100
AcDbEntity
  8
0
100
AcDbLine
 10
19.49999999999988
 20
40.0
 30
0.0
 11
81.49999999999989
 21
40.0
 31
0.0
  0
LINE
  5
52DE
330
2
100
AcDbEntity
  8
0
100
AcDbLine
 10
24.99999999999997
 20
42.99999999999997
 30
0.0
 11
88.99999999999996
 21
43.0
 31
0.0
  0
LINE
  5
52E1
330
2
100
AcDbEntity
  8
0
100
AcDbLine
 10
24.99999999999997
 20
40.49999999999999
 30
0.0
 11
24.99999999999997
 21
129.0
 31
0.0
  0
LINE
  5
52E2
330
2
100
AcDbEntity
  8
0
100
AcDbLine
 10
15.0
 20
129.0
 30
0.0
 11
15.0
 21
40.49999999999999
 31
0.0
  0
LINE
  5
52E3
330
2
100
AcDbEntity
  8
0
100
AcDbLine
 10
24.49999999999997
 20
129.0
 30
0.0
 11
24.49999999999997
 21
40.49999999999999
 31
0.0
  0
LINE
  5
52E5
330
2
100
AcDbEntity
  8
0
100
AcDbLine
 10
15.0
 20
40.49999999999999
 30
0.0
 11
24.99999999999996
 21
40.49999999999999
 31
0.0
  0
LINE
  5
52E7
330
2
100
AcDbEntity
  8
0
100
AcDbLine
 10
19.49999999999988
 20
40.49999999999999
 30
0.0
 11
19.49999999999988
 21
40.0
 31
0.0
  0
LINE
  5
52F1
330
2
100
AcDbEntity
  8
0
100
AcDbLine
 10
98.99999999999998
 20
129.0
 30
0.0
 11
98.99999999999998
 21
40.49999999999999
 31
0.0
  0
LINE
  5
52F2
330
2
100
AcDbEntity
  8
0
100
AcDbLine
 10
89.49999999999997
 20
129.0
 30
0.0
 11
89.49999999999997
 21
40.49999999999999
 31
0.0
  0
LINE
  5
52F3
330
2
100
AcDbEntity
  8
0
100
AcDbLine
 10
89.0
 20
129.0
 30
0.0
 11
88.99999999999996
 21
40.49999999999999
 31
0.0
  0
DIMENSION
  5
52F4
330
2
100
AcDbEntity
  8
ADM
100
AcDbDimension
  2
*D4
 10
160.9999999999994
 20
36.99999999999999
 30
0.0
 11
167.4999999999992
 21
39.49999999999999
 31
0.0
 70
    32
 71
     5
 42
-1.0
  3
1
100
AcDbAlignedDimension
 13
173.9999999999989
 23
61.99999999999989
 33
0.0
 14
160.9999999999994
 24
63.31140744142395
 34
0.0
100
AcDbRotatedDimension
1001
ACAD
1000
DSTYLE
1002
{
1070
    40
1040
1.0
1002
}
  0
LINE
  5
52F6
330
2
100
AcDbEntity
  8
0
100
AcDbLine
 10
81.49999999999989
 20
40.50000000000003
 30
0.0
 11
99.0
 21
40.49999999999999
 31
0.0
  0
LINE
  5
52F7
330
2
100
AcDbEntity
  8
0
100
AcDbLine
 10
81.49999999999989
 20
40.50000000000003
 30
0.0
 11
81.49999999999989
 21
40.0
 31
0.0
  0
DIMENSION
  5
52F9
330
2
100
AcDbEntity
  8
ADM
100
AcDbDimension
  2
*D5
 10
145.9999999999993
 20
61.99999999999995
 30
0.0
 11
143.4999999999994
 21
93.99999999999998
 31
0.0
 70
    32
 71
     5
 42
-1.0
  3
1
100
AcDbAlignedDimension
 13
161.9999999999994
 23
125.9999999999999
 33
0.0
 14
161.9999999999991
 24
61.99999999999995
 34
0.0
 50
90.0
100
AcDbRotatedDimension
1001
ACAD
1000
DSTYLE
1002
{
1070
    40
1040
1.0
1002
}
  0
LINE
  5
52FA
330
2
100
AcDbEntity
  8
0
100
AcDbLine
 10
160.9999999999994
 20
63.31140744142395
 30
0.0
 11
160.9999999999994
 21
124.6885925585757
 31
0.0
  0
LINE
  5
52FB
330
2
100
AcDbEntity
  8
0
 48
2.0
100
AcDbLine
 10
173.9999999999989
 20
95.90495817831094
 30
0.0
 11
173.9999999999989
 21
93.54999999999828
 31
0.0
  0
LINE
  5
52FC
330
2
100
AcDbEntity
  8
0
 48
2.0
100
AcDbLine
 10
173.3999999999989
 20
93.54999999999828
 30
0.0
 11
173.3999999999989
 21
95.90495817831094
 31
0.0
  0
LINE
  5
52FD
330
2
100
AcDbEntity
  8
0
100
AcDbLine
 10
164.9999999999992
 20
108.4999999999972
 30
0.0
 11
164.9999999999992
 21
93.54999999999828
 31
0.0
  0
LINE
  5
52FE
330
2
100
AcDbEntity
  8
0
100
AcDbLine
 10
173.9999999999989
 20
61.99999999999989
 30
0.0
 11
161.9999999999991
 21
61.99999999999995
 31
0.0
  0
LINE
  5
52FF
330
2
100
AcDbEntity
  8
0
100
AcDbLine
 10
164.9999999999992
 20
93.54999999999828
 30
0.0
 11
173.399999999999
 21
93.54999999999828
 31
0.0
  0
ARC
  5
5300
330
2
100
AcDbEntity
  8
0
100
AcDbCircle
 10
162.5599999999994
 20
64.49799919935928
 30
0.0
 40
2.560000000000032
100
AcDbArc
 50
174.8720091169048
 51
257.3643749069789
  0
ARC
  5
5301
330
2
100
AcDbEntity
  8
0
100
AcDbCircle
 10
162.5599999999994
 20
64.49799919935928
 30
0.0
 40
1.960000000000024
100
AcDbArc
 50
174.8720091169055
 51
217.2579160013132
  0
ARC
  5
5302
330
2
100
AcDbEntity
  8
0
100
AcDbCircle
 10
160.309045607627
 20
64.69999999999988
 30
0.0
 40
0.3000000000000056
100
AcDbArc
 50
354.8720091169029
 51
174.8720091169029
  0
LINE
  5
5303
330
2
100
AcDbEntity
  8
0
100
AcDbLine
 10
173.9999999999989
 20
93.54999999999828
 30
0.0
 11
173.9999999999989
 21
61.99999999999989
 31
0.0
  0
LINE
  5
5304
330
2
100
AcDbEntity
  8
0
100
AcDbLine
 10
195.9999999999994
 20
63.79999999999877
 30
0.0
 11
173.9999999999989
 21
63.79999999999878
 31
0.0
  0
LINE
  5
5305
330
2
100
AcDbEntity
  8
0
100
AcDbLine
 10
195.9999999999994
 20
65.59999999999871
 30
0.0
 11
173.9999999999989
 21
65.59999999999874
 31
0.0
  0
LINE
  5
5306
330
2
100
AcDbEntity
  8
0
100
AcDbLine
 10
195.9999999999994
 20
85.1999999999996
 30
0.0
 11
173.9999999999989
 21
85.19999999999964
 31
0.0
  0
LINE
  5
5307
330
2
100
AcDbEntity
  8
0
100
AcDbLine
 10
195.9999999999994
 20
81.1999999999996
 30
0.0
 11
173.9999999999989
 21
81.19999999999963
 31
0.0
  0
ARC
  5
5308
330
2
100
AcDbEntity
  8
0
100
AcDbCircle
 10
163.4999999999991
 20
117.9303039929144
 30
0.0
 40
5.000000000000052
100
AcDbArc
 50
346.3909378245769
 51
72.54239687627723
  0
ARC
  5
5309
330
2
100
AcDbEntity
  8
0
100
AcDbCircle
 10
163.4999999999991
 20
117.9303039929145
 30
0.0
 40
4.400000000000002
100
AcDbArc
 50
346.3909378245766
 51
70.06772952779849
  0
LINE
  5
530A
330
2
100
AcDbEntity
  8
0
100
AcDbLine
 10
166.6999999999991
 20
123.8999999999997
 30
0.0
 11
164.9999999999993
 21
123.1066666666664
 31
0.0
  0
LINE
  5
530B
330
2
100
AcDbEntity
  8
0
100
AcDbLine
 10
161.9999999999994
 20
125.9999999999999
 30
0.0
 11
166.6999999999992
 21
125.9999999999999
 31
0.0
  0
LINE
  5
530C
330
2
100
AcDbEntity
  8
0
100
AcDbLine
 10
167.9999999999992
 20
108.9999999999973
 30
0.0
 11
165.4999999999992
 21
108.9999999999972
 31
0.0
  0
LINE
  5
530D
330
2
100
AcDbEntity
  8
0
100
AcDbLine
 10
165.4999999999992
 20
110.4999999999973
 30
0.0
 11
168.4999999999992
 21
110.4999999999973
 31
0.0
  0
LINE
  5
530E
330
2
100
AcDbEntity
  8
0
100
AcDbLine
 10
164.9999999999988
 20
115.2
 30
0.0
 11
195.9999999999993
 21
115.2
 31
0.0
  0
LINE
  5
530F
330
2
100
AcDbEntity
  8
0
100
AcDbLine
 10
164.9999999999988
 20
111.2
 30
0.0
 11
195.9999999999993
 21
111.1999999999999
 31
0.0
  0
LINE
  5
5310
330
2
100
AcDbEntity
  8
0
100
AcDbLine
 10
164.9999999999993
 20
122.0667275689037
 30
0.0
 11
164.9999999999992
 21
110.9999999999973
 31
0.0
  0
ARC
  5
5311
330
2
100
AcDbEntity
  8
0
100
AcDbCircle
 10
165.4999999999992
 20
110.9999999999973
 30
0.0
 40
0.5
100
AcDbArc
 50
180.0
 51
270.0
  0
ARC
  5
5312
330
2
100
AcDbEntity
  8
0
100
AcDbCircle
 10
165.4999999999992
 20
108.4999999999972
 30
0.0
 40
0.5
100
AcDbArc
 50
90.0
 51
180.0
  0
ARC
  5
5313
330
2
100
AcDbEntity
  8
0
100
AcDbCircle
 10
162.5599999999993
 20
123.5020008006404
 30
0.0
 40
1.959999999999903
100
AcDbArc
 50
142.7420839986857
 51
185.127990883092
  0
ARC
  5
5314
330
2
100
AcDbEntity
  8
0
100
AcDbCircle
 10
160.309045607627
 20
123.2999999999999
 30
0.0
 40
0.3000000000000107
100
AcDbArc
 50
185.1279908831078
 51
5.127990883107849
  0
ARC
  5
5315
330
2
100
AcDbEntity
  8
0
100
AcDbCircle
 10
162.5599999999995
 20
123.5020008006405
 30
0.0
 40
2.560000000000092
100
AcDbArc
 50
102.6356250930219
 51
185.1279908830963
  0
LINE
  5
5316
330
2
100
AcDbEntity
  8
0
100
AcDbLine
 10
164.9999999999993
 20
123.1066666666664
 30
0.0
 11
164.9999999999993
 21
122.6999999999992
 31
0.0
  0
LINE
  5
5317
330
2
100
AcDbEntity
  8
0
 48
2.0
100
AcDbLine
 10
167.4237051890838
 20
99.52657983609732
 30
0.0
 11
173.4123506302817
 21
96.8159834017298
 31
0.0
  0
LINE
  5
5318
330
2
100
AcDbEntity
  8
0
 48
2.0
100
AcDbLine
 10
173.1649402521121
 20
96.26936826767849
 30
0.0
 11
167.1762948109141
 21
98.97996470204601
 31
0.0
  0
ARC
  5
5319
330
2
100
AcDbEntity
  8
0
 48
2.0
100
AcDbCircle
 10
167.2999999999989
 20
99.25327226907167
 30
0.0
 40
0.3000000000000063
100
AcDbArc
 50
65.64741650024436
 51
245.6474165002454
  0
ARC
  5
531A
330
2
100
AcDbEntity
  8
0
 48
2.0
100
AcDbCircle
 10
172.9999999999989
 20
95.90495817831094
 30
0.0
 40
0.9999999999999985
100
AcDbArc
 50
0.0
 51
65.6474165002437
  0
ARC
  5
531B
330
2
100
AcDbEntity
  8
0
 48
2.0
100
AcDbCircle
 10
172.9999999999989
 20
95.90495817831094
 30
0.0
 40
0.3999999999999772
100
AcDbArc
 50
0.0
 51
65.64741650024643
  0
LINE
  5
531C
330
2
100
AcDbEntity
  8
0
100
AcDbLine
 10
168.7499999999992
 20
109.4330127018895
 30
0.0
 11
167.9999999999992
 21
108.9999999999973
 31
0.0
  0
ARC
  5
531D
330
2
100
AcDbEntity
  8
0
100
AcDbCircle
 10
168.4999999999992
 20
109.8660254037817
 30
0.0
 40
0.5
100
AcDbArc
 50
299.9999999999997
 51
0.0
  0
LINE
  5
531E
330
2
100
AcDbEntity
  8
0
100
AcDbLine
 10
168.9999999999992
 20
109.9999999999973
 30
0.0
 11
168.9999999999992
 21
109.8660254037817
 31
0.0
  0
ARC
  5
531F
330
2
100
AcDbEntity
  8
0
100
AcDbCircle
 10
168.4999999999992
 20
109.9999999999973
 30
0.0
 40
0.5
100
AcDbArc
 50
0.0
 51
90.0
  0
LINE
  5
5320
330
2
100
AcDbEntity
  8
0
100
AcDbLine
 10
195.9999999999994
 20
123.9999999999997
 30
0.0
 11
166.6999999999991
 21
123.9999999999997
 31
0.0
  0
ARC
  5
5321
330
2
100
AcDbEntity
  8
0
100
AcDbCircle
 10
168.0680418469163
 20
116.8244135440844
 30
0.0
 40
0.3000000000000131
100
AcDbArc
 50
166.3909378245689
 51
346.390937824569
  0
LINE
  5
5322
330
2
100
AcDbEntity
  8
0
100
AcDbLine
 10
166.6999999999992
 20
125.9999999999999
 30
0.0
 11
166.6999999999991
 21
123.8999999999997
 31
0.0
  0
LINE
  5
5324
330
2
100
AcDbEntity
  8
0
  6
Continuous
100
AcDbLine
 10
19.49999999999988
 20
220.0
 30
0.0
 11
81.49999999999989
 21
220.0
 31
0.0
  0
LINE
  5
5325
330
2
100
AcDbEntity
  8
0
100
AcDbLine
 10
24.99999999999997
 20
210.0
 30
0.0
 11
88.99999999999996
 21
210.0
 31
0.0
  0
LINE
  5
532C
330
2
100
AcDbEntity
  8
0
100
AcDbLine
 10
15.0
 20
219.4999999999999
 30
0.0
 11
24.99999999999996
 21
219.4999999999999
 31
0.0
  0
LINE
  5
532F
330
2
100
AcDbEntity
  8
0
  6
Continuous
100
AcDbLine
 10
19.49999999999988
 20
219.4999999999999
 30
0.0
 11
19.49999999999988
 21
220.0
 31
0.0
  0
DIMENSION
  5
5338
330
2
100
AcDbEntity
  8
ADM
100
AcDbDimension
  2
*D6
 10
114.0
 20
220.0
 30
0.0
 11
111.4999999999999
 21
215.0
 31
0.0
 70
    32
 71
     5
 42
-1.0
  3
1
100
AcDbAlignedDimension
 13
88.99999999999996
 23
210.0
 33
0.0
 14
81.49999999999989
 24
220.0
 34
0.0
 50
90.0
100
AcDbRotatedDimension
1001
ACAD
1000
DSTYLE
1002
{
1070
    40
1040
1.0
1070
     6
1000
DOT
1070
     7
1000
DOT
1002
}
  0
LINE
  5
5339
330
2
100
AcDbEntity
  8
0
100
AcDbLine
 10
81.49999999999989
 20
219.4999999999999
 30
0.0
 11
99.0
 21
219.4999999999999
 31
0.0
  0
LINE
  5
533B
330
2
100
AcDbEntity
  8
0
  6
Continuous
100
AcDbLine
 10
81.49999999999989
 20
219.4999999999999
 30
0.0
 11
81.49999999999989
 21
220.0
 31
0.0
  0
LINE
  5
533C
330
2
100
AcDbEntity
  8
0
100
AcDbLine
 10
395.0
 20
0.0
 30
0.0
 11
395.0
 21
275.0
 31
0.0
  0
LINE
  5
533D
330
2
100
AcDbEntity
  8
0
100
AcDbLine
 10
337.9999999999999
 20
85.19999999999953
 30
0.0
 11
302.9999999999998
 21
85.19999999999958
 31
0.0
  0
LINE
  5
533E
330
2
100
AcDbEntity
  8
0
100
AcDbLine
 10
337.9999999999999
 20
81.1999999999996
 30
0.0
 11
302.9999999999998
 21
81.19999999999965
 31
0.0
  0
LINE
  5
533F
330
2
100
AcDbEntity
  8
0
100
AcDbLine
 10
337.9999999999999
 20
65.5999999999987
 30
0.0
 11
302.9999999999998
 21
65.59999999999874
 31
0.0
  0
LINE
  5
5340
330
2
100
AcDbEntity
  8
0
100
AcDbLine
 10
337.9999999999999
 20
63.79999999999878
 30
0.0
 11
302.9999999999998
 21
63.79999999999877
 31
0.0
  0
LINE
  5
5341
330
2
100
AcDbEntity
  8
0
100
AcDbLine
 10
337.9999999999999
 20
124.2999999999987
 30
0.0
 11
295.7681765165497
 21
124.2999999999987
 31
0.0
  0
LINE
  5
5342
330
2
100
AcDbEntity
  8
0
100
AcDbLine
 10
293.9999999999992
 20
111.2
 30
0.0
 11
337.9999999999999
 21
111.1999999999999
 31
0.0
  0
LINE
  5
5343
330
2
100
AcDbEntity
  8
0
100
AcDbLine
 10
293.9999999999992
 20
115.2
 30
0.0
 11
337.9999999999999
 21
115.2
 31
0.0
  0
DIMENSION
  5
5344
330
2
100
AcDbEntity
  8
ADM
100
AcDbDimension
  2
*D7
 10
302.9999999999998
 20
36.99999999999996
 30
0.0
 11
267.9999999999999
 21
39.49999999999996
 31
0.0
 70
    32
 71
     5
 42
-1.0
  3
1
100
AcDbAlignedDimension
 13
233.0
 23
62.00000000000023
 33
0.0
 14
302.9999999999998
 24
61.99999999999985
 34
0.0
100
AcDbRotatedDimension
1001
ACAD
1000
DSTYLE
1002
{
1070
    40
1040
1.0
1002
}
  0
LINE
  5
5345
330
2
100
AcDbEntity
  8
0
100
AcDbLine
 10
292.8999999999996
 20
136.0
 30
0.0
 11
243.0999999999996
 21
136.0
 31
0.0
  0
LINE
  5
5346
330
2
100
AcDbEntity
  8
0
100
AcDbLine
 10
292.8999999999997
 20
51.99999999999997
 30
0.0
 11
243.0999999999997
 21
51.99999999999997
 31
0.0
  0
DIMENSION
  5
5347
330
2
100
AcDbEntity
  8
ADM
100
AcDbDimension
  2
*D8
 10
218.0
 20
51.99999999999998
 30
0.0
 11
215.5
 21
94.00000000000002
 31
0.0
 70
    32
 71
     5
 42
-1.0
  3
1
100
AcDbAlignedDimension
 13
243.0999999999996
 23
136.0
 33
0.0
 14
243.0999999999997
 24
51.99999999999997
 34
0.0
 50
90.0
100
AcDbRotatedDimension
1001
ACAD
1000
DSTYLE
1002
{
1070
    40
1040
1.0
1002
}
  0
ARC
  5
5348
330
2
100
AcDbEntity
  8
0
 48
2.0
100
AcDbCircle
 10
234.0000000000001
 20
94.64504182168658
 30
0.0
 40
0.9999999999999623
100
AcDbArc
 50
180.0
 51
245.6474165002463
  0
ARC
  5
5349
330
2
100
AcDbEntity
  8
0
 48
2.0
100
AcDbCircle
 10
234.0000000000002
 20
94.64504182168656
 30
0.0
 40
0.3999999999999772
100
AcDbArc
 50
179.9999999999959
 51
245.6474165002402
  0
LINE
  5
534A
330
2
100
AcDbEntity
  8
0
100
AcDbLine
 10
242.0
 20
82.05000000000032
 30
0.0
 11
242.0
 21
96.99999999999924
 31
0.0
  0
LINE
  5
534B
330
2
100
AcDbEntity
  8
0
100
AcDbLine
 10
245.9999999999999
 20
63.3114074414228
 30
0.0
 11
246.0
 21
124.6885925585747
 31
0.0
  0
LINE
  5
534C
330
2
100
AcDbEntity
  8
0
100
AcDbLine
 10
245.9999999999999
 20
61.99999999999997
 30
0.0
 11
245.9999999999999
 21
125.9999999999999
 31
0.0
  0
LINE
  5
534D
330
2
100
AcDbEntity
  8
0
100
AcDbLine
 10
197.9999999999994
 20
85.1999999999996
 30
0.0
 11
242.0
 21
85.1999999999996
 31
0.0
  0
LINE
  5
534E
330
2
100
AcDbEntity
  8
0
100
AcDbLine
 10
197.9999999999994
 20
81.1999999999996
 30
0.0
 11
238.3937822173499
 21
81.1999999999996
 31
0.0
  0
LINE
  5
534F
330
2
100
AcDbEntity
  8
0
100
AcDbLine
 10
233.0
 20
65.59999999999869
 30
0.0
 11
197.9999999999994
 21
65.59999999999876
 31
0.0
  0
LINE
  5
5350
330
2
100
AcDbEntity
  8
0
100
AcDbLine
 10
233.0
 20
63.79999999999878
 30
0.0
 11
197.9999999999994
 21
63.79999999999878
 31
0.0
  0
LINE
  5
5351
330
2
100
AcDbEntity
  8
0
100
AcDbLine
 10
241.9999999999999
 20
68.4832724310937
 30
0.0
 11
242.0
 21
79.55000000000021
 31
0.0
  0
ARC
  5
5352
330
2
100
AcDbEntity
  8
0
100
AcDbCircle
 10
243.5
 20
72.61969600708309
 30
0.0
 40
5.000000000000062
100
AcDbArc
 50
166.390937824577
 51
252.5423968762774
  0
ARC
  5
5353
330
2
100
AcDbEntity
  8
0
100
AcDbCircle
 10
243.5
 20
72.61969600708297
 30
0.0
 40
4.400000000000029
100
AcDbArc
 50
166.3909378245767
 51
250.0677295277982
  0
LINE
  5
5354
330
2
100
AcDbEntity
  8
0
100
AcDbLine
 10
242.0999999999998
 20
61.99999999999997
 30
0.0
 11
245.9999999999999
 21
61.99999999999997
 31
0.0
  0
LINE
  5
5355
330
2
100
AcDbEntity
  8
0
100
AcDbLine
 10
233.0
 20
62.00000000000023
 30
0.0
 11
245.0
 21
61.99999999999889
 31
0.0
  0
LINE
  5
5356
330
2
100
AcDbEntity
  8
0
100
AcDbLine
 10
233.0
 20
65.59999999999888
 30
0.0
 11
233.0
 21
62.00000000000023
 31
0.0
  0
LINE
  5
5357
330
2
100
AcDbEntity
  8
0
100
AcDbLine
 10
242.5999999999997
 20
52.49999999999997
 30
0.0
 11
242.5999999999997
 21
61.49999999999997
 31
0.0
  0
ARC
  5
5358
330
2
100
AcDbEntity
  8
0
100
AcDbCircle
 10
243.0999999999997
 20
52.49999999999997
 30
0.0
 40
0.5
100
AcDbArc
 50
180.0
 51
270.0
  0
LINE
  5
5359
330
2
100
AcDbEntity
  8
0
100
AcDbLine
 10
242.0999999999998
 20
61.49999999999997
 30
0.0
 11
242.0999999999998
 21
61.99999999999997
 31
0.0
  0
LINE
  5
535A
330
2
100
AcDbEntity
  8
0
100
AcDbLine
 10
242.5999999999997
 20
61.49999999999997
 30
0.0
 11
242.0999999999998
 21
61.49999999999997
 31
0.0
  0
LINE
  5
535B
330
2
100
AcDbEntity
  8
0
100
AcDbLine
 10
243.5000000000001
 20
63.59999999999889
 30
0.0
 11
234.6
 21
63.59999999999889
 31
0.0
  0
LINE
  5
535C
330
2
100
AcDbEntity
  8
0
100
AcDbLine
 10
234.6
 20
63.59999999999889
 30
0.0
 11
234.5999999999999
 21
65.59999999999874
 31
0.0
  0
LINE
  5
535D
330
2
100
AcDbEntity
  8
0
100
AcDbLine
 10
234.5999999999999
 20
65.59999999999874
 30
0.0
 11
233.0
 21
65.59999999999888
 31
0.0
  0
LINE
  5
535E
330
2
100
AcDbEntity
  8
0
100
AcDbLine
 10
241.9999999999999
 20
67.49333333333201
 30
0.0
 11
241.9999999999999
 21
67.84999999999834
 31
0.0
  0
LINE
  5
535F
330
2
100
AcDbEntity
  8
0
100
AcDbLine
 10
241.9999999999999
 20
67.49333333333197
 30
0.0
 11
240.3000000000001
 21
66.69999999999873
 31
0.0
  0
LINE
  5
5360
330
2
100
AcDbEntity
  8
0
100
AcDbLine
 10
243.5000000000001
 20
64.69999999999834
 30
0.0
 11
243.5000000000001
 21
63.59999999999889
 31
0.0
  0
LINE
  5
5361
330
2
100
AcDbEntity
  8
0
100
AcDbLine
 10
240.3000000000001
 20
64.69999999999837
 30
0.0
 11
243.5000000000001
 21
64.69999999999834
 31
0.0
  0
LINE
  5
5362
330
2
100
AcDbEntity
  8
0
100
AcDbLine
 10
240.3000000000001
 20
66.69999999999873
 30
0.0
 11
240.3000000000001
 21
64.69999999999837
 31
0.0
  0
ARC
  5
5363
330
2
100
AcDbEntity
  8
0
100
AcDbCircle
 10
244.4399999999999
 20
64.49799919935831
 30
0.0
 40
2.560000000000052
100
AcDbArc
 50
282.6356250930209
 51
5.127990883094595
  0
ARC
  5
5364
330
2
100
AcDbEntity
  8
0
100
AcDbCircle
 10
244.4399999999999
 20
64.49799919935831
 30
0.0
 40
1.960000000000022
100
AcDbArc
 50
322.7420839986817
 51
5.127990883093846
  0
ARC
  5
5365
330
2
100
AcDbEntity
  8
0
100
AcDbCircle
 10
246.6909543923724
 20
64.69999999999888
 30
0.0
 40
0.3000000000000056
100
AcDbArc
 50
5.127990883097035
 51
185.127990883097
  0
ARC
  5
5366
330
2
100
AcDbEntity
  8
0
100
AcDbCircle
 10
238.9319581530828
 20
73.72558645591311
 30
0.0
 40
0.3000000000000131
100
AcDbArc
 50
346.390937824569
 51
166.3909378245689
  0
LINE
  5
5367
330
2
100
AcDbEntity
  8
0
100
AcDbLine
 10
238.7800624689737
 20
73.98429034291337
 30
0.0
 11
238.6732542660825
 21
73.87748214002221
 31
0.0
  0
LINE
  5
5368
330
2
100
AcDbEntity
  8
0
100
AcDbLine
 10
239.0
 20
81.5500000000002
 30
0.0
 11
241.5
 21
81.55000000000033
 31
0.0
  0
LINE
  5
5369
330
2
100
AcDbEntity
  8
0
100
AcDbLine
 10
241.5
 20
80.05000000000022
 30
0.0
 11
238.5
 21
80.05000000000022
 31
0.0
  0
LINE
  5
536A
330
2
100
AcDbEntity
  8
0
100
AcDbLine
 10
238.2499999999999
 20
81.116987298108
 30
0.0
 11
239.0
 21
81.5500000000002
 31
0.0
  0
ARC
  5
536B
330
2
100
AcDbEntity
  8
0
100
AcDbCircle
 10
238.5
 20
80.68397459621579
 30
0.0
 40
0.5
100
AcDbArc
 50
119.9999999999997
 51
180.0
  0
LINE
  5
536C
330
2
100
AcDbEntity
  8
0
100
AcDbLine
 10
238.0
 20
80.55000000000021
 30
0.0
 11
238.0
 21
80.68397459621579
 31
0.0
  0
ARC
  5
536D
330
2
100
AcDbEntity
  8
0
100
AcDbCircle
 10
238.5
 20
80.55000000000021
 30
0.0
 40
0.5
100
AcDbArc
 50
180.0
 51
270.0
  0
ARC
  5
536E
330
2
100
AcDbEntity
  8
0
100
AcDbCircle
 10
241.5
 20
79.55000000000021
 30
0.0
 40
0.5
100
AcDbArc
 50
0.0
 51
90.0
  0
ARC
  5
536F
330
2
100
AcDbEntity
  8
0
100
AcDbCircle
 10
241.5
 20
82.05000000000032
 30
0.0
 40
0.5
100
AcDbArc
 50
270.0
 51
0.0
  0
LINE
  5
5370
330
2
100
AcDbEntity
  8
0
 48
2.0
100
AcDbLine
 10
239.5762948109153
 20
91.0234201639002
 30
0.0
 11
233.5876493697174
 21
93.73401659826773
 31
0.0
  0
LINE
  5
5371
330
2
100
AcDbEntity
  8
0
 48
2.0
100
AcDbLine
 10
233.835059747887
 20
94.28063173231905
 30
0.0
 11
239.823705189085
 21
91.57003529795153
 31
0.0
  0
ARC
  5
5372
330
2
100
AcDbEntity
  8
0
 48
2.0
100
AcDbCircle
 10
239.7000000000002
 20
91.29672773092588
 30
0.0
 40
0.2999999999999934
100
AcDbArc
 50
245.6474165002465
 51
65.64741650024436
  0
LINE
  5
5373
330
2
100
AcDbEntity
  8
0
100
AcDbLine
 10
197.9999999999994
 20
123.9999999999997
 30
0.0
 11
233.0000000000002
 21
123.9999999999997
 31
0.0
  0
LINE
  5
5374
330
2
100
AcDbEntity
  8
0
100
AcDbLine
 10
197.9999999999994
 20
115.1999999999989
 30
0.0
 11
233.0000000000002
 21
115.1999999999989
 31
0.0
  0
LINE
  5
5375
330
2
100
AcDbEntity
  8
0
100
AcDbLine
 10
197.9999999999994
 20
111.1999999999989
 30
0.0
 11
233.0000000000002
 21
111.1999999999989
 31
0.0
  0
LINE
  5
5376
330
2
100
AcDbEntity
  8
0
100
AcDbLine
 10
233.0000000000002
 20
96.99999999999924
 30
0.0
 11
233.0000000000002
 21
124.5999999999992
 31
0.0
  0
LINE
  5
5377
330
2
100
AcDbEntity
  8
0
100
AcDbLine
 10
242.0
 20
96.99999999999924
 30
0.0
 11
233.6000000000002
 21
96.99999999999926
 31
0.0
  0
LINE
  5
5378
330
2
100
AcDbEntity
  8
0
 48
2.0
100
AcDbLine
 10
233.0000000000002
 20
94.64504182168658
 30
0.0
 11
233.0000000000002
 21
96.99999999999924
 31
0.0
  0
LINE
  5
5379
330
2
100
AcDbEntity
  8
0
 48
2.0
100
AcDbLine
 10
233.6000000000002
 20
96.99999999999924
 30
0.0
 11
233.6000000000002
 21
94.64504182168658
 31
0.0
  0
LINE
  5
537A
330
2
100
AcDbEntity
  8
0
100
AcDbLine
 10
242.0999999999996
 20
125.9999999999999
 30
0.0
 11
245.9999999999999
 21
125.9999999999999
 31
0.0
  0
LINE
  5
537B
330
2
100
AcDbEntity
  8
0
100
AcDbLine
 10
245.0
 20
125.9999999999989
 30
0.0
 11
240.3000000000001
 21
125.9999999999989
 31
0.0
  0
LINE
  5
537C
330
2
100
AcDbEntity
  8
0
100
AcDbLine
 10
242.5999999999997
 20
135.4999999999999
 30
0.0
 11
242.5999999999997
 21
126.4999999999999
 31
0.0
  0
LINE
  5
537D
330
2
100
AcDbEntity
  8
0
100
AcDbLine
 10
233.8
 20
124.5999999999992
 30
0.0
 11
239.3
 21
124.5999999999996
 31
0.0
  0
LINE
  5
537E
330
2
100
AcDbEntity
  8
0
100
AcDbLine
 10
233.4999999999999
 20
125.0999999999992
 30
0.0
 11
233.5
 21
125.0999999999992
 31
0.0
  0
LINE
  5
537F
330
2
100
AcDbEntity
  8
0
 48
2.0
100
AcDbLine
 10
233.8
 20
124.5999999999992
 30
0.0
 11
233.8
 21
124.7999999999993
 31
0.0
  0
ARC
  5
5380
330
2
100
AcDbEntity
  8
0
100
AcDbCircle
 10
233.4999999999999
 20
124.5999999999992
 30
0.0
 40
0.5000000000000285
100
AcDbArc
 50
90.00000000000323
 51
179.9999999999983
  0
ARC
  5
5381
330
2
100
AcDbEntity
  8
0
100
AcDbCircle
 10
233.5
 20
124.7999999999992
 30
0.0
 40
0.3
100
AcDbArc
 50
0.0000000000065138
 51
90.00000000000323
  0
LINE
  5
5382
330
2
100
AcDbEntity
  8
0
100
AcDbLine
 10
242.0
 20
123.1066666666655
 30
0.0
 11
242.0
 21
121.0499999999984
 31
0.0
  0
LINE
  5
5383
330
2
100
AcDbEntity
  8
0
100
AcDbLine
 10
239.8
 20
124.0999999999996
 30
0.0
 11
239.8000000000001
 21
121.0499999999984
 31
0.0
  0
LINE
  5
5384
330
2
100
AcDbEntity
  8
0
100
AcDbLine
 10
239.8000000000001
 20
121.0499999999984
 30
0.0
 11
242.0
 21
121.0499999999984
 31
0.0
  0
ARC
  5
5385
330
2
100
AcDbEntity
  8
0
100
AcDbCircle
 10
239.3
 20
124.0999999999996
 30
0.0
 40
0.5
100
AcDbArc
 50
0.0000000000048853
 51
90.0
  0
LINE
  5
5386
330
2
100
AcDbEntity
  8
0
100
AcDbLine
 10
242.0999999999996
 20
126.4999999999999
 30
0.0
 11
242.0999999999996
 21
125.9999999999999
 31
0.0
  0
LINE
  5
5387
330
2
100
AcDbEntity
  8
0
100
AcDbLine
 10
242.5999999999997
 20
126.4999999999999
 30
0.0
 11
242.0999999999996
 21
126.4999999999999
 31
0.0
  0
LINE
  5
5388
330
2
100
AcDbEntity
  8
0
100
AcDbLine
 10
240.3000000000003
 20
123.8999999999987
 30
0.0
 11
242.0
 21
123.1066666666655
 31
0.0
  0
LINE
  5
5389
330
2
100
AcDbEntity
  8
0
100
AcDbLine
 10
240.3000000000001
 20
125.9999999999989
 30
0.0
 11
240.3000000000003
 21
123.8999999999987
 31
0.0
  0
ARC
  5
538A
330
2
100
AcDbEntity
  8
0
100
AcDbCircle
 10
243.0999999999996
 20
135.4999999999999
 30
0.0
 40
0.5
100
AcDbArc
 50
90.0
 51
180.0
  0
ARC
  5
538B
330
2
100
AcDbEntity
  8
0
100
AcDbCircle
 10
244.4400000000001
 20
123.5020008006394
 30
0.0
 40
1.959999999999904
100
AcDbArc
 50
354.8720091169075
 51
37.25791600131599
  0
ARC
  5
538C
330
2
100
AcDbEntity
  8
0
100
AcDbCircle
 10
246.6909543923724
 20
123.2999999999988
 30
0.0
 40
0.3000000000000107
100
AcDbArc
 50
174.8720091168921
 51
354.8720091168921
  0
ARC
  5
538D
330
2
100
AcDbEntity
  8
0
100
AcDbCircle
 10
244.4399999999999
 20
123.5020008006394
 30
0.0
 40
2.56000000000012
100
AcDbArc
 50
354.8720091169042
 51
77.36437490697813
  0
LINE
  5
538E
330
2
100
AcDbEntity
  8
0
 48
2.0
100
AcDbLine
 10
302.3999999999994
 20
93.54999999999828
 30
0.0
 11
302.3999999999994
 21
95.90495817831092
 31
0.0
  0
LINE
  5
538F
330
2
100
AcDbEntity
  8
0
 48
2.0
100
AcDbLine
 10
302.9999999999994
 20
95.90495817831092
 30
0.0
 11
302.9999999999994
 21
93.54999999999828
 31
0.0
  0
LINE
  5
5390
330
2
100
AcDbEntity
  8
0
100
AcDbLine
 10
289.9999999999998
 20
125.9999999999999
 30
0.0
 11
289.9999999999998
 21
61.99999999999997
 31
0.0
  0
LINE
  5
5391
330
2
100
AcDbEntity
  8
0
100
AcDbLine
 10
289.9999999999998
 20
63.31140744142397
 30
0.0
 11
289.9999999999998
 21
124.6885925585757
 31
0.0
  0
LINE
  5
5392
330
2
100
AcDbEntity
  8
0
100
AcDbLine
 10
293.9999999999996
 20
108.4999999999971
 30
0.0
 11
293.9999999999996
 21
93.54999999999828
 31
0.0
  0
ARC
  5
5393
330
2
100
AcDbEntity
  8
0
100
AcDbCircle
 10
291.5599999999999
 20
64.49799919935927
 30
0.0
 40
2.560000000000052
100
AcDbArc
 50
174.8720091169053
 51
257.3643749069791
  0
LINE
  5
5394
330
2
100
AcDbEntity
  8
0
100
AcDbLine
 10
289.9999999999998
 20
61.99999999999997
 30
0.0
 11
293.8999999999997
 21
61.99999999999997
 31
0.0
  0
ARC
  5
5395
330
2
100
AcDbEntity
  8
0
100
AcDbCircle
 10
289.3090456076274
 20
64.69999999999984
 30
0.0
 40
0.3000000000000056
100
AcDbArc
 50
354.8720091169029
 51
174.8720091169029
  0
ARC
  5
5396
330
2
100
AcDbEntity
  8
0
100
AcDbCircle
 10
291.5599999999999
 20
64.49799919935927
 30
0.0
 40
1.960000000000022
100
AcDbArc
 50
174.8720091169061
 51
217.2579160013129
  0
LINE
  5
5397
330
2
100
AcDbEntity
  8
0
100
AcDbLine
 10
302.9999999999998
 20
93.54999999999828
 30
0.0
 11
302.9999999999998
 21
61.99999999999985
 31
0.0
  0
LINE
  5
5398
330
2
100
AcDbEntity
  8
0
100
AcDbLine
 10
302.9999999999998
 20
61.99999999999985
 30
0.0
 11
290.9999999999996
 21
61.99999999999992
 31
0.0
  0
LINE
  5
5399
330
2
100
AcDbEntity
  8
0
100
AcDbLine
 10
293.3999999999997
 20
61.49999999999997
 30
0.0
 11
293.3999999999997
 21
52.49999999999997
 31
0.0
  0
ARC
  5
539A
330
2
100
AcDbEntity
  8
0
100
AcDbCircle
 10
292.8999999999997
 20
52.49999999999997
 30
0.0
 40
0.5
100
AcDbArc
 50
270.0
 51
0.0
  0
LINE
  5
539B
330
2
100
AcDbEntity
  8
0
100
AcDbLine
 10
293.8999999999997
 20
61.99999999999997
 30
0.0
 11
293.8999999999997
 21
61.49999999999997
 31
0.0
  0
LINE
  5
539C
330
2
100
AcDbEntity
  8
0
100
AcDbLine
 10
293.8999999999997
 20
61.49999999999997
 30
0.0
 11
293.3999999999997
 21
61.49999999999997
 31
0.0
  0
LINE
  5
539D
330
2
100
AcDbEntity
  8
0
100
AcDbLine
 10
293.9999999999996
 20
93.54999999999828
 30
0.0
 11
302.3999999999994
 21
93.54999999999824
 31
0.0
  0
LINE
  5
539E
330
2
100
AcDbEntity
  8
0
100
AcDbLine
 10
289.9999999999998
 20
125.9999999999999
 30
0.0
 11
293.8999999999996
 21
125.9999999999999
 31
0.0
  0
ARC
  5
539F
330
2
100
AcDbEntity
  8
0
100
AcDbCircle
 10
291.5599999999999
 20
123.5020008006404
 30
0.0
 40
2.56000000000012
100
AcDbArc
 50
102.6356250930218
 51
185.1279908830957
  0
ARC
  5
53A0
330
2
100
AcDbEntity
  8
0
100
AcDbCircle
 10
289.3090456076274
 20
123.2999999999998
 30
0.0
 40
0.3000000000000107
100
AcDbArc
 50
185.1279908831078
 51
5.127990883107849
  0
ARC
  5
53A1
330
2
100
AcDbEntity
  8
0
100
AcDbCircle
 10
291.5599999999997
 20
123.5020008006404
 30
0.0
 40
1.959999999999904
100
AcDbArc
 50
142.7420839986857
 51
185.1279908830924
  0
LINE
  5
53A2
330
2
100
AcDbEntity
  8
0
100
AcDbLine
 10
293.9999999999997
 20
122.0667275689037
 30
0.0
 11
293.9999999999996
 21
110.9999999999973
 31
0.0
  0
LINE
  5
53A3
330
2
100
AcDbEntity
  8
0
 48
2.0
100
AcDbLine
 10
296.4237051890842
 20
99.52657983609732
 30
0.0
 11
302.4123506302822
 21
96.81598340172977
 31
0.0
  0
LINE
  5
53A4
330
2
100
AcDbEntity
  8
0
 48
2.0
100
AcDbLine
 10
302.1649402521125
 20
96.26936826767845
 30
0.0
 11
296.1762948109146
 21
98.97996470204597
 31
0.0
  0
ARC
  5
53A5
330
2
100
AcDbEntity
  8
0
 48
2.0
100
AcDbCircle
 10
296.2999999999994
 20
99.25327226907164
 30
0.0
 40
0.2999999999999934
100
AcDbArc
 50
65.64741650024659
 51
245.6474165002443
  0
ARC
  5
53A6
330
2
100
AcDbEntity
  8
0
 48
2.0
100
AcDbCircle
 10
301.9999999999995
 20
95.90495817831092
 30
0.0
 40
0.9999999999999623
100
AcDbArc
 50
0.0
 51
65.64741650024632
  0
ARC
  5
53A7
330
2
100
AcDbEntity
  8
0
 48
2.0
100
AcDbCircle
 10
301.9999999999994
 20
95.90495817831095
 30
0.0
 40
0.3999999999999772
100
AcDbArc
 50
359.9999999999959
 51
65.64741650024021
  0
ARC
  5
53A8
330
2
100
AcDbEntity
  8
0
100
AcDbCircle
 10
297.4999999999996
 20
109.9999999999972
 30
0.0
 40
0.5
100
AcDbArc
 50
0.0
 51
90.0
  0
ARC
  5
53A9
330
2
100
AcDbEntity
  8
0
100
AcDbCircle
 10
297.4999999999996
 20
109.8660254037817
 30
0.0
 40
0.5
100
AcDbArc
 50
299.9999999999997
 51
0.0
  0
ARC
  5
53AA
330
2
100
AcDbEntity
  8
0
100
AcDbCircle
 10
294.4999999999996
 20
110.9999999999973
 30
0.0
 40
0.5
100
AcDbArc
 50
180.0
 51
270.0
  0
ARC
  5
53AB
330
2
100
AcDbEntity
  8
0
100
AcDbCircle
 10
294.4999999999996
 20
108.4999999999971
 30
0.0
 40
0.5
100
AcDbArc
 50
90.0
 51
180.0
  0
LINE
  5
53AC
330
2
100
AcDbEntity
  8
0
100
AcDbLine
 10
296.9999999999996
 20
108.9999999999972
 30
0.0
 11
294.4999999999996
 21
108.9999999999971
 31
0.0
  0
LINE
  5
53AD
330
2
100
AcDbEntity
  8
0
100
AcDbLine
 10
297.7499999999996
 20
109.4330127018895
 30
0.0
 11
296.9999999999996
 21
108.9999999999972
 31
0.0
  0
LINE
  5
53AE
330
2
100
AcDbEntity
  8
0
100
AcDbLine
 10
294.4999999999996
 20
110.4999999999973
 30
0.0
 11
297.4999999999996
 21
110.4999999999973
 31
0.0
  0
LINE
  5
53AF
330
2
100
AcDbEntity
  8
0
100
AcDbLine
 10
297.9999999999996
 20
109.9999999999972
 30
0.0
 11
297.9999999999996
 21
109.8660254037817
 31
0.0
  0
LINE
  5
53B0
330
2
100
AcDbEntity
  8
0
100
AcDbLine
 10
293.3999999999996
 20
126.4999999999999
 30
0.0
 11
293.3999999999996
 21
135.4999999999999
 31
0.0
  0
ARC
  5
53B1
330
2
100
AcDbEntity
  8
0
100
AcDbCircle
 10
292.4999999999996
 20
117.9303039929144
 30
0.0
 40
5.000000000000062
100
AcDbArc
 50
346.390937824577
 51
72.54239687627745
  0
ARC
  5
53B2
330
2
100
AcDbEntity
  8
0
100
AcDbCircle
 10
292.4999999999996
 20
117.9303039929145
 30
0.0
 40
4.400000000000029
100
AcDbArc
 50
346.3909378245767
 51
70.06772952779821
  0
ARC
  5
53B3
330
2
100
AcDbEntity
  8
0
100
AcDbCircle
 10
297.0680418469168
 20
116.8244135440843
 30
0.0
 40
0.3000000000000131
100
AcDbArc
 50
166.3909378245689
 51
346.390937824569
  0
LINE
  5
53B4
330
2
100
AcDbEntity
  8
0
100
AcDbLine
 10
290.9999999999998
 20
125.9999999999999
 30
0.0
 11
295.6999999999997
 21
125.9999999999999
 31
0.0
  0
LINE
  5
53B5
330
2
100
AcDbEntity
  8
0
100
AcDbLine
 10
293.8999999999996
 20
126.4999999999999
 30
0.0
 11
293.3999999999996
 21
126.4999999999999
 31
0.0
  0
LINE
  5
53B6
330
2
100
AcDbEntity
  8
0
100
AcDbLine
 10
293.8999999999996
 20
125.9999999999999
 30
0.0
 11
293.8999999999996
 21
126.4999999999999
 31
0.0
  0
LINE
  5
53B7
330
2
100
AcDbEntity
  8
0
100
AcDbLine
 10
293.9999999999997
 20
123.1066666666663
 30
0.0
 11
293.9999999999997
 21
122.6999999999992
 31
0.0
  0
LINE
  5
53B8
330
2
100
AcDbEntity
  8
0
100
AcDbLine
 10
295.6999999999995
 20
123.8999999999996
 30
0.0
 11
293.9999999999997
 21
123.1066666666663
 31
0.0
  0
LINE
  5
53B9
330
2
100
AcDbEntity
  8
0
100
AcDbLine
 10
295.6999999999997
 20
125.9999999999999
 30
0.0
 11
295.6999999999995
 21
123.8999999999996
 31
0.0
  0
ARC
  5
53BA
330
2
100
AcDbEntity
  8
0
100
AcDbCircle
 10
292.8999999999996
 20
135.4999999999999
 30
0.0
 40
0.5
100
AcDbArc
 50
0.0
 51
90.0
  0
DIMENSION
  5
53BB
330
2
100
AcDbEntity
  8
ADM
100
AcDbDimension
  2
*D9
 10
375.0
 20
36.99999999999993
 30
0.0
 11
368.5
 21
39.49999999999993
 31
0.0
 70
    32
 71
     5
 42
-1.0
  3
1
100
AcDbAlignedDimension
 13
362.0
 23
62.00000000000029
 33
0.0
 14
375.0
 24
63.31140744142297
 34
0.0
100
AcDbRotatedDimension
1001
ACAD
1000
DSTYLE
1002
{
1070
    40
1040
1.0
1002
}
  0
TEXT
  5
53BC
330
2
100
AcDbEntity
  8
ADM
100
AcDbText
 10
372.3160857227646
 20
1.154120148162746
 30
0.0
 40
2.5
  1
ME01
 41
0.8
 72
     1
 11
376.0303714370503
 21
1.154120148162746
 31
0.0
100
AcDbText
  0
ARC
  5
53BD
330
2
100
AcDbEntity
  8
0
 48
2.0
100
AcDbCircle
 10
363.0000000000002
 20
94.64504182168663
 30
0.0
 40
0.9999999999999985
100
AcDbArc
 50
180.0
 51
245.6474165002437
  0
ARC
  5
53BE
330
2
100
AcDbEntity
  8
0
 48
2.0
100
AcDbCircle
 10
363.0000000000002
 20
94.6450418216866
 30
0.0
 40
0.3999999999999772
100
AcDbArc
 50
179.9999999999959
 51
245.647416500241
  0
LINE
  5
53BF
330
2
100
AcDbEntity
  8
0
100
AcDbLine
 10
375.0
 20
63.31140744142297
 30
0.0
 11
375.0
 21
124.6885925585748
 31
0.0
  0
LINE
  5
53C0
330
2
100
AcDbEntity
  8
0
100
AcDbLine
 10
371.0
 20
82.05000000000035
 30
0.0
 11
371.0
 21
96.9999999999993
 31
0.0
  0
LINE
  5
53C1
330
2
100
AcDbEntity
  8
0
100
AcDbLine
 10
367.3937822173497
 20
81.19999999999961
 30
0.0
 11
339.9999999999999
 21
81.1999999999996
 31
0.0
  0
LINE
  5
53C2
330
2
100
AcDbEntity
  8
0
100
AcDbLine
 10
371.0
 20
85.19999999999965
 30
0.0
 11
339.9999999999999
 21
85.1999999999996
 31
0.0
  0
LINE
  5
53C3
330
2
100
AcDbEntity
  8
0
100
AcDbLine
 10
361.9999999999999
 20
65.59999999999871
 30
0.0
 11
339.9999999999999
 21
65.59999999999869
 31
0.0
  0
LINE
  5
53C4
330
2
100
AcDbEntity
  8
0
100
AcDbLine
 10
361.9999999999999
 20
63.79999999999878
 30
0.0
 11
339.9999999999999
 21
63.79999999999877
 31
0.0
  0
LINE
  5
53C5
330
2
100
AcDbEntity
  8
0
100
AcDbLine
 10
370.9999999999999
 20
68.4832724310938
 30
0.0
 11
371.0
 21
79.55000000000024
 31
0.0
  0
ARC
  5
53C6
330
2
100
AcDbEntity
  8
0
100
AcDbCircle
 10
372.5
 20
72.61969600708312
 30
0.0
 40
5.000000000000047
100
AcDbArc
 50
166.3909378245769
 51
252.5423968762773
  0
ARC
  5
53C7
330
2
100
AcDbEntity
  8
0
100
AcDbCircle
 10
372.5
 20
72.61969600708302
 30
0.0
 40
4.399999999999973
100
AcDbArc
 50
166.3909378245765
 51
250.0677295277988
  0
LINE
  5
53C8
330
2
100
AcDbEntity
  8
0
100
AcDbLine
 10
362.0
 20
62.00000000000029
 30
0.0
 11
374.0
 21
61.99999999999892
 31
0.0
  0
LINE
  5
53C9
330
2
100
AcDbEntity
  8
0
100
AcDbLine
 10
372.5000000000001
 20
63.59999999999893
 30
0.0
 11
363.6
 21
63.59999999999892
 31
0.0
  0
LINE
  5
53CA
330
2
100
AcDbEntity
  8
0
100
AcDbLine
 10
362.0
 20
65.59999999999893
 30
0.0
 11
362.0
 21
62.00000000000029
 31
0.0
  0
LINE
  5
53CB
330
2
100
AcDbEntity
  8
0
100
AcDbLine
 10
363.5999999999999
 20
65.5999999999988
 30
0.0
 11
362.0
 21
65.59999999999893
 31
0.0
  0
LINE
  5
53CC
330
2
100
AcDbEntity
  8
0
100
AcDbLine
 10
363.6
 20
63.59999999999892
 30
0.0
 11
363.5999999999999
 21
65.5999999999988
 31
0.0
  0
ARC
  5
53CD
330
2
100
AcDbEntity
  8
0
100
AcDbCircle
 10
373.4399999999999
 20
64.49799919935832
 30
0.0
 40
2.560000000000032
100
AcDbArc
 50
282.635625093021
 51
5.127990883095069
  0
LINE
  5
53CE
330
2
100
AcDbEntity
  8
0
100
AcDbLine
 10
370.9999999999999
 20
67.49333333333199
 30
0.0
 11
370.9999999999999
 21
67.84999999999836
 31
0.0
  0
LINE
  5
53CF
330
2
100
AcDbEntity
  8
0
100
AcDbLine
 10
369.3000000000001
 20
64.69999999999839
 30
0.0
 11
372.5000000000001
 21
64.69999999999839
 31
0.0
  0
LINE
  5
53D0
330
2
100
AcDbEntity
  8
0
100
AcDbLine
 10
369.3000000000001
 20
66.69999999999878
 30
0.0
 11
369.3000000000001
 21
64.69999999999839
 31
0.0
  0
LINE
  5
53D1
330
2
100
AcDbEntity
  8
0
100
AcDbLine
 10
370.9999999999999
 20
67.49333333333199
 30
0.0
 11
369.3000000000001
 21
66.69999999999878
 31
0.0
  0
LINE
  5
53D2
330
2
100
AcDbEntity
  8
0
100
AcDbLine
 10
372.5000000000001
 20
64.69999999999839
 30
0.0
 11
372.5000000000001
 21
63.59999999999893
 31
0.0
  0
ARC
  5
53D3
330
2
100
AcDbEntity
  8
0
100
AcDbCircle
 10
373.4399999999999
 20
64.49799919935832
 30
0.0
 40
1.960000000000024
100
AcDbArc
 50
322.742083998689
 51
5.127990883094467
  0
ARC
  5
53D4
330
2
100
AcDbEntity
  8
0
100
AcDbCircle
 10
375.6909543923724
 20
64.69999999999891
 30
0.0
 40
0.3000000000000056
100
AcDbArc
 50
5.127990883097035
 51
185.127990883097
  0
LINE
  5
53D5
330
2
100
AcDbEntity
  8
0
 48
2.0
100
AcDbLine
 10
368.5762948109153
 20
91.02342016390023
 30
0.0
 11
362.5876493697174
 21
93.73401659826777
 31
0.0
  0
LINE
  5
53D6
330
2
100
AcDbEntity
  8
0
 48
2.0
100
AcDbLine
 10
362.8350597478871
 20
94.28063173231908
 30
0.0
 11
368.823705189085
 21
91.57003529795156
 31
0.0
  0
ARC
  5
53D7
330
2
100
AcDbEntity
  8
0
100
AcDbCircle
 10
367.5
 20
80.68397459621582
 30
0.0
 40
0.5
100
AcDbArc
 50
119.9999999999997
 51
180.0
  0
ARC
  5
53D8
330
2
100
AcDbEntity
  8
0
100
AcDbCircle
 10
367.5
 20
80.55000000000024
 30
0.0
 40
0.5
100
AcDbArc
 50
180.0
 51
270.0
  0
LINE
  5
53D9
330
2
100
AcDbEntity
  8
0
100
AcDbLine
 10
367.0
 20
80.55000000000024
 30
0.0
 11
367.0
 21
80.68397459621582
 31
0.0
  0
ARC
  5
53DA
330
2
100
AcDbEntity
  8
0
100
AcDbCircle
 10
367.9319581530828
 20
73.72558645591316
 30
0.0
 40
0.3000000000000131
100
AcDbArc
 50
346.390937824569
 51
166.3909378245689
  0
ARC
  5
53DB
330
2
100
AcDbEntity
  8
0
100
AcDbCircle
 10
370.5
 20
82.05000000000035
 30
0.0
 40
0.5
100
AcDbArc
 50
270.0
 51
0.0
  0
ARC
  5
53DC
330
2
100
AcDbEntity
  8
0
100
AcDbCircle
 10
370.5
 20
79.55000000000024
 30
0.0
 40
0.5
100
AcDbArc
 50
0.0
 51
90.0
  0
LINE
  5
53DD
330
2
100
AcDbEntity
  8
0
100
AcDbLine
 10
368.0
 20
81.55000000000024
 30
0.0
 11
370.5
 21
81.55000000000034
 31
0.0
  0
LINE
  5
53DE
330
2
100
AcDbEntity
  8
0
100
AcDbLine
 10
367.2499999999999
 20
81.11698729810804
 30
0.0
 11
368.0
 21
81.55000000000024
 31
0.0
  0
LINE
  5
53DF
330
2
100
AcDbEntity
  8
0
100
AcDbLine
 10
370.5
 20
80.05000000000023
 30
0.0
 11
367.5
 21
80.05000000000023
 31
0.0
  0
ARC
  5
53E0
330
2
100
AcDbEntity
  8
0
 48
2.0
100
AcDbCircle
 10
368.7000000000002
 20
91.2967277309259
 30
0.0
 40
0.3000000000000063
100
AcDbArc
 50
245.6474165002443
 51
65.64741650024547
  0
LINE
  5
53E1
330
2
100
AcDbEntity
  8
0
100
AcDbLine
 10
361.9999999999999
 20
111.1999999999999
 30
0.0
 11
339.9999999999999
 21
111.1999999999999
 31
0.0
  0
LINE
  5
53E2
330
2
100
AcDbEntity
  8
0
100
AcDbLine
 10
361.9999999999999
 20
115.2
 30
0.0
 11
339.9999999999999
 21
115.1999999999999
 31
0.0
  0
LINE
  5
53E3
330
2
100
AcDbEntity
  8
0
100
AcDbLine
 10
361.9999999999999
 20
124.2999999999987
 30
0.0
 11
339.9999999999999
 21
124.2999999999987
 31
0.0
  0
LINE
  5
53E4
330
2
100
AcDbEntity
  8
0
100
AcDbLine
 10
361.9999999999999
 20
96.99999999999928
 30
0.0
 11
361.9999999999999
 21
124.5999999999992
 31
0.0
  0
LINE
  5
53E5
330
2
100
AcDbEntity
  8
0
100
AcDbLine
 10
371.0
 20
96.9999999999993
 30
0.0
 11
362.6000000000002
 21
96.9999999999993
 31
0.0
  0
LINE
  5
53E6
330
2
100
AcDbEntity
  8
0
 48
2.0
100
AcDbLine
 10
362.0000000000002
 20
94.64504182168663
 30
0.0
 11
362.0000000000002
 21
96.9999999999993
 31
0.0
  0
LINE
  5
53E7
330
2
100
AcDbEntity
  8
0
 48
2.0
100
AcDbLine
 10
362.6000000000002
 20
96.9999999999993
 30
0.0
 11
362.6000000000002
 21
94.64504182168663
 31
0.0
  0
LINE
  5
53E8
330
2
100
AcDbEntity
  8
0
100
AcDbLine
 10
362.8
 20
124.5999999999993
 30
0.0
 11
368.3
 21
124.5999999999996
 31
0.0
  0
ARC
  5
53E9
330
2
100
AcDbEntity
  8
0
100
AcDbCircle
 10
362.5
 20
124.7999999999992
 30
0.0
 40
0.3
100
AcDbArc
 50
0.0000000000065138
 51
90.00000000000323
  0
LINE
  5
53EA
330
2
100
AcDbEntity
  8
0
 48
2.0
100
AcDbLine
 10
362.8
 20
124.5999999999993
 30
0.0
 11
362.8
 21
124.7999999999993
 31
0.0
  0
LINE
  5
53EB
330
2
100
AcDbEntity
  8
0
100
AcDbLine
 10
362.5
 20
125.0999999999993
 30
0.0
 11
362.5
 21
125.0999999999993
 31
0.0
  0
ARC
  5
53EC
330
2
100
AcDbEntity
  8
0
100
AcDbCircle
 10
362.5
 20
124.5999999999992
 30
0.0
 40
0.5000000000000285
100
AcDbArc
 50
90.00000000000323
 51
179.9999999999991
  0
ARC
  5
53ED
330
2
100
AcDbEntity
  8
0
100
AcDbCircle
 10
373.4399999999999
 20
123.5020008006395
 30
0.0
 40
2.560000000000092
100
AcDbArc
 50
354.8720091169036
 51
77.36437490697799
  0
LINE
  5
53EE
330
2
100
AcDbEntity
  8
0
100
AcDbLine
 10
371.0
 20
121.0499999999985
 30
0.0
 11
371.0
 21
123.1066666666655
 31
0.0
  0
LINE
  5
53EF
330
2
100
AcDbEntity
  8
0
100
AcDbLine
 10
368.8
 20
124.0999999999997
 30
0.0
 11
368.8000000000001
 21
121.0499999999985
 31
0.0
  0
LINE
  5
53F0
330
2
100
AcDbEntity
  8
0
100
AcDbLine
 10
368.8000000000001
 20
121.0499999999985
 30
0.0
 11
371.0
 21
121.0499999999985
 31
0.0
  0
LINE
  5
53F1
330
2
100
AcDbEntity
  8
0
100
AcDbLine
 10
374.0
 20
125.999999999999
 30
0.0
 11
369.3000000000001
 21
125.999999999999
 31
0.0
  0
LINE
  5
53F2
330
2
100
AcDbEntity
  8
0
100
AcDbLine
 10
369.3000000000003
 20
123.8999999999987
 30
0.0
 11
371.0
 21
123.1066666666655
 31
0.0
  0
LINE
  5
53F3
330
2
100
AcDbEntity
  8
0
100
AcDbLine
 10
369.3000000000001
 20
125.999999999999
 30
0.0
 11
369.3000000000003
 21
123.8999999999987
 31
0.0
  0
ARC
  5
53F4
330
2
100
AcDbEntity
  8
0
100
AcDbCircle
 10
368.3
 20
124.0999999999996
 30
0.0
 40
0.5
100
AcDbArc
 50
0.0000000000048853
 51
90.0
  0
ARC
  5
53F5
330
2
100
AcDbEntity
  8
0
100
AcDbCircle
 10
373.4400000000001
 20
123.5020008006395
 30
0.0
 40
1.959999999999903
100
AcDbArc
 50
354.8720091169079
 51
37.25791600131366
  0
ARC
  5
53F6
330
2
100
AcDbEntity
  8
0
100
AcDbCircle
 10
375.6909543923724
 20
123.2999999999989
 30
0.0
 40
0.3000000000000107
100
AcDbArc
 50
174.8720091168921
 51
354.8720091168921
  0
DIMENSION
  5
53F7
330
2
100
AcDbEntity
  8
ADM
100
AcDbDimension
  2
*D10
 10
332.9999999999997
 20
171.9999999999999
 30
0.0
 11
330.4999999999996
 21
210.0
 31
0.0
 70
    32
 71
     5
 42
-1.0
  3
1
100
AcDbAlignedDimension
 13
290.7499999999998
 23
248.0
 33
0.0
 14
292.8999999999996
 24
172.0
 34
0.0
 50
90.0
100
AcDbRotatedDimension
1001
ACAD
1000
DSTYLE
1002
{
1070
    40
1040
1.0
1002
}
  0
LINE
  5
53F8
330
2
100
AcDbEntity
  8
0
100
AcDbLine
 10
245.9999999999997
 20
182.0
 30
0.0
 11
245.9999999999997
 21
246.4999999999999
 31
0.0
  0
LINE
  5
53F9
330
2
100
AcDbEntity
  8
0
100
AcDbLine
 10
289.9999999999997
 20
246.4999999999999
 30
0.0
 11
289.9999999999997
 21
182.0
 31
0.0
  0
LINE
  5
53FA
330
2
100
AcDbEntity
  8
0
100
AcDbLine
 10
289.9999999999997
 20
183.311407441424
 30
0.0
 11
289.9999999999997
 21
244.6885925585757
 31
0.0
  0
LINE
  5
53FB
330
2
100
AcDbEntity
  8
0
100
AcDbLine
 10
293.9999999999995
 20
228.4999999999972
 30
0.0
 11
293.9999999999995
 21
213.5499999999983
 31
0.0
  0
LINE
  5
53FC
330
2
100
AcDbEntity
  8
0
100
AcDbLine
 10
245.9999999999997
 20
183.3114074414228
 30
0.0
 11
245.9999999999999
 21
244.6885925585748
 31
0.0
  0
LINE
  5
53FD
330
2
100
AcDbEntity
  8
0
100
AcDbLine
 10
233.0000000000001
 20
216.9999999999992
 30
0.0
 11
233.0000000000001
 21
244.5999999999992
 31
0.0
  0
LINE
  5
53FE
330
2
100
AcDbEntity
  8
0
100
AcDbLine
 10
292.8999999999996
 20
172.0
 30
0.0
 11
243.0999999999996
 21
172.0
 31
0.0
  0
LINE
  5
53FF
330
2
100
AcDbEntity
  8
0
100
AcDbLine
 10
242.5999999999997
 20
172.5
 30
0.0
 11
242.5999999999997
 21
181.4999999999999
 31
0.0
  0
ARC
  5
5400
330
2
100
AcDbEntity
  8
0
100
AcDbCircle
 10
243.0999999999996
 20
172.5
 30
0.0
 40
0.5
100
AcDbArc
 50
180.0
 51
270.0
  0
LINE
  5
5401
330
2
100
AcDbEntity
  8
0
100
AcDbLine
 10
217.9999999999997
 20
201.1999999999996
 30
0.0
 11
238.3937822173497
 21
201.1999999999996
 31
0.0
  0
LINE
  5
5402
330
2
100
AcDbEntity
  8
0
100
AcDbLine
 10
232.9999999999999
 20
183.7999999999988
 30
0.0
 11
217.9999999999997
 21
183.7999999999988
 31
0.0
  0
LINE
  5
5403
330
2
100
AcDbEntity
  8
0
100
AcDbLine
 10
232.9999999999998
 20
185.5999999999987
 30
0.0
 11
217.9999999999998
 21
185.5999999999987
 31
0.0
  0
LINE
  5
5404
330
2
100
AcDbEntity
  8
0
100
AcDbLine
 10
217.9999999999998
 20
205.1999999999996
 30
0.0
 11
241.9999999999999
 21
205.1999999999996
 31
0.0
  0
ARC
  5
5405
330
2
100
AcDbEntity
  8
0
100
AcDbCircle
 10
241.4999999999998
 20
202.0500000000003
 30
0.0
 40
0.5
100
AcDbArc
 50
270.0
 51
0.0
  0
LINE
  5
5406
330
2
100
AcDbEntity
  8
0
100
AcDbLine
 10
242.0999999999996
 20
182.0
 30
0.0
 11
245.9999999999997
 21
182.0
 31
0.0
  0
LINE
  5
5407
330
2
100
AcDbEntity
  8
0
100
AcDbLine
 10
232.9999999999998
 20
182.0000000000002
 30
0.0
 11
244.9999999999998
 21
181.9999999999989
 31
0.0
  0
LINE
  5
5408
330
2
100
AcDbEntity
  8
0
100
AcDbLine
 10
241.9999999999997
 20
188.4832724310937
 30
0.0
 11
241.9999999999999
 21
199.5500000000002
 31
0.0
  0
ARC
  5
5409
330
2
100
AcDbEntity
  8
0
100
AcDbCircle
 10
243.4999999999999
 20
192.6196960070831
 30
0.0
 40
5.000000000000062
100
AcDbArc
 50
166.390937824577
 51
252.5423968762774
  0
ARC
  5
540A
330
2
100
AcDbEntity
  8
0
100
AcDbCircle
 10
243.4999999999999
 20
192.619696007083
 30
0.0
 40
4.400000000000029
100
AcDbArc
 50
166.3909378245767
 51
250.0677295277982
  0
LINE
  5
540B
330
2
100
AcDbEntity
  8
0
100
AcDbLine
 10
243.5
 20
183.5999999999989
 30
0.0
 11
234.5999999999999
 21
183.5999999999989
 31
0.0
  0
LINE
  5
540C
330
2
100
AcDbEntity
  8
0
100
AcDbLine
 10
232.9999999999998
 20
185.5999999999989
 30
0.0
 11
232.9999999999998
 21
182.0000000000002
 31
0.0
  0
LINE
  5
540D
330
2
100
AcDbEntity
  8
0
100
AcDbLine
 10
234.5999999999998
 20
185.5999999999987
 30
0.0
 11
232.9999999999998
 21
185.5999999999989
 31
0.0
  0
LINE
  5
540E
330
2
100
AcDbEntity
  8
0
100
AcDbLine
 10
234.5999999999999
 20
183.5999999999989
 30
0.0
 11
234.5999999999998
 21
185.5999999999987
 31
0.0
  0
LINE
  5
540F
330
2
100
AcDbEntity
  8
0
100
AcDbLine
 10
240.3
 20
186.6999999999987
 30
0.0
 11
240.3
 21
184.6999999999983
 31
0.0
  0
LINE
  5
5410
330
2
100
AcDbEntity
  8
0
100
AcDbLine
 10
242.0999999999996
 20
181.4999999999999
 30
0.0
 11
242.0999999999996
 21
182.0
 31
0.0
  0
LINE
  5
5411
330
2
100
AcDbEntity
  8
0
100
AcDbLine
 10
242.5999999999997
 20
181.4999999999999
 30
0.0
 11
242.0999999999996
 21
181.4999999999999
 31
0.0
  0
LINE
  5
5412
330
2
100
AcDbEntity
  8
0
100
AcDbLine
 10
243.5
 20
184.6999999999983
 30
0.0
 11
243.5
 21
183.5999999999989
 31
0.0
  0
LINE
  5
5413
330
2
100
AcDbEntity
  8
0
100
AcDbLine
 10
240.3
 20
184.6999999999983
 30
0.0
 11
243.5
 21
184.6999999999983
 31
0.0
  0
LINE
  5
5414
330
2
100
AcDbEntity
  8
0
100
AcDbLine
 10
241.9999999999997
 20
187.493333333332
 30
0.0
 11
240.3
 21
186.6999999999987
 31
0.0
  0
LINE
  5
5415
330
2
100
AcDbEntity
  8
0
100
AcDbLine
 10
241.9999999999998
 20
187.493333333332
 30
0.0
 11
241.9999999999997
 21
187.8499999999983
 31
0.0
  0
ARC
  5
5416
330
2
100
AcDbEntity
  8
0
100
AcDbCircle
 10
238.9319581530827
 20
193.7255864559131
 30
0.0
 40
0.3000000000000131
100
AcDbArc
 50
346.390937824569
 51
166.3909378245689
  0
LINE
  5
5417
330
2
100
AcDbEntity
  8
0
100
AcDbLine
 10
238.7800624689735
 20
193.9842903429133
 30
0.0
 11
238.6732542660824
 21
193.8774821400222
 31
0.0
  0
LINE
  5
5418
330
2
100
AcDbEntity
  8
0
100
AcDbLine
 10
238.9999999999998
 20
201.5500000000002
 30
0.0
 11
241.4999999999998
 21
201.5500000000003
 31
0.0
  0
LINE
  5
5419
330
2
100
AcDbEntity
  8
0
100
AcDbLine
 10
241.4999999999998
 20
200.0500000000002
 30
0.0
 11
238.4999999999998
 21
200.0500000000002
 31
0.0
  0
LINE
  5
541A
330
2
100
AcDbEntity
  8
0
100
AcDbLine
 10
238.2499999999998
 20
201.116987298108
 30
0.0
 11
238.9999999999998
 21
201.5500000000002
 31
0.0
  0
ARC
  5
541B
330
2
100
AcDbEntity
  8
0
100
AcDbCircle
 10
238.4999999999998
 20
200.6839745962158
 30
0.0
 40
0.5
100
AcDbArc
 50
119.9999999999997
 51
180.0
  0
LINE
  5
541C
330
2
100
AcDbEntity
  8
0
100
AcDbLine
 10
237.9999999999999
 20
200.5500000000002
 30
0.0
 11
237.9999999999999
 21
200.6839745962158
 31
0.0
  0
ARC
  5
541D
330
2
100
AcDbEntity
  8
0
100
AcDbCircle
 10
238.4999999999998
 20
200.5500000000002
 30
0.0
 40
0.5
100
AcDbArc
 50
180.0
 51
270.0
  0
ARC
  5
541E
330
2
100
AcDbEntity
  8
0
100
AcDbCircle
 10
241.4999999999998
 20
199.5500000000002
 30
0.0
 40
0.5
100
AcDbArc
 50
0.0
 51
90.0
  0
ARC
  5
541F
330
2
100
AcDbEntity
  8
0
100
AcDbCircle
 10
244.4399999999999
 20
184.4979991993583
 30
0.0
 40
1.960000000000022
100
AcDbArc
 50
322.7420839986817
 51
5.127990883093846
  0
ARC
  5
5420
330
2
100
AcDbEntity
  8
0
100
AcDbCircle
 10
246.6909543923723
 20
184.6999999999989
 30
0.0
 40
0.3000000000000056
100
AcDbArc
 50
5.127990883097035
 51
185.127990883097
  0
ARC
  5
5421
330
2
100
AcDbEntity
  8
0
100
AcDbCircle
 10
244.4399999999999
 20
184.4979991993583
 30
0.0
 40
2.560000000000052
100
AcDbArc
 50
282.6356250930209
 51
5.127990883094595
  0
LINE
  5
5422
330
2
100
AcDbEntity
  8
0
 48
2.0
100
AcDbLine
 10
239.5762948109152
 20
211.0234201639002
 30
0.0
 11
233.5876493697173
 21
213.7340165982677
 31
0.0
  0
LINE
  5
5423
330
2
100
AcDbEntity
  8
0
 48
2.0
100
AcDbLine
 10
233.835059747887
 20
214.2806317323191
 30
0.0
 11
239.8237051890849
 21
211.5700352979515
 31
0.0
  0
LINE
  5
5424
330
2
100
AcDbEntity
  8
0
100
AcDbLine
 10
241.9999999999999
 20
202.0500000000003
 30
0.0
 11
241.9999999999999
 21
216.9999999999992
 31
0.0
  0
ARC
  5
5425
330
2
100
AcDbEntity
  8
0
 48
2.0
100
AcDbCircle
 10
239.7000000000001
 20
211.2967277309258
 30
0.0
 40
0.2999999999999934
100
AcDbArc
 50
245.6474165002465
 51
65.64741650024436
  0
LINE
  5
5426
330
2
100
AcDbEntity
  8
0
100
AcDbLine
 10
241.9999999999999
 20
216.9999999999992
 30
0.0
 11
233.6000000000002
 21
216.9999999999992
 31
0.0
  0
LINE
  5
5427
330
2
100
AcDbEntity
  8
0
 48
2.0
100
AcDbLine
 10
233.0000000000001
 20
214.6450418216866
 30
0.0
 11
233.0000000000001
 21
216.9999999999992
 31
0.0
  0
ARC
  5
5428
330
2
100
AcDbEntity
  8
0
 48
2.0
100
AcDbCircle
 10
234.0
 20
214.6450418216866
 30
0.0
 40
0.9999999999999623
100
AcDbArc
 50
180.0
 51
245.6474165002463
  0
ARC
  5
5429
330
2
100
AcDbEntity
  8
0
 48
2.0
100
AcDbCircle
 10
234.0000000000001
 20
214.6450418216865
 30
0.0
 40
0.3999999999999772
100
AcDbArc
 50
179.9999999999959
 51
245.6474165002402
  0
LINE
  5
542A
330
2
100
AcDbEntity
  8
0
 48
2.0
100
AcDbLine
 10
233.6000000000001
 20
216.9999999999992
 30
0.0
 11
233.6000000000001
 21
214.6450418216866
 31
0.0
  0
LINE
  5
542B
330
2
100
AcDbEntity
  8
0
100
AcDbLine
 10
293.3999999999996
 20
181.4999999999999
 30
0.0
 11
293.3999999999996
 21
172.5
 31
0.0
  0
ARC
  5
542C
330
2
100
AcDbEntity
  8
0
100
AcDbCircle
 10
292.8999999999996
 20
172.5
 30
0.0
 40
0.5
100
AcDbArc
 50
270.0
 51
0.0
  0
LINE
  5
542D
330
2
100
AcDbEntity
  8
0
100
AcDbLine
 10
289.9999999999997
 20
182.0
 30
0.0
 11
293.8999999999996
 21
182.0
 31
0.0
  0
ARC
  5
542E
330
2
100
AcDbEntity
  8
0
100
AcDbCircle
 10
291.5599999999997
 20
184.4979991993593
 30
0.0
 40
2.560000000000052
100
AcDbArc
 50
174.8720091169053
 51
257.3643749069791
  0
ARC
  5
542F
330
2
100
AcDbEntity
  8
0
100
AcDbCircle
 10
291.5599999999997
 20
184.4979991993593
 30
0.0
 40
1.960000000000022
100
AcDbArc
 50
174.8720091169061
 51
217.2579160013129
  0
ARC
  5
5430
330
2
100
AcDbEntity
  8
0
100
AcDbCircle
 10
289.3090456076273
 20
184.6999999999998
 30
0.0
 40
0.3000000000000056
100
AcDbArc
 50
354.8720091169029
 51
174.8720091169029
  0
LINE
  5
5431
330
2
100
AcDbEntity
  8
0
100
AcDbLine
 10
302.9999999999997
 20
213.5499999999983
 30
0.0
 11
302.9999999999997
 21
181.9999999999998
 31
0.0
  0
LINE
  5
5432
330
2
100
AcDbEntity
  8
0
100
AcDbLine
 10
317.9999999999997
 20
201.1999999999996
 30
0.0
 11
302.9999999999997
 21
201.1999999999996
 31
0.0
  0
LINE
  5
5433
330
2
100
AcDbEntity
  8
0
100
AcDbLine
 10
317.9999999999997
 20
185.5999999999987
 30
0.0
 11
302.9999999999997
 21
185.5999999999987
 31
0.0
  0
LINE
  5
5434
330
2
100
AcDbEntity
  8
0
100
AcDbLine
 10
317.9999999999997
 20
183.7999999999988
 30
0.0
 11
302.9999999999997
 21
183.7999999999987
 31
0.0
  0
LINE
  5
5435
330
2
100
AcDbEntity
  8
0
100
AcDbLine
 10
302.9999999999997
 20
181.9999999999998
 30
0.0
 11
290.9999999999994
 21
181.9999999999999
 31
0.0
  0
LINE
  5
5436
330
2
100
AcDbEntity
  8
0
100
AcDbLine
 10
293.8999999999996
 20
181.4999999999999
 30
0.0
 11
293.3999999999996
 21
181.4999999999999
 31
0.0
  0
LINE
  5
5437
330
2
100
AcDbEntity
  8
0
100
AcDbLine
 10
293.8999999999996
 20
182.0
 30
0.0
 11
293.8999999999996
 21
181.4999999999999
 31
0.0
  0
LINE
  5
5438
330
2
100
AcDbEntity
  8
0
100
AcDbLine
 10
317.9999999999997
 20
205.1999999999996
 30
0.0
 11
302.9999999999997
 21
205.1999999999996
 31
0.0
  0
LINE
  5
5439
330
2
100
AcDbEntity
  8
0
 48
2.0
100
AcDbLine
 10
296.4237051890841
 20
219.5265798360973
 30
0.0
 11
302.4123506302821
 21
216.8159834017298
 31
0.0
  0
LINE
  5
543A
330
2
100
AcDbEntity
  8
0
 48
2.0
100
AcDbLine
 10
302.1649402521124
 20
216.2693682676784
 30
0.0
 11
296.1762948109145
 21
218.979964702046
 31
0.0
  0
LINE
  5
543B
330
2
100
AcDbEntity
  8
0
100
AcDbLine
 10
293.9999999999995
 20
213.5499999999983
 30
0.0
 11
302.3999999999992
 21
213.5499999999982
 31
0.0
  0
ARC
  5
543C
330
2
100
AcDbEntity
  8
0
 48
2.0
100
AcDbCircle
 10
296.2999999999993
 20
219.2532722690716
 30
0.0
 40
0.2999999999999934
100
AcDbArc
 50
65.64741650024659
 51
245.6474165002443
  0
LINE
  5
543D
330
2
100
AcDbEntity
  8
0
 48
2.0
100
AcDbLine
 10
302.9999999999993
 20
215.9049581783109
 30
0.0
 11
302.9999999999993
 21
213.5499999999983
 31
0.0
  0
ARC
  5
543E
330
2
100
AcDbEntity
  8
0
 48
2.0
100
AcDbCircle
 10
301.9999999999993
 20
215.9049581783109
 30
0.0
 40
0.9999999999999623
100
AcDbArc
 50
0.0
 51
65.64741650024632
  0
ARC
  5
543F
330
2
100
AcDbEntity
  8
0
 48
2.0
100
AcDbCircle
 10
301.9999999999993
 20
215.9049581783109
 30
0.0
 40
0.3999999999999772
100
AcDbArc
 50
359.9999999999959
 51
65.64741650024021
  0
LINE
  5
5440
330
2
100
AcDbEntity
  8
0
 48
2.0
100
AcDbLine
 10
302.3999999999992
 20
213.5499999999983
 30
0.0
 11
302.3999999999992
 21
215.9049581783109
 31
0.0
  0
TEXT
  5
5441
330
2
100
AcDbEntity
  8
ADM
100
AcDbText
 10
253.2799999999997
 20
259.5
 30
0.0
 40
4.0
  1
外方立カバーなし
 41
0.8
 72
     4
 11
267.9999999999997
 21
261.5
 31
0.0
100
AcDbText
  0
LINE
  5
5442
330
2
100
AcDbEntity
  8
0
100
AcDbLine
 10
247.9999999999997
 20
235.4999999999999
 30
0.0
 11
287.9999999999997
 21
235.4999999999999
 31
0.0
  0
LINE
  5
5443
330
2
100
AcDbEntity
  8
ADM
100
AcDbLine
 10
287.9999999999997
 20
265.0
 30
0.0
 11
247.9999999999997
 21
265.0
 31
0.0
  0
LINE
  5
5444
330
2
100
AcDbEntity
  8
ADM
100
AcDbLine
 10
247.9999999999997
 20
258.0
 30
0.0
 11
287.9999999999997
 21
258.0
 31
0.0
  0
LINE
  5
5445
330
2
100
AcDbEntity
  8
0
100
AcDbLine
 10
217.9999999999997
 20
231.1999999999989
 30
0.0
 11
233.0000000000001
 21
231.1999999999989
 31
0.0
  0
LINE
  5
5446
330
2
100
AcDbEntity
  8
0
100
AcDbLine
 10
217.9999999999997
 20
235.1999999999989
 30
0.0
 11
233.0000000000001
 21
235.1999999999989
 31
0.0
  0
LINE
  5
5447
330
2
100
AcDbEntity
  8
0
100
AcDbLine
 10
217.9999999999997
 20
243.9999999999997
 30
0.0
 11
233.0000000000001
 21
243.9999999999997
 31
0.0
  0
LINE
  5
5448
330
2
100
AcDbEntity
  8
0
100
AcDbLine
 10
251.4999999999997
 20
245.1780433648365
 30
0.0
 11
251.4999999999997
 21
244.0
 31
0.0
  0
ARC
  5
5449
330
2
100
AcDbEntity
  8
0
100
AcDbCircle
 10
244.4399999999998
 20
243.5020008006395
 30
0.0
 40
2.56000000000012
100
AcDbArc
 50
354.8720091169042
 51
77.36437490697813
  0
LINE
  5
544A
330
2
100
AcDbEntity
  8
0
100
AcDbLine
 10
240.3
 20
245.9999999999989
 30
0.0
 11
240.3000000000001
 21
243.8999999999987
 31
0.0
  0
ARC
  5
544B
330
2
100
AcDbEntity
  8
0
100
AcDbCircle
 10
233.4999999999999
 20
244.7999999999992
 30
0.0
 40
0.3
100
AcDbArc
 50
0.0000000000065138
 51
90.00000000000323
  0
ARC
  5
544C
330
2
100
AcDbEntity
  8
0
100
AcDbCircle
 10
233.4999999999999
 20
244.5999999999992
 30
0.0
 40
0.5000000000000285
100
AcDbArc
 50
90.00000000000323
 51
179.9999999999983
  0
LINE
  5
544D
330
2
100
AcDbEntity
  8
0
100
AcDbLine
 10
233.7999999999999
 20
244.5999999999993
 30
0.0
 11
239.2999999999999
 21
244.5999999999997
 31
0.0
  0
LINE
  5
544E
330
2
100
AcDbEntity
  8
0
 48
2.0
100
AcDbLine
 10
233.7999999999999
 20
244.5999999999993
 30
0.0
 11
233.7999999999999
 21
244.7999999999993
 31
0.0
  0
LINE
  5
544F
330
2
100
AcDbEntity
  8
0
100
AcDbLine
 10
239.8
 20
241.0499999999984
 30
0.0
 11
241.9999999999999
 21
241.0499999999984
 31
0.0
  0
LINE
  5
5450
330
2
100
AcDbEntity
  8
0
100
AcDbLine
 10
239.7999999999999
 20
244.0999999999997
 30
0.0
 11
239.8
 21
241.0499999999984
 31
0.0
  0
ARC
  5
5451
330
2
100
AcDbEntity
  8
0
100
AcDbCircle
 10
239.2999999999999
 20
244.0999999999996
 30
0.0
 40
0.5
100
AcDbArc
 50
0.0000000000048853
 51
90.0
  0
LINE
  5
5452
330
2
100
AcDbEntity
  8
0
100
AcDbLine
 10
240.3000000000001
 20
243.8999999999987
 30
0.0
 11
241.9999999999999
 21
243.1066666666655
 31
0.0
  0
LINE
  5
5453
330
2
100
AcDbEntity
  8
0
100
AcDbLine
 10
241.9999999999999
 20
243.1066666666655
 30
0.0
 11
241.9999999999999
 21
241.0499999999984
 31
0.0
  0
LINE
  5
5454
330
2
100
AcDbEntity
  8
0
100
AcDbLine
 10
247.9999999999997
 20
244.0
 30
0.0
 11
247.9999999999997
 21
235.4999999999999
 31
0.0
  0
ARC
  5
5455
330
2
100
AcDbEntity
  8
0
100
AcDbCircle
 10
244.4399999999999
 20
243.5020008006395
 30
0.0
 40
1.959999999999904
100
AcDbArc
 50
354.8720091169075
 51
37.25791600131599
  0
ARC
  5
5456
330
2
100
AcDbEntity
  8
0
100
AcDbCircle
 10
246.6909543923723
 20
243.2999999999989
 30
0.0
 40
0.3000000000000107
100
AcDbArc
 50
174.8720091168921
 51
354.8720091168921
  0
LINE
  5
5457
330
2
100
AcDbEntity
  8
0
100
AcDbLine
 10
251.4999999999997
 20
244.0
 30
0.0
 11
247.9999999999997
 21
244.0
 31
0.0
  0
LINE
  5
5458
330
2
100
AcDbEntity
  8
0
100
AcDbLine
 10
244.9999999999998
 20
245.9999999999989
 30
0.0
 11
240.3
 21
245.9999999999989
 31
0.0
  0
LINE
  5
5459
330
2
100
AcDbEntity
  8
0
100
AcDbLine
 10
233.4999999999999
 20
245.0999999999992
 30
0.0
 11
233.4999999999999
 21
245.0999999999992
 31
0.0
  0
ARC
  5
545A
330
2
100
AcDbEntity
  8
0
100
AcDbCircle
 10
250.9999999999997
 20
245.1780433648365
 30
0.0
 40
0.5000000000000133
100
AcDbArc
 50
0.0000000000032569
 51
65.55604521958966
  0
LINE
  5
545B
330
2
100
AcDbEntity
  8
0
100
AcDbLine
 10
245.9999999999997
 20
248.0
 30
0.0
 11
251.2069014721503
 21
245.6332266035679
 31
0.0
  0
LINE
  5
545C
330
2
100
AcDbEntity
  8
0
100
AcDbLine
 10
245.2499999999997
 20
248.0
 30
0.0
 11
245.9999999999997
 21
248.0
 31
0.0
  0
ARC
  5
545D
330
2
100
AcDbEntity
  8
0
100
AcDbCircle
 10
245.2499999999997
 20
247.25
 30
0.0
 40
0.7499999999999716
100
AcDbArc
 50
90.0
 51
270.0
  0
LINE
  5
545E
330
2
100
AcDbEntity
  8
0
100
AcDbLine
 10
245.9999999999997
 20
246.4999999999999
 30
0.0
 11
245.2499999999997
 21
246.4999999999999
 31
0.0
  0
LINE
  5
545F
330
2
100
AcDbEntity
  8
ADM
100
AcDbLine
 10
247.9999999999997
 20
258.0
 30
0.0
 11
247.9999999999997
 21
265.0
 31
0.0
  0
LINE
  5
5460
330
2
100
AcDbEntity
  8
0
100
AcDbLine
 10
290.7499999999997
 20
246.4999999999999
 30
0.0
 11
289.9999999999997
 21
246.4999999999999
 31
0.0
  0
LINE
  5
5461
330
2
100
AcDbEntity
  8
0
100
AcDbLine
 10
289.9999999999997
 20
248.0
 30
0.0
 11
290.7499999999997
 21
248.0
 31
0.0
  0
ARC
  5
5462
330
2
100
AcDbEntity
  8
0
100
AcDbCircle
 10
291.5599999999998
 20
243.5020008006404
 30
0.0
 40
2.56000000000012
100
AcDbArc
 50
102.6356250930218
 51
185.1279908830957
  0
LINE
  5
5463
330
2
100
AcDbEntity
  8
0
100
AcDbLine
 10
284.4999999999997
 20
244.0
 30
0.0
 11
284.4999999999997
 21
245.1780433648365
 31
0.0
  0
LINE
  5
5464
330
2
100
AcDbEntity
  8
0
100
AcDbLine
 10
287.9999999999997
 20
235.4999999999999
 30
0.0
 11
287.9999999999997
 21
244.0
 31
0.0
  0
LINE
  5
5465
330
2
100
AcDbEntity
  8
0
100
AcDbLine
 10
287.9999999999997
 20
244.0
 30
0.0
 11
284.4999999999997
 21
244.0
 31
0.0
  0
ARC
  5
5466
330
2
100
AcDbEntity
  8
0
100
AcDbCircle
 10
291.5599999999996
 20
243.5020008006404
 30
0.0
 40
1.959999999999904
100
AcDbArc
 50
142.7420839986857
 51
185.1279908830924
  0
ARC
  5
5467
330
2
100
AcDbEntity
  8
0
100
AcDbCircle
 10
289.3090456076273
 20
243.2999999999998
 30
0.0
 40
0.3000000000000107
100
AcDbArc
 50
185.1279908831078
 51
5.127990883107849
  0
LINE
  5
5468
330
2
100
AcDbEntity
  8
0
100
AcDbLine
 10
284.7930985278492
 20
245.6332266035679
 30
0.0
 11
289.9999999999997
 21
248.0
 31
0.0
  0
ARC
  5
5469
330
2
100
AcDbEntity
  8
0
100
AcDbCircle
 10
284.9999999999998
 20
245.1780433648365
 30
0.0
 40
0.5000000000000569
100
AcDbArc
 50
114.4439547804149
 51
179.9999999999967
  0
LINE
  5
546A
330
2
100
AcDbEntity
  8
ADM
100
AcDbLine
 10
287.9999999999997
 20
258.0
 30
0.0
 11
287.9999999999997
 21
265.0
 31
0.0
  0
LINE
  5
546B
330
2
100
AcDbEntity
  8
0
100
AcDbLine
 10
295.6999999999995
 20
245.9999999999999
 30
0.0
 11
295.6999999999995
 21
243.8999999999997
 31
0.0
  0
LINE
  5
546C
330
2
100
AcDbEntity
  8
0
100
AcDbLine
 10
317.9999999999997
 20
244.2999999999987
 30
0.0
 11
295.7681765165495
 21
244.2999999999987
 31
0.0
  0
LINE
  5
546D
330
2
100
AcDbEntity
  8
0
100
AcDbLine
 10
293.999999999999
 20
235.2000000000001
 30
0.0
 11
317.9999999999996
 21
235.2
 31
0.0
  0
LINE
  5
546E
330
2
100
AcDbEntity
  8
0
100
AcDbLine
 10
293.999999999999
 20
231.2
 30
0.0
 11
317.9999999999996
 21
231.1999999999999
 31
0.0
  0
LINE
  5
546F
330
2
100
AcDbEntity
  8
0
100
AcDbLine
 10
293.9999999999996
 20
242.0667275689038
 30
0.0
 11
293.9999999999995
 21
230.9999999999973
 31
0.0
  0
ARC
  5
5470
330
2
100
AcDbEntity
  8
0
100
AcDbCircle
 10
297.4999999999995
 20
229.8660254037817
 30
0.0
 40
0.5
100
AcDbArc
 50
299.9999999999997
 51
0.0
  0
ARC
  5
5471
330
2
100
AcDbEntity
  8
0
100
AcDbCircle
 10
297.4999999999995
 20
229.9999999999973
 30
0.0
 40
0.5
100
AcDbArc
 50
0.0
 51
90.0
  0
ARC
  5
5472
330
2
100
AcDbEntity
  8
0
100
AcDbCircle
 10
294.4999999999995
 20
228.4999999999972
 30
0.0
 40
0.5
100
AcDbArc
 50
90.0
 51
180.0
  0
ARC
  5
5473
330
2
100
AcDbEntity
  8
0
100
AcDbCircle
 10
294.4999999999995
 20
230.9999999999973
 30
0.0
 40
0.5
100
AcDbArc
 50
180.0
 51
270.0
  0
LINE
  5
5474
330
2
100
AcDbEntity
  8
0
100
AcDbLine
 10
296.9999999999995
 20
228.9999999999973
 30
0.0
 11
294.4999999999995
 21
228.9999999999972
 31
0.0
  0
LINE
  5
5475
330
2
100
AcDbEntity
  8
0
100
AcDbLine
 10
297.7499999999995
 20
229.4330127018895
 30
0.0
 11
296.9999999999995
 21
228.9999999999973
 31
0.0
  0
LINE
  5
5476
330
2
100
AcDbEntity
  8
0
100
AcDbLine
 10
294.4999999999995
 20
230.4999999999973
 30
0.0
 11
297.4999999999995
 21
230.4999999999973
 31
0.0
  0
LINE
  5
5477
330
2
100
AcDbEntity
  8
0
100
AcDbLine
 10
297.9999999999995
 20
229.9999999999973
 30
0.0
 11
297.9999999999995
 21
229.8660254037817
 31
0.0
  0
ARC
  5
5478
330
2
100
AcDbEntity
  8
0
100
AcDbCircle
 10
292.4999999999995
 20
237.9303039929144
 30
0.0
 40
5.000000000000062
100
AcDbArc
 50
346.390937824577
 51
72.54239687627745
  0
ARC
  5
5479
330
2
100
AcDbEntity
  8
0
100
AcDbCircle
 10
292.4999999999995
 20
237.9303039929145
 30
0.0
 40
4.400000000000029
100
AcDbArc
 50
346.3909378245767
 51
70.06772952779821
  0
ARC
  5
547A
330
2
100
AcDbEntity
  8
0
100
AcDbCircle
 10
297.0680418469166
 20
236.8244135440844
 30
0.0
 40
0.3000000000000131
100
AcDbArc
 50
166.3909378245689
 51
346.390937824569
  0
LINE
  5
547B
330
2
100
AcDbEntity
  8
0
100
AcDbLine
 10
295.6999999999995
 20
243.8999999999997
 30
0.0
 11
293.9999999999996
 21
243.1066666666663
 31
0.0
  0
LINE
  5
547C
330
2
100
AcDbEntity
  8
0
100
AcDbLine
 10
293.9999999999996
 20
243.1066666666663
 30
0.0
 11
293.9999999999996
 21
242.6999999999992
 31
0.0
  0
LINE
  5
547D
330
2
100
AcDbEntity
  8
0
100
AcDbLine
 10
290.9999999999998
 20
245.9999999999999
 30
0.0
 11
295.6999999999995
 21
245.9999999999999
 31
0.0
  0
ARC
  5
547E
330
2
100
AcDbEntity
  8
0
100
AcDbCircle
 10
290.7499999999997
 20
247.25
 30
0.0
 40
0.75
100
AcDbArc
 50
270.0
 51
90.0
  0
DIMENSION
  5
5721
330
2
100
AcDbEntity
  8
ADM
100
AcDbDimension
  2
*D11
 10
113.9999999999999
 20
39.99999999999999
 30
0.0
 11
111.4999999999999
 21
36.60000000000001
 31
0.0
 70
    32
 71
     5
 42
-1.0
  3
1
100
AcDbAlignedDimension
 13
88.99999999999996
 23
43.0
 33
0.0
 14
81.49999999999989
 24
40.0
 34
0.0
 50
90.0
100
AcDbRotatedDimension
1001
ACAD
1000
DSTYLE
1002
{
1070
   172
1070
     1
1070
     6
1000
DOT
1070
     7
1000
DOT
1002
}
  0
ENDSEC
  0
SECTION
  2
OBJECTS
  0
DICTIONARY
  5
8
330
0
100
AcDbDictionary
281
     1
  3
ACAD_GROUP
350
23
  3
ACAD_LAYOUT
350
C
  3
ACAD_MLINESTYLE
350
24
  3
ACAD_PLOTSETTINGS
350
25
  3
ACAD_PLOTSTYLENAME
350
7
  3
AcDbVariableDictionary
350
8A7
  0
DICTIONARY
  5
13
330
12
100
AcDbDictionary
280
     1
281
     1
  3
ACAD_LAYERFILTERS
360
3DD7
  3
ACAD_LAYERSTATES
360
14
  0
DICTIONARY
  5
3
330
2
100
AcDbDictionary
280
     1
281
     1
  3
ACAD_LAYOUTSELFREF
360
5841
  0
DICTIONARY
  5
E
330
D
100
AcDbDictionary
280
     1
281
     1
  3
ACAD_LAYOUTSELFREF
360
5846
  0
DICTIONARY
  5
23
102
{ACAD_REACTORS
330
8
102
}
330
8
100
AcDbDictionary
281
     1
  3
*A1
350
238E
  3
*A10
350
2FB4
  3
*A11
350
2392
  3
*A12
350
2FA7
  3
*A13
350
35F4
  3
*A14
350
2393
  3
*A15
350
2395
  3
*A16
350
2397
  3
*A17
350
238F
  3
*A18
350
3C9B
  3
*A19
350
239A
  3
*A2
350
2FAE
  3
*A20
350
2FB5
  3
*A21
350
239B
  3
*A22
350
239D
  3
*A23
350
35C9
  3
*A24
350
34F6
  3
*A25
350
35C8
  3
*A26
350
2FA9
  3
*A27
350
2396
  3
*A28
350
2FAA
  3
*A29
350
2FAC
  3
*A3
350
2FB1
  3
*A30
350
427A
  3
*A31
350
2394
  3
*A32
350
352A
  3
*A33
350
2FA6
  3
*A34
350
2FA8
  3
*A35
350
2390
  3
*A36
350
2FB0
  3
*A37
350
239C
  3
*A38
350
35F5
  3
*A39
350
2FAD
  3
*A4
350
2FAF
  3
*A40
350
2398
  3
*A41
350
2391
  3
*A5
350
2FAB
  3
*A6
350
2FB2
  3
*A7
350
353D
  3
*A8
350
2FB3
  3
*A9
350
2399
  0
DICTIONARY
  5
C
102
{ACAD_REACTORS
330
8
102
}
330
8
100
AcDbDictionary
281
     1
  3
Model
350
B
  3
ﾚｲｱｳﾄ1
350
11
  0
DICTIONARY
  5
24
102
{ACAD_REACTORS
330
8
102
}
330
8
100
AcDbDictionary
281
     1
  3
STANDARD
350
33
  0
DICTIONARY
  5
25
102
{ACAD_REACTORS
330
8
102
}
330
8
100
AcDbDictionary
281
     1
  0
ACDBDICTIONARYWDFLT
  5
7
102
{ACAD_REACTORS
330
8
102
}
330
8
100
AcDbDictionary
281
     1
  3
Normal
350
6
100
AcDbDictionaryWithDefault
340
6
1001
ACAD
1000
TREAT_AS_HARD
1070
     0
  0
DICTIONARY
  5
8A7
102
{ACAD_REACTORS
330
8
102
}
330
8
100
AcDbDictionary
281
     1
  3
DIMASSOC
350
8A9
  3
HIDETEXT
350
8A8
  0
DICTIONARY
  5
3DD7
102
{ACAD_REACTORS
330
13
102
}
330
13
100
AcDbDictionary
280
     1
281
     1
  0
DICTIONARY
  5
14
102
{ACAD_REACTORS
330
13
102
}
330
13
100
AcDbDictionary
281
     1
  0
XRECORD
  5
5841
102
{ACAD_REACTORS
330
3
102
}
330
3
100
AcDbXrecord
280
     1
340
2
  0
XRECORD
  5
5846
102
{ACAD_REACTORS
330
E
102
}
330
E
100
AcDbXrecord
280
     1
340
D
  0
GROUP
  5
238E
102
{ACAD_REACTORS
330
23
102
}
330
23
100
AcDbGroup
300

 70
     3
 71
     1
  0
GROUP
  5
2FB4
102
{ACAD_REACTORS
330
23
102
}
330
23
100
AcDbGroup
300

 70
     1
 71
     1
  0
GROUP
  5
2392
102
{ACAD_REACTORS
330
23
102
}
330
23
100
AcDbGroup
300

 70
     3
 71
     1
  0
GROUP
  5
2FA7
102
{ACAD_REACTORS
330
23
102
}
330
23
100
AcDbGroup
300

 70
     1
 71
     1
  0
GROUP
  5
35F4
102
{ACAD_REACTORS
330
23
102
}
330
23
100
AcDbGroup
300

 70
     1
 71
     1
  0
GROUP
  5
2393
102
{ACAD_REACTORS
330
23
102
}
330
23
100
AcDbGroup
300

 70
     3
 71
     1
  0
GROUP
  5
2395
102
{ACAD_REACTORS
330
23
102
}
330
23
100
AcDbGroup
300

 70
     3
 71
     1
  0
GROUP
  5
2397
102
{ACAD_REACTORS
330
23
102
}
330
23
100
AcDbGroup
300

 70
     3
 71
     1
  0
GROUP
  5
238F
102
{ACAD_REACTORS
330
23
102
}
330
23
100
AcDbGroup
300

 70
     3
 71
     1
  0
GROUP
  5
3C9B
102
{ACAD_REACTORS
330
23
102
}
330
23
100
AcDbGroup
300

 70
     1
 71
     1
  0
GROUP
  5
239A
102
{ACAD_REACTORS
330
23
102
}
330
23
100
AcDbGroup
300

 70
     3
 71
     1
  0
GROUP
  5
2FAE
102
{ACAD_REACTORS
330
23
102
}
330
23
100
AcDbGroup
300

 70
     1
 71
     1
  0
GROUP
  5
2FB5
102
{ACAD_REACTORS
330
23
102
}
330
23
100
AcDbGroup
300

 70
     1
 71
     1
  0
GROUP
  5
239B
102
{ACAD_REACTORS
330
23
102
}
330
23
100
AcDbGroup
300

 70
     3
 71
     1
  0
GROUP
  5
239D
102
{ACAD_REACTORS
330
23
102
}
330
23
100
AcDbGroup
300

 70
     3
 71
     1
  0
GROUP
  5
35C9
102
{ACAD_REACTORS
330
23
102
}
330
23
100
AcDbGroup
300

 70
     1
 71
     1
  0
GROUP
  5
34F6
102
{ACAD_REACTORS
330
23
102
}
330
23
100
AcDbGroup
300

 70
     1
 71
     1
  0
GROUP
  5
35C8
102
{ACAD_REACTORS
330
23
102
}
330
23
100
AcDbGroup
300

 70
     1
 71
     1
  0
GROUP
  5
2FA9
102
{ACAD_REACTORS
330
23
102
}
330
23
100
AcDbGroup
300

 70
     1
 71
     1
  0
GROUP
  5
2396
102
{ACAD_REACTORS
330
23
102
}
330
23
100
AcDbGroup
300

 70
     3
 71
     1
  0
GROUP
  5
2FAA
102
{ACAD_REACTORS
330
23
102
}
330
23
100
AcDbGroup
300

 70
     1
 71
     1
  0
GROUP
  5
2FAC
102
{ACAD_REACTORS
330
23
102
}
330
23
100
AcDbGroup
300

 70
     1
 71
     1
  0
GROUP
  5
2FB1
102
{ACAD_REACTORS
330
23
102
}
330
23
100
AcDbGroup
300

 70
     1
 71
     1
  0
GROUP
  5
427A
102
{ACAD_REACTORS
330
23
102
}
330
23
100
AcDbGroup
300

 70
     1
 71
     1
  0
GROUP
  5
2394
102
{ACAD_REACTORS
330
23
102
}
330
23
100
AcDbGroup
300

 70
     3
 71
     1
  0
GROUP
  5
352A
102
{ACAD_REACTORS
330
23
102
}
330
23
100
AcDbGroup
300

 70
     1
 71
     1
  0
GROUP
  5
2FA6
102
{ACAD_REACTORS
330
23
102
}
330
23
100
AcDbGroup
300

 70
     1
 71
     1
  0
GROUP
  5
2FA8
102
{ACAD_REACTORS
330
23
102
}
330
23
100
AcDbGroup
300

 70
     1
 71
     1
  0
GROUP
  5
2390
102
{ACAD_REACTORS
330
23
102
}
330
23
100
AcDbGroup
300

 70
     3
 71
     1
  0
GROUP
  5
2FB0
102
{ACAD_REACTORS
330
23
102
}
330
23
100
AcDbGroup
300

 70
     1
 71
     1
  0
GROUP
  5
239C
102
{ACAD_REACTORS
330
23
102
}
330
23
100
AcDbGroup
300

 70
     3
 71
     1
  0
GROUP
  5
35F5
102
{ACAD_REACTORS
330
23
102
}
330
23
100
AcDbGroup
300

 70
     1
 71
     1
  0
GROUP
  5
2FAD
102
{ACAD_REACTORS
330
23
102
}
330
23
100
AcDbGroup
300

 70
     1
 71
     1
  0
GROUP
  5
2FAF
102
{ACAD_REACTORS
330
23
102
}
330
23
100
AcDbGroup
300

 70
     1
 71
     1
  0
GROUP
  5
2398
102
{ACAD_REACTORS
330
23
102
}
330
23
100
AcDbGroup
300

 70
     3
 71
     1
  0
GROUP
  5
2391
102
{ACAD_REACTORS
330
23
102
}
330
23
100
AcDbGroup
300

 70
     3
 71
     1
  0
GROUP
  5
2FAB
102
{ACAD_REACTORS
330
23
102
}
330
23
100
AcDbGroup
300

 70
     1
 71
     1
  0
GROUP
  5
2FB2
102
{ACAD_REACTORS
330
23
102
}
330
23
100
AcDbGroup
300

 70
     1
 71
     1
  0
GROUP
  5
353D
102
{ACAD_REACTORS
330
23
102
}
330
23
100
AcDbGroup
300

 70
     1
 71
     1
  0
GROUP
  5
2FB3
102
{ACAD_REACTORS
330
23
102
}
330
23
100
AcDbGroup
300

 70
     1
 71
     1
  0
GROUP
  5
2399
102
{ACAD_REACTORS
330
23
102
}
330
23
100
AcDbGroup
300

 70
     3
 71
     1
  0
LAYOUT
  5
B
102
{ACAD_REACTORS
330
C
102
}
330
C
100
AcDbPlotSettings
  1

  2
Canon LBP-830.pc3
  4
A4
  6
AM_VIEW1
 40
5.87375
 41
5.873747999999999
 42
5.873749
 43
5.873749
 44
296.925995
 45
209.973328
 46
0.23
 47
0.0
 48
0.0
 49
0.0
140
395.0
141
275.0
142
1.0
143
1.387306581653326
 70
 11956
 72
     1
 73
     0
 74
     4
  7
aclt.ctb
 75
     0
147
0.7208212036363637
148
0.0
149
0.0
100
AcDbLayout
  1
Model
 70
     1
 71
     0
 10
0.0
 20
0.0
 11
12.0
 21
9.0
 12
0.0
 22
0.0
 32
0.0
 14
0.0
 24
0.0
 34
0.0
 15
0.0
 25
0.0
 35
0.0
146
0.0
 13
0.0
 23
0.0
 33
0.0
 16
1.0
 26
0.0
 36
0.0
 17
0.0
 27
1.0
 37
0.0
 76
     0
330
2
  0
LAYOUT
  5
11
102
{ACAD_REACTORS
330
C
102
}
330
C
100
AcDbPlotSettings
  1

  2
RICOH imagio MF2730
  4

  6

 40
0.0
 41
0.0
 42
0.0
 43
0.0
 44
0.0
 45
0.0
 46
0.0
 47
0.0
 48
0.0
 49
0.0
140
0.0
141
0.0
142
1.0
143
1.0
 70
   688
 72
     0
 73
     0
 74
     5
  7
aclt.ctb
 75
    16
147
1.0
148
0.0
149
0.0
100
AcDbLayout
  1
ﾚｲｱｳﾄ1
 70
     0
 71
     1
 10
0.0
 20
0.0
 11
12.0
 21
9.0
 12
0.0
 22
0.0
 32
0.0
 14
1.000000000000000E+20
 24
1.000000000000000E+20
 34
1.000000000000000E+20
 15
-1.000000000000000E+20
 25
-1.000000000000000E+20
 35
-1.000000000000000E+20
146
0.0
 13
0.0
 23
0.0
 33
0.0
 16
1.0
 26
0.0
 36
0.0
 17
0.0
 27
1.0
 37
0.0
 76
     0
330
D
  0
MLINESTYLE
  5
33
102
{ACAD_REACTORS
330
24
102
}
330
24
100
AcDbMlineStyle
  2
STANDARD
 70
     0
  3

 62
   256
 51
90.0
 52
90.0
 71
     2
 49
0.5
 62
   256
  6
BYLAYER
 49
-0.5
 62
   256
  6
BYLAYER
  0
ACDBPLACEHOLDER
  5
6
102
{ACAD_REACTORS
330
7
102
}
330
7
  0
DICTIONARYVAR
  5
8A9
102
{ACAD_REACTORS
330
8A7
102
}
330
8A7
100
DictionaryVariables
280
     0
  1
1
  0
DICTIONARYVAR
  5
8A8
102
{ACAD_REACTORS
330
8A7
102
}
330
8A7
100
DictionaryVariables
280
     0
  1
1
  0
ENDSEC
  0
EOF
