  0
SECTION
  2
HEADER
  9
$ACADVER
  1
AC1015
  9
$ACADMAINTVER
 70
    10
  9
$DWGCODEPAGE
  3
ANSI_932
  9
$INSBASE
 10
0.0
 20
0.0
 30
0.0
  9
$EXTMIN
 10
0.0
 20
0.0
 30
0.0
  9
$EXTMAX
 10
395.0
 20
275.0
 30
0.0
  9
$LIMMIN
 10
0.0
 20
0.0
  9
$LIMMAX
 10
395.0
 20
275.0
  9
$ORTHOMODE
 70
     0
  9
$REGENMODE
 70
     1
  9
$FILLMODE
 70
     1
  9
$QTEXTMODE
 70
     0
  9
$MIRRTEXT
 70
     0
  9
$LTSCALE
 40
5.0
  9
$ATTMODE
 70
     1
  9
$TEXTSIZE
 40
5.0
  9
$TRACEWID
 40
0.05
  9
$TEXTSTYLE
  7
STYLE1
  9
$CLAYER
  8
0
  9
$CELTYPE
  6
BYLAYER
  9
$CECOLOR
 62
   256
  9
$CELTSCALE
 40
1.0
  9
$DISPSILH
 70
     0
  9
$DIMSCALE
 40
0.0
  9
$DIMASZ
 40
0.8
  9
$DIMEXO
 40
1.5
  9
$DIMDLI
 40
3.0
  9
$DIMRND
 40
0.0
  9
$DIMDLE
 40
0.0
  9
$DIMEXE
 40
1.199999999999999
  9
$DIMTP
 40
0.0
  9
$DIMTM
 40
0.0
  9
$DIMTXT
 40
3.0
  9
$DIMCEN
 40
0.0
  9
$DIMTSZ
 40
0.0
  9
$DIMTOL
 70
     0
  9
$DIMLIM
 70
     0
  9
$DIMTIH
 70
     0
  9
$DIMTOH
 70
     0
  9
$DIMSE1
 70
     0
  9
$DIMSE2
 70
     0
  9
$DIMTAD
 70
     3
  9
$DIMZIN
 70
     8
  9
$DIMBLK
  1

  9
$DIMASO
 70
     1
  9
$DIMSHO
 70
     0
  9
$DIMPOST
  1

  9
$DIMAPOST
  1

  9
$DIMALT
 70
     0
  9
$DIMALTD
 70
     2
  9
$DIMALTF
 40
0.03937
  9
$DIMLFAC
 40
1.0
  9
$DIMTOFL
 70
     1
  9
$DIMTVP
 40
0.0
  9
$DIMTIX
 70
     0
  9
$DIMSOXD
 70
     0
  9
$DIMSAH
 70
     1
  9
$DIMBLK1
  1
DOT
  9
$DIMBLK2
  1
DOT
  9
$DIMSTYLE
  2
1
  9
$DIMCLRD
 70
     0
  9
$DIMCLRE
 70
     0
  9
$DIMCLRT
 70
     0
  9
$DIMTFAC
 40
1.0
  9
$DIMGAP
 40
1.0
  9
$DIMJUST
 70
     0
  9
$DIMSD1
 70
     0
  9
$DIMSD2
 70
     0
  9
$DIMTOLJ
 70
     1
  9
$DIMTZIN
 70
     8
  9
$DIMALTZ
 70
     0
  9
$DIMALTTZ
 70
     0
  9
$DIMUPT
 70
     0
  9
$DIMDEC
 70
     2
  9
$DIMTDEC
 70
     2
  9
$DIMALTU
 70
     2
  9
$DIMALTTD
 70
     2
  9
$DIMTXSTY
  7
STANDARD
  9
$DIMAUNIT
 70
     0
  9
$DIMADEC
 70
     0
  9
$DIMALTRND
 40
0.0
  9
$DIMAZIN
 70
     0
  9
$DIMDSEP
 70
    46
  9
$DIMATFIT
 70
     3
  9
$DIMFRAC
 70
     0
  9
$DIMLDRBLK
  1
DOT
  9
$DIMLUNIT
 70
     2
  9
$DIMLWD
 70
    -2
  9
$DIMLWE
 70
    -2
  9
$DIMTMOVE
 70
     2
  9
$LUNITS
 70
     2
  9
$LUPREC
 70
     8
  9
$SKETCHINC
 40
0.1
  9
$FILLETRAD
 40
1.0
  9
$AUNITS
 70
     0
  9
$AUPREC
 70
     8
  9
$MENU
  1
ACAD
  9
$ELEVATION
 40
0.0
  9
$PELEVATION
 40
0.0
  9
$THICKNESS
 40
0.0
  9
$LIMCHECK
 70
     0
  9
$CHAMFERA
 40
0.0
  9
$CHAMFERB
 40
0.0
  9
$CHAMFERC
 40
0.0
  9
$CHAMFERD
 40
0.0
  9
$SKPOLY
 70
     0
  9
$TDCREATE
 40
2450991.630578704
  9
$TDUCREATE
 40
2450991.255578704
  9
$TDUPDATE
 40
2453595.505790833
  9
$TDUUPDATE
 40
2453595.130790833
  9
$TDINDWG
 40
6.2776259375
  9
$TDUSRTIMER
 40
6.2776259375
  9
$USRTIMER
 70
     1
  9
$ANGBASE
 50
0.0
  9
$ANGDIR
 70
     0
  9
$PDMODE
 70
     0
  9
$PDSIZE
 40
0.0
  9
$PLINEWID
 40
0.0
  9
$SPLFRAME
 70
     0
  9
$SPLINETYPE
 70
     6
  9
$SPLINESEGS
 70
     8
  9
$HANDSEED
  5
4675
  9
$SURFTAB1
 70
     6
  9
$SURFTAB2
 70
     6
  9
$SURFTYPE
 70
     6
  9
$SURFU
 70
     6
  9
$SURFV
 70
     6
  9
$UCSBASE
  2

  9
$UCSNAME
  2

  9
$UCSORG
 10
0.0
 20
0.0
 30
0.0
  9
$UCSXDIR
 10
1.0
 20
0.0
 30
0.0
  9
$UCSYDIR
 10
0.0
 20
1.0
 30
0.0
  9
$UCSORTHOREF
  2

  9
$UCSORTHOVIEW
 70
     0
  9
$UCSORGTOP
 10
0.0
 20
0.0
 30
0.0
  9
$UCSORGBOTTOM
 10
0.0
 20
0.0
 30
0.0
  9
$UCSORGLEFT
 10
0.0
 20
0.0
 30
0.0
  9
$UCSORGRIGHT
 10
0.0
 20
0.0
 30
0.0
  9
$UCSORGFRONT
 10
0.0
 20
0.0
 30
0.0
  9
$UCSORGBACK
 10
0.0
 20
0.0
 30
0.0
  9
$PUCSBASE
  2

  9
$PUCSNAME
  2

  9
$PUCSORG
 10
0.0
 20
0.0
 30
0.0
  9
$PUCSXDIR
 10
1.0
 20
0.0
 30
0.0
  9
$PUCSYDIR
 10
0.0
 20
1.0
 30
0.0
  9
$PUCSORTHOREF
  2

  9
$PUCSORTHOVIEW
 70
     0
  9
$PUCSORGTOP
 10
0.0
 20
0.0
 30
0.0
  9
$PUCSORGBOTTOM
 10
0.0
 20
0.0
 30
0.0
  9
$PUCSORGLEFT
 10
0.0
 20
0.0
 30
0.0
  9
$PUCSORGRIGHT
 10
0.0
 20
0.0
 30
0.0
  9
$PUCSORGFRONT
 10
0.0
 20
0.0
 30
0.0
  9
$PUCSORGBACK
 10
0.0
 20
0.0
 30
0.0
  9
$USERI1
 70
     0
  9
$USERI2
 70
     0
  9
$USERI3
 70
     0
  9
$USERI4
 70
     0
  9
$USERI5
 70
     0
  9
$USERR1
 40
0.0
  9
$USERR2
 40
0.0
  9
$USERR3
 40
0.0
  9
$USERR4
 40
0.0
  9
$USERR5
 40
0.0
  9
$WORLDVIEW
 70
     1
  9
$SHADEDGE
 70
     3
  9
$SHADEDIF
 70
    70
  9
$TILEMODE
 70
     1
  9
$MAXACTVP
 70
    16
  9
$PINSBASE
 10
0.0
 20
0.0
 30
0.0
  9
$PLIMCHECK
 70
     0
  9
$PEXTMIN
 10
1.000000000000000E+20
 20
1.000000000000000E+20
 30
1.000000000000000E+20
  9
$PEXTMAX
 10
-1.000000000000000E+20
 20
-1.000000000000000E+20
 30
-1.000000000000000E+20
  9
$PLIMMIN
 10
0.0
 20
0.0
  9
$PLIMMAX
 10
12.0
 20
9.0
  9
$UNITMODE
 70
     0
  9
$VISRETAIN
 70
     0
  9
$PLINEGEN
 70
     0
  9
$PSLTSCALE
 70
     0
  9
$TREEDEPTH
 70
  3020
  9
$CMLSTYLE
  2
STANDARD
  9
$CMLJUST
 70
     0
  9
$CMLSCALE
 40
1.0
  9
$PROXYGRAPHICS
 70
     1
  9
$MEASUREMENT
 70
     0
  9
$CELWEIGHT
370
    -1
  9
$ENDCAPS
280
     0
  9
$JOINSTYLE
280
     0
  9
$LWDISPLAY
290
     0
  9
$INSUNITS
 70
     0
  9
$HYPERLINKBASE
  1

  9
$STYLESHEET
  1
aclt.ctb
  9
$XEDIT
290
     1
  9
$CEPSNTYPE
380
     0
  9
$PSTYLEMODE
290
     1
  9
$FINGERPRINTGUID
  2
{085C40D3-1BAA-4E4F-AFE8-4A1654C62334}
  9
$VERSIONGUID
  2
{CC490B5F-A95D-4DEB-8A7E-750CB34451F4}
  9
$EXTNAMES
290
     1
  9
$PSVPSCALE
 40
0.0
  9
$OLESTARTUP
290
     0
  0
ENDSEC
  0
SECTION
  2
CLASSES
  0
CLASS
  1
LWPOLYLINE
  2
AcDbPolyline
  3
AutoCAD 2000
 90
    32768
280
     0
281
     1
  0
CLASS
  1
XRECORD
  2
AcDbXrecord
  3
AutoCAD 2000
 90
    32768
280
     0
281
     0
  0
CLASS
  1
HATCH
  2
AcDbHatch
  3
AutoCAD 2000
 90
    32768
280
     0
281
     1
  0
CLASS
  1
DICTIONARYVAR
  2
AcDbDictionaryVar
  3
AutoCAD 2000
 90
        0
280
     0
281
     0
  0
CLASS
  1
ACDBDICTIONARYWDFLT
  2
AcDbDictionaryWithDefault
  3
AutoCAD 2000
 90
        0
280
     0
281
     0
  0
CLASS
  1
ACDBPLACEHOLDER
  2
AcDbPlaceHolder
  3
AutoCAD 2000
 90
        0
280
     0
281
     0
  0
CLASS
  1
LAYOUT
  2
AcDbLayout
  3
AutoCAD 2000
 90
        0
280
     0
281
     0
  0
CLASS
  1
LONG_TRANSACTION
  2
AcDbLongTransaction
  3
AutoCAD 2000
 90
    32768
280
     0
281
     0
  0
CLASS
  1
LWPOLYLINE
  2
AcDbPolyline
  3
AutoCAD 2000
 90
    32768
280
     0
281
     1
  0
CLASS
  1
HATCH
  2
AcDbHatch
  3
AutoCAD 2000
 90
    32768
280
     0
281
     1
  0
CLASS
  1
XRECORD
  2
AcDbXrecord
  3
AutoCAD 2000
 90
    32768
280
     0
281
     0
  0
CLASS
  1
LONG_TRANSACTION
  2
AcDbLongTransaction
  3
AutoCAD 2000
 90
    32768
280
     0
281
     0
  0
CLASS
  1
LWPOLYLINE
  2
AcDbPolyline
  3
AutoCAD 2000
 90
    32768
280
     0
281
     1
  0
CLASS
  1
HATCH
  2
AcDbHatch
  3
AutoCAD 2000
 90
    32768
280
     0
281
     1
  0
CLASS
  1
XRECORD
  2
AcDbXrecord
  3
AutoCAD 2000
 90
    32768
280
     0
281
     0
  0
CLASS
  1
LONG_TRANSACTION
  2
AcDbLongTransaction
  3
AutoCAD 2000
 90
    32768
280
     0
281
     0
  0
CLASS
  1
LWPOLYLINE
  2
AcDbPolyline
  3
AutoCAD 2000
 90
    32768
280
     0
281
     1
  0
CLASS
  1
HATCH
  2
AcDbHatch
  3
AutoCAD 2000
 90
    32768
280
     0
281
     1
  0
CLASS
  1
XRECORD
  2
AcDbXrecord
  3
AutoCAD 2000
 90
    32768
280
     0
281
     0
  0
CLASS
  1
LONG_TRANSACTION
  2
AcDbLongTransaction
  3
AutoCAD 2000
 90
    32768
280
     0
281
     0
  0
CLASS
  1
LWPOLYLINE
  2
AcDbPolyline
  3
AutoCAD 2000
 90
    32768
280
     0
281
     1
  0
CLASS
  1
HATCH
  2
AcDbHatch
  3
AutoCAD 2000
 90
    32768
280
     0
281
     1
  0
CLASS
  1
XRECORD
  2
AcDbXrecord
  3
AutoCAD 2000
 90
    32768
280
     0
281
     0
  0
CLASS
  1
LONG_TRANSACTION
  2
AcDbLongTransaction
  3
AutoCAD 2000
 90
    32768
280
     0
281
     0
  0
CLASS
  1
LWPOLYLINE
  2
AcDbPolyline
  3
AutoCAD 2000
 90
    32768
280
     0
281
     1
  0
CLASS
  1
HATCH
  2
AcDbHatch
  3
AutoCAD 2000
 90
    32768
280
     0
281
     1
  0
CLASS
  1
XRECORD
  2
AcDbXrecord
  3
AutoCAD 2000
 90
    32768
280
     0
281
     0
  0
CLASS
  1
LONG_TRANSACTION
  2
AcDbLongTransaction
  3
AutoCAD 2000
 90
    32768
280
     0
281
     0
  0
CLASS
  1
LWPOLYLINE
  2
AcDbPolyline
  3
AutoCAD 2000
 90
    32768
280
     0
281
     1
  0
CLASS
  1
HATCH
  2
AcDbHatch
  3
AutoCAD 2000
 90
    32768
280
     0
281
     1
  0
CLASS
  1
XRECORD
  2
AcDbXrecord
  3
AutoCAD 2000
 90
    32768
280
     0
281
     0
  0
CLASS
  1
LONG_TRANSACTION
  2
AcDbLongTransaction
  3
AutoCAD 2000
 90
    32768
280
     0
281
     0
  0
CLASS
  1
LWPOLYLINE
  2
AcDbPolyline
  3
AutoCAD 2000
 90
    32768
280
     0
281
     1
  0
CLASS
  1
HATCH
  2
AcDbHatch
  3
AutoCAD 2000
 90
    32768
280
     0
281
     1
  0
CLASS
  1
XRECORD
  2
AcDbXrecord
  3
AutoCAD 2000
 90
    32768
280
     0
281
     0
  0
CLASS
  1
LONG_TRANSACTION
  2
AcDbLongTransaction
  3
AutoCAD 2000
 90
    32768
280
     0
281
     0
  0
CLASS
  1
LWPOLYLINE
  2
AcDbPolyline
  3
AutoCAD 2000
 90
    32768
280
     0
281
     1
  0
CLASS
  1
HATCH
  2
AcDbHatch
  3
AutoCAD 2000
 90
    32768
280
     0
281
     1
  0
CLASS
  1
XRECORD
  2
AcDbXrecord
  3
AutoCAD 2000
 90
    32768
280
     0
281
     0
  0
CLASS
  1
LONG_TRANSACTION
  2
AcDbLongTransaction
  3
AutoCAD 2000
 90
    32768
280
     0
281
     0
  0
CLASS
  1
LWPOLYLINE
  2
AcDbPolyline
  3
AutoCAD 2000
 90
    32768
280
     0
281
     1
  0
CLASS
  1
HATCH
  2
AcDbHatch
  3
AutoCAD 2000
 90
    32768
280
     0
281
     1
  0
CLASS
  1
XRECORD
  2
AcDbXrecord
  3
AutoCAD 2000
 90
    32768
280
     0
281
     0
  0
CLASS
  1
LONG_TRANSACTION
  2
AcDbLongTransaction
  3
AutoCAD 2000
 90
    32768
280
     0
281
     0
  0
CLASS
  1
LWPOLYLINE
  2
AcDbPolyline
  3
AutoCAD 2000
 90
    32768
280
     0
281
     1
  0
CLASS
  1
HATCH
  2
AcDbHatch
  3
AutoCAD 2000
 90
    32768
280
     0
281
     1
  0
CLASS
  1
XRECORD
  2
AcDbXrecord
  3
AutoCAD 2000
 90
    32768
280
     0
281
     0
  0
CLASS
  1
LONG_TRANSACTION
  2
AcDbLongTransaction
  3
AutoCAD 2000
 90
    32768
280
     0
281
     0
  0
CLASS
  1
LWPOLYLINE
  2
AcDbPolyline
  3
AutoCAD 2000
 90
    32768
280
     0
281
     1
  0
CLASS
  1
HATCH
  2
AcDbHatch
  3
AutoCAD 2000
 90
    32768
280
     0
281
     1
  0
CLASS
  1
XRECORD
  2
AcDbXrecord
  3
AutoCAD 2000
 90
    32768
280
     0
281
     0
  0
CLASS
  1
LONG_TRANSACTION
  2
AcDbLongTransaction
  3
AutoCAD 2000
 90
    32768
280
     0
281
     0
  0
CLASS
  1
LWPOLYLINE
  2
AcDbPolyline
  3
AutoCAD 2000
 90
    32768
280
     0
281
     1
  0
CLASS
  1
HATCH
  2
AcDbHatch
  3
AutoCAD 2000
 90
    32768
280
     0
281
     1
  0
CLASS
  1
XRECORD
  2
AcDbXrecord
  3
AutoCAD 2000
 90
    32768
280
     0
281
     0
  0
CLASS
  1
LONG_TRANSACTION
  2
AcDbLongTransaction
  3
AutoCAD 2000
 90
    32768
280
     0
281
     0
  0
CLASS
  1
LWPOLYLINE
  2
AcDbPolyline
  3
AutoCAD 2000
 90
    32768
280
     0
281
     1
  0
CLASS
  1
HATCH
  2
AcDbHatch
  3
AutoCAD 2000
 90
    32768
280
     0
281
     1
  0
CLASS
  1
XRECORD
  2
AcDbXrecord
  3
AutoCAD 2000
 90
    32768
280
     0
281
     0
  0
CLASS
  1
LONG_TRANSACTION
  2
AcDbLongTransaction
  3
AutoCAD 2000
 90
    32768
280
     0
281
     0
  0
CLASS
  1
LWPOLYLINE
  2
AcDbPolyline
  3
AutoCAD 2000
 90
    32768
280
     0
281
     1
  0
CLASS
  1
HATCH
  2
AcDbHatch
  3
AutoCAD 2000
 90
    32768
280
     0
281
     1
  0
CLASS
  1
XRECORD
  2
AcDbXrecord
  3
AutoCAD 2000
 90
    32768
280
     0
281
     0
  0
CLASS
  1
LONG_TRANSACTION
  2
AcDbLongTransaction
  3
AutoCAD 2000
 90
    32768
280
     0
281
     0
  0
CLASS
  1
LWPOLYLINE
  2
AcDbPolyline
  3
AutoCAD 2000
 90
    32768
280
     0
281
     1
  0
CLASS
  1
HATCH
  2
AcDbHatch
  3
AutoCAD 2000
 90
    32768
280
     0
281
     1
  0
CLASS
  1
XRECORD
  2
AcDbXrecord
  3
AutoCAD 2000
 90
    32768
280
     0
281
     0
  0
CLASS
  1
LONG_TRANSACTION
  2
AcDbLongTransaction
  3
AutoCAD 2000
 90
    32768
280
     0
281
     0
  0
CLASS
  1
LWPOLYLINE
  2
AcDbPolyline
  3
AutoCAD 2000
 90
    32768
280
     0
281
     1
  0
CLASS
  1
HATCH
  2
AcDbHatch
  3
AutoCAD 2000
 90
    32768
280
     0
281
     1
  0
CLASS
  1
XRECORD
  2
AcDbXrecord
  3
AutoCAD 2000
 90
    32768
280
     0
281
     0
  0
CLASS
  1
LONG_TRANSACTION
  2
AcDbLongTransaction
  3
AutoCAD 2000
 90
    32768
280
     0
281
     0
  0
CLASS
  1
LWPOLYLINE
  2
AcDbPolyline
  3
AutoCAD 2000
 90
    32768
280
     0
281
     1
  0
CLASS
  1
HATCH
  2
AcDbHatch
  3
AutoCAD 2000
 90
    32768
280
     0
281
     1
  0
CLASS
  1
XRECORD
  2
AcDbXrecord
  3
AutoCAD 2000
 90
    32768
280
     0
281
     0
  0
CLASS
  1
LONG_TRANSACTION
  2
AcDbLongTransaction
  3
AutoCAD 2000
 90
    32768
280
     0
281
     0
  0
CLASS
  1
LWPOLYLINE
  2
AcDbPolyline
  3
AutoCAD 2000
 90
    32768
280
     0
281
     1
  0
CLASS
  1
HATCH
  2
AcDbHatch
  3
AutoCAD 2000
 90
    32768
280
     0
281
     1
  0
CLASS
  1
XRECORD
  2
AcDbXrecord
  3
AutoCAD 2000
 90
    32768
280
     0
281
     0
  0
CLASS
  1
LONG_TRANSACTION
  2
AcDbLongTransaction
  3
AutoCAD 2000
 90
    32768
280
     0
281
     0
  0
CLASS
  1
LWPOLYLINE
  2
AcDbPolyline
  3
AutoCAD 2000
 90
    32768
280
     0
281
     1
  0
CLASS
  1
HATCH
  2
AcDbHatch
  3
AutoCAD 2000
 90
    32768
280
     0
281
     1
  0
CLASS
  1
XRECORD
  2
AcDbXrecord
  3
AutoCAD 2000
 90
    32768
280
     0
281
     0
  0
CLASS
  1
LONG_TRANSACTION
  2
AcDbLongTransaction
  3
AutoCAD 2000
 90
    32768
280
     0
281
     0
  0
CLASS
  1
LWPOLYLINE
  2
AcDbPolyline
  3
AutoCAD 2000
 90
    32768
280
     0
281
     1
  0
CLASS
  1
HATCH
  2
AcDbHatch
  3
AutoCAD 2000
 90
    32768
280
     0
281
     1
  0
CLASS
  1
XRECORD
  2
AcDbXrecord
  3
AutoCAD 2000
 90
    32768
280
     0
281
     0
  0
CLASS
  1
LONG_TRANSACTION
  2
AcDbLongTransaction
  3
AutoCAD 2000
 90
    32768
280
     0
281
     0
  0
CLASS
  1
LWPOLYLINE
  2
AcDbPolyline
  3
AutoCAD 2000
 90
    32768
280
     0
281
     1
  0
CLASS
  1
HATCH
  2
AcDbHatch
  3
AutoCAD 2000
 90
    32768
280
     0
281
     1
  0
CLASS
  1
XRECORD
  2
AcDbXrecord
  3
AutoCAD 2000
 90
    32768
280
     0
281
     0
  0
CLASS
  1
LONG_TRANSACTION
  2
AcDbLongTransaction
  3
AutoCAD 2000
 90
    32768
280
     0
281
     0
  0
CLASS
  1
LWPOLYLINE
  2
AcDbPolyline
  3
AutoCAD 2000
 90
    32768
280
     0
281
     1
  0
CLASS
  1
HATCH
  2
AcDbHatch
  3
AutoCAD 2000
 90
    32768
280
     0
281
     1
  0
CLASS
  1
XRECORD
  2
AcDbXrecord
  3
AutoCAD 2000
 90
    32768
280
     0
281
     0
  0
CLASS
  1
LONG_TRANSACTION
  2
AcDbLongTransaction
  3
AutoCAD 2000
 90
    32768
280
     0
281
     0
  0
CLASS
  1
LWPOLYLINE
  2
AcDbPolyline
  3
AutoCAD 2000
 90
    32768
280
     0
281
     1
  0
CLASS
  1
HATCH
  2
AcDbHatch
  3
AutoCAD 2000
 90
    32768
280
     0
281
     1
  0
CLASS
  1
XRECORD
  2
AcDbXrecord
  3
AutoCAD 2000
 90
    32768
280
     0
281
     0
  0
CLASS
  1
LONG_TRANSACTION
  2
AcDbLongTransaction
  3
AutoCAD 2000
 90
    32768
280
     0
281
     0
  0
CLASS
  1
LWPOLYLINE
  2
AcDbPolyline
  3
AutoCAD 2000
 90
    32768
280
     0
281
     1
  0
CLASS
  1
HATCH
  2
AcDbHatch
  3
AutoCAD 2000
 90
    32768
280
     0
281
     1
  0
CLASS
  1
XRECORD
  2
AcDbXrecord
  3
AutoCAD 2000
 90
    32768
280
     0
281
     0
  0
CLASS
  1
LONG_TRANSACTION
  2
AcDbLongTransaction
  3
AutoCAD 2000
 90
    32768
280
     0
281
     0
  0
CLASS
  1
LWPOLYLINE
  2
AcDbPolyline
  3
AutoCAD 2000
 90
    32768
280
     0
281
     1
  0
CLASS
  1
HATCH
  2
AcDbHatch
  3
AutoCAD 2000
 90
    32768
280
     0
281
     1
  0
CLASS
  1
XRECORD
  2
AcDbXrecord
  3
AutoCAD 2000
 90
    32768
280
     0
281
     0
  0
CLASS
  1
LONG_TRANSACTION
  2
AcDbLongTransaction
  3
AutoCAD 2000
 90
    32768
280
     0
281
     0
  0
CLASS
  1
LWPOLYLINE
  2
AcDbPolyline
  3
AutoCAD 2000
 90
    32768
280
     0
281
     1
  0
CLASS
  1
HATCH
  2
AcDbHatch
  3
AutoCAD 2000
 90
    32768
280
     0
281
     1
  0
CLASS
  1
XRECORD
  2
AcDbXrecord
  3
AutoCAD 2000
 90
    32768
280
     0
281
     0
  0
CLASS
  1
LONG_TRANSACTION
  2
AcDbLongTransaction
  3
AutoCAD 2000
 90
    32768
280
     0
281
     0
  0
CLASS
  1
LWPOLYLINE
  2
AcDbPolyline
  3
AutoCAD 2000
 90
    32768
280
     0
281
     1
  0
CLASS
  1
HATCH
  2
AcDbHatch
  3
AutoCAD 2000
 90
    32768
280
     0
281
     1
  0
CLASS
  1
XRECORD
  2
AcDbXrecord
  3
AutoCAD 2000
 90
    32768
280
     0
281
     0
  0
CLASS
  1
LONG_TRANSACTION
  2
AcDbLongTransaction
  3
AutoCAD 2000
 90
    32768
280
     0
281
     0
  0
CLASS
  1
LWPOLYLINE
  2
AcDbPolyline
  3
AutoCAD 2000
 90
    32768
280
     0
281
     1
  0
CLASS
  1
HATCH
  2
AcDbHatch
  3
AutoCAD 2000
 90
    32768
280
     0
281
     1
  0
CLASS
  1
XRECORD
  2
AcDbXrecord
  3
AutoCAD 2000
 90
    32768
280
     0
281
     0
  0
CLASS
  1
LONG_TRANSACTION
  2
AcDbLongTransaction
  3
AutoCAD 2000
 90
    32768
280
     0
281
     0
  0
CLASS
  1
LWPOLYLINE
  2
AcDbPolyline
  3
AutoCAD 2000
 90
    32768
280
     0
281
     1
  0
CLASS
  1
HATCH
  2
AcDbHatch
  3
AutoCAD 2000
 90
    32768
280
     0
281
     1
  0
CLASS
  1
XRECORD
  2
AcDbXrecord
  3
AutoCAD 2000
 90
    32768
280
     0
281
     0
  0
CLASS
  1
LONG_TRANSACTION
  2
AcDbLongTransaction
  3
AutoCAD 2000
 90
    32768
280
     0
281
     0
  0
CLASS
  1
LWPOLYLINE
  2
AcDbPolyline
  3
AutoCAD 2000
 90
    32768
280
     0
281
     1
  0
CLASS
  1
HATCH
  2
AcDbHatch
  3
AutoCAD 2000
 90
    32768
280
     0
281
     1
  0
CLASS
  1
XRECORD
  2
AcDbXrecord
  3
AutoCAD 2000
 90
    32768
280
     0
281
     0
  0
CLASS
  1
LONG_TRANSACTION
  2
AcDbLongTransaction
  3
AutoCAD 2000
 90
    32768
280
     0
281
     0
  0
CLASS
  1
LWPOLYLINE
  2
AcDbPolyline
  3
AutoCAD 2000
 90
    32768
280
     0
281
     1
  0
CLASS
  1
HATCH
  2
AcDbHatch
  3
AutoCAD 2000
 90
    32768
280
     0
281
     1
  0
CLASS
  1
XRECORD
  2
AcDbXrecord
  3
AutoCAD 2000
 90
    32768
280
     0
281
     0
  0
CLASS
  1
LONG_TRANSACTION
  2
AcDbLongTransaction
  3
AutoCAD 2000
 90
    32768
280
     0
281
     0
  0
CLASS
  1
LWPOLYLINE
  2
AcDbPolyline
  3
AutoCAD 2000
 90
    32768
280
     0
281
     1
  0
CLASS
  1
HATCH
  2
AcDbHatch
  3
AutoCAD 2000
 90
    32768
280
     0
281
     1
  0
CLASS
  1
XRECORD
  2
AcDbXrecord
  3
AutoCAD 2000
 90
    32768
280
     0
281
     0
  0
CLASS
  1
LONG_TRANSACTION
  2
AcDbLongTransaction
  3
AutoCAD 2000
 90
    32768
280
     0
281
     0
  0
CLASS
  1
LWPOLYLINE
  2
AcDbPolyline
  3
AutoCAD 2000
 90
    32768
280
     0
281
     1
  0
CLASS
  1
HATCH
  2
AcDbHatch
  3
AutoCAD 2000
 90
    32768
280
     0
281
     1
  0
CLASS
  1
XRECORD
  2
AcDbXrecord
  3
AutoCAD 2000
 90
    32768
280
     0
281
     0
  0
CLASS
  1
LONG_TRANSACTION
  2
AcDbLongTransaction
  3
AutoCAD 2000
 90
    32768
280
     0
281
     0
  0
CLASS
  1
LWPOLYLINE
  2
AcDbPolyline
  3
AutoCAD 2000
 90
    32768
280
     0
281
     1
  0
CLASS
  1
HATCH
  2
AcDbHatch
  3
AutoCAD 2000
 90
    32768
280
     0
281
     1
  0
CLASS
  1
XRECORD
  2
AcDbXrecord
  3
AutoCAD 2000
 90
    32768
280
     0
281
     0
  0
CLASS
  1
LONG_TRANSACTION
  2
AcDbLongTransaction
  3
AutoCAD 2000
 90
    32768
280
     0
281
     0
  0
CLASS
  1
LWPOLYLINE
  2
AcDbPolyline
  3
AutoCAD 2000
 90
    32768
280
     0
281
     1
  0
CLASS
  1
HATCH
  2
AcDbHatch
  3
AutoCAD 2000
 90
    32768
280
     0
281
     1
  0
CLASS
  1
XRECORD
  2
AcDbXrecord
  3
AutoCAD 2000
 90
    32768
280
     0
281
     0
  0
CLASS
  1
LONG_TRANSACTION
  2
AcDbLongTransaction
  3
AutoCAD 2000
 90
    32768
280
     0
281
     0
  0
CLASS
  1
LWPOLYLINE
  2
AcDbPolyline
  3
AutoCAD 2000
 90
    32768
280
     0
281
     1
  0
CLASS
  1
HATCH
  2
AcDbHatch
  3
AutoCAD 2000
 90
    32768
280
     0
281
     1
  0
CLASS
  1
XRECORD
  2
AcDbXrecord
  3
AutoCAD 2000
 90
    32768
280
     0
281
     0
  0
CLASS
  1
LONG_TRANSACTION
  2
AcDbLongTransaction
  3
AutoCAD 2000
 90
    32768
280
     0
281
     0
  0
CLASS
  1
LWPOLYLINE
  2
AcDbPolyline
  3
AutoCAD 2000
 90
    32768
280
     0
281
     1
  0
CLASS
  1
HATCH
  2
AcDbHatch
  3
AutoCAD 2000
 90
    32768
280
     0
281
     1
  0
CLASS
  1
XRECORD
  2
AcDbXrecord
  3
AutoCAD 2000
 90
    32768
280
     0
281
     0
  0
CLASS
  1
LONG_TRANSACTION
  2
AcDbLongTransaction
  3
AutoCAD 2000
 90
    32768
280
     0
281
     0
  0
CLASS
  1
LWPOLYLINE
  2
AcDbPolyline
  3
AutoCAD 2000
 90
    32768
280
     0
281
     1
  0
CLASS
  1
HATCH
  2
AcDbHatch
  3
AutoCAD 2000
 90
    32768
280
     0
281
     1
  0
CLASS
  1
XRECORD
  2
AcDbXrecord
  3
AutoCAD 2000
 90
    32768
280
     0
281
     0
  0
CLASS
  1
LONG_TRANSACTION
  2
AcDbLongTransaction
  3
AutoCAD 2000
 90
    32768
280
     0
281
     0
  0
CLASS
  1
LWPOLYLINE
  2
AcDbPolyline
  3
AutoCAD 2000
 90
    32768
280
     0
281
     1
  0
CLASS
  1
HATCH
  2
AcDbHatch
  3
AutoCAD 2000
 90
    32768
280
     0
281
     1
  0
CLASS
  1
XRECORD
  2
AcDbXrecord
  3
AutoCAD 2000
 90
    32768
280
     0
281
     0
  0
CLASS
  1
LONG_TRANSACTION
  2
AcDbLongTransaction
  3
AutoCAD 2000
 90
    32768
280
     0
281
     0
  0
CLASS
  1
LWPOLYLINE
  2
AcDbPolyline
  3
AutoCAD 2000
 90
    32768
280
     0
281
     1
  0
CLASS
  1
HATCH
  2
AcDbHatch
  3
AutoCAD 2000
 90
    32768
280
     0
281
     1
  0
CLASS
  1
XRECORD
  2
AcDbXrecord
  3
AutoCAD 2000
 90
    32768
280
     0
281
     0
  0
CLASS
  1
LONG_TRANSACTION
  2
AcDbLongTransaction
  3
AutoCAD 2000
 90
    32768
280
     0
281
     0
  0
CLASS
  1
LWPOLYLINE
  2
AcDbPolyline
  3
AutoCAD 2000
 90
    32768
280
     0
281
     1
  0
CLASS
  1
HATCH
  2
AcDbHatch
  3
AutoCAD 2000
 90
    32768
280
     0
281
     1
  0
CLASS
  1
XRECORD
  2
AcDbXrecord
  3
AutoCAD 2000
 90
    32768
280
     0
281
     0
  0
CLASS
  1
LONG_TRANSACTION
  2
AcDbLongTransaction
  3
AutoCAD 2000
 90
    32768
280
     0
281
     0
  0
CLASS
  1
LWPOLYLINE
  2
AcDbPolyline
  3
AutoCAD 2000
 90
    32768
280
     0
281
     1
  0
CLASS
  1
HATCH
  2
AcDbHatch
  3
AutoCAD 2000
 90
    32768
280
     0
281
     1
  0
CLASS
  1
XRECORD
  2
AcDbXrecord
  3
AutoCAD 2000
 90
    32768
280
     0
281
     0
  0
CLASS
  1
LONG_TRANSACTION
  2
AcDbLongTransaction
  3
AutoCAD 2000
 90
    32768
280
     0
281
     0
  0
CLASS
  1
LWPOLYLINE
  2
AcDbPolyline
  3
AutoCAD 2000
 90
    32768
280
     0
281
     1
  0
CLASS
  1
HATCH
  2
AcDbHatch
  3
AutoCAD 2000
 90
    32768
280
     0
281
     1
  0
CLASS
  1
XRECORD
  2
AcDbXrecord
  3
AutoCAD 2000
 90
    32768
280
     0
281
     0
  0
CLASS
  1
LONG_TRANSACTION
  2
AcDbLongTransaction
  3
AutoCAD 2000
 90
    32768
280
     0
281
     0
  0
CLASS
  1
LWPOLYLINE
  2
AcDbPolyline
  3
AutoCAD 2000
 90
    32768
280
     0
281
     1
  0
CLASS
  1
HATCH
  2
AcDbHatch
  3
AutoCAD 2000
 90
    32768
280
     0
281
     1
  0
CLASS
  1
XRECORD
  2
AcDbXrecord
  3
AutoCAD 2000
 90
    32768
280
     0
281
     0
  0
CLASS
  1
LONG_TRANSACTION
  2
AcDbLongTransaction
  3
AutoCAD 2000
 90
    32768
280
     0
281
     0
  0
CLASS
  1
LWPOLYLINE
  2
AcDbPolyline
  3
AutoCAD 2000
 90
    32768
280
     0
281
     1
  0
CLASS
  1
HATCH
  2
AcDbHatch
  3
AutoCAD 2000
 90
    32768
280
     0
281
     1
  0
CLASS
  1
XRECORD
  2
AcDbXrecord
  3
AutoCAD 2000
 90
    32768
280
     0
281
     0
  0
ENDSEC
  0
SECTION
  2
TABLES
  0
TABLE
  2
VPORT
  5
1F
330
0
100
AcDbSymbolTable
 70
     2
  0
VPORT
  5
4674
330
1F
100
AcDbSymbolTableRecord
100
AcDbViewportTableRecord
  2
*Active
 70
     0
 10
0.0
 20
0.0
 11
1.0
 21
1.0
 12
197.5000009196811
 22
165.6794117800652
 13
0.0
 23
0.0
 14
7.0
 24
7.0
 15
10.0
 25
10.0
 16
0.0
 26
0.0
 36
1.0
 17
0.0
 27
0.0
 37
0.0
 40
334.5859196090442
 41
1.520467836257309
 42
50.0
 43
0.0
 44
0.0
 50
0.0
 51
0.0
 71
     0
 72
   100
 73
     1
 74
     0
 75
     0
 76
     0
 77
     0
 78
     1
281
     0
 65
     1
110
0.0
120
0.0
130
0.0
111
1.0
121
0.0
131
0.0
112
0.0
122
1.0
132
0.0
 79
     0
146
0.0
  0
ENDTAB
  0
TABLE
  2
LTYPE
  5
1A
330
0
100
AcDbSymbolTable
 70
     1
  0
LTYPE
  5
1B
330
1A
100
AcDbSymbolTableRecord
100
AcDbLinetypeTableRecord
  2
BYBLOCK
 70
     0
  3

 72
    65
 73
     0
 40
0.0
  0
LTYPE
  5
1C
330
1A
100
AcDbSymbolTableRecord
100
AcDbLinetypeTableRecord
  2
BYLAYER
 70
     0
  3

 72
    65
 73
     0
 40
0.0
  0
LTYPE
  5
A
330
1A
100
AcDbSymbolTableRecord
100
AcDbLinetypeTableRecord
  2
CONTINUOUS
 70
     0
  3
Solid line
 72
    65
 73
     0
 40
0.0
  0
ENDTAB
  0
TABLE
  2
LAYER
  5
14
102
{ACAD_XDICTIONARY
360
15
102
}
330
0
100
AcDbSymbolTable
 70
     4
  0
LAYER
  5
6
330
14
100
AcDbSymbolTableRecord
100
AcDbLayerTableRecord
  2
0
 70
     0
 62
     7
  6
CONTINUOUS
370
    -3
390
7
  0
LAYER
  5
86
330
14
100
AcDbSymbolTableRecord
100
AcDbLayerTableRecord
  2
ADM
 70
     0
 62
     4
  6
CONTINUOUS
370
    -3
390
7
  0
LAYER
  5
91
330
14
100
AcDbSymbolTableRecord
100
AcDbLayerTableRecord
  2
DEFPOINTS
 70
     0
 62
     7
  6
CONTINUOUS
290
     0
370
    -3
390
7
  0
LAYER
  5
2B
330
14
100
AcDbSymbolTableRecord
100
AcDbLayerTableRecord
  2
AHJ
 70
     0
 62
     1
  6
CONTINUOUS
370
    -3
390
7
  0
ENDTAB
  0
TABLE
  2
STYLE
  5
17
330
0
100
AcDbSymbolTable
 70
     2
  0
STYLE
  5
18
330
17
100
AcDbSymbolTableRecord
100
AcDbTextStyleTableRecord
  2
STANDARD
 70
     0
 40
0.0
 41
0.8
 50
0.0
 71
     0
 42
5.0
  3
romans.shx
  4
extfont.shx
  0
STYLE
  5
34
330
17
100
AcDbSymbolTableRecord
100
AcDbTextStyleTableRecord
  2
STYLE1
 70
     4
 40
0.0
 41
0.8
 50
0.0
 71
     0
 42
5.0
  3
romans.shx
  4
extfont.shx
  0
ENDTAB
  0
TABLE
  2
VIEW
  5
1D
330
0
100
AcDbSymbolTable
 70
     0
  0
ENDTAB
  0
TABLE
  2
UCS
  5
1E
330
0
100
AcDbSymbolTable
 70
     0
  0
ENDTAB
  0
TABLE
  2
APPID
  5
21
330
0
100
AcDbSymbolTable
 70
     2
  0
APPID
  5
22
330
21
100
AcDbSymbolTableRecord
100
AcDbRegAppTableRecord
  2
ACAD
 70
     0
  0
APPID
  5
661
330
21
100
AcDbSymbolTableRecord
100
AcDbRegAppTableRecord
  2
CONTENTBLOCKICON
 70
     0
  0
ENDTAB
  0
TABLE
  2
DIMSTYLE
  5
23
330
0
100
AcDbSymbolTable
 70
     2
100
AcDbDimStyleTable
 71
     0
  0
DIMSTYLE
105
36
102
{ACAD_REACTORS
330
1BA
330
2FA
330
4B6
330
492
330
2092
330
20AC
330
20BA
330
20D5
330
20E2
330
210E
330
20EF
330
20FF
330
2246
330
2254
330
2261
330
226E
330
22ED
330
22EA
330
22EB
330
2313
330
23E5
330
4292
330
42A0
330
42AD
330
4528
102
}
330
23
100
AcDbSymbolTableRecord
100
AcDbDimStyleTableRecord
  2
1
 70
     0
 40
0.0
 41
0.8
 42
1.5
 43
3.0
 44
1.199999999999999
 73
     0
 74
     0
 77
     3
 78
     8
140
3.0
141
0.0
143
0.03937
147
1.0
172
     1
173
     1
271
     2
272
     2
279
     2
284
     8
340
18
341
2F
343
2F
344
2F
  0
DIMSTYLE
105
86E
330
23
100
AcDbSymbolTableRecord
100
AcDbDimStyleTableRecord
  2
Standard
 70
     0
289
     0
340
18
  0
ENDTAB
  0
TABLE
  2
BLOCK_RECORD
  5
1
330
0
100
AcDbSymbolTable
 70
    27
  0
BLOCK_RECORD
  5
2
102
{ACAD_XDICTIONARY
360
3
102
}
330
1
100
AcDbSymbolTableRecord
100
AcDbBlockTableRecord
  2
*MODEL_SPACE
340
C
  0
BLOCK_RECORD
  5
E
102
{ACAD_XDICTIONARY
360
F
102
}
330
1
100
AcDbSymbolTableRecord
100
AcDbBlockTableRecord
  2
*PAPER_SPACE
340
13
  0
BLOCK_RECORD
  5
2F
330
1
100
AcDbSymbolTableRecord
100
AcDbBlockTableRecord
  2
_DOT
340
0
102
{BLKREFS
331
44C6
331
44C7
331
2692
331
2693
331
274E
331
274F
102
}
  0
BLOCK_RECORD
  5
29
330
1
100
AcDbSymbolTableRecord
100
AcDbBlockTableRecord
  2
DOT
340
0
102
{BLKREFS
331
44BD
331
44BE
331
44CF
331
44D0
331
43AC
331
43AD
331
4515
331
4516
331
4538
331
4539
331
43CA
331
43CB
331
43D5
331
43D6
331
43DD
331
43DE
331
43E6
331
43E7
331
454B
331
454C
331
4542
331
4543
331
4404
331
4405
331
266C
331
266D
331
441E
331
441F
331
455D
331
455E
331
4554
331
4555
331
442A
331
442B
331
4432
331
4433
331
443C
331
443D
331
4445
331
4446
331
444E
331
444F
331
4596
331
4597
102
}
  0
BLOCK_RECORD
  5
2093
330
1
100
AcDbSymbolTableRecord
100
AcDbBlockTableRecord
  2
*D2
340
0
  0
BLOCK_RECORD
  5
20AD
330
1
100
AcDbSymbolTableRecord
100
AcDbBlockTableRecord
  2
*D3
340
0
  0
BLOCK_RECORD
  5
20BB
330
1
100
AcDbSymbolTableRecord
100
AcDbBlockTableRecord
  2
*D4
340
0
  0
BLOCK_RECORD
  5
20C8
330
1
100
AcDbSymbolTableRecord
100
AcDbBlockTableRecord
  2
*D5
340
0
  0
BLOCK_RECORD
  5
20D6
330
1
100
AcDbSymbolTableRecord
100
AcDbBlockTableRecord
  2
*D6
340
0
  0
BLOCK_RECORD
  5
20E3
330
1
100
AcDbSymbolTableRecord
100
AcDbBlockTableRecord
  2
*D7
340
0
  0
BLOCK_RECORD
  5
20F0
330
1
100
AcDbSymbolTableRecord
100
AcDbBlockTableRecord
  2
*D8
340
0
  0
BLOCK_RECORD
  5
2100
330
1
100
AcDbSymbolTableRecord
100
AcDbBlockTableRecord
  2
*D9
340
0
  0
BLOCK_RECORD
  5
210F
330
1
100
AcDbSymbolTableRecord
100
AcDbBlockTableRecord
  2
*D10
340
0
  0
BLOCK_RECORD
  5
2247
330
1
100
AcDbSymbolTableRecord
100
AcDbBlockTableRecord
  2
*D11
340
0
  0
BLOCK_RECORD
  5
2255
330
1
100
AcDbSymbolTableRecord
100
AcDbBlockTableRecord
  2
*D12
340
0
  0
BLOCK_RECORD
  5
2262
330
1
100
AcDbSymbolTableRecord
100
AcDbBlockTableRecord
  2
*D13
340
0
  0
BLOCK_RECORD
  5
226F
330
1
100
AcDbSymbolTableRecord
100
AcDbBlockTableRecord
  2
*D14
340
0
  0
BLOCK_RECORD
  5
228A
330
1
100
AcDbSymbolTableRecord
100
AcDbBlockTableRecord
  2
*D15
340
0
  0
BLOCK_RECORD
  5
2297
330
1
100
AcDbSymbolTableRecord
100
AcDbBlockTableRecord
  2
*D16
340
0
  0
BLOCK_RECORD
  5
232E
330
1
100
AcDbSymbolTableRecord
100
AcDbBlockTableRecord
  2
*D17
340
0
  0
BLOCK_RECORD
  5
233A
330
1
100
AcDbSymbolTableRecord
100
AcDbBlockTableRecord
  2
*D18
340
0
  0
BLOCK_RECORD
  5
2346
330
1
100
AcDbSymbolTableRecord
100
AcDbBlockTableRecord
  2
*D19
340
0
  0
BLOCK_RECORD
  5
2352
330
1
100
AcDbSymbolTableRecord
100
AcDbBlockTableRecord
  2
*D20
340
0
  0
BLOCK_RECORD
  5
23E6
330
1
100
AcDbSymbolTableRecord
100
AcDbBlockTableRecord
  2
*D21
340
0
  0
BLOCK_RECORD
  5
2502
330
1
100
AcDbSymbolTableRecord
100
AcDbBlockTableRecord
  2
*D22
340
0
  0
BLOCK_RECORD
  5
4293
330
1
100
AcDbSymbolTableRecord
100
AcDbBlockTableRecord
  2
*D23
340
0
  0
BLOCK_RECORD
  5
42A1
330
1
100
AcDbSymbolTableRecord
100
AcDbBlockTableRecord
  2
*D24
340
0
  0
BLOCK_RECORD
  5
42AE
330
1
100
AcDbSymbolTableRecord
100
AcDbBlockTableRecord
  2
*D25
340
0
  0
BLOCK_RECORD
  5
4529
330
1
100
AcDbSymbolTableRecord
100
AcDbBlockTableRecord
  2
*D26
340
0
  0
ENDTAB
  0
ENDSEC
  0
SECTION
  2
BLOCKS
  0
BLOCK
  5
5
330
2
100
AcDbEntity
  8
0
100
AcDbBlockBegin
  2
*MODEL_SPACE
 70
     0
 10
0.0
 20
0.0
 30
0.0
  3
*MODEL_SPACE
  1

  0
ENDBLK
  5
B
330
2
100
AcDbEntity
  8
0
100
AcDbBlockEnd
  0
BLOCK
  5
11
330
E
100
AcDbEntity
 67
     1
  8
0
100
AcDbBlockBegin
  2
*PAPER_SPACE
 70
     0
 10
0.0
 20
0.0
 30
0.0
  3
*PAPER_SPACE
  1

  0
ENDBLK
  5
12
330
E
100
AcDbEntity
 67
     1
  8
0
100
AcDbBlockEnd
  0
BLOCK
  5
32
330
2F
100
AcDbEntity
  8
0
100
AcDbBlockBegin
  2
_DOT
 70
     0
 10
0.0
 20
0.0
 30
0.0
  3
_DOT
  1

  0
LWPOLYLINE
  5
30
330
2F
100
AcDbEntity
  8
0
  6
ByBlock
 62
     0
100
AcDbPolyline
 90
        2
 70
     1
 43
0.5
 10
-0.25
 20
0.0
 42
1.0
 10
0.25
 20
0.0
 42
1.0
  0
LINE
  5
31
330
2F
100
AcDbEntity
  8
0
  6
ByBlock
 62
     0
100
AcDbLine
 10
-0.5
 20
0.0
 30
0.0
 11
-1.0
 21
0.0
 31
0.0
  0
ENDBLK
  5
33
330
2F
100
AcDbEntity
  8
0
100
AcDbBlockEnd
  0
BLOCK
  5
2D
330
29
100
AcDbEntity
  8
0
100
AcDbBlockBegin
  2
DOT
 70
     0
 10
0.0
 20
0.0
 30
0.0
  3
DOT
  1

  0
LWPOLYLINE
  5
2A
330
29
100
AcDbEntity
  8
AHJ
  6
ByBlock
 62
     0
100
AcDbPolyline
 90
        2
 70
     1
 43
0.5
 10
-0.25
 20
0.0
 42
1.0
 10
0.25
 20
0.0
 42
1.0
  0
LINE
  5
2C
330
29
100
AcDbEntity
  8
AHJ
  6
ByBlock
 62
     0
100
AcDbLine
 10
-0.5
 20
0.0
 30
0.0
 11
-1.0
 21
0.0
 31
0.0
  0
ENDBLK
  5
2E
330
29
100
AcDbEntity
  8
0
100
AcDbBlockEnd
  0
BLOCK
  5
209D
330
2093
100
AcDbEntity
  8
0
100
AcDbBlockBegin
  2
*D2
 70
     1
 10
0.0
 20
0.0
 30
0.0
  3
*D2
  1

  0
LINE
  5
44BA
330
2093
100
AcDbEntity
  8
ADM
 62
     0
370
    -2
100
AcDbLine
 10
51.99999999999987
 20
62.0
 30
0.0
 11
51.99999999999987
 21
25.8
 31
0.0
  0
LINE
  5
44BB
330
2093
100
AcDbEntity
  8
ADM
 62
     0
370
    -2
100
AcDbLine
 10
69.99999999999987
 20
40.49999999999999
 30
0.0
 11
69.99999999999987
 21
25.8
 31
0.0
  0
LINE
  5
44BC
330
2093
100
AcDbEntity
  8
ADM
 62
     0
370
    -2
100
AcDbLine
 10
52.79999999999986
 20
27.0
 30
0.0
 11
69.19999999999987
 21
27.0
 31
0.0
  0
INSERT
  5
44BD
330
2093
100
AcDbEntity
  8
ADM
 62
     0
370
    -2
100
AcDbBlockReference
  2
DOT
 10
51.99999999999987
 20
27.0
 30
0.0
 41
0.8
 42
0.8
 43
0.8
 50
180.0
  0
INSERT
  5
44BE
330
2093
100
AcDbEntity
  8
ADM
 62
     0
370
    -2
100
AcDbBlockReference
  2
DOT
 10
69.99999999999987
 20
27.0
 30
0.0
 41
0.8
 42
0.8
 43
0.8
  0
MTEXT
  5
44BF
330
2093
100
AcDbEntity
  8
ADM
 62
     0
100
AcDbMText
 10
60.99999999999987
 20
29.5
 30
0.0
 40
3.0
 41
0.0
 71
     5
 72
     5
  1
\A1;18
 73
     1
 44
1.0
1001
ACAD
1000
MTEXTBEGIN
1070
    73
1070
     1
1070
    44
1040
1.0
1070
    74
1070
     0
1000
MTEXTEND
  0
POINT
  5
44C0
330
2093
100
AcDbEntity
  8
DEFPOINTS
 62
     0
100
AcDbPoint
 10
51.99999999999987
 20
63.5
 30
0.0
  0
POINT
  5
44C1
330
2093
100
AcDbEntity
  8
DEFPOINTS
 62
     0
100
AcDbPoint
 10
69.99999999999987
 20
42.0
 30
0.0
  0
POINT
  5
44C2
330
2093
100
AcDbEntity
  8
DEFPOINTS
 62
     0
100
AcDbPoint
 10
69.99999999999987
 20
27.0
 30
0.0
  0
ENDBLK
  5
209E
330
2093
100
AcDbEntity
  8
0
100
AcDbBlockEnd
  0
BLOCK
  5
20B7
330
20AD
100
AcDbEntity
  8
0
100
AcDbBlockBegin
  2
*D3
 70
     1
 10
0.0
 20
0.0
 30
0.0
  3
*D3
  1

  0
LINE
  5
44CC
330
20AD
100
AcDbEntity
  8
ADM
 62
     0
370
    -2
100
AcDbLine
 10
69.99999999999987
 20
40.49999999999999
 30
0.0
 11
69.99999999999987
 21
25.8
 31
0.0
  0
LINE
  5
44CD
330
20AD
100
AcDbEntity
  8
ADM
 62
     0
370
    -2
100
AcDbLine
 10
120.9999999999998
 20
47.49999999999997
 30
0.0
 11
120.9999999999998
 21
25.8
 31
0.0
  0
LINE
  5
44CE
330
20AD
100
AcDbEntity
  8
ADM
 62
     0
370
    -2
100
AcDbLine
 10
70.79999999999987
 20
27.0
 30
0.0
 11
120.1999999999998
 21
27.0
 31
0.0
  0
INSERT
  5
44CF
330
20AD
100
AcDbEntity
  8
ADM
 62
     0
370
    -2
100
AcDbBlockReference
  2
DOT
 10
69.99999999999987
 20
27.0
 30
0.0
 41
0.8
 42
0.8
 43
0.8
 50
180.0
  0
INSERT
  5
44D0
330
20AD
100
AcDbEntity
  8
ADM
 62
     0
370
    -2
100
AcDbBlockReference
  2
DOT
 10
120.9999999999998
 20
27.0
 30
0.0
 41
0.8
 42
0.8
 43
0.8
  0
MTEXT
  5
44D1
330
20AD
100
AcDbEntity
  8
ADM
 62
     0
100
AcDbMText
 10
95.49999999999988
 20
29.5
 30
0.0
 40
3.0
 41
0.0
 71
     5
 72
     5
  1
\A1;51
 73
     1
 44
1.0
1001
ACAD
1000
MTEXTBEGIN
1070
    73
1070
     1
1070
    44
1040
1.0
1070
    74
1070
     0
1000
MTEXTEND
  0
POINT
  5
44D2
330
20AD
100
AcDbEntity
  8
DEFPOINTS
 62
     0
100
AcDbPoint
 10
69.99999999999987
 20
42.0
 30
0.0
  0
POINT
  5
44D3
330
20AD
100
AcDbEntity
  8
DEFPOINTS
 62
     0
100
AcDbPoint
 10
120.9999999999998
 20
48.99999999999997
 30
0.0
  0
POINT
  5
44D4
330
20AD
100
AcDbEntity
  8
DEFPOINTS
 62
     0
100
AcDbPoint
 10
120.9999999999998
 20
27.0
 30
0.0
  0
ENDBLK
  5
20B8
330
20AD
100
AcDbEntity
  8
0
100
AcDbBlockEnd
  0
BLOCK
  5
20C5
330
20BB
100
AcDbEntity
  8
0
100
AcDbBlockBegin
  2
*D4
 70
     1
 10
0.0
 20
0.0
 30
0.0
  3
*D4
  1

  0
LINE
  5
43A9
330
20BB
100
AcDbEntity
  8
ADM
 62
     0
100
AcDbLine
 10
51.99999999999987
 20
62.0
 30
0.0
 11
51.99999999999987
 21
18.79999999999999
 31
0.0
  0
LINE
  5
43AA
330
20BB
100
AcDbEntity
  8
ADM
 62
     0
100
AcDbLine
 10
120.9999999999998
 20
47.49999999999997
 30
0.0
 11
120.9999999999998
 21
18.8
 31
0.0
  0
LINE
  5
43AB
330
20BB
100
AcDbEntity
  8
ADM
 62
     0
100
AcDbLine
 10
52.79999999999986
 20
20.0
 30
0.0
 11
120.1999999999998
 21
20.0
 31
0.0
  0
INSERT
  5
43AC
330
20BB
100
AcDbEntity
  8
ADM
 62
     0
100
AcDbBlockReference
  2
DOT
 10
51.99999999999987
 20
20.0
 30
0.0
 41
0.8
 42
0.8
 43
0.8
 50
180.0
  0
INSERT
  5
43AD
330
20BB
100
AcDbEntity
  8
ADM
 62
     0
100
AcDbBlockReference
  2
DOT
 10
120.9999999999998
 20
20.0
 30
0.0
 41
0.8
 42
0.8
 43
0.8
  0
MTEXT
  5
43AE
330
20BB
100
AcDbEntity
  8
ADM
 62
     0
100
AcDbMText
 10
86.49999999999987
 20
22.5
 30
0.0
 40
3.0
 41
0.0
 71
     5
 72
     5
  1
\A1;69
 73
     1
 44
1.0
1001
ACAD
1000
MTEXTBEGIN
1070
    73
1070
     1
1070
    44
1040
1.0
1070
    74
1070
     0
1000
MTEXTEND
  0
POINT
  5
43AF
330
20BB
100
AcDbEntity
  8
DEFPOINTS
 62
     0
100
AcDbPoint
 10
51.99999999999987
 20
63.5
 30
0.0
  0
POINT
  5
43B0
330
20BB
100
AcDbEntity
  8
DEFPOINTS
 62
     0
100
AcDbPoint
 10
120.9999999999998
 20
48.99999999999997
 30
0.0
  0
POINT
  5
43B1
330
20BB
100
AcDbEntity
  8
DEFPOINTS
 62
     0
100
AcDbPoint
 10
120.9999999999998
 20
20.0
 30
0.0
  0
ENDBLK
  5
20C6
330
20BB
100
AcDbEntity
  8
0
100
AcDbBlockEnd
  0
BLOCK
  5
20D2
330
20C8
100
AcDbEntity
  8
0
100
AcDbBlockBegin
  2
*D5
 70
     1
 10
0.0
 20
0.0
 30
0.0
  3
*D5
  1

  0
LINE
  5
44C3
330
20C8
100
AcDbEntity
  8
ADM
 62
     0
370
    -2
100
AcDbLine
 10
72.49999999999987
 20
42.0
 30
0.0
 11
144.1999999999998
 21
41.99999999999997
 31
0.0
  0
LINE
  5
44C4
330
20C8
100
AcDbEntity
  8
ADM
 62
     0
370
    -2
100
AcDbLine
 10
121.9999999999998
 20
69.00000000000003
 30
0.0
 11
144.1999999999998
 21
69.00000000000003
 31
0.0
  0
LINE
  5
44C5
330
20C8
100
AcDbEntity
  8
ADM
 62
     0
370
    -2
100
AcDbLine
 10
142.9999999999998
 20
42.79999999999997
 30
0.0
 11
142.9999999999998
 21
68.20000000000003
 31
0.0
  0
INSERT
  5
44C6
330
20C8
100
AcDbEntity
  8
ADM
 62
     0
370
    -2
100
AcDbBlockReference
  2
_DOT
 10
142.9999999999998
 20
41.99999999999998
 30
0.0
 41
0.8
 42
0.8
 43
0.8
 50
270.0
  0
INSERT
  5
44C7
330
20C8
100
AcDbEntity
  8
ADM
 62
     0
370
    -2
100
AcDbBlockReference
  2
_DOT
 10
142.9999999999998
 20
69.00000000000003
 30
0.0
 41
0.8
 42
0.8
 43
0.8
 50
90.0
  0
MTEXT
  5
44C8
330
20C8
100
AcDbEntity
  8
ADM
 62
     0
100
AcDbMText
 10
140.4999999999998
 20
55.50000000000002
 30
0.0
 40
3.0
 41
0.0
 71
     5
 72
     5
  1
\A1;27
 11
0.0000000000000001
 21
1.0
 31
0.0
 73
     1
 44
1.0
1001
ACAD
1000
MTEXTBEGIN
1070
    73
1070
     1
1070
    44
1040
1.0
1070
    74
1070
     0
1000
MTEXTEND
  0
POINT
  5
44C9
330
20C8
100
AcDbEntity
  8
DEFPOINTS
 62
     0
100
AcDbPoint
 10
70.99999999999987
 20
42.0
 30
0.0
  0
POINT
  5
44CA
330
20C8
100
AcDbEntity
  8
DEFPOINTS
 62
     0
100
AcDbPoint
 10
120.4999999999998
 20
69.00000000000003
 30
0.0
  0
POINT
  5
44CB
330
20C8
100
AcDbEntity
  8
DEFPOINTS
 62
     0
100
AcDbPoint
 10
142.9999999999998
 20
69.00000000000003
 30
0.0
  0
ENDBLK
  5
20D3
330
20C8
100
AcDbEntity
  8
0
100
AcDbBlockEnd
  0
BLOCK
  5
20E0
330
20D6
100
AcDbEntity
  8
0
100
AcDbBlockBegin
  2
*D6
 70
     1
 10
0.0
 20
0.0
 30
0.0
  3
*D6
  1

  0
LINE
  5
4512
330
20D6
100
AcDbEntity
  8
ADM
 62
     0
370
    -2
100
AcDbLine
 10
69.99999999999987
 20
240.8468865831256
 30
0.0
 11
69.99999999999987
 21
255.5468865831255
 31
0.0
  0
LINE
  5
4513
330
20D6
100
AcDbEntity
  8
ADM
 62
     0
370
    -2
100
AcDbLine
 10
120.9999999999998
 20
233.8468865831256
 30
0.0
 11
120.9999999999998
 21
255.5468865831255
 31
0.0
  0
LINE
  5
4514
330
20D6
100
AcDbEntity
  8
ADM
 62
     0
370
    -2
100
AcDbLine
 10
70.79999999999987
 20
254.3468865831255
 30
0.0
 11
120.1999999999998
 21
254.3468865831255
 31
0.0
  0
INSERT
  5
4515
330
20D6
100
AcDbEntity
  8
ADM
 62
     0
370
    -2
100
AcDbBlockReference
  2
DOT
 10
69.99999999999987
 20
254.3468865831255
 30
0.0
 41
0.8
 42
0.8
 43
0.8
 50
180.0
  0
INSERT
  5
4516
330
20D6
100
AcDbEntity
  8
ADM
 62
     0
370
    -2
100
AcDbBlockReference
  2
DOT
 10
120.9999999999998
 20
254.3468865831255
 30
0.0
 41
0.8
 42
0.8
 43
0.8
  0
MTEXT
  5
4517
330
20D6
100
AcDbEntity
  8
ADM
 62
     0
100
AcDbMText
 10
95.49999999999988
 20
256.8468865831255
 30
0.0
 40
3.0
 41
0.0
 71
     5
 72
     5
  1
\A1;51
 73
     1
 44
1.0
1001
ACAD
1000
MTEXTBEGIN
1070
    73
1070
     1
1070
    44
1040
1.0
1070
    74
1070
     0
1000
MTEXTEND
  0
POINT
  5
4518
330
20D6
100
AcDbEntity
  8
DEFPOINTS
 62
     0
100
AcDbPoint
 10
69.99999999999987
 20
239.3468865831256
 30
0.0
  0
POINT
  5
4519
330
20D6
100
AcDbEntity
  8
DEFPOINTS
 62
     0
100
AcDbPoint
 10
120.9999999999998
 20
232.3468865831256
 30
0.0
  0
POINT
  5
451A
330
20D6
100
AcDbEntity
  8
DEFPOINTS
 62
     0
100
AcDbPoint
 10
120.9999999999998
 20
254.3468865831255
 30
0.0
  0
ENDBLK
  5
20E1
330
20D6
100
AcDbEntity
  8
0
100
AcDbBlockEnd
  0
BLOCK
  5
20ED
330
20E3
100
AcDbEntity
  8
0
100
AcDbBlockBegin
  2
*D7
 70
     1
 10
0.0
 20
0.0
 30
0.0
  3
*D7
  1

  0
LINE
  5
4535
330
20E3
100
AcDbEntity
  8
ADM
 62
     0
370
    -2
100
AcDbLine
 10
72.49999999999987
 20
239.3468865831256
 30
0.0
 11
144.1999999999998
 21
239.3468865831256
 31
0.0
  0
LINE
  5
4536
330
20E3
100
AcDbEntity
  8
ADM
 62
     0
370
    -2
100
AcDbLine
 10
121.9999999999998
 20
212.3468865831255
 30
0.0
 11
144.1999999999998
 21
212.3468865831255
 31
0.0
  0
LINE
  5
4537
330
20E3
100
AcDbEntity
  8
ADM
 62
     0
370
    -2
100
AcDbLine
 10
142.9999999999998
 20
238.5468865831256
 30
0.0
 11
142.9999999999998
 21
213.1468865831255
 31
0.0
  0
INSERT
  5
4538
330
20E3
100
AcDbEntity
  8
ADM
 62
     0
370
    -2
100
AcDbBlockReference
  2
DOT
 10
142.9999999999998
 20
239.3468865831256
 30
0.0
 41
0.8
 42
0.8
 43
0.8
 50
90.0
  0
INSERT
  5
4539
330
20E3
100
AcDbEntity
  8
ADM
 62
     0
370
    -2
100
AcDbBlockReference
  2
DOT
 10
142.9999999999998
 20
212.3468865831255
 30
0.0
 41
0.8
 42
0.8
 43
0.8
 50
270.0
  0
MTEXT
  5
453A
330
20E3
100
AcDbEntity
  8
ADM
 62
     0
100
AcDbMText
 10
140.4999999999998
 20
225.8468865831256
 30
0.0
 40
3.0
 41
0.0
 71
     5
 72
     5
  1
\A1;27
 11
0.0000000000000001
 21
1.0
 31
0.0
 73
     1
 44
1.0
1001
ACAD
1000
MTEXTBEGIN
1070
    73
1070
     1
1070
    44
1040
1.0
1070
    74
1070
     0
1000
MTEXTEND
  0
POINT
  5
453B
330
20E3
100
AcDbEntity
  8
DEFPOINTS
 62
     0
100
AcDbPoint
 10
70.99999999999987
 20
239.3468865831256
 30
0.0
  0
POINT
  5
453C
330
20E3
100
AcDbEntity
  8
DEFPOINTS
 62
     0
100
AcDbPoint
 10
120.4999999999998
 20
212.3468865831255
 30
0.0
  0
POINT
  5
453D
330
20E3
100
AcDbEntity
  8
DEFPOINTS
 62
     0
100
AcDbPoint
 10
142.9999999999998
 20
212.3468865831255
 30
0.0
  0
ENDBLK
  5
20EE
330
20E3
100
AcDbEntity
  8
0
100
AcDbBlockEnd
  0
BLOCK
  5
20FC
330
20F0
100
AcDbEntity
  8
0
100
AcDbBlockBegin
  2
*D8
 70
     1
 10
0.0
 20
0.0
 30
0.0
  3
*D8
  1

  0
LINE
  5
43C4
330
20F0
100
AcDbEntity
  8
ADM
 62
     0
100
AcDbLine
 10
50.99999999999987
 20
214.8468865831256
 30
0.0
 11
35.79999999999987
 21
214.8468865831256
 31
0.0
  0
LINE
  5
43C5
330
20F0
100
AcDbEntity
  8
ADM
 62
     0
100
AcDbLine
 10
50.49999999999987
 20
217.8468865831256
 30
0.0
 11
35.79999999999987
 21
217.8468865831256
 31
0.0
  0
LINE
  5
43C6
330
20F0
100
AcDbEntity
  8
ADM
 62
     0
100
AcDbLine
 10
36.99999999999988
 20
214.0468865831256
 30
0.0
 11
36.99999999999988
 21
213.2468865831256
 31
0.0
  0
LINE
  5
43C7
330
20F0
100
AcDbEntity
  8
ADM
 62
     0
100
AcDbLine
 10
36.99999999999988
 20
218.6468865831256
 30
0.0
 11
36.99999999999988
 21
219.4468865831256
 31
0.0
  0
MTEXT
  5
43C8
330
20F0
100
AcDbEntity
  8
ADM
 62
     0
100
AcDbMText
 10
34.49999999999987
 20
216.3468865831256
 30
0.0
 40
3.0
 41
0.0
 71
     5
 72
     5
  1
\A1;3
 11
0.0000000000000001
 21
1.0
 31
0.0
 73
     1
 44
1.0
1001
ACAD
1000
MTEXTBEGIN
1070
    73
1070
     1
1070
    44
1040
1.0
1070
    74
1070
     0
1000
MTEXTEND
  0
LINE
  5
43C9
330
20F0
100
AcDbEntity
  8
ADM
 62
     0
100
AcDbLine
 10
36.99999999999988
 20
214.8468865831256
 30
0.0
 11
36.99999999999988
 21
217.8468865831256
 31
0.0
  0
INSERT
  5
43CA
330
20F0
100
AcDbEntity
  8
ADM
 62
     0
100
AcDbBlockReference
  2
DOT
 10
36.99999999999988
 20
214.8468865831256
 30
0.0
 41
0.8
 42
0.8
 43
0.8
 50
90.0
  0
INSERT
  5
43CB
330
20F0
100
AcDbEntity
  8
ADM
 62
     0
100
AcDbBlockReference
  2
DOT
 10
36.99999999999988
 20
217.8468865831256
 30
0.0
 41
0.8
 42
0.8
 43
0.8
 50
270.0
  0
POINT
  5
43CC
330
20F0
100
AcDbEntity
  8
DEFPOINTS
 62
     0
100
AcDbPoint
 10
52.49999999999987
 20
214.8468865831256
 30
0.0
  0
POINT
  5
43CD
330
20F0
100
AcDbEntity
  8
DEFPOINTS
 62
     0
100
AcDbPoint
 10
51.99999999999987
 20
217.8468865831256
 30
0.0
  0
POINT
  5
43CE
330
20F0
100
AcDbEntity
  8
DEFPOINTS
 62
     0
100
AcDbPoint
 10
36.99999999999988
 20
217.8468865831256
 30
0.0
  0
ENDBLK
  5
20FD
330
20F0
100
AcDbEntity
  8
0
100
AcDbBlockEnd
  0
BLOCK
  5
210C
330
2100
100
AcDbEntity
  8
0
100
AcDbBlockBegin
  2
*D9
 70
     1
 10
0.0
 20
0.0
 30
0.0
  3
*D9
  1

  0
LINE
  5
43CF
330
2100
100
AcDbEntity
  8
ADM
 62
     0
100
AcDbLine
 10
50.49999999999987
 20
63.5
 30
0.0
 11
35.79999999999994
 21
63.50000000000001
 31
0.0
  0
LINE
  5
43D0
330
2100
100
AcDbEntity
  8
ADM
 62
     0
100
AcDbLine
 10
50.99999999999987
 20
66.49999999999997
 30
0.0
 11
35.79999999999994
 21
66.49999999999997
 31
0.0
  0
LINE
  5
43D1
330
2100
100
AcDbEntity
  8
ADM
 62
     0
100
AcDbLine
 10
36.99999999999993
 20
62.70000000000001
 30
0.0
 11
36.99999999999993
 21
61.90000000000001
 31
0.0
  0
LINE
  5
43D2
330
2100
100
AcDbEntity
  8
ADM
 62
     0
100
AcDbLine
 10
36.99999999999993
 20
67.29999999999996
 30
0.0
 11
36.99999999999993
 21
68.09999999999996
 31
0.0
  0
MTEXT
  5
43D3
330
2100
100
AcDbEntity
  8
ADM
 62
     0
100
AcDbMText
 10
34.49999999999987
 20
64.99999999999997
 30
0.0
 40
3.0
 41
0.0
 71
     5
 72
     5
  1
\A1;3
 11
0.0000000000000001
 21
1.0
 31
0.0
 73
     1
 44
1.0
1001
ACAD
1000
MTEXTBEGIN
1070
    73
1070
     1
1070
    44
1040
1.0
1070
    74
1070
     0
1000
MTEXTEND
  0
LINE
  5
43D4
330
2100
100
AcDbEntity
  8
ADM
 62
     0
100
AcDbLine
 10
36.99999999999993
 20
63.50000000000001
 30
0.0
 11
36.99999999999993
 21
66.49999999999997
 31
0.0
  0
INSERT
  5
43D5
330
2100
100
AcDbEntity
  8
ADM
 62
     0
100
AcDbBlockReference
  2
DOT
 10
36.99999999999993
 20
63.50000000000001
 30
0.0
 41
0.8
 42
0.8
 43
0.8
 50
90.0
  0
INSERT
  5
43D6
330
2100
100
AcDbEntity
  8
ADM
 62
     0
100
AcDbBlockReference
  2
DOT
 10
36.99999999999993
 20
66.49999999999997
 30
0.0
 41
0.8
 42
0.8
 43
0.8
 50
270.0
  0
POINT
  5
43D7
330
2100
100
AcDbEntity
  8
DEFPOINTS
 62
     0
100
AcDbPoint
 10
51.99999999999987
 20
63.5
 30
0.0
  0
POINT
  5
43D8
330
2100
100
AcDbEntity
  8
DEFPOINTS
 62
     0
100
AcDbPoint
 10
52.49999999999987
 20
66.49999999999997
 30
0.0
  0
POINT
  5
43D9
330
2100
100
AcDbEntity
  8
DEFPOINTS
 62
     0
100
AcDbPoint
 10
36.99999999999993
 20
66.49999999999997
 30
0.0
  0
ENDBLK
  5
210D
330
2100
100
AcDbEntity
  8
0
100
AcDbBlockEnd
  0
BLOCK
  5
2119
330
210F
100
AcDbEntity
  8
0
100
AcDbBlockBegin
  2
*D10
 70
     1
 10
0.0
 20
0.0
 30
0.0
  3
*D10
  1

  0
LINE
  5
43DA
330
210F
100
AcDbEntity
  8
ADM
 62
     0
100
AcDbLine
 10
50.49999999999987
 20
217.8468865831256
 30
0.0
 11
28.80000000000002
 21
217.8468865831256
 31
0.0
  0
LINE
  5
43DB
330
210F
100
AcDbEntity
  8
ADM
 62
     0
100
AcDbLine
 10
50.49999999999987
 20
63.5
 30
0.0
 11
28.79999999999998
 21
63.50000000000001
 31
0.0
  0
LINE
  5
43DC
330
210F
100
AcDbEntity
  8
ADM
 62
     0
100
AcDbLine
 10
30.00000000000001
 20
217.0468865831256
 30
0.0
 11
29.99999999999998
 21
64.30000000000001
 31
0.0
  0
INSERT
  5
43DD
330
210F
100
AcDbEntity
  8
ADM
 62
     0
100
AcDbBlockReference
  2
DOT
 10
30.00000000000001
 20
217.8468865831256
 30
0.0
 41
0.8
 42
0.8
 43
0.8
 50
90.0
  0
INSERT
  5
43DE
330
210F
100
AcDbEntity
  8
ADM
 62
     0
100
AcDbBlockReference
  2
DOT
 10
29.99999999999998
 20
63.50000000000001
 30
0.0
 41
0.8
 42
0.8
 43
0.8
 50
270.0
  0
MTEXT
  5
43DF
330
210F
100
AcDbEntity
  8
ADM
 62
     0
100
AcDbMText
 10
27.49999999999997
 20
140.6734432915628
 30
0.0
 40
3.0
 41
0.0
 71
     5
 72
     5
  1
\A1;H
 11
0.0000000000000001
 21
1.0
 31
0.0
 73
     1
 44
1.0
1001
ACAD
1000
MTEXTBEGIN
1070
    73
1070
     1
1070
    44
1040
1.0
1070
    74
1070
     0
1000
MTEXTEND
  0
POINT
  5
43E0
330
210F
100
AcDbEntity
  8
DEFPOINTS
 62
     0
100
AcDbPoint
 10
51.99999999999987
 20
217.8468865831256
 30
0.0
  0
POINT
  5
43E1
330
210F
100
AcDbEntity
  8
DEFPOINTS
 62
     0
100
AcDbPoint
 10
51.99999999999987
 20
63.5
 30
0.0
  0
POINT
  5
43E2
330
210F
100
AcDbEntity
  8
DEFPOINTS
 62
     0
100
AcDbPoint
 10
29.99999999999998
 20
63.50000000000001
 30
0.0
  0
ENDBLK
  5
211A
330
210F
100
AcDbEntity
  8
0
100
AcDbBlockEnd
  0
BLOCK
  5
2251
330
2247
100
AcDbEntity
  8
0
100
AcDbBlockBegin
  2
*D11
 70
     1
 10
0.0
 20
0.0
 30
0.0
  3
*D11
  1

  0
LINE
  5
43E3
330
2247
100
AcDbEntity
  8
ADM
 62
     0
100
AcDbLine
 10
179.0000000000009
 20
40.49999999999999
 30
0.0
 11
179.0000000000009
 21
25.8
 31
0.0
  0
LINE
  5
43E4
330
2247
100
AcDbEntity
  8
ADM
 62
     0
100
AcDbLine
 10
199.000000000001
 20
41.00000000000001
 30
0.0
 11
199.000000000001
 21
25.8
 31
0.0
  0
LINE
  5
43E5
330
2247
100
AcDbEntity
  8
ADM
 62
     0
100
AcDbLine
 10
179.8000000000009
 20
27.0
 30
0.0
 11
198.200000000001
 21
27.0
 31
0.0
  0
INSERT
  5
43E6
330
2247
100
AcDbEntity
  8
ADM
 62
     0
100
AcDbBlockReference
  2
DOT
 10
179.0000000000009
 20
27.0
 30
0.0
 41
0.8
 42
0.8
 43
0.8
 50
180.0
  0
INSERT
  5
43E7
330
2247
100
AcDbEntity
  8
ADM
 62
     0
100
AcDbBlockReference
  2
DOT
 10
199.000000000001
 20
27.0
 30
0.0
 41
0.8
 42
0.8
 43
0.8
  0
MTEXT
  5
43E8
330
2247
100
AcDbEntity
  8
ADM
 62
     0
100
AcDbMText
 10
189.000000000001
 20
29.5
 30
0.0
 40
3.0
 41
0.0
 71
     5
 72
     5
  1
\A1;20
 73
     1
 44
1.0
1001
ACAD
1000
MTEXTBEGIN
1070
    73
1070
     1
1070
    44
1040
1.0
1070
    74
1070
     0
1000
MTEXTEND
  0
POINT
  5
43E9
330
2247
100
AcDbEntity
  8
DEFPOINTS
 62
     0
100
AcDbPoint
 10
179.0000000000009
 20
42.0
 30
0.0
  0
POINT
  5
43EA
330
2247
100
AcDbEntity
  8
DEFPOINTS
 62
     0
100
AcDbPoint
 10
199.000000000001
 20
42.50000000000001
 30
0.0
  0
POINT
  5
43EB
330
2247
100
AcDbEntity
  8
DEFPOINTS
 62
     0
100
AcDbPoint
 10
199.000000000001
 20
27.0
 30
0.0
  0
ENDBLK
  5
2252
330
2247
100
AcDbEntity
  8
0
100
AcDbBlockEnd
  0
BLOCK
  5
225F
330
2255
100
AcDbEntity
  8
0
100
AcDbBlockBegin
  2
*D12
 70
     1
 10
0.0
 20
0.0
 30
0.0
  3
*D12
  1

  0
LINE
  5
4548
330
2255
100
AcDbEntity
  8
ADM
 62
     0
370
    -2
100
AcDbLine
 10
179.0000000000009
 20
40.49999999999999
 30
0.0
 11
179.0000000000009
 21
25.8
 31
0.0
  0
LINE
  5
4549
330
2255
100
AcDbEntity
  8
ADM
 62
     0
370
    -2
100
AcDbLine
 10
172.000000000001
 20
90.5
 30
0.0
 11
172.000000000001
 21
25.8
 31
0.0
  0
LINE
  5
454A
330
2255
100
AcDbEntity
  8
ADM
 62
     0
370
    -2
100
AcDbLine
 10
178.2000000000009
 20
27.0
 30
0.0
 11
172.800000000001
 21
27.0
 31
0.0
  0
INSERT
  5
454B
330
2255
100
AcDbEntity
  8
ADM
 62
     0
370
    -2
100
AcDbBlockReference
  2
DOT
 10
179.0000000000009
 20
27.0
 30
0.0
 41
0.8
 42
0.8
 43
0.8
  0
INSERT
  5
454C
330
2255
100
AcDbEntity
  8
ADM
 62
     0
370
    -2
100
AcDbBlockReference
  2
DOT
 10
172.000000000001
 20
27.0
 30
0.0
 41
0.8
 42
0.8
 43
0.8
 50
180.0
  0
MTEXT
  5
454D
330
2255
100
AcDbEntity
  8
ADM
 62
     0
100
AcDbMText
 10
175.500000000001
 20
29.5
 30
0.0
 40
3.0
 41
0.0
 71
     5
 72
     5
  1
\A1;7
 73
     1
 44
1.0
1001
ACAD
1000
MTEXTBEGIN
1070
    73
1070
     1
1070
    44
1040
1.0
1070
    74
1070
     0
1000
MTEXTEND
  0
POINT
  5
454E
330
2255
100
AcDbEntity
  8
DEFPOINTS
 62
     0
100
AcDbPoint
 10
179.0000000000009
 20
42.0
 30
0.0
  0
POINT
  5
454F
330
2255
100
AcDbEntity
  8
DEFPOINTS
 62
     0
100
AcDbPoint
 10
172.000000000001
 20
92.0
 30
0.0
  0
POINT
  5
4550
330
2255
100
AcDbEntity
  8
DEFPOINTS
 62
     0
100
AcDbPoint
 10
172.000000000001
 20
27.0
 30
0.0
  0
ENDBLK
  5
2260
330
2255
100
AcDbEntity
  8
0
100
AcDbBlockEnd
  0
BLOCK
  5
226C
330
2262
100
AcDbEntity
  8
0
100
AcDbBlockBegin
  2
*D13
 70
     1
 10
0.0
 20
0.0
 30
0.0
  3
*D13
  1

  0
LINE
  5
453F
330
2262
100
AcDbEntity
  8
ADM
 62
     0
370
    -2
100
AcDbLine
 10
172.000000000001
 20
90.5
 30
0.0
 11
172.000000000001
 21
18.79999999999999
 31
0.0
  0
LINE
  5
4540
330
2262
100
AcDbEntity
  8
ADM
 62
     0
370
    -2
100
AcDbLine
 10
199.000000000001
 20
41.0
 30
0.0
 11
199.000000000001
 21
18.8
 31
0.0
  0
LINE
  5
4541
330
2262
100
AcDbEntity
  8
ADM
 62
     0
370
    -2
100
AcDbLine
 10
172.800000000001
 20
20.0
 30
0.0
 11
198.200000000001
 21
20.0
 31
0.0
  0
INSERT
  5
4542
330
2262
100
AcDbEntity
  8
ADM
 62
     0
370
    -2
100
AcDbBlockReference
  2
DOT
 10
172.000000000001
 20
20.0
 30
0.0
 41
0.8
 42
0.8
 43
0.8
 50
180.0
  0
INSERT
  5
4543
330
2262
100
AcDbEntity
  8
ADM
 62
     0
370
    -2
100
AcDbBlockReference
  2
DOT
 10
199.000000000001
 20
20.0
 30
0.0
 41
0.8
 42
0.8
 43
0.8
  0
MTEXT
  5
4544
330
2262
100
AcDbEntity
  8
ADM
 62
     0
100
AcDbMText
 10
185.500000000001
 20
22.5
 30
0.0
 40
3.0
 41
0.0
 71
     5
 72
     5
  1
\A1;27
 73
     1
 44
1.0
1001
ACAD
1000
MTEXTBEGIN
1070
    73
1070
     1
1070
    44
1040
1.0
1070
    74
1070
     0
1000
MTEXTEND
  0
POINT
  5
4545
330
2262
100
AcDbEntity
  8
DEFPOINTS
 62
     0
100
AcDbPoint
 10
172.000000000001
 20
92.0
 30
0.0
  0
POINT
  5
4546
330
2262
100
AcDbEntity
  8
DEFPOINTS
 62
     0
100
AcDbPoint
 10
199.000000000001
 20
42.5
 30
0.0
  0
POINT
  5
4547
330
2262
100
AcDbEntity
  8
DEFPOINTS
 62
     0
100
AcDbPoint
 10
199.000000000001
 20
20.0
 30
0.0
  0
ENDBLK
  5
226D
330
2262
100
AcDbEntity
  8
0
100
AcDbBlockEnd
  0
BLOCK
  5
227B
330
226F
100
AcDbEntity
  8
0
100
AcDbBlockBegin
  2
*D14
 70
     1
 10
0.0
 20
0.0
 30
0.0
  3
*D14
  1

  0
LINE
  5
43FE
330
226F
100
AcDbEntity
  8
ADM
 62
     0
100
AcDbLine
 10
196.5000000000009
 20
112.0
 30
0.0
 11
196.5000000000009
 21
127.2
 31
0.0
  0
LINE
  5
43FF
330
226F
100
AcDbEntity
  8
ADM
 62
     0
100
AcDbLine
 10
193.500000000001
 20
112.5
 30
0.0
 11
193.500000000001
 21
127.2
 31
0.0
  0
LINE
  5
4400
330
226F
100
AcDbEntity
  8
ADM
 62
     0
100
AcDbLine
 10
197.3000000000009
 20
126.0
 30
0.0
 11
198.1000000000009
 21
126.0
 31
0.0
  0
LINE
  5
4401
330
226F
100
AcDbEntity
  8
ADM
 62
     0
100
AcDbLine
 10
192.700000000001
 20
126.0
 30
0.0
 11
191.900000000001
 21
126.0
 31
0.0
  0
MTEXT
  5
4402
330
226F
100
AcDbEntity
  8
ADM
 62
     0
100
AcDbMText
 10
195.0000000000009
 20
128.5
 30
0.0
 40
3.0
 41
0.0
 71
     5
 72
     5
  1
\A1;3
 73
     1
 44
1.0
1001
ACAD
1000
MTEXTBEGIN
1070
    73
1070
     1
1070
    44
1040
1.0
1070
    74
1070
     0
1000
MTEXTEND
  0
LINE
  5
4403
330
226F
100
AcDbEntity
  8
ADM
 62
     0
100
AcDbLine
 10
196.5000000000009
 20
126.0
 30
0.0
 11
193.500000000001
 21
126.0
 31
0.0
  0
INSERT
  5
4404
330
226F
100
AcDbEntity
  8
ADM
 62
     0
100
AcDbBlockReference
  2
DOT
 10
196.5000000000009
 20
126.0
 30
0.0
 41
0.8
 42
0.8
 43
0.8
 50
180.0
  0
INSERT
  5
4405
330
226F
100
AcDbEntity
  8
ADM
 62
     0
100
AcDbBlockReference
  2
DOT
 10
193.500000000001
 20
126.0
 30
0.0
 41
0.8
 42
0.8
 43
0.8
  0
POINT
  5
4406
330
226F
100
AcDbEntity
  8
DEFPOINTS
 62
     0
100
AcDbPoint
 10
196.5000000000009
 20
110.4999999999999
 30
0.0
  0
POINT
  5
4407
330
226F
100
AcDbEntity
  8
DEFPOINTS
 62
     0
100
AcDbPoint
 10
193.500000000001
 20
111.0
 30
0.0
  0
POINT
  5
4408
330
226F
100
AcDbEntity
  8
DEFPOINTS
 62
     0
100
AcDbPoint
 10
193.500000000001
 20
126.0
 30
0.0
  0
ENDBLK
  5
227C
330
226F
100
AcDbEntity
  8
0
100
AcDbBlockEnd
  0
BLOCK
  5
2294
330
228A
100
AcDbEntity
  8
0
100
AcDbBlockBegin
  2
*D15
 70
     1
 10
0.0
 20
0.0
 30
0.0
  3
*D15
  1

  0
LINE
  5
268F
330
228A
100
AcDbEntity
  8
ADM
 62
     0
370
    -2
100
AcDbLine
 10
203.7000000000008
 20
108.4999999999999
 30
0.0
 11
225.7000000000011
 21
108.4999999999999
 31
0.0
  0
LINE
  5
2690
330
228A
100
AcDbEntity
  8
ADM
 62
     0
370
    -2
100
AcDbLine
 10
211.000000000001
 20
44.49999999999994
 30
0.0
 11
225.7000000000011
 21
44.49999999999994
 31
0.0
  0
LINE
  5
2691
330
228A
100
AcDbEntity
  8
ADM
 62
     0
370
    -2
100
AcDbLine
 10
224.5000000000011
 20
107.6999999999999
 30
0.0
 11
224.5000000000011
 21
45.29999999999994
 31
0.0
  0
INSERT
  5
2692
330
228A
100
AcDbEntity
  8
ADM
 62
     0
370
    -2
100
AcDbBlockReference
  2
_DOT
 10
224.5000000000011
 20
108.4999999999999
 30
0.0
 41
0.8
 42
0.8
 43
0.8
 50
90.0
  0
INSERT
  5
2693
330
228A
100
AcDbEntity
  8
ADM
 62
     0
370
    -2
100
AcDbBlockReference
  2
_DOT
 10
224.5000000000011
 20
44.49999999999994
 30
0.0
 41
0.8
 42
0.8
 43
0.8
 50
270.0
  0
MTEXT
  5
2694
330
228A
100
AcDbEntity
  8
ADM
 62
     0
100
AcDbMText
 10
222.0000000000011
 20
76.5
 30
0.0
 40
3.0
 41
0.0
 71
     5
 72
     5
  1
\A1;64
 11
0.0000000000000001
 21
1.0
 31
0.0
 73
     1
 44
1.0
1001
ACAD
1000
MTEXTBEGIN
1070
    73
1070
     1
1070
    44
1040
1.0
1070
    74
1070
     0
1000
MTEXTEND
  0
POINT
  5
2695
330
228A
100
AcDbEntity
  8
DEFPOINTS
 62
     0
100
AcDbPoint
 10
202.2000000000009
 20
108.4999999999999
 30
0.0
  0
POINT
  5
2696
330
228A
100
AcDbEntity
  8
DEFPOINTS
 62
     0
100
AcDbPoint
 10
209.500000000001
 20
44.49999999999994
 30
0.0
  0
POINT
  5
2697
330
228A
100
AcDbEntity
  8
DEFPOINTS
 62
     0
100
AcDbPoint
 10
224.5000000000011
 20
44.49999999999994
 30
0.0
  0
ENDBLK
  5
2295
330
228A
100
AcDbEntity
  8
0
100
AcDbBlockEnd
  0
BLOCK
  5
22A1
330
2297
100
AcDbEntity
  8
0
100
AcDbBlockBegin
  2
*D16
 70
     1
 10
0.0
 20
0.0
 30
0.0
  3
*D16
  1

  0
LINE
  5
2669
330
2297
100
AcDbEntity
  8
ADM
 62
     0
370
    -2
100
AcDbLine
 10
197.500000000001
 20
111.0
 30
0.0
 11
232.7000000000011
 21
110.9999999999999
 31
0.0
  0
LINE
  5
266A
330
2297
100
AcDbEntity
  8
ADM
 62
     0
370
    -2
100
AcDbLine
 10
200.000000000001
 20
42.0
 30
0.0
 11
232.700000000001
 21
41.99999999999999
 31
0.0
  0
LINE
  5
266B
330
2297
100
AcDbEntity
  8
ADM
 62
     0
370
    -2
100
AcDbLine
 10
231.5000000000011
 20
110.1999999999999
 30
0.0
 11
231.5000000000011
 21
42.79999999999999
 31
0.0
  0
INSERT
  5
266C
330
2297
100
AcDbEntity
  8
ADM
 62
     0
370
    -2
100
AcDbBlockReference
  2
DOT
 10
231.5000000000011
 20
110.9999999999999
 30
0.0
 41
0.8
 42
0.8
 43
0.8
 50
90.0
  0
INSERT
  5
266D
330
2297
100
AcDbEntity
  8
ADM
 62
     0
370
    -2
100
AcDbBlockReference
  2
DOT
 10
231.5000000000011
 20
41.99999999999999
 30
0.0
 41
0.8
 42
0.8
 43
0.8
 50
270.0
  0
MTEXT
  5
266E
330
2297
100
AcDbEntity
  8
ADM
 62
     0
100
AcDbMText
 10
229.000000000001
 20
76.50000000000003
 30
0.0
 40
3.0
 41
0.0
 71
     5
 72
     5
  1
\A1;69
 11
0.0000000000000001
 21
1.0
 31
0.0
 73
     1
 44
1.0
1001
ACAD
1000
MTEXTBEGIN
1070
    73
1070
     1
1070
    44
1040
1.0
1070
    74
1070
     0
1000
MTEXTEND
  0
POINT
  5
266F
330
2297
100
AcDbEntity
  8
DEFPOINTS
 62
     0
100
AcDbPoint
 10
196.000000000001
 20
111.0
 30
0.0
  0
POINT
  5
2670
330
2297
100
AcDbEntity
  8
DEFPOINTS
 62
     0
100
AcDbPoint
 10
198.500000000001
 20
42.0
 30
0.0
  0
POINT
  5
2671
330
2297
100
AcDbEntity
  8
DEFPOINTS
 62
     0
100
AcDbPoint
 10
231.5000000000011
 20
41.99999999999999
 30
0.0
  0
ENDBLK
  5
22A2
330
2297
100
AcDbEntity
  8
0
100
AcDbBlockEnd
  0
BLOCK
  5
2338
330
232E
100
AcDbEntity
  8
0
100
AcDbBlockBegin
  2
*D17
 70
     1
 10
0.0
 20
0.0
 30
0.0
  3
*D17
  1

  0
LINE
  5
441B
330
232E
100
AcDbEntity
  8
ADM
 62
     0
100
AcDbLine
 10
358.0
 20
40.49999999999946
 30
0.0
 11
358.0
 21
25.79999999999949
 31
0.0
  0
LINE
  5
441C
330
232E
100
AcDbEntity
  8
ADM
 62
     0
100
AcDbLine
 10
338.0
 20
40.99999999999957
 30
0.0
 11
337.9999999999999
 21
25.79999999999956
 31
0.0
  0
LINE
  5
441D
330
232E
100
AcDbEntity
  8
ADM
 62
     0
100
AcDbLine
 10
357.2
 20
26.99999999999949
 30
0.0
 11
338.7999999999999
 21
26.99999999999955
 31
0.0
  0
INSERT
  5
441E
330
232E
100
AcDbEntity
  8
ADM
 62
     0
100
AcDbBlockReference
  2
DOT
 10
358.0
 20
26.99999999999949
 30
0.0
 41
0.8
 42
0.8
 43
0.8
 50
359.9999999999997
  0
INSERT
  5
441F
330
232E
100
AcDbEntity
  8
ADM
 62
     0
100
AcDbBlockReference
  2
DOT
 10
337.9999999999999
 20
26.99999999999956
 30
0.0
 41
0.8
 42
0.8
 43
0.8
 50
179.9999999999998
  0
MTEXT
  5
4420
330
232E
100
AcDbEntity
  8
ADM
 62
     0
100
AcDbMText
 10
348.0
 20
29.49999999999952
 30
0.0
 40
3.0
 41
0.0
 71
     5
 72
     5
  1
\A1;20
 73
     1
 44
1.0
1001
ACAD
1000
MTEXTBEGIN
1070
    73
1070
     1
1070
    44
1040
1.0
1070
    74
1070
     0
1000
MTEXTEND
  0
POINT
  5
4421
330
232E
100
AcDbEntity
  8
DEFPOINTS
 62
     0
100
AcDbPoint
 10
358.0
 20
41.99999999999946
 30
0.0
  0
POINT
  5
4422
330
232E
100
AcDbEntity
  8
DEFPOINTS
 62
     0
100
AcDbPoint
 10
338.0
 20
42.49999999999957
 30
0.0
  0
POINT
  5
4423
330
232E
100
AcDbEntity
  8
DEFPOINTS
 62
     0
100
AcDbPoint
 10
337.9999999999999
 20
26.99999999999956
 30
0.0
  0
ENDBLK
  5
2339
330
232E
100
AcDbEntity
  8
0
100
AcDbBlockEnd
  0
BLOCK
  5
2344
330
233A
100
AcDbEntity
  8
0
100
AcDbBlockBegin
  2
*D18
 70
     1
 10
0.0
 20
0.0
 30
0.0
  3
*D18
  1

  0
LINE
  5
455A
330
233A
100
AcDbEntity
  8
ADM
 62
     0
370
    -2
100
AcDbLine
 10
358.0
 20
40.49999999999946
 30
0.0
 11
358.0
 21
25.79999999999945
 31
0.0
  0
LINE
  5
455B
330
233A
100
AcDbEntity
  8
ADM
 62
     0
370
    -2
100
AcDbLine
 10
365.0000000000001
 20
90.49999999999943
 30
0.0
 11
364.9999999999999
 21
25.79999999999942
 31
0.0
  0
LINE
  5
455C
330
233A
100
AcDbEntity
  8
ADM
 62
     0
370
    -2
100
AcDbLine
 10
358.8
 20
26.99999999999945
 30
0.0
 11
364.1999999999999
 21
26.99999999999943
 31
0.0
  0
INSERT
  5
455D
330
233A
100
AcDbEntity
  8
ADM
 62
     0
370
    -2
100
AcDbBlockReference
  2
DOT
 10
358.0
 20
26.99999999999945
 30
0.0
 41
0.8
 42
0.8
 43
0.8
 50
179.9999999999998
  0
INSERT
  5
455E
330
233A
100
AcDbEntity
  8
ADM
 62
     0
370
    -2
100
AcDbBlockReference
  2
DOT
 10
364.9999999999999
 20
26.99999999999943
 30
0.0
 41
0.8
 42
0.8
 43
0.8
 50
359.9999999999997
  0
MTEXT
  5
455F
330
233A
100
AcDbEntity
  8
ADM
 62
     0
100
AcDbMText
 10
361.4999999999999
 20
29.49999999999944
 30
0.0
 40
3.0
 41
0.0
 71
     5
 72
     5
  1
\A1;7
 73
     1
 44
1.0
1001
ACAD
1000
MTEXTBEGIN
1070
    73
1070
     1
1070
    44
1040
1.0
1070
    74
1070
     0
1000
MTEXTEND
  0
POINT
  5
4560
330
233A
100
AcDbEntity
  8
DEFPOINTS
 62
     0
100
AcDbPoint
 10
358.0
 20
41.99999999999946
 30
0.0
  0
POINT
  5
4561
330
233A
100
AcDbEntity
  8
DEFPOINTS
 62
     0
100
AcDbPoint
 10
365.0000000000001
 20
91.99999999999944
 30
0.0
  0
POINT
  5
4562
330
233A
100
AcDbEntity
  8
DEFPOINTS
 62
     0
100
AcDbPoint
 10
364.9999999999999
 20
26.99999999999943
 30
0.0
  0
ENDBLK
  5
2345
330
233A
100
AcDbEntity
  8
0
100
AcDbBlockEnd
  0
BLOCK
  5
2350
330
2346
100
AcDbEntity
  8
0
100
AcDbBlockBegin
  2
*D19
 70
     1
 10
0.0
 20
0.0
 30
0.0
  3
*D19
  1

  0
LINE
  5
4551
330
2346
100
AcDbEntity
  8
ADM
 62
     0
370
    -2
100
AcDbLine
 10
365.0000000000001
 20
90.49999999999943
 30
0.0
 11
364.9999999999998
 21
18.79999999999945
 31
0.0
  0
LINE
  5
4552
330
2346
100
AcDbEntity
  8
ADM
 62
     0
370
    -2
100
AcDbLine
 10
337.9999999999999
 20
40.99999999999956
 30
0.0
 11
337.9999999999998
 21
18.79999999999956
 31
0.0
  0
LINE
  5
4553
330
2346
100
AcDbEntity
  8
ADM
 62
     0
370
    -2
100
AcDbLine
 10
364.1999999999998
 20
19.99999999999946
 30
0.0
 11
338.7999999999998
 21
19.99999999999955
 31
0.0
  0
INSERT
  5
4554
330
2346
100
AcDbEntity
  8
ADM
 62
     0
370
    -2
100
AcDbBlockReference
  2
DOT
 10
364.9999999999998
 20
19.99999999999946
 30
0.0
 41
0.8
 42
0.8
 43
0.8
 50
359.9999999999997
  0
INSERT
  5
4555
330
2346
100
AcDbEntity
  8
ADM
 62
     0
370
    -2
100
AcDbBlockReference
  2
DOT
 10
337.9999999999998
 20
19.99999999999955
 30
0.0
 41
0.8
 42
0.8
 43
0.8
 50
179.9999999999998
  0
MTEXT
  5
4556
330
2346
100
AcDbEntity
  8
ADM
 62
     0
100
AcDbMText
 10
351.4999999999998
 20
22.49999999999951
 30
0.0
 40
3.0
 41
0.0
 71
     5
 72
     5
  1
\A1;27
 73
     1
 44
1.0
1001
ACAD
1000
MTEXTBEGIN
1070
    73
1070
     1
1070
    44
1040
1.0
1070
    74
1070
     0
1000
MTEXTEND
  0
POINT
  5
4557
330
2346
100
AcDbEntity
  8
DEFPOINTS
 62
     0
100
AcDbPoint
 10
365.0000000000001
 20
91.99999999999944
 30
0.0
  0
POINT
  5
4558
330
2346
100
AcDbEntity
  8
DEFPOINTS
 62
     0
100
AcDbPoint
 10
337.9999999999999
 20
42.49999999999956
 30
0.0
  0
POINT
  5
4559
330
2346
100
AcDbEntity
  8
DEFPOINTS
 62
     0
100
AcDbPoint
 10
337.9999999999998
 20
19.99999999999955
 30
0.0
  0
ENDBLK
  5
2351
330
2346
100
AcDbEntity
  8
0
100
AcDbBlockEnd
  0
BLOCK
  5
235E
330
2352
100
AcDbEntity
  8
0
100
AcDbBlockBegin
  2
*D20
 70
     1
 10
0.0
 20
0.0
 30
0.0
  3
*D20
  1

  0
LINE
  5
4424
330
2352
100
AcDbEntity
  8
ADM
 62
     0
100
AcDbLine
 10
340.5000000000004
 20
111.9999999999995
 30
0.0
 11
340.5000000000004
 21
127.1999999999996
 31
0.0
  0
LINE
  5
4425
330
2352
100
AcDbEntity
  8
ADM
 62
     0
100
AcDbLine
 10
343.5000000000002
 20
112.4999999999995
 30
0.0
 11
343.5000000000003
 21
127.1999999999995
 31
0.0
  0
LINE
  5
4426
330
2352
100
AcDbEntity
  8
ADM
 62
     0
100
AcDbLine
 10
339.7000000000004
 20
125.9999999999996
 30
0.0
 11
338.9000000000004
 21
125.9999999999996
 31
0.0
  0
LINE
  5
4427
330
2352
100
AcDbEntity
  8
ADM
 62
     0
100
AcDbLine
 10
344.3000000000003
 20
125.9999999999995
 30
0.0
 11
345.1000000000003
 21
125.9999999999995
 31
0.0
  0
MTEXT
  5
4428
330
2352
100
AcDbEntity
  8
ADM
 62
     0
100
AcDbMText
 10
342.0000000000004
 20
128.4999999999995
 30
0.0
 40
3.0
 41
0.0
 71
     5
 72
     5
  1
\A1;3
 73
     1
 44
1.0
1001
ACAD
1000
MTEXTBEGIN
1070
    73
1070
     1
1070
    44
1040
1.0
1070
    74
1070
     0
1000
MTEXTEND
  0
LINE
  5
4429
330
2352
100
AcDbEntity
  8
ADM
 62
     0
100
AcDbLine
 10
340.5000000000004
 20
125.9999999999996
 30
0.0
 11
343.5000000000003
 21
125.9999999999995
 31
0.0
  0
INSERT
  5
442A
330
2352
100
AcDbEntity
  8
ADM
 62
     0
100
AcDbBlockReference
  2
DOT
 10
340.5000000000004
 20
125.9999999999996
 30
0.0
 41
0.8
 42
0.8
 43
0.8
 50
359.9999999999997
  0
INSERT
  5
442B
330
2352
100
AcDbEntity
  8
ADM
 62
     0
100
AcDbBlockReference
  2
DOT
 10
343.5000000000003
 20
125.9999999999995
 30
0.0
 41
0.8
 42
0.8
 43
0.8
 50
179.9999999999998
  0
POINT
  5
442C
330
2352
100
AcDbEntity
  8
DEFPOINTS
 62
     0
100
AcDbPoint
 10
340.5000000000004
 20
110.4999999999995
 30
0.0
  0
POINT
  5
442D
330
2352
100
AcDbEntity
  8
DEFPOINTS
 62
     0
100
AcDbPoint
 10
343.5000000000002
 20
110.9999999999995
 30
0.0
  0
POINT
  5
442E
330
2352
100
AcDbEntity
  8
DEFPOINTS
 62
     0
100
AcDbPoint
 10
343.5000000000003
 20
125.9999999999995
 30
0.0
  0
ENDBLK
  5
235F
330
2352
100
AcDbEntity
  8
0
100
AcDbBlockEnd
  0
BLOCK
  5
23F0
330
23E6
100
AcDbEntity
  8
0
100
AcDbBlockBegin
  2
*D21
 70
     1
 10
0.0
 20
0.0
 30
0.0
  3
*D21
  1

  0
LINE
  5
442F
330
23E6
100
AcDbEntity
  8
ADM
 62
     0
100
AcDbLine
 10
193.500000000001
 20
112.5
 30
0.0
 11
193.500000000001
 21
134.1999999999999
 31
0.0
  0
LINE
  5
4430
330
23E6
100
AcDbEntity
  8
ADM
 62
     0
100
AcDbLine
 10
343.5000000000002
 20
112.4999999999995
 30
0.0
 11
343.5000000000002
 21
134.1999999999999
 31
0.0
  0
LINE
  5
4431
330
23E6
100
AcDbEntity
  8
ADM
 62
     0
100
AcDbLine
 10
194.300000000001
 20
133.0
 30
0.0
 11
342.7000000000002
 21
133.0
 31
0.0
  0
INSERT
  5
4432
330
23E6
100
AcDbEntity
  8
ADM
 62
     0
100
AcDbBlockReference
  2
DOT
 10
193.500000000001
 20
133.0
 30
0.0
 41
0.8
 42
0.8
 43
0.8
 50
180.0
  0
INSERT
  5
4433
330
23E6
100
AcDbEntity
  8
ADM
 62
     0
100
AcDbBlockReference
  2
DOT
 10
343.5000000000002
 20
133.0
 30
0.0
 41
0.8
 42
0.8
 43
0.8
  0
MTEXT
  5
4434
330
23E6
100
AcDbEntity
  8
ADM
 62
     0
100
AcDbMText
 10
268.5000000000006
 20
135.4999999999999
 30
0.0
 40
3.0
 41
0.0
 71
     5
 72
     5
  1
\A1;W
 73
     1
 44
1.0
1001
ACAD
1000
MTEXTBEGIN
1070
    73
1070
     1
1070
    44
1040
1.0
1070
    74
1070
     0
1000
MTEXTEND
  0
POINT
  5
4435
330
23E6
100
AcDbEntity
  8
DEFPOINTS
 62
     0
100
AcDbPoint
 10
193.500000000001
 20
111.0
 30
0.0
  0
POINT
  5
4436
330
23E6
100
AcDbEntity
  8
DEFPOINTS
 62
     0
100
AcDbPoint
 10
343.5000000000002
 20
110.9999999999995
 30
0.0
  0
POINT
  5
4437
330
23E6
100
AcDbEntity
  8
DEFPOINTS
 62
     0
100
AcDbPoint
 10
343.5000000000002
 20
133.0
 30
0.0
  0
ENDBLK
  5
23F1
330
23E6
100
AcDbEntity
  8
0
100
AcDbBlockEnd
  0
BLOCK
  5
250C
330
2502
100
AcDbEntity
  8
0
100
AcDbBlockBegin
  2
*D22
 70
     1
 10
0.0
 20
0.0
 30
0.0
  3
*D22
  1

  0
LINE
  5
274B
330
2502
100
AcDbEntity
  8
ADM
 62
     0
370
    -2
100
AcDbLine
 10
121.9999999999998
 20
69.00000000000003
 30
0.0
 11
137.2890194531441
 21
69.00000000000003
 31
0.0
  0
LINE
  5
274C
330
2502
100
AcDbEntity
  8
ADM
 62
     0
370
    -2
100
AcDbLine
 10
121.8399999999998
 20
48.99999999999997
 30
0.0
 11
137.289019453144
 21
48.99999999999997
 31
0.0
  0
LINE
  5
274D
330
2502
100
AcDbEntity
  8
ADM
 62
     0
370
    -2
100
AcDbLine
 10
136.0890194531441
 20
68.20000000000003
 30
0.0
 11
136.089019453144
 21
49.79999999999996
 31
0.0
  0
INSERT
  5
274E
330
2502
100
AcDbEntity
  8
ADM
 62
     0
370
    -2
100
AcDbBlockReference
  2
_DOT
 10
136.0890194531441
 20
69.00000000000003
 30
0.0
 41
0.8
 42
0.8
 43
0.8
 50
90.0
  0
INSERT
  5
274F
330
2502
100
AcDbEntity
  8
ADM
 62
     0
370
    -2
100
AcDbBlockReference
  2
_DOT
 10
136.089019453144
 20
48.99999999999997
 30
0.0
 41
0.8
 42
0.8
 43
0.8
 50
270.0
  0
MTEXT
  5
2750
330
2502
100
AcDbEntity
  8
ADM
 62
     0
100
AcDbMText
 10
133.589019453144
 20
59.00000000000002
 30
0.0
 40
3.0
 41
0.0
 71
     5
 72
     5
  1
\A1;20
 11
0.0000000000000001
 21
1.0
 31
0.0
 73
     1
 44
1.0
1001
ACAD
1000
MTEXTBEGIN
1070
    73
1070
     1
1070
    44
1040
1.0
1070
    74
1070
     0
1000
MTEXTEND
  0
POINT
  5
2751
330
2502
100
AcDbEntity
  8
DEFPOINTS
 62
     0
100
AcDbPoint
 10
120.4999999999998
 20
69.00000000000003
 30
0.0
  0
POINT
  5
2752
330
2502
100
AcDbEntity
  8
DEFPOINTS
 62
     0
100
AcDbPoint
 10
120.3399999999998
 20
48.99999999999997
 30
0.0
  0
POINT
  5
2753
330
2502
100
AcDbEntity
  8
DEFPOINTS
 62
     0
100
AcDbPoint
 10
136.089019453144
 20
48.99999999999997
 30
0.0
  0
ENDBLK
  5
250D
330
2502
100
AcDbEntity
  8
0
100
AcDbBlockEnd
  0
BLOCK
  5
429D
330
4293
100
AcDbEntity
  8
0
100
AcDbBlockBegin
  2
*D23
 70
     1
 10
0.0
 20
0.0
 30
0.0
  3
*D23
  1

  0
LINE
  5
4439
330
4293
100
AcDbEntity
  8
ADM
 62
     0
100
AcDbLine
 10
309.9999779433409
 20
211.0000000000001
 30
0.0
 11
329.1999999999999
 21
211.0
 31
0.0
  0
LINE
  5
443A
330
4293
100
AcDbEntity
  8
ADM
 62
     0
100
AcDbLine
 10
314.5
 20
196.9999999999999
 30
0.0
 11
329.1999999999999
 21
196.9999999999998
 31
0.0
  0
LINE
  5
443B
330
4293
100
AcDbEntity
  8
ADM
 62
     0
100
AcDbLine
 10
328.0
 20
210.2
 30
0.0
 11
328.0
 21
197.7999999999999
 31
0.0
  0
INSERT
  5
443C
330
4293
100
AcDbEntity
  8
ADM
 62
     0
100
AcDbBlockReference
  2
DOT
 10
328.0
 20
211.0
 30
0.0
 41
0.8
 42
0.8
 43
0.8
 50
90.0
  0
INSERT
  5
443D
330
4293
100
AcDbEntity
  8
ADM
 62
     0
100
AcDbBlockReference
  2
DOT
 10
328.0
 20
196.9999999999998
 30
0.0
 41
0.8
 42
0.8
 43
0.8
 50
270.0
  0
MTEXT
  5
443E
330
4293
100
AcDbEntity
  8
ADM
 62
     0
100
AcDbMText
 10
325.4999999999999
 20
204.0
 30
0.0
 40
3.0
 41
0.0
 71
     5
 72
     5
  1
\A1;14
 11
0.0000000000000001
 21
1.0
 31
0.0
 73
     1
 44
1.0
1001
ACAD
1000
MTEXTBEGIN
1070
    73
1070
     1
1070
    44
1040
1.0
1070
    74
1070
     0
1000
MTEXTEND
  0
POINT
  5
443F
330
4293
100
AcDbEntity
  8
DEFPOINTS
 62
     0
100
AcDbPoint
 10
308.4999779433409
 20
211.0000000000001
 30
0.0
  0
POINT
  5
4440
330
4293
100
AcDbEntity
  8
DEFPOINTS
 62
     0
100
AcDbPoint
 10
313.0
 20
196.9999999999999
 30
0.0
  0
POINT
  5
4441
330
4293
100
AcDbEntity
  8
DEFPOINTS
 62
     0
100
AcDbPoint
 10
328.0
 20
196.9999999999998
 30
0.0
  0
ENDBLK
  5
429E
330
4293
100
AcDbEntity
  8
0
100
AcDbBlockEnd
  0
BLOCK
  5
42AB
330
42A1
100
AcDbEntity
  8
0
100
AcDbBlockBegin
  2
*D24
 70
     1
 10
0.0
 20
0.0
 30
0.0
  3
*D24
  1

  0
LINE
  5
4442
330
42A1
100
AcDbEntity
  8
ADM
 62
     0
100
AcDbLine
 10
314.5
 20
214.9999999999999
 30
0.0
 11
336.2
 21
214.9999999999999
 31
0.0
  0
LINE
  5
4443
330
42A1
100
AcDbEntity
  8
ADM
 62
     0
100
AcDbLine
 10
314.5
 20
196.9999999999999
 30
0.0
 11
336.2
 21
196.9999999999998
 31
0.0
  0
LINE
  5
4444
330
42A1
100
AcDbEntity
  8
ADM
 62
     0
100
AcDbLine
 10
335.0
 20
214.1999999999999
 30
0.0
 11
335.0
 21
197.7999999999999
 31
0.0
  0
INSERT
  5
4445
330
42A1
100
AcDbEntity
  8
ADM
 62
     0
100
AcDbBlockReference
  2
DOT
 10
335.0
 20
214.9999999999999
 30
0.0
 41
0.8
 42
0.8
 43
0.8
 50
90.0
  0
INSERT
  5
4446
330
42A1
100
AcDbEntity
  8
ADM
 62
     0
100
AcDbBlockReference
  2
DOT
 10
335.0
 20
196.9999999999998
 30
0.0
 41
0.8
 42
0.8
 43
0.8
 50
270.0
  0
MTEXT
  5
4447
330
42A1
100
AcDbEntity
  8
ADM
 62
     0
100
AcDbMText
 10
332.4999999999999
 20
205.9999999999999
 30
0.0
 40
3.0
 41
0.0
 71
     5
 72
     5
  1
\A1;18
 11
0.0000000000000001
 21
1.0
 31
0.0
 73
     1
 44
1.0
1001
ACAD
1000
MTEXTBEGIN
1070
    73
1070
     1
1070
    44
1040
1.0
1070
    74
1070
     0
1000
MTEXTEND
  0
POINT
  5
4448
330
42A1
100
AcDbEntity
  8
DEFPOINTS
 62
     0
100
AcDbPoint
 10
313.0
 20
214.9999999999999
 30
0.0
  0
POINT
  5
4449
330
42A1
100
AcDbEntity
  8
DEFPOINTS
 62
     0
100
AcDbPoint
 10
313.0
 20
196.9999999999999
 30
0.0
  0
POINT
  5
444A
330
42A1
100
AcDbEntity
  8
DEFPOINTS
 62
     0
100
AcDbPoint
 10
335.0
 20
196.9999999999998
 30
0.0
  0
ENDBLK
  5
42AC
330
42A1
100
AcDbEntity
  8
0
100
AcDbBlockEnd
  0
BLOCK
  5
42B8
330
42AE
100
AcDbEntity
  8
0
100
AcDbBlockBegin
  2
*D25
 70
     1
 10
0.0
 20
0.0
 30
0.0
  3
*D25
  1

  0
LINE
  5
444B
330
42AE
100
AcDbEntity
  8
ADM
 62
     0
100
AcDbLine
 10
230.7999999999999
 20
199.9999999999998
 30
0.0
 11
230.7999999999999
 21
241.1999999999999
 31
0.0
  0
LINE
  5
444C
330
42AE
100
AcDbEntity
  8
ADM
 62
     0
100
AcDbLine
 10
313.0
 20
216.4999999999999
 30
0.0
 11
313.0
 21
241.1999999999999
 31
0.0
  0
LINE
  5
444D
330
42AE
100
AcDbEntity
  8
ADM
 62
     0
100
AcDbLine
 10
231.5999999999999
 20
240.0
 30
0.0
 11
312.1999999999999
 21
240.0
 31
0.0
  0
INSERT
  5
444E
330
42AE
100
AcDbEntity
  8
ADM
 62
     0
100
AcDbBlockReference
  2
DOT
 10
230.7999999999999
 20
240.0
 30
0.0
 41
0.8
 42
0.8
 43
0.8
 50
180.0
  0
INSERT
  5
444F
330
42AE
100
AcDbEntity
  8
ADM
 62
     0
100
AcDbBlockReference
  2
DOT
 10
313.0
 20
240.0
 30
0.0
 41
0.8
 42
0.8
 43
0.8
  0
MTEXT
  5
4450
330
42AE
100
AcDbEntity
  8
ADM
 62
     0
100
AcDbMText
 10
271.8999999999999
 20
242.5
 30
0.0
 40
3.0
 41
0.0
 71
     5
 72
     5
  1
\A1;82.2
 73
     1
 44
1.0
1001
ACAD
1000
MTEXTBEGIN
1070
    73
1070
     1
1070
    44
1040
1.0
1070
    74
1070
     0
1000
MTEXTEND
  0
POINT
  5
4451
330
42AE
100
AcDbEntity
  8
DEFPOINTS
 62
     0
100
AcDbPoint
 10
230.7999999999999
 20
198.4999999999999
 30
0.0
  0
POINT
  5
4452
330
42AE
100
AcDbEntity
  8
DEFPOINTS
 62
     0
100
AcDbPoint
 10
313.0
 20
214.9999999999999
 30
0.0
  0
POINT
  5
4453
330
42AE
100
AcDbEntity
  8
DEFPOINTS
 62
     0
100
AcDbPoint
 10
313.0
 20
240.0
 30
0.0
  0
ENDBLK
  5
42B9
330
42AE
100
AcDbEntity
  8
0
100
AcDbBlockEnd
  0
BLOCK
  5
4533
330
4529
100
AcDbEntity
  8
0
100
AcDbBlockBegin
  2
*D26
 70
     1
 10
0.0
 20
0.0
 30
0.0
  3
*D26
  1

  0
LINE
  5
4593
330
4529
100
AcDbEntity
  8
ADM
 62
     0
100
AcDbLine
 10
122.4999999999998
 20
232.3468865831256
 30
0.0
 11
137.1999999999998
 21
232.3468865831256
 31
0.0
  0
LINE
  5
4594
330
4529
100
AcDbEntity
  8
ADM
 62
     0
100
AcDbLine
 10
121.9999999999998
 20
212.3468865831255
 30
0.0
 11
137.1999999999998
 21
212.3468865831255
 31
0.0
  0
LINE
  5
4595
330
4529
100
AcDbEntity
  8
ADM
 62
     0
100
AcDbLine
 10
135.9999999999998
 20
231.5468865831256
 30
0.0
 11
135.9999999999998
 21
213.1468865831256
 31
0.0
  0
INSERT
  5
4596
330
4529
100
AcDbEntity
  8
ADM
 62
     0
100
AcDbBlockReference
  2
DOT
 10
135.9999999999998
 20
232.3468865831256
 30
0.0
 41
0.8
 42
0.8
 43
0.8
 50
90.0
  0
INSERT
  5
4597
330
4529
100
AcDbEntity
  8
ADM
 62
     0
100
AcDbBlockReference
  2
DOT
 10
135.9999999999998
 20
212.3468865831255
 30
0.0
 41
0.8
 42
0.8
 43
0.8
 50
270.0
  0
MTEXT
  5
4598
330
4529
100
AcDbEntity
  8
ADM
 62
     0
100
AcDbMText
 10
133.4999999999998
 20
222.3468865831256
 30
0.0
 40
3.0
 41
0.0
 71
     5
 72
     5
  1
\A1;20
 11
0.0000000000000001
 21
1.0
 31
0.0
 73
     1
 44
1.0
1001
ACAD
1000
MTEXTBEGIN
1070
    73
1070
     1
1070
    44
1040
1.0
1070
    74
1070
     0
1000
MTEXTEND
  0
POINT
  5
4599
330
4529
100
AcDbEntity
  8
DEFPOINTS
 62
     0
100
AcDbPoint
 10
120.9999999999998
 20
232.3468865831256
 30
0.0
  0
POINT
  5
459A
330
4529
100
AcDbEntity
  8
DEFPOINTS
 62
     0
100
AcDbPoint
 10
120.4999999999998
 20
212.3468865831255
 30
0.0
  0
POINT
  5
459B
330
4529
100
AcDbEntity
  8
DEFPOINTS
 62
     0
100
AcDbPoint
 10
135.9999999999998
 20
212.3468865831255
 30
0.0
  0
ENDBLK
  5
4534
330
4529
100
AcDbEntity
  8
0
100
AcDbBlockEnd
  0
ENDSEC
  0
SECTION
  2
ENTITIES
  0
TEXT
  5
C9
330
2
100
AcDbEntity
  8
ADM
100
AcDbText
 10
260.7761904761904
 20
181.4999999999999
 30
0.0
 40
4.0
  1
掃出し下額縁
 41
0.8
 72
     4
 11
271.8999999999999
 21
183.4999999999999
 31
0.0
100
AcDbText
  0
LINE
  5
E9
330
2
100
AcDbEntity
  8
0
100
AcDbLine
 10
54.4999999999997
 20
66.49999999999995
 30
0.0
 11
54.4999999999997
 21
136.4613815682032
 31
0.0
  0
LINE
  5
EB
330
2
100
AcDbEntity
  8
0
100
AcDbLine
 10
118.4999999999998
 20
69.00000000000002
 30
0.0
 11
118.4999999999998
 21
136.4613815682032
 31
0.0
  0
DIMENSION
  5
1BA
330
2
100
AcDbEntity
  8
ADM
100
AcDbDimension
  2
*D5
 10
142.9999999999998
 20
69.00000000000003
 30
0.0
 11
140.4999999999998
 21
55.50000000000002
 31
0.0
 70
    32
 71
     5
 42
-1.0
  3
1
100
AcDbAlignedDimension
 13
70.99999999999987
 23
42.0
 33
0.0
 14
120.4999999999998
 24
69.00000000000003
 34
0.0
 50
90.0
100
AcDbRotatedDimension
1001
ACAD
1000
DSTYLE
1002
{
1070
    40
1040
1.0
1002
}
  0
DIMENSION
  5
2FA
330
2
100
AcDbEntity
  8
ADM
100
AcDbDimension
  2
*D22
 10
136.089019453144
 20
48.99999999999997
 30
0.0
 11
133.589019453144
 21
59.00000000000002
 31
0.0
 70
    32
 71
     5
 42
-1.0
  3
1
100
AcDbAlignedDimension
 13
120.4999999999998
 23
69.00000000000003
 33
0.0
 14
120.3399999999998
 24
48.99999999999997
 34
0.0
 50
90.0
100
AcDbRotatedDimension
1001
ACAD
1000
DSTYLE
1002
{
1070
    40
1040
1.0
1002
}
  0
LINE
  5
39A
330
2
100
AcDbEntity
  8
0
100
AcDbLine
 10
54.4999999999997
 20
138.4613815682032
 30
0.0
 11
54.4999999999997
 21
214.8468865831256
 31
0.0
  0
LINE
  5
3EE
330
2
100
AcDbEntity
  8
0
100
AcDbLine
 10
118.4999999999998
 20
138.4613815682032
 30
0.0
 11
118.4999999999998
 21
212.3468865831255
 31
0.0
  0
DIMENSION
  5
492
330
2
100
AcDbEntity
  8
ADM
100
AcDbDimension
  2
*D16
 10
231.5000000000011
 20
41.99999999999999
 30
0.0
 11
229.000000000001
 21
76.50000000000003
 31
0.0
 70
    32
 71
     5
 42
-1.0
  3
1
100
AcDbAlignedDimension
 13
196.000000000001
 23
111.0
 33
0.0
 14
198.500000000001
 24
42.0
 34
0.0
 50
90.0
100
AcDbRotatedDimension
1001
ACAD
1000
DSTYLE
1002
{
1070
    40
1040
1.0
1070
     6
1000
DOT
1070
     7
1000
DOT
1002
}
  0
LINE
  5
4A0
330
2
100
AcDbEntity
  8
0
100
AcDbLine
 10
209.500000000001
 20
46.30001387847423
 30
0.0
 11
267.5000000000005
 21
46.30001387847414
 31
0.0
  0
LINE
  5
4A6
330
2
100
AcDbEntity
  8
0
100
AcDbLine
 10
267.5000000000006
 20
106.8000138784743
 30
0.0
 11
202.2000000000006
 21
106.8000138784747
 31
0.0
  0
DIMENSION
  5
4B6
330
2
100
AcDbEntity
  8
ADM
100
AcDbDimension
  2
*D15
 10
224.5000000000011
 20
44.49999999999994
 30
0.0
 11
222.0000000000011
 21
76.5
 31
0.0
 70
    32
 71
     5
 42
-1.0
  3
1
100
AcDbAlignedDimension
 13
202.2000000000009
 23
108.4999999999999
 33
0.0
 14
209.500000000001
 24
44.49999999999994
 34
0.0
 50
90.0
100
AcDbRotatedDimension
1001
ACAD
1000
DSTYLE
1002
{
1070
    40
1040
1.0
1002
}
  0
TEXT
  5
5C1
330
2
100
AcDbEntity
  8
ADM
100
AcDbText
 10
372.0303714370503
 20
1.154120148162746
 30
0.0
 40
2.5
  1
ME03
 41
0.8
 72
     1
 11
376.0303714370503
 21
1.154120148162746
 31
0.0
100
AcDbText
  0
LINE
  5
1DE0
330
2
100
AcDbEntity
  8
0
100
AcDbLine
 10
395.0
 20
0.0
 30
0.0
 11
395.0
 21
275.0
 31
0.0
  0
LINE
  5
1DE1
330
2
100
AcDbEntity
  8
0
100
AcDbLine
 10
395.0
 20
275.0
 30
0.0
 11
0.0
 21
275.0
 31
0.0
  0
LINE
  5
1DE2
330
2
100
AcDbEntity
  8
0
100
AcDbLine
 10
0.0
 20
275.0
 30
0.0
 11
0.0
 21
0.0
 31
0.0
  0
LINE
  5
1DE3
330
2
100
AcDbEntity
  8
0
100
AcDbLine
 10
0.0
 20
0.0
 30
0.0
 11
395.0
 21
0.0
 31
0.0
  0
LINE
  5
1DE9
330
2
100
AcDbEntity
  8
ADM
100
AcDbLine
 10
286.8999999999999
 20
186.9999999999999
 30
0.0
 11
256.8999999999999
 21
186.9999999999999
 31
0.0
  0
LINE
  5
1DEA
330
2
100
AcDbEntity
  8
ADM
100
AcDbLine
 10
256.8999999999999
 20
186.9999999999999
 30
0.0
 11
256.8999999999999
 21
179.9999999999999
 31
0.0
  0
LINE
  5
1DEB
330
2
100
AcDbEntity
  8
ADM
100
AcDbLine
 10
256.8999999999999
 20
179.9999999999999
 30
0.0
 11
286.9
 21
179.9999999999999
 31
0.0
  0
LINE
  5
1DEE
330
2
100
AcDbEntity
  8
ADM
100
AcDbLine
 10
286.8999999999999
 20
186.9999999999999
 30
0.0
 11
286.9
 21
179.9999999999999
 31
0.0
  0
LINE
  5
1E87
330
2
100
AcDbEntity
  8
0
100
AcDbLine
 10
52.49999999999987
 20
214.8468865831256
 30
0.0
 11
56.4999999999997
 21
214.8468865831256
 31
0.0
  0
ARC
  5
1E89
330
2
100
AcDbEntity
  8
0
100
AcDbCircle
 10
52.49999999999987
 20
215.3468865831256
 30
0.0
 40
0.5
100
AcDbArc
 50
180.0
 51
270.0
  0
LINE
  5
1E8B
330
2
100
AcDbEntity
  8
0
100
AcDbLine
 10
51.99999999999987
 20
217.8468865831256
 30
0.0
 11
69.99999999999987
 21
217.8468865831264
 31
0.0
  0
LINE
  5
1E8C
330
2
100
AcDbEntity
  8
0
100
AcDbLine
 10
51.99999999999987
 20
217.8468865831256
 30
0.0
 11
51.99999999999987
 21
215.3468865831256
 31
0.0
  0
LINE
  5
1E90
330
2
100
AcDbEntity
  8
0
100
AcDbLine
 10
69.99999999999987
 20
217.8468865831264
 30
0.0
 11
69.99999999999987
 21
239.3468865831256
 31
0.0
  0
LINE
  5
1E91
330
2
100
AcDbEntity
  8
0
100
AcDbLine
 10
71.99999999999987
 20
232.3468865831256
 30
0.0
 11
71.99999999999987
 21
238.3468865831256
 31
0.0
  0
ARC
  5
1E92
330
2
100
AcDbEntity
  8
0
100
AcDbCircle
 10
70.99999999999987
 20
238.3468865831256
 30
0.0
 40
1.0
100
AcDbArc
 50
0.0
 51
90.0
  0
LINE
  5
1E93
330
2
100
AcDbEntity
  8
0
100
AcDbLine
 10
70.99999999999987
 20
239.3468865831256
 30
0.0
 11
69.99999999999987
 21
239.3468865831256
 31
0.0
  0
LINE
  5
1E94
330
2
100
AcDbEntity
  8
0
100
AcDbLine
 10
71.99999999999987
 20
232.3468865831256
 30
0.0
 11
120.9999999999998
 21
232.3468865831256
 31
0.0
  0
LINE
  5
1ED5
330
2
100
AcDbEntity
  8
0
100
AcDbLine
 10
116.7000069392286
 20
212.3468865831256
 30
0.0
 11
120.4999999999998
 21
212.3468865831255
 31
0.0
  0
LINE
  5
1ED8
330
2
100
AcDbEntity
  8
0
100
AcDbLine
 10
120.9999999999998
 20
212.8468865831256
 30
0.0
 11
120.9999999999998
 21
232.3468865831256
 31
0.0
  0
ARC
  5
1EDA
330
2
100
AcDbEntity
  8
0
100
AcDbCircle
 10
120.4999999999998
 20
212.8468865831256
 30
0.0
 40
0.5
100
AcDbArc
 50
270.0
 51
0.0
  0
LINE
  5
1EEC
330
2
100
AcDbEntity
  8
0
100
AcDbLine
 10
116.7000069392286
 20
214.8468865831256
 30
0.0
 11
116.7000069392286
 21
187.846886583126
 31
0.0
  0
LINE
  5
1EED
330
2
100
AcDbEntity
  8
0
100
AcDbLine
 10
116.7000069392286
 20
187.846886583126
 30
0.0
 11
115.2000069392294
 21
187.846886583126
 31
0.0
  0
ARC
  5
1EEE
330
2
100
AcDbEntity
  8
0
100
AcDbCircle
 10
115.2000069392294
 20
188.846886583126
 30
0.0
 40
1.000000000000014
100
AcDbArc
 50
180.0
 51
270.0000000000032
  0
LINE
  5
1EEF
330
2
100
AcDbEntity
  8
0
100
AcDbLine
 10
114.2000069392294
 20
188.846886583126
 30
0.0
 11
114.2000069392293
 21
212.3468865831255
 31
0.0
  0
LINE
  5
1F09
330
2
100
AcDbEntity
  8
0
100
AcDbLine
 10
114.2000069392293
 20
212.3468865831255
 30
0.0
 11
86.14999244128453
 21
212.3468865831255
 31
0.0
  0
LINE
  5
1F0D
330
2
100
AcDbEntity
  8
0
100
AcDbLine
 10
86.14999244128453
 20
212.3468865831255
 30
0.0
 11
86.14999244128453
 21
192.2468865831256
 31
0.0
  0
ARC
  5
1F0E
330
2
100
AcDbEntity
  8
0
100
AcDbCircle
 10
85.24999244128458
 20
192.2468865831256
 30
0.0
 40
0.8999999999999488
100
AcDbArc
 50
180.0
 51
0.0
  0
LINE
  5
1F0F
330
2
100
AcDbEntity
  8
0
100
AcDbLine
 10
84.34999244128464
 20
192.2468865831256
 30
0.0
 11
84.34999244128469
 21
212.3468865831255
 31
0.0
  0
LINE
  5
1F11
330
2
100
AcDbEntity
  8
0
100
AcDbLine
 10
84.34999244128469
 20
212.3468865831255
 30
0.0
 11
58.29999999999971
 21
212.3468865831255
 31
0.0
  0
LINE
  5
1F15
330
2
100
AcDbEntity
  8
0
100
AcDbLine
 10
58.29999999999971
 20
212.3468865831255
 30
0.0
 11
58.29999999999971
 21
209.5468865831256
 31
0.0
  0
ARC
  5
1F16
330
2
100
AcDbEntity
  8
0
100
AcDbCircle
 10
57.79999999999971
 20
209.5468865831256
 30
0.0
 40
0.5
100
AcDbArc
 50
270.0
 51
359.9999999999967
  0
LINE
  5
1F17
330
2
100
AcDbEntity
  8
0
100
AcDbLine
 10
57.79999999999971
 20
209.0468865831256
 30
0.0
 11
57.30000000000057
 21
209.0468865831256
 31
0.0
  0
ARC
  5
1F18
330
2
100
AcDbEntity
  8
0
100
AcDbCircle
 10
57.30000000000057
 20
208.0468865831256
 30
0.0
 40
1.0
100
AcDbArc
 50
90.0
 51
180.0
  0
LINE
  5
1F19
330
2
100
AcDbEntity
  8
0
100
AcDbLine
 10
56.30000000000056
 20
208.0468865831256
 30
0.0
 11
56.30000000000056
 21
188.846886583126
 31
0.0
  0
ARC
  5
1F1A
330
2
100
AcDbEntity
  8
0
100
AcDbCircle
 10
55.30000000000057
 20
188.846886583126
 30
0.0
 40
1.0
100
AcDbArc
 50
269.9999999999967
 51
0.0
  0
LINE
  5
1F1B
330
2
100
AcDbEntity
  8
0
100
AcDbLine
 10
55.3000000000005
 20
187.846886583126
 30
0.0
 11
54.4999999999997
 21
187.846886583126
 31
0.0
  0
LINE
  5
1F1C
330
2
100
AcDbEntity
  8
0
100
AcDbLine
 10
54.4999999999997
 20
187.846886583126
 30
0.0
 11
54.4999999999997
 21
210.5468865831256
 31
0.0
  0
ARC
  5
1F1D
330
2
100
AcDbEntity
  8
0
100
AcDbCircle
 10
54.79999999999972
 20
210.5468865831256
 30
0.0
 40
0.3000000000000114
100
AcDbArc
 50
90.0
 51
180.0
  0
LINE
  5
1F1E
330
2
100
AcDbEntity
  8
0
100
AcDbLine
 10
54.79999999999972
 20
210.8468865831256
 30
0.0
 11
56.4999999999997
 21
210.8468865831256
 31
0.0
  0
LINE
  5
1F1F
330
2
100
AcDbEntity
  8
0
100
AcDbLine
 10
56.4999999999997
 20
210.8468865831256
 30
0.0
 11
56.4999999999997
 21
214.8468865831256
 31
0.0
  0
LINE
  5
1F7C
330
2
100
AcDbEntity
  8
0
100
AcDbLine
 10
52.49999999999987
 20
66.49999999999997
 30
0.0
 11
56.19997794334065
 21
66.49999999999997
 31
0.0
  0
ARC
  5
1F7E
330
2
100
AcDbEntity
  8
0
100
AcDbCircle
 10
52.49999999999987
 20
65.99999999999997
 30
0.0
 40
0.5
100
AcDbArc
 50
90.0
 51
180.0
  0
LINE
  5
1F80
330
2
100
AcDbEntity
  8
0
100
AcDbLine
 10
51.99999999999987
 20
63.5
 30
0.0
 11
69.99999999999987
 21
63.49999999999917
 31
0.0
  0
LINE
  5
1F81
330
2
100
AcDbEntity
  8
0
100
AcDbLine
 10
51.99999999999987
 20
63.5
 30
0.0
 11
51.99999999999987
 21
65.99999999999997
 31
0.0
  0
LINE
  5
1F85
330
2
100
AcDbEntity
  8
0
100
AcDbLine
 10
69.99999999999987
 20
63.49999999999917
 30
0.0
 11
69.99999999999987
 21
42.0
 31
0.0
  0
LINE
  5
1F86
330
2
100
AcDbEntity
  8
0
100
AcDbLine
 10
71.99999999999987
 20
48.99999999999996
 30
0.0
 11
71.99999999999987
 21
43.0
 31
0.0
  0
ARC
  5
1F87
330
2
100
AcDbEntity
  8
0
100
AcDbCircle
 10
70.99999999999987
 20
43.0
 30
0.0
 40
1.0
100
AcDbArc
 50
270.0
 51
0.0
  0
LINE
  5
1F88
330
2
100
AcDbEntity
  8
0
100
AcDbLine
 10
70.99999999999987
 20
42.0
 30
0.0
 11
69.99999999999987
 21
42.0
 31
0.0
  0
LINE
  5
1F89
330
2
100
AcDbEntity
  8
0
100
AcDbLine
 10
71.99999999999987
 20
48.99999999999996
 30
0.0
 11
120.9999999999998
 21
48.99999999999997
 31
0.0
  0
LINE
  5
1FCA
330
2
100
AcDbEntity
  8
0
100
AcDbLine
 10
116.6999779433165
 20
69.00000000000002
 30
0.0
 11
120.4999999999998
 21
69.00000000000003
 31
0.0
  0
LINE
  5
1FCD
330
2
100
AcDbEntity
  8
0
100
AcDbLine
 10
120.9999999999998
 20
68.50000000000003
 30
0.0
 11
120.9999999999998
 21
48.99999999999997
 31
0.0
  0
ARC
  5
1FCF
330
2
100
AcDbEntity
  8
0
100
AcDbCircle
 10
120.4999999999998
 20
68.50000000000003
 30
0.0
 40
0.5
100
AcDbArc
 50
0.0
 51
90.0
  0
LINE
  5
1FEF
330
2
100
AcDbEntity
  8
0
100
AcDbLine
 10
56.19997794334065
 20
66.49999999999997
 30
0.0
 11
56.1999779433405
 21
68.49999999999994
 31
0.0
  0
ARC
  5
1FF0
330
2
100
AcDbEntity
  8
0
100
AcDbCircle
 10
56.6999779433405
 20
68.49999999999994
 30
0.0
 40
0.5
100
AcDbArc
 50
90.0
 51
180.0
  0
LINE
  5
1FF1
330
2
100
AcDbEntity
  8
0
100
AcDbLine
 10
56.6999779433405
 20
68.99999999999995
 30
0.0
 11
63.79997794334073
 21
68.99999999999995
 31
0.0
  0
LINE
  5
1FF2
330
2
100
AcDbEntity
  8
0
100
AcDbLine
 10
63.79997794334073
 20
68.99999999999995
 30
0.0
 11
65.29997794334064
 21
70.49999999999986
 31
0.0
  0
LINE
  5
2008
330
2
100
AcDbEntity
  8
0
100
AcDbLine
 10
99.29999182181518
 20
70.49999999999994
 30
0.0
 11
100.7999918218151
 21
68.99999999999971
 31
0.0
  0
LINE
  5
2009
330
2
100
AcDbEntity
  8
0
100
AcDbLine
 10
100.7999918218151
 20
68.99999999999971
 30
0.0
 11
113.8999779433407
 21
68.99999999999993
 31
0.0
  0
ARC
  5
200A
330
2
100
AcDbEntity
  8
0
100
AcDbCircle
 10
113.8999779433407
 20
69.99999999999992
 30
0.0
 40
1.0
100
AcDbArc
 50
270.0
 51
0.0
  0
LINE
  5
200B
330
2
100
AcDbEntity
  8
0
100
AcDbLine
 10
114.8999779433407
 20
69.99999999999992
 30
0.0
 11
114.8999779433407
 21
79.70000000000009
 31
0.0
  0
ARC
  5
200C
330
2
100
AcDbEntity
  8
0
100
AcDbCircle
 10
115.7999779433408
 20
79.59375000000008
 30
0.0
 40
0.9062500000000907
100
AcDbArc
 50
6.732921326859107
 51
173.2670786731409
  0
LINE
  5
200D
330
2
100
AcDbEntity
  8
0
100
AcDbLine
 10
116.6999779433409
 20
79.70000000000009
 30
0.0
 11
116.6999779433109
 21
66.49999999999988
 31
0.0
  0
LINE
  5
2021
330
2
100
AcDbEntity
  8
0
100
AcDbLine
 10
95.29999182181517
 20
70.4999999999999
 30
0.0
 11
93.79999182181517
 21
68.99999999999988
 31
0.0
  0
LINE
  5
2022
330
2
100
AcDbEntity
  8
0
100
AcDbLine
 10
93.79999182181517
 20
68.99999999999988
 30
0.0
 11
70.79997794334087
 21
68.99999999999988
 31
0.0
  0
LINE
  5
2023
330
2
100
AcDbEntity
  8
0
100
AcDbLine
 10
70.79997794334087
 20
68.99999999999988
 30
0.0
 11
69.29997794334084
 21
70.49999999999989
 31
0.0
  0
LINE
  5
2027
330
2
100
AcDbEntity
  8
0
100
AcDbLine
 10
69.29997794334084
 20
70.49999999999989
 30
0.0
 11
69.29997794334086
 21
79.59761769634027
 31
0.0
  0
ARC
  5
2028
330
2
100
AcDbEntity
  8
0
100
AcDbCircle
 10
68.99997794334085
 20
79.59761769634027
 30
0.0
 40
0.3000000000000043
100
AcDbArc
 50
359.9999999999973
 51
50.97719743476447
  0
ARC
  5
2029
330
2
100
AcDbEntity
  8
0
100
AcDbCircle
 10
67.29997794334086
 20
77.49999999999997
 30
0.0
 40
2.999999999999996
100
AcDbArc
 50
50.97719743476701
 51
129.0228025652322
  0
ARC
  5
202A
330
2
100
AcDbEntity
  8
0
100
AcDbCircle
 10
65.59997794334089
 20
79.59761769634029
 30
0.0
 40
0.3000000000000023
100
AcDbArc
 50
129.0228025652327
 51
179.9999999999972
  0
LINE
  5
202B
330
2
100
AcDbEntity
  8
0
100
AcDbLine
 10
65.29997794334089
 20
79.59761769634031
 30
0.0
 11
65.29997794334064
 21
70.49999999999986
 31
0.0
  0
LINE
  5
2047
330
2
100
AcDbEntity
  8
0
100
AcDbLine
 10
99.29999182181518
 20
70.49999999999994
 30
0.0
 11
99.29999182181518
 21
79.59761769634029
 31
0.0
  0
ARC
  5
2048
330
2
100
AcDbEntity
  8
0
100
AcDbCircle
 10
98.99999182181513
 20
79.59761769634025
 30
0.0
 40
0.3000000000000327
100
AcDbArc
 50
0.0000000000081422
 51
50.97719743477236
  0
ARC
  5
2049
330
2
100
AcDbEntity
  8
0
100
AcDbCircle
 10
97.29999182181515
 20
77.49999999999997
 30
0.0
 40
2.999999999999998
100
AcDbArc
 50
50.97719743476782
 51
129.022802565233
  0
ARC
  5
204A
330
2
100
AcDbEntity
  8
0
100
AcDbCircle
 10
95.59999182181517
 20
79.59761769634027
 30
0.0
 40
0.299999999999998
100
AcDbArc
 50
129.022802565236
 51
180.0000000000027
  0
LINE
  5
204B
330
2
100
AcDbEntity
  8
0
100
AcDbLine
 10
95.29999182181517
 20
79.59761769634027
 30
0.0
 11
95.29999182181517
 21
70.4999999999999
 31
0.0
  0
DIMENSION
  5
2092
330
2
100
AcDbEntity
  8
ADM
100
AcDbDimension
  2
*D2
 10
69.99999999999987
 20
27.0
 30
0.0
 11
60.99999999999987
 21
29.5
 31
0.0
 70
    32
 71
     5
 42
-1.0
  3
1
100
AcDbAlignedDimension
 13
51.99999999999987
 23
63.5
 33
0.0
 14
69.99999999999987
 24
42.0
 34
0.0
100
AcDbRotatedDimension
1001
ACAD
1000
DSTYLE
1002
{
1070
    40
1040
1.0
1070
     6
1000
DOT
1070
     7
1000
DOT
1002
}
  0
DIMENSION
  5
20AC
330
2
100
AcDbEntity
  8
ADM
100
AcDbDimension
  2
*D3
 10
120.9999999999998
 20
27.0
 30
0.0
 11
95.49999999999988
 21
29.5
 31
0.0
 70
    32
 71
     5
 42
-1.0
  3
1
100
AcDbAlignedDimension
 13
69.99999999999987
 23
42.0
 33
0.0
 14
120.9999999999998
 24
48.99999999999997
 34
0.0
100
AcDbRotatedDimension
1001
ACAD
1000
DSTYLE
1002
{
1070
    40
1040
1.0
1070
     6
1000
DOT
1070
     7
1000
DOT
1002
}
  0
DIMENSION
  5
20BA
330
2
100
AcDbEntity
  8
ADM
100
AcDbDimension
  2
*D4
 10
120.9999999999998
 20
20.0
 30
0.0
 11
86.49999999999987
 21
22.5
 31
0.0
 70
    32
 71
     5
 42
-1.0
  3
1
100
AcDbAlignedDimension
 13
51.99999999999987
 23
63.5
 33
0.0
 14
120.9999999999998
 24
48.99999999999997
 34
0.0
100
AcDbRotatedDimension
1001
ACAD
1000
DSTYLE
1002
{
1070
    40
1040
1.0
1070
     6
1000
DOT
1070
     7
1000
DOT
1002
}
  0
DIMENSION
  5
20D5
330
2
100
AcDbEntity
  8
ADM
100
AcDbDimension
  2
*D6
 10
120.9999999999998
 20
254.3468865831255
 30
0.0
 11
95.49999999999988
 21
256.8468865831255
 31
0.0
 70
    32
 71
     5
 42
-1.0
  3
1
100
AcDbAlignedDimension
 13
69.99999999999987
 23
239.3468865831256
 33
0.0
 14
120.9999999999998
 24
232.3468865831256
 34
0.0
100
AcDbRotatedDimension
1001
ACAD
1000
DSTYLE
1002
{
1070
    40
1040
1.0
1070
     6
1000
DOT
1070
     7
1000
DOT
1002
}
  0
DIMENSION
  5
20E2
330
2
100
AcDbEntity
  8
ADM
100
AcDbDimension
  2
*D7
 10
142.9999999999998
 20
212.3468865831255
 30
0.0
 11
140.4999999999998
 21
225.8468865831256
 31
0.0
 70
    32
 71
     5
 42
-1.0
  3
1
100
AcDbAlignedDimension
 13
70.99999999999987
 23
239.3468865831256
 33
0.0
 14
120.4999999999998
 24
212.3468865831255
 34
0.0
 50
90.0
100
AcDbRotatedDimension
1001
ACAD
1000
DSTYLE
1002
{
1070
    40
1040
1.0
1070
     6
1000
DOT
1070
     7
1000
DOT
1002
}
  0
DIMENSION
  5
20EF
330
2
100
AcDbEntity
  8
ADM
100
AcDbDimension
  2
*D8
 10
36.99999999999988
 20
217.8468865831256
 30
0.0
 11
34.49999999999987
 21
216.3468865831256
 31
0.0
 70
   160
 71
     5
 42
-1.0
  3
1
100
AcDbAlignedDimension
 13
52.49999999999987
 23
214.8468865831256
 33
0.0
 14
51.99999999999987
 24
217.8468865831256
 34
0.0
 50
90.0
100
AcDbRotatedDimension
1001
ACAD
1000
DSTYLE
1002
{
1070
    40
1040
1.0
1070
     6
1000
DOT
1070
     7
1000
DOT
1002
}
  0
DIMENSION
  5
20FF
330
2
100
AcDbEntity
  8
ADM
100
AcDbDimension
  2
*D9
 10
36.99999999999993
 20
66.49999999999997
 30
0.0
 11
34.49999999999987
 21
64.99999999999997
 31
0.0
 70
   160
 71
     5
 42
-1.0
  3
1
100
AcDbAlignedDimension
 13
51.99999999999987
 23
63.5
 33
0.0
 14
52.49999999999987
 24
66.49999999999997
 34
0.0
 50
90.0
100
AcDbRotatedDimension
1001
ACAD
1000
DSTYLE
1002
{
1070
    40
1040
1.0
1070
     6
1000
DOT
1070
     7
1000
DOT
1002
}
  0
DIMENSION
  5
210E
330
2
100
AcDbEntity
  8
ADM
100
AcDbDimension
  2
*D10
 10
29.99999999999998
 20
63.50000000000001
 30
0.0
 11
27.49999999999997
 21
140.6734432915628
 31
0.0
 70
    32
  1
H
 71
     5
 42
-1.0
  3
1
100
AcDbAlignedDimension
 13
51.99999999999987
 23
217.8468865831256
 33
0.0
 14
51.99999999999987
 24
63.5
 34
0.0
 50
90.0
100
AcDbRotatedDimension
1001
ACAD
1000
DSTYLE
1002
{
1070
    40
1040
1.0
1070
     6
1000
DOT
1070
     7
1000
DOT
1002
}
  0
LINE
  5
2182
330
2
100
AcDbEntity
  8
0
100
AcDbLine
 10
200.5000000000009
 20
105.6066666666664
 30
0.0
 11
200.5000000000009
 21
105.1999999999992
 31
0.0
  0
ARC
  5
2183
330
2
100
AcDbEntity
  8
0
100
AcDbCircle
 10
201.0000000000008
 20
93.49999999999736
 30
0.0
 40
0.5
100
AcDbArc
 50
180.0
 51
270.0
  0
LINE
  5
2184
330
2
100
AcDbEntity
  8
0
100
AcDbLine
 10
201.0000000000008
 20
92.99999999999737
 30
0.0
 11
204.0000000000008
 21
92.99999999999737
 31
0.0
  0
ARC
  5
2185
330
2
100
AcDbEntity
  8
0
100
AcDbCircle
 10
204.0000000000008
 20
92.49999999999737
 30
0.0
 40
0.5
100
AcDbArc
 50
0.0
 51
90.0
  0
LINE
  5
2186
330
2
100
AcDbEntity
  8
0
100
AcDbLine
 10
204.5000000000008
 20
92.49999999999737
 30
0.0
 11
204.5000000000008
 21
92.36602540378179
 31
0.0
  0
ARC
  5
2187
330
2
100
AcDbEntity
  8
0
100
AcDbCircle
 10
204.0000000000008
 20
92.36602540378179
 30
0.0
 40
0.5
100
AcDbArc
 50
299.9999999999997
 51
0.0
  0
LINE
  5
2188
330
2
100
AcDbEntity
  8
0
100
AcDbLine
 10
204.2500000000008
 20
91.93301270188957
 30
0.0
 11
203.5000000000008
 21
91.49999999999737
 31
0.0
  0
LINE
  5
2189
330
2
100
AcDbEntity
  8
0
100
AcDbLine
 10
203.5000000000008
 20
91.49999999999737
 30
0.0
 11
201.0000000000008
 21
91.49999999999726
 31
0.0
  0
ARC
  5
218A
330
2
100
AcDbEntity
  8
0
100
AcDbCircle
 10
201.0000000000008
 20
90.99999999999726
 30
0.0
 40
0.5
100
AcDbArc
 50
90.0
 51
180.0
  0
LINE
  5
218B
330
2
100
AcDbEntity
  8
0
100
AcDbLine
 10
200.5000000000008
 20
90.99999999999726
 30
0.0
 11
200.5000000000008
 21
76.04999999999832
 31
0.0
  0
LINE
  5
218C
330
2
100
AcDbEntity
  8
0
100
AcDbLine
 10
200.5000000000008
 20
76.04999999999832
 30
0.0
 11
208.9000000000006
 21
76.04999999999832
 31
0.0
  0
LINE
  5
21A1
330
2
100
AcDbEntity
  8
0
100
AcDbLine
 10
196.5000000000009
 20
110.4999999999999
 30
0.0
 11
196.5000000000009
 21
44.5
 31
0.0
  0
ARC
  5
21A3
330
2
100
AcDbEntity
  8
0
100
AcDbCircle
 10
196.0000000000009
 20
110.4999999999999
 30
0.0
 40
0.5
100
AcDbArc
 50
0.0
 51
90.0
  0
LINE
  5
21A5
330
2
100
AcDbEntity
  8
0
100
AcDbLine
 10
193.500000000001
 20
111.0
 30
0.0
 11
193.5000000000001
 21
93.0
 31
0.0
  0
LINE
  5
21A6
330
2
100
AcDbEntity
  8
0
100
AcDbLine
 10
193.500000000001
 20
111.0
 30
0.0
 11
196.0000000000009
 21
111.0
 31
0.0
  0
LINE
  5
21AA
330
2
100
AcDbEntity
  8
0
100
AcDbLine
 10
193.5000000000001
 20
93.0
 30
0.0
 11
172.000000000001
 21
93.0
 31
0.0
  0
LINE
  5
21AB
330
2
100
AcDbEntity
  8
0
100
AcDbLine
 10
179.0000000000009
 20
91.0
 30
0.0
 11
173.000000000001
 21
91.0
 31
0.0
  0
ARC
  5
21AC
330
2
100
AcDbEntity
  8
0
100
AcDbCircle
 10
173.000000000001
 20
92.0
 30
0.0
 40
1.0
100
AcDbArc
 50
180.0
 51
270.0
  0
LINE
  5
21AD
330
2
100
AcDbEntity
  8
0
100
AcDbLine
 10
172.000000000001
 20
92.0
 30
0.0
 11
172.000000000001
 21
93.0
 31
0.0
  0
LINE
  5
21AE
330
2
100
AcDbEntity
  8
0
100
AcDbLine
 10
179.0000000000009
 20
91.0
 30
0.0
 11
179.0000000000009
 21
42.0
 31
0.0
  0
LINE
  5
21EF
330
2
100
AcDbEntity
  8
0
100
AcDbLine
 10
199.000000000001
 20
44.49999999999994
 30
0.0
 11
199.000000000001
 21
42.5
 31
0.0
  0
LINE
  5
21F2
330
2
100
AcDbEntity
  8
0
100
AcDbLine
 10
198.500000000001
 20
42.0
 30
0.0
 11
179.0000000000009
 21
42.0
 31
0.0
  0
ARC
  5
21F4
330
2
100
AcDbEntity
  8
0
100
AcDbCircle
 10
198.500000000001
 20
42.5
 30
0.0
 40
0.5
100
AcDbArc
 50
270.0
 51
0.0
  0
LINE
  5
2206
330
2
100
AcDbEntity
  8
0
100
AcDbLine
 10
209.500000000001
 20
76.04999999999832
 30
0.0
 11
209.500000000001
 21
44.49999999999994
 31
0.0
  0
LINE
  5
2207
330
2
100
AcDbEntity
  8
0
100
AcDbLine
 10
209.500000000001
 20
44.49999999999994
 30
0.0
 11
199.000000000001
 21
44.49999999999994
 31
0.0
  0
LINE
  5
2232
330
2
100
AcDbEntity
  8
0
100
AcDbLine
 10
196.5000000000009
 20
108.4999999999999
 30
0.0
 11
202.2000000000009
 21
108.4999999999999
 31
0.0
  0
LINE
  5
2233
330
2
100
AcDbEntity
  8
0
100
AcDbLine
 10
202.2000000000009
 20
108.4999999999999
 30
0.0
 11
202.2000000000007
 21
106.3999999999997
 31
0.0
  0
LINE
  5
2234
330
2
100
AcDbEntity
  8
0
100
AcDbLine
 10
202.2000000000007
 20
106.3999999999997
 30
0.0
 11
200.5000000000009
 21
105.6066666666664
 31
0.0
  0
LINE
  5
2238
330
2
100
AcDbEntity
  8
0
 48
2.0
100
AcDbLine
 10
208.9000000000006
 20
76.04999999999832
 30
0.0
 11
208.9000000000006
 21
78.40495817831097
 31
0.0
  0
ARC
  5
2239
330
2
100
AcDbEntity
  8
0
 48
2.0
100
AcDbCircle
 10
208.5000000000006
 20
78.40495817831097
 30
0.0
 40
0.3999999999999772
100
AcDbArc
 50
0.0
 51
65.64741650024643
  0
LINE
  5
223A
330
2
100
AcDbEntity
  8
0
 48
2.0
100
AcDbLine
 10
208.6649402521137
 20
78.76936826767853
 30
0.0
 11
202.6762948109158
 21
81.47996470204605
 31
0.0
  0
ARC
  5
223B
330
2
100
AcDbEntity
  8
0
 48
2.0
100
AcDbCircle
 10
202.8000000000006
 20
81.75327226907171
 30
0.0
 40
0.3000000000000063
100
AcDbArc
 50
65.64741650024436
 51
245.6474165002454
  0
LINE
  5
223C
330
2
100
AcDbEntity
  8
0
 48
2.0
100
AcDbLine
 10
202.9237051890854
 20
82.02657983609737
 30
0.0
 11
208.9123506302834
 21
79.31598340172984
 31
0.0
  0
ARC
  5
223D
330
2
100
AcDbEntity
  8
0
 48
2.0
100
AcDbCircle
 10
208.5000000000006
 20
78.40495817831097
 30
0.0
 40
0.9999999999999985
100
AcDbArc
 50
0.0
 51
65.6474165002437
  0
LINE
  5
223E
330
2
100
AcDbEntity
  8
0
 48
2.0
100
AcDbLine
 10
209.5000000000006
 20
78.40495817831097
 30
0.0
 11
209.5000000000006
 21
76.04999999999832
 31
0.0
  0
ARC
  5
2241
330
2
100
AcDbEntity
  8
0
100
AcDbCircle
 10
203.5680418469179
 20
99.32441354408446
 30
0.0
 40
0.3000000000000131
100
AcDbArc
 50
166.3909378245689
 51
346.390937824569
  0
ARC
  5
2242
330
2
100
AcDbEntity
  8
0
100
AcDbCircle
 10
199.0000000000008
 20
100.4303039929145
 30
0.0
 40
4.400000000000002
100
AcDbArc
 50
346.3909378245766
 51
70.06772952779849
  0
ARC
  5
2244
330
2
100
AcDbEntity
  8
0
100
AcDbCircle
 10
199.0000000000007
 20
100.4303039929144
 30
0.0
 40
5.000000000000056
100
AcDbArc
 50
346.3909378245769
 51
72.54239687627709
  0
LINE
  5
2245
330
2
100
AcDbEntity
  8
0
100
AcDbLine
 10
200.5000000000009
 20
104.5667275689038
 30
0.0
 11
200.5000000000008
 21
93.49999999999736
 31
0.0
  0
DIMENSION
  5
2246
330
2
100
AcDbEntity
  8
ADM
100
AcDbDimension
  2
*D11
 10
199.000000000001
 20
27.0
 30
0.0
 11
189.000000000001
 21
29.5
 31
0.0
 70
    32
 71
     5
 42
-1.0
  3
1
100
AcDbAlignedDimension
 13
179.0000000000009
 23
42.0
 33
0.0
 14
199.000000000001
 24
42.50000000000001
 34
0.0
100
AcDbRotatedDimension
1001
ACAD
1000
DSTYLE
1002
{
1070
    40
1040
1.0
1070
     6
1000
DOT
1070
     7
1000
DOT
1002
}
  0
DIMENSION
  5
2254
330
2
100
AcDbEntity
  8
ADM
100
AcDbDimension
  2
*D12
 10
172.000000000001
 20
27.0
 30
0.0
 11
175.500000000001
 21
29.5
 31
0.0
 70
    32
 71
     5
 42
-1.0
  3
1
100
AcDbAlignedDimension
 13
179.0000000000009
 23
42.0
 33
0.0
 14
172.000000000001
 24
92.0
 34
0.0
100
AcDbRotatedDimension
1001
ACAD
1000
DSTYLE
1002
{
1070
    40
1040
1.0
1070
     6
1000
DOT
1070
     7
1000
DOT
1002
}
  0
DIMENSION
  5
2261
330
2
100
AcDbEntity
  8
ADM
100
AcDbDimension
  2
*D13
 10
199.000000000001
 20
20.0
 30
0.0
 11
185.500000000001
 21
22.5
 31
0.0
 70
    32
 71
     5
 42
-1.0
  3
1
100
AcDbAlignedDimension
 13
172.000000000001
 23
92.0
 33
0.0
 14
199.000000000001
 24
42.5
 34
0.0
100
AcDbRotatedDimension
1001
ACAD
1000
DSTYLE
1002
{
1070
    40
1040
1.0
1070
     6
1000
DOT
1070
     7
1000
DOT
1002
}
  0
DIMENSION
  5
226E
330
2
100
AcDbEntity
  8
ADM
100
AcDbDimension
  2
*D14
 10
193.500000000001
 20
126.0
 30
0.0
 11
195.0000000000009
 21
128.5
 31
0.0
 70
   160
 71
     5
 42
-1.0
  3
1
100
AcDbAlignedDimension
 13
196.5000000000009
 23
110.4999999999999
 33
0.0
 14
193.500000000001
 24
111.0
 34
0.0
100
AcDbRotatedDimension
1001
ACAD
1000
DSTYLE
1002
{
1070
    40
1040
1.0
1070
     6
1000
DOT
1070
     7
1000
DOT
1002
}
  0
LINE
  5
22E6
330
2
100
AcDbEntity
  8
0
100
AcDbLine
 10
269.5000000000007
 20
106.8000138784743
 30
0.0
 11
334.8000000000006
 21
106.8000138784743
 31
0.0
  0
LINE
  5
22E7
330
2
100
AcDbEntity
  8
0
100
AcDbLine
 10
327.4999999999999
 20
46.30001387847385
 30
0.0
 11
269.5000000000005
 21
46.30001387847414
 31
0.0
  0
DIMENSION
  5
22EA
330
2
100
AcDbEntity
  8
ADM
100
AcDbDimension
  2
*D18
 10
364.9999999999999
 20
26.99999999999943
 30
0.0
 11
361.4999999999999
 21
29.49999999999944
 31
0.0
 70
    32
 71
     5
 42
-1.0
  3
1
100
AcDbAlignedDimension
 13
358.0
 23
41.99999999999946
 33
0.0
 14
365.0000000000001
 24
91.99999999999944
 34
0.0
 50
179.9999999999998
100
AcDbRotatedDimension
1001
ACAD
1000
DSTYLE
1002
{
1070
    40
1040
1.0
1070
     6
1000
DOT
1070
     7
1000
DOT
1002
}
  0
DIMENSION
  5
22EB
330
2
100
AcDbEntity
  8
ADM
100
AcDbDimension
  2
*D19
 10
337.9999999999998
 20
19.99999999999955
 30
0.0
 11
351.4999999999998
 21
22.49999999999951
 31
0.0
 70
    32
 71
     5
 42
-1.0
  3
1
100
AcDbAlignedDimension
 13
365.0000000000001
 23
91.99999999999944
 33
0.0
 14
337.9999999999999
 24
42.49999999999956
 34
0.0
 50
179.9999999999998
100
AcDbRotatedDimension
1001
ACAD
1000
DSTYLE
1002
{
1070
    40
1040
1.0
1070
     6
1000
DOT
1070
     7
1000
DOT
1002
}
  0
DIMENSION
  5
22ED
330
2
100
AcDbEntity
  8
ADM
100
AcDbDimension
  2
*D17
 10
337.9999999999999
 20
26.99999999999956
 30
0.0
 11
348.0
 21
29.49999999999952
 31
0.0
 70
    32
 71
     5
 42
-1.0
  3
1
100
AcDbAlignedDimension
 13
358.0
 23
41.99999999999946
 33
0.0
 14
338.0
 24
42.49999999999957
 34
0.0
 50
179.9999999999998
100
AcDbRotatedDimension
1001
ACAD
1000
DSTYLE
1002
{
1070
    40
1040
1.0
1070
     6
1000
DOT
1070
     7
1000
DOT
1002
}
  0
DIMENSION
  5
2313
330
2
100
AcDbEntity
  8
ADM
100
AcDbDimension
  2
*D20
 10
343.5000000000003
 20
125.9999999999995
 30
0.0
 11
342.0000000000004
 21
128.4999999999995
 31
0.0
 70
   160
 71
     5
 42
-1.0
  3
1
100
AcDbAlignedDimension
 13
340.5000000000004
 23
110.4999999999995
 33
0.0
 14
343.5000000000002
 24
110.9999999999995
 34
0.0
 50
179.9999999999998
100
AcDbRotatedDimension
1001
ACAD
1000
DSTYLE
1002
{
1070
    40
1040
1.0
1070
     6
1000
DOT
1070
     7
1000
DOT
1002
}
  0
DIMENSION
  5
23E5
330
2
100
AcDbEntity
  8
ADM
100
AcDbDimension
  2
*D21
 10
343.5000000000002
 20
133.0
 30
0.0
 11
268.5000000000006
 21
135.4999999999999
 31
0.0
 70
    32
  1
W
 71
     5
 42
-1.0
  3
1
100
AcDbAlignedDimension
 13
193.500000000001
 23
111.0
 33
0.0
 14
343.5000000000002
 24
110.9999999999995
 34
0.0
100
AcDbRotatedDimension
1001
ACAD
1000
DSTYLE
1002
{
1070
    40
1040
1.0
1070
     6
1000
DOT
1070
     7
1000
DOT
1002
}
  0
LINE
  5
27BA
330
2
100
AcDbEntity
  8
0
100
AcDbLine
 10
246.2999999999999
 20
210.9999999999999
 30
0.0
 11
246.2999999999999
 21
245.0
 31
0.0
  0
LINE
  5
27D2
330
2
100
AcDbEntity
  8
0
100
AcDbLine
 10
310.3000000000001
 20
214.9999999999999
 30
0.0
 11
310.3
 21
245.0
 31
0.0
  0
ARC
  5
2953
330
2
100
AcDbEntity
  8
0
100
AcDbCircle
 10
246.2999999999999
 20
210.4999999999999
 30
0.0
 40
0.5
100
AcDbArc
 50
90.0
 51
180.0
  0
LINE
  5
2954
330
2
100
AcDbEntity
  8
0
100
AcDbLine
 10
245.7999999999999
 20
199.9999999999999
 30
0.0
 11
245.7999999999999
 21
210.4999999999999
 31
0.0
  0
ARC
  5
2955
330
2
100
AcDbEntity
  8
0
100
AcDbCircle
 10
244.7999999999999
 20
199.9999999999999
 30
0.0
 40
1.0
100
AcDbArc
 50
270.0
 51
0.0
  0
LINE
  5
2959
330
2
100
AcDbEntity
  8
0
100
AcDbLine
 10
231.2999999999999
 20
198.9999999999998
 30
0.0
 11
244.7999999999999
 21
198.9999999999998
 31
0.0
  0
ARC
  5
295A
330
2
100
AcDbEntity
  8
0
100
AcDbCircle
 10
231.2999999999999
 20
198.4999999999999
 30
0.0
 40
0.5
100
AcDbArc
 50
90.0
 51
180.0
  0
LINE
  5
295B
330
2
100
AcDbEntity
  8
0
100
AcDbLine
 10
230.7999999999999
 20
197.2999999999998
 30
0.0
 11
230.7999999999999
 21
198.4999999999999
 31
0.0
  0
ARC
  5
295C
330
2
100
AcDbEntity
  8
0
100
AcDbCircle
 10
231.0999999999999
 20
197.2999999999998
 30
0.0
 40
0.2999999999999971
100
AcDbArc
 50
180.0
 51
270.0
  0
LINE
  5
2963
330
2
100
AcDbEntity
  8
0
100
AcDbLine
 10
313.0
 20
196.9999999999999
 30
0.0
 11
231.0999999999999
 21
196.9999999999998
 31
0.0
  0
LINE
  5
2980
330
2
100
AcDbEntity
  8
0
100
AcDbLine
 10
308.4999999999999
 20
213.4999999999998
 30
0.0
 11
308.4999999999999
 21
214.9999999999999
 31
0.0
  0
LINE
  5
2981
330
2
100
AcDbEntity
  8
0
100
AcDbLine
 10
308.4999999999999
 20
214.9999999999999
 30
0.0
 11
313.0
 21
214.9999999999999
 31
0.0
  0
LINE
  5
2982
330
2
100
AcDbEntity
  8
0
100
AcDbLine
 10
313.0
 20
214.9999999999999
 30
0.0
 11
313.0
 21
196.9999999999999
 31
0.0
  0
LINE
  5
29D1
330
2
100
AcDbEntity
  8
0
100
AcDbLine
 10
247.9999779433409
 20
210.9999999999995
 30
0.0
 11
247.9999779433407
 21
212.9999999999999
 31
0.0
  0
ARC
  5
29D2
330
2
100
AcDbEntity
  8
0
100
AcDbCircle
 10
248.4999779433407
 20
212.9999999999999
 30
0.0
 40
0.5
100
AcDbArc
 50
90.0
 51
180.0
  0
LINE
  5
29D3
330
2
100
AcDbEntity
  8
0
100
AcDbLine
 10
248.4999779433407
 20
213.4999999999999
 30
0.0
 11
255.599977943341
 21
213.4999999999999
 31
0.0
  0
LINE
  5
29D4
330
2
100
AcDbEntity
  8
0
100
AcDbLine
 10
255.599977943341
 20
213.4999999999999
 30
0.0
 11
257.0999779433408
 21
214.9999999999998
 31
0.0
  0
LINE
  5
29EA
330
2
100
AcDbEntity
  8
0
100
AcDbLine
 10
291.0999918218154
 20
214.9999999999999
 30
0.0
 11
292.5999918218154
 21
213.4999999999997
 31
0.0
  0
LINE
  5
29EB
330
2
100
AcDbEntity
  8
0
100
AcDbLine
 10
292.5999918218154
 20
213.4999999999997
 30
0.0
 11
305.6999779433409
 21
213.4999999999999
 31
0.0
  0
ARC
  5
29EC
330
2
100
AcDbEntity
  8
0
100
AcDbCircle
 10
305.6999779433409
 20
214.4999999999999
 30
0.0
 40
1.0
100
AcDbArc
 50
270.0
 51
0.0
  0
LINE
  5
29ED
330
2
100
AcDbEntity
  8
0
100
AcDbLine
 10
306.6999779433409
 20
214.4999999999999
 30
0.0
 11
306.6999779433409
 21
224.2
 31
0.0
  0
ARC
  5
29EE
330
2
100
AcDbEntity
  8
0
100
AcDbCircle
 10
307.599977943341
 20
224.09375
 30
0.0
 40
0.9062500000000957
100
AcDbArc
 50
6.732921326861783
 51
173.2670786731382
  0
LINE
  5
29F1
330
2
100
AcDbEntity
  8
0
100
AcDbLine
 10
308.4999779433409
 20
224.2000000000019
 30
0.0
 11
308.4999779433409
 21
211.0000000000001
 31
0.0
  0
LINE
  5
29FD
330
2
100
AcDbEntity
  8
0
100
AcDbLine
 10
308.4999779433409
 20
211.0000000000001
 30
0.0
 11
246.2999999999999
 21
210.9999999999995
 31
0.0
  0
LINE
  5
2A01
330
2
100
AcDbEntity
  8
0
100
AcDbLine
 10
287.0999918218154
 20
214.9999999999999
 30
0.0
 11
285.5999918218154
 21
213.4999999999998
 31
0.0
  0
LINE
  5
2A02
330
2
100
AcDbEntity
  8
0
100
AcDbLine
 10
285.5999918218154
 20
213.4999999999998
 30
0.0
 11
262.5999779433411
 21
213.4999999999998
 31
0.0
  0
LINE
  5
2A03
330
2
100
AcDbEntity
  8
0
100
AcDbLine
 10
262.5999779433411
 20
213.4999999999998
 30
0.0
 11
261.0999779433411
 21
214.9999999999999
 31
0.0
  0
LINE
  5
2A07
330
2
100
AcDbEntity
  8
0
100
AcDbLine
 10
261.0999779433411
 20
214.9999999999999
 30
0.0
 11
261.0999779433411
 21
224.0976176963402
 31
0.0
  0
ARC
  5
2A08
330
2
100
AcDbEntity
  8
0
100
AcDbCircle
 10
260.7999779433411
 20
224.0976176963402
 30
0.0
 40
0.2999999999999545
100
AcDbArc
 50
0.0
 51
50.9771974347687
  0
ARC
  5
2A09
330
2
100
AcDbEntity
  8
0
100
AcDbCircle
 10
259.099977943341
 20
221.9999999999999
 30
0.0
 40
3.000000000000045
100
AcDbArc
 50
50.97719743476584
 51
129.0228025652309
  0
ARC
  5
2A0A
330
2
100
AcDbEntity
  8
0
100
AcDbCircle
 10
257.3999779433411
 20
224.0976176963402
 30
0.0
 40
0.300000000000022
100
AcDbArc
 50
129.0228025652244
 51
179.9999999999891
  0
LINE
  5
2A0B
330
2
100
AcDbEntity
  8
0
100
AcDbLine
 10
257.0999779433411
 20
224.0976176963403
 30
0.0
 11
257.0999779433408
 21
214.9999999999998
 31
0.0
  0
LINE
  5
2A27
330
2
100
AcDbEntity
  8
0
100
AcDbLine
 10
291.0999918218154
 20
214.9999999999999
 30
0.0
 11
291.0999918218154
 21
224.0976176963403
 31
0.0
  0
ARC
  5
2A28
330
2
100
AcDbEntity
  8
0
100
AcDbCircle
 10
290.7999918218154
 20
224.0976176963402
 30
0.0
 40
0.3000000000000114
100
AcDbArc
 50
0.0000000000108563
 51
50.97719743477553
  0
ARC
  5
2A29
330
2
100
AcDbEntity
  8
0
100
AcDbCircle
 10
289.0999918218154
 20
221.9999999999999
 30
0.0
 40
2.999999999999982
100
AcDbArc
 50
50.97719743476906
 51
129.0228025652341
  0
ARC
  5
2A2A
330
2
100
AcDbEntity
  8
0
100
AcDbCircle
 10
287.3999918218153
 20
224.0976176963402
 30
0.0
 40
0.2999999999999778
100
AcDbArc
 50
129.0228025652313
 51
180.0
  0
LINE
  5
2A2B
330
2
100
AcDbEntity
  8
0
100
AcDbLine
 10
287.0999918218154
 20
224.0976176963402
 30
0.0
 11
287.0999918218154
 21
214.9999999999999
 31
0.0
  0
LINE
  5
3C2D
330
2
100
AcDbEntity
  8
0
100
AcDbLine
 10
56.4999999999997
 20
214.8468865831256
 30
0.0
 11
116.7000069392286
 21
214.8468865831256
 31
0.0
  0
LINE
  5
3E3F
330
2
100
AcDbEntity
  8
0
100
AcDbLine
 10
116.6999779433109
 20
66.49999999999988
 30
0.0
 11
56.19997794334065
 21
66.49999999999988
 31
0.0
  0
LINE
  5
418E
330
2
100
AcDbEntity
  8
0
100
AcDbLine
 10
199.000000000001
 20
44.5
 30
0.0
 11
196.5000000000009
 21
44.5
 31
0.0
  0
LINE
  5
4222
330
2
100
AcDbEntity
  8
0
100
AcDbLine
 10
338.0000000000001
 20
44.5
 30
0.0
 11
340.5000000000001
 21
44.5
 31
0.0
  0
LINE
  5
4223
330
2
100
AcDbEntity
  8
0
100
AcDbLine
 10
340.5000000000001
 20
108.4999999999999
 30
0.0
 11
334.8000000000002
 21
108.4999999999999
 31
0.0
  0
LINE
  5
4224
330
2
100
AcDbEntity
  8
0
100
AcDbLine
 10
338.5
 20
42.0
 30
0.0
 11
358.0000000000001
 21
42.0
 31
0.0
  0
LINE
  5
4225
330
2
100
AcDbEntity
  8
0
100
AcDbLine
 10
340.5000000000001
 20
110.4999999999999
 30
0.0
 11
340.5000000000001
 21
44.5
 31
0.0
  0
LINE
  5
4228
330
2
100
AcDbEntity
  8
0
100
AcDbLine
 10
358.0000000000001
 20
91.0
 30
0.0
 11
358.0000000000001
 21
42.0
 31
0.0
  0
LINE
  5
422D
330
2
100
AcDbEntity
  8
0
100
AcDbLine
 10
343.5000000000001
 20
111.0
 30
0.0
 11
343.5000000000009
 21
93.0
 31
0.0
  0
LINE
  5
4231
330
2
100
AcDbEntity
  8
0
100
AcDbLine
 10
343.5000000000009
 20
93.0
 30
0.0
 11
365.0000000000001
 21
93.0
 31
0.0
  0
LINE
  5
4233
330
2
100
AcDbEntity
  8
0
100
AcDbLine
 10
358.0000000000001
 20
91.0
 30
0.0
 11
364.0000000000001
 21
91.0
 31
0.0
  0
ARC
  5
4234
330
2
100
AcDbEntity
  8
0
100
AcDbCircle
 10
364.0000000000001
 20
92.0
 30
0.0
 40
1.0
100
AcDbArc
 50
270.0
 51
0.000000000000007
  0
LINE
  5
4235
330
2
100
AcDbEntity
  8
0
100
AcDbLine
 10
365.0000000000001
 20
92.0
 30
0.0
 11
365.0000000000001
 21
93.0
 31
0.0
  0
ARC
  5
423E
330
2
100
AcDbEntity
  8
0
100
AcDbCircle
 10
341.0000000000001
 20
110.4999999999999
 30
0.0
 40
0.5
100
AcDbArc
 50
90.0
 51
180.0
  0
LINE
  5
423F
330
2
100
AcDbEntity
  8
0
100
AcDbLine
 10
343.5000000000001
 20
111.0
 30
0.0
 11
341.0000000000001
 21
111.0
 31
0.0
  0
LINE
  5
4240
330
2
100
AcDbEntity
  8
0
100
AcDbLine
 10
327.5
 20
76.04999999999832
 30
0.0
 11
327.5
 21
44.49999999999994
 31
0.0
  0
LINE
  5
4241
330
2
100
AcDbEntity
  8
0
100
AcDbLine
 10
327.5
 20
44.49999999999994
 30
0.0
 11
338.0000000000001
 21
44.49999999999994
 31
0.0
  0
LINE
  5
4242
330
2
100
AcDbEntity
  8
0
100
AcDbLine
 10
338.0000000000001
 20
44.49999999999994
 30
0.0
 11
338.0
 21
42.5
 31
0.0
  0
ARC
  5
4243
330
2
100
AcDbEntity
  8
0
100
AcDbCircle
 10
338.5
 20
42.5
 30
0.0
 40
0.5
100
AcDbArc
 50
180.0
 51
270.0
  0
LINE
  5
4244
330
2
100
AcDbEntity
  8
0
100
AcDbLine
 10
336.5000000000002
 20
104.5667275689038
 30
0.0
 11
336.5000000000002
 21
93.49999999999736
 31
0.0
  0
LINE
  5
4245
330
2
100
AcDbEntity
  8
0
100
AcDbLine
 10
336.5000000000002
 20
90.99999999999726
 30
0.0
 11
336.5000000000002
 21
76.04999999999832
 31
0.0
  0
LINE
  5
4246
330
2
100
AcDbEntity
  8
0
100
AcDbLine
 10
336.5000000000002
 20
76.04999999999832
 30
0.0
 11
328.1000000000005
 21
76.04999999999832
 31
0.0
  0
LINE
  5
4247
330
2
100
AcDbEntity
  8
0
 48
2.0
100
AcDbLine
 10
334.0762948109156
 20
82.02657983609737
 30
0.0
 11
328.0876493697177
 21
79.31598340172984
 31
0.0
  0
LINE
  5
4248
330
2
100
AcDbEntity
  8
0
 48
2.0
100
AcDbLine
 10
328.3350597478873
 20
78.76936826767853
 30
0.0
 11
334.3237051890853
 21
81.47996470204605
 31
0.0
  0
ARC
  5
4249
330
2
100
AcDbEntity
  8
0
 48
2.0
100
AcDbCircle
 10
334.2000000000004
 20
81.75327226907171
 30
0.0
 40
0.3000000000000063
100
AcDbArc
 50
294.3525834997545
 51
114.3525834997556
  0
ARC
  5
424A
330
2
100
AcDbEntity
  8
0
 48
2.0
100
AcDbCircle
 10
328.5000000000005
 20
78.40495817831097
 30
0.0
 40
0.3999999999999772
100
AcDbArc
 50
114.3525834997535
 51
180.0
  0
ARC
  5
424B
330
2
100
AcDbEntity
  8
0
 48
2.0
100
AcDbCircle
 10
328.5000000000005
 20
78.40495817831097
 30
0.0
 40
0.9999999999999985
100
AcDbArc
 50
114.3525834997562
 51
180.0
  0
LINE
  5
424C
330
2
100
AcDbEntity
  8
0
 48
2.0
100
AcDbLine
 10
328.1000000000005
 20
76.04999999999832
 30
0.0
 11
328.1000000000005
 21
78.40495817831097
 31
0.0
  0
LINE
  5
424D
330
2
100
AcDbEntity
  8
0
 48
2.0
100
AcDbLine
 10
327.5000000000005
 20
78.40495817831097
 30
0.0
 11
327.5000000000005
 21
76.04999999999832
 31
0.0
  0
LINE
  5
424E
330
2
100
AcDbEntity
  8
0
100
AcDbLine
 10
333.5000000000003
 20
91.49999999999737
 30
0.0
 11
336.0000000000002
 21
91.49999999999726
 31
0.0
  0
LINE
  5
424F
330
2
100
AcDbEntity
  8
0
100
AcDbLine
 10
336.0000000000002
 20
92.99999999999737
 30
0.0
 11
333.0000000000002
 21
92.99999999999737
 31
0.0
  0
ARC
  5
4250
330
2
100
AcDbEntity
  8
0
100
AcDbCircle
 10
336.0000000000002
 20
90.99999999999726
 30
0.0
 40
0.5
100
AcDbArc
 50
0.000000000000007
 51
90.0
  0
ARC
  5
4251
330
2
100
AcDbEntity
  8
0
100
AcDbCircle
 10
336.0000000000002
 20
93.49999999999736
 30
0.0
 40
0.5
100
AcDbArc
 50
270.0
 51
0.000000000000007
  0
LINE
  5
4252
330
2
100
AcDbEntity
  8
0
100
AcDbLine
 10
332.7500000000002
 20
91.93301270188957
 30
0.0
 11
333.5000000000003
 21
91.49999999999737
 31
0.0
  0
ARC
  5
4253
330
2
100
AcDbEntity
  8
0
100
AcDbCircle
 10
333.0000000000002
 20
92.36602540378179
 30
0.0
 40
0.5
100
AcDbArc
 50
180.0
 51
240.0000000000003
  0
LINE
  5
4254
330
2
100
AcDbEntity
  8
0
100
AcDbLine
 10
332.5000000000002
 20
92.49999999999737
 30
0.0
 11
332.5000000000002
 21
92.36602540378179
 31
0.0
  0
ARC
  5
4255
330
2
100
AcDbEntity
  8
0
100
AcDbCircle
 10
333.0000000000002
 20
92.49999999999737
 30
0.0
 40
0.5
100
AcDbArc
 50
90.0
 51
180.0
  0
LINE
  5
4256
330
2
100
AcDbEntity
  8
0
100
AcDbLine
 10
336.5000000000002
 20
105.6066666666664
 30
0.0
 11
336.5000000000002
 21
105.1999999999992
 31
0.0
  0
ARC
  5
4257
330
2
100
AcDbEntity
  8
0
100
AcDbCircle
 10
338.0000000000003
 20
100.4303039929144
 30
0.0
 40
5.000000000000056
100
AcDbArc
 50
107.4576031237229
 51
193.609062175423
  0
ARC
  5
4258
330
2
100
AcDbEntity
  8
0
100
AcDbCircle
 10
338.0000000000003
 20
100.4303039929145
 30
0.0
 40
4.400000000000002
100
AcDbArc
 50
109.9322704722015
 51
193.6090621754234
  0
ARC
  5
4259
330
2
100
AcDbEntity
  8
0
100
AcDbCircle
 10
333.4319581530831
 20
99.32441354408446
 30
0.0
 40
0.3000000000000131
100
AcDbArc
 50
193.609062175431
 51
13.60906217543103
  0
LINE
  5
425A
330
2
100
AcDbEntity
  8
0
100
AcDbLine
 10
334.8000000000003
 20
106.3999999999997
 30
0.0
 11
336.5000000000002
 21
105.6066666666664
 31
0.0
  0
LINE
  5
425B
330
2
100
AcDbEntity
  8
0
100
AcDbLine
 10
334.8000000000002
 20
108.4999999999999
 30
0.0
 11
334.8000000000003
 21
106.3999999999997
 31
0.0
  0
DIMENSION
  5
4292
330
2
100
AcDbEntity
  8
ADM
100
AcDbDimension
  2
*D23
 10
328.0
 20
196.9999999999998
 30
0.0
 11
325.4999999999999
 21
204.0
 31
0.0
 70
    32
 71
     5
 42
-1.0
  3
1
100
AcDbAlignedDimension
 13
308.4999779433409
 23
211.0000000000001
 33
0.0
 14
313.0
 24
196.9999999999999
 34
0.0
 50
90.0
100
AcDbRotatedDimension
1001
ACAD
1000
DSTYLE
1002
{
1070
    40
1040
1.0
1070
     6
1000
DOT
1070
     7
1000
DOT
1002
}
  0
DIMENSION
  5
42A0
330
2
100
AcDbEntity
  8
ADM
100
AcDbDimension
  2
*D24
 10
335.0
 20
196.9999999999998
 30
0.0
 11
332.4999999999999
 21
205.9999999999999
 31
0.0
 70
    32
 71
     5
 42
-1.0
  3
1
100
AcDbAlignedDimension
 13
313.0
 23
214.9999999999999
 33
0.0
 14
313.0
 24
196.9999999999999
 34
0.0
 50
90.0
100
AcDbRotatedDimension
1001
ACAD
1000
DSTYLE
1002
{
1070
    40
1040
1.0
1070
     6
1000
DOT
1070
     7
1000
DOT
1002
}
  0
DIMENSION
  5
42AD
330
2
100
AcDbEntity
  8
ADM
100
AcDbDimension
  2
*D25
 10
313.0
 20
240.0
 30
0.0
 11
271.8999999999999
 21
242.5
 31
0.0
 70
    32
 71
     5
 42
-1.0
  3
1
100
AcDbAlignedDimension
 13
230.7999999999999
 23
198.4999999999999
 33
0.0
 14
313.0
 24
214.9999999999999
 34
0.0
100
AcDbRotatedDimension
1001
ACAD
1000
DSTYLE
1002
{
1070
    40
1040
1.0
1070
     6
1000
DOT
1070
     7
1000
DOT
1002
}
  0
DIMENSION
  5
4528
330
2
100
AcDbEntity
  8
ADM
100
AcDbDimension
  2
*D26
 10
135.9999999999998
 20
212.3468865831255
 30
0.0
 11
133.4999999999998
 21
222.3468865831256
 31
0.0
 70
    32
 71
     5
 42
-1.0
  3
1
100
AcDbAlignedDimension
 13
120.9999999999998
 23
232.3468865831256
 33
0.0
 14
120.4999999999998
 24
212.3468865831255
 34
0.0
 50
90.0
100
AcDbRotatedDimension
1001
ACAD
1000
DSTYLE
1002
{
1070
    40
1040
1.0
1070
     6
1000
DOT
1070
     7
1000
DOT
1002
}
  0
ENDSEC
  0
SECTION
  2
OBJECTS
  0
DICTIONARY
  5
9
330
0
100
AcDbDictionary
281
     1
  3
ACAD_GROUP
350
25
  3
ACAD_LAYOUT
350
D
  3
ACAD_MLINESTYLE
350
26
  3
ACAD_PLOTSETTINGS
350
27
  3
ACAD_PLOTSTYLENAME
350
8
  3
AcDbVariableDictionary
350
626
  0
DICTIONARY
  5
15
330
14
100
AcDbDictionary
280
     1
281
     1
  3
ACAD_LAYERFILTERS
360
1DF0
  3
ACAD_LAYERSTATES
360
16
  0
DICTIONARY
  5
3
330
2
100
AcDbDictionary
280
     1
281
     1
  3
ACAD_LAYOUTSELFREF
360
465B
  0
DICTIONARY
  5
F
330
E
100
AcDbDictionary
280
     1
281
     1
  3
ACAD_LAYOUTSELFREF
360
4660
  0
DICTIONARY
  5
25
102
{ACAD_REACTORS
330
9
102
}
330
9
100
AcDbDictionary
281
     1
  3
*A1
350
BF1
  3
*A10
350
1F76
  3
*A11
350
BF3
  3
*A12
350
E78
  3
*A13
350
BF4
  3
*A14
350
BF5
  3
*A15
350
BF6
  3
*A16
350
E79
  3
*A17
350
1B1C
  3
*A18
350
E7D
  3
*A19
350
FB2
  3
*A2
350
1B1E
  3
*A20
350
FB3
  3
*A21
350
1B1D
  3
*A22
350
14B1
  3
*A3
350
BF2
  3
*A4
350
1F74
  3
*A5
350
149D
  3
*A6
350
14C4
  3
*A7
350
14D9
  3
*A8
350
1F75
  3
*A9
350
FB1
  0
DICTIONARY
  5
D
102
{ACAD_REACTORS
330
9
102
}
330
9
100
AcDbDictionary
281
     1
  3
Model
350
C
  3
ﾚｲｱｳﾄ1
350
13
  0
DICTIONARY
  5
26
102
{ACAD_REACTORS
330
9
102
}
330
9
100
AcDbDictionary
281
     1
  3
STANDARD
350
35
  0
DICTIONARY
  5
27
102
{ACAD_REACTORS
330
9
102
}
330
9
100
AcDbDictionary
281
     1
  0
ACDBDICTIONARYWDFLT
  5
8
102
{ACAD_REACTORS
330
9
102
}
330
9
100
AcDbDictionary
281
     1
  3
Normal
350
7
100
AcDbDictionaryWithDefault
340
7
1001
ACAD
1000
TREAT_AS_HARD
1070
     0
  0
DICTIONARY
  5
626
102
{ACAD_REACTORS
330
9
102
}
330
9
100
AcDbDictionary
281
     1
  3
DIMASSOC
350
628
  3
HIDETEXT
350
627
  0
DICTIONARY
  5
1DF0
102
{ACAD_REACTORS
330
15
102
}
330
15
100
AcDbDictionary
280
     1
281
     1
  0
DICTIONARY
  5
16
102
{ACAD_REACTORS
330
15
102
}
330
15
100
AcDbDictionary
281
     1
  0
XRECORD
  5
465B
102
{ACAD_REACTORS
330
3
102
}
330
3
100
AcDbXrecord
280
     1
340
2
  0
XRECORD
  5
4660
102
{ACAD_REACTORS
330
F
102
}
330
F
100
AcDbXrecord
280
     1
340
E
  0
GROUP
  5
BF1
102
{ACAD_REACTORS
330
25
102
}
330
25
100
AcDbGroup
300

 70
     1
 71
     1
  0
GROUP
  5
1F76
102
{ACAD_REACTORS
330
25
102
}
330
25
100
AcDbGroup
300

 70
     1
 71
     1
  0
GROUP
  5
BF3
102
{ACAD_REACTORS
330
25
102
}
330
25
100
AcDbGroup
300

 70
     1
 71
     1
  0
GROUP
  5
E78
102
{ACAD_REACTORS
330
25
102
}
330
25
100
AcDbGroup
300

 70
     1
 71
     1
  0
GROUP
  5
BF4
102
{ACAD_REACTORS
330
25
102
}
330
25
100
AcDbGroup
300

 70
     1
 71
     1
  0
GROUP
  5
BF5
102
{ACAD_REACTORS
330
25
102
}
330
25
100
AcDbGroup
300

 70
     1
 71
     1
  0
GROUP
  5
BF6
102
{ACAD_REACTORS
330
25
102
}
330
25
100
AcDbGroup
300

 70
     1
 71
     1
  0
GROUP
  5
E79
102
{ACAD_REACTORS
330
25
102
}
330
25
100
AcDbGroup
300

 70
     1
 71
     1
  0
GROUP
  5
1B1C
102
{ACAD_REACTORS
330
25
102
}
330
25
100
AcDbGroup
300

 70
     1
 71
     1
  0
GROUP
  5
E7D
102
{ACAD_REACTORS
330
25
102
}
330
25
100
AcDbGroup
300

 70
     1
 71
     1
  0
GROUP
  5
FB2
102
{ACAD_REACTORS
330
25
102
}
330
25
100
AcDbGroup
300

 70
     1
 71
     1
  0
GROUP
  5
1B1E
102
{ACAD_REACTORS
330
25
102
}
330
25
100
AcDbGroup
300

 70
     1
 71
     1
  0
GROUP
  5
FB3
102
{ACAD_REACTORS
330
25
102
}
330
25
100
AcDbGroup
300

 70
     1
 71
     1
  0
GROUP
  5
1B1D
102
{ACAD_REACTORS
330
25
102
}
330
25
100
AcDbGroup
300

 70
     1
 71
     1
  0
GROUP
  5
14B1
102
{ACAD_REACTORS
330
25
102
}
330
25
100
AcDbGroup
300

 70
     1
 71
     1
  0
GROUP
  5
BF2
102
{ACAD_REACTORS
330
25
102
}
330
25
100
AcDbGroup
300

 70
     1
 71
     1
  0
GROUP
  5
1F74
102
{ACAD_REACTORS
330
25
102
}
330
25
100
AcDbGroup
300

 70
     1
 71
     1
  0
GROUP
  5
149D
102
{ACAD_REACTORS
330
25
102
}
330
25
100
AcDbGroup
300

 70
     1
 71
     1
  0
GROUP
  5
14C4
102
{ACAD_REACTORS
330
25
102
}
330
25
100
AcDbGroup
300

 70
     1
 71
     1
  0
GROUP
  5
14D9
102
{ACAD_REACTORS
330
25
102
}
330
25
100
AcDbGroup
300

 70
     1
 71
     1
  0
GROUP
  5
1F75
102
{ACAD_REACTORS
330
25
102
}
330
25
100
AcDbGroup
300

 70
     1
 71
     1
  0
GROUP
  5
FB1
102
{ACAD_REACTORS
330
25
102
}
330
25
100
AcDbGroup
300

 70
     1
 71
     1
  0
LAYOUT
  5
C
102
{ACAD_REACTORS
330
D
102
}
330
D
100
AcDbPlotSettings
  1

  2
Canon LBP-830.pc3
  4
A4
  6
AM_VIEW1
 40
5.87375
 41
5.873747999999999
 42
5.873749
 43
5.873749
 44
296.925995
 45
209.973328
 46
0.23
 47
0.0
 48
0.0
 49
0.0
140
395.0
141
275.0
142
1.0
143
1.387306581653326
 70
 28340
 72
     1
 73
     0
 74
     4
  7
aclt.ctb
 75
     0
147
0.7208212036363637
148
0.0
149
0.0
100
AcDbLayout
  1
Model
 70
     1
 71
     0
 10
0.0
 20
0.0
 11
12.0
 21
9.0
 12
0.0
 22
0.0
 32
0.0
 14
0.0
 24
0.0
 34
0.0
 15
0.0
 25
0.0
 35
0.0
146
0.0
 13
0.0
 23
0.0
 33
0.0
 16
1.0
 26
0.0
 36
0.0
 17
0.0
 27
1.0
 37
0.0
 76
     0
330
2
  0
LAYOUT
  5
13
102
{ACAD_REACTORS
330
D
102
}
330
D
100
AcDbPlotSettings
  1

  2
EPSON LP-9300
  4

  6

 40
0.0
 41
0.0
 42
0.0
 43
0.0
 44
0.0
 45
0.0
 46
0.0
 47
0.0
 48
0.0
 49
0.0
140
0.0
141
0.0
142
1.0
143
1.0
 70
   688
 72
     0
 73
     0
 74
     5
  7
aclt.ctb
 75
    16
147
1.0
148
0.0
149
0.0
100
AcDbLayout
  1
ﾚｲｱｳﾄ1
 70
     0
 71
     1
 10
0.0
 20
0.0
 11
12.0
 21
9.0
 12
0.0
 22
0.0
 32
0.0
 14
1.000000000000000E+20
 24
1.000000000000000E+20
 34
1.000000000000000E+20
 15
-1.000000000000000E+20
 25
-1.000000000000000E+20
 35
-1.000000000000000E+20
146
0.0
 13
0.0
 23
0.0
 33
0.0
 16
1.0
 26
0.0
 36
0.0
 17
0.0
 27
1.0
 37
0.0
 76
     0
330
E
  0
MLINESTYLE
  5
35
102
{ACAD_REACTORS
330
26
102
}
330
26
100
AcDbMlineStyle
  2
STANDARD
 70
     0
  3

 62
   256
 51
90.0
 52
90.0
 71
     2
 49
0.5
 62
   256
  6
BYLAYER
 49
-0.5
 62
   256
  6
BYLAYER
  0
ACDBPLACEHOLDER
  5
7
102
{ACAD_REACTORS
330
8
102
}
330
8
  0
DICTIONARYVAR
  5
628
102
{ACAD_REACTORS
330
626
102
}
330
626
100
DictionaryVariables
280
     0
  1
1
  0
DICTIONARYVAR
  5
627
102
{ACAD_REACTORS
330
626
102
}
330
626
100
DictionaryVariables
280
     0
  1
1
  0
ENDSEC
  0
EOF
