  0
SECTION
  2
HEADER
  9
$ACADVER
  1
AC1027
  9
$ACADMAINTVER
 70
    20
  9
$DWGCODEPAGE
  3
ANSI_932
  9
$LASTSAVEDBY
  1
hiroki nakayama
  9
$REQUIREDVERSIONS
160
                 0
  9
$INSBASE
 10
0.0
 20
0.0
 30
0.0
  9
$EXTMIN
 10
-0.0000003045362291
 20
-0.0000001921292778
 30
0.0
  9
$EXTMAX
 10
559.9999996954637
 20
399.9999998078707
 30
0.0
  9
$LIMMIN
 10
0.0
 20
0.0
  9
$LIMMAX
 10
59.40000000000001
 20
42.0
  9
$ORTHOMODE
 70
     0
  9
$REGENMODE
 70
     1
  9
$FILLMODE
 70
     1
  9
$QTEXTMODE
 70
     0
  9
$MIRRTEXT
 70
     1
  9
$LTSCALE
 40
5.0
  9
$ATTMODE
 70
     1
  9
$TEXTSIZE
 40
3.5
  9
$TRACEWID
 40
0.05
  9
$TEXTSTYLE
  7
STANDARD
  9
$CLAYER
  8
0
  9
$CELTYPE
  6
BYLAYER
  9
$CECOLOR
 62
   256
  9
$CELTSCALE
 40
1.0
  9
$DISPSILH
 70
     0
  9
$DIMSCALE
 40
1.0
  9
$DIMASZ
 40
2.0
  9
$DIMEXO
 40
1.0
  9
$DIMDLI
 40
0.0
  9
$DIMRND
 40
0.0
  9
$DIMDLE
 40
0.0
  9
$DIMEXE
 40
0.0
  9
$DIMTP
 40
0.0
  9
$DIMTM
 40
0.0
  9
$DIMTXT
 40
3.0
  9
$DIMCEN
 40
0.0
  9
$DIMTSZ
 40
0.0
  9
$DIMTOL
 70
     0
  9
$DIMLIM
 70
     0
  9
$DIMTIH
 70
     0
  9
$DIMTOH
 70
     0
  9
$DIMSE1
 70
     0
  9
$DIMSE2
 70
     0
  9
$DIMTAD
 70
     3
  9
$DIMZIN
 70
     8
  9
$DIMBLK
  1

  9
$DIMASO
 70
     1
  9
$DIMSHO
 70
     1
  9
$DIMPOST
  1

  9
$DIMAPOST
  1

  9
$DIMALT
 70
     0
  9
$DIMALTD
 70
     2
  9
$DIMALTF
 40
25.4
  9
$DIMLFAC
 40
1.0
  9
$DIMTOFL
 70
     1
  9
$DIMTVP
 40
1.0
  9
$DIMTIX
 70
     0
  9
$DIMSOXD
 70
     0
  9
$DIMSAH
 70
     0
  9
$DIMBLK1
  1

  9
$DIMBLK2
  1

  9
$DIMSTYLE
  2
S1
  9
$DIMCLRD
 70
     0
  9
$DIMCLRE
 70
     0
  9
$DIMCLRT
 70
     0
  9
$DIMTFAC
 40
0.7
  9
$DIMGAP
 40
1.0
  9
$DIMJUST
 70
     0
  9
$DIMSD1
 70
     0
  9
$DIMSD2
 70
     0
  9
$DIMTOLJ
 70
     2
  9
$DIMTZIN
 70
     8
  9
$DIMALTZ
 70
     8
  9
$DIMALTTZ
 70
     8
  9
$DIMUPT
 70
     0
  9
$DIMDEC
 70
     2
  9
$DIMTDEC
 70
     2
  9
$DIMALTU
 70
     2
  9
$DIMALTTD
 70
     2
  9
$DIMTXSTY
  7
STANDARD
  9
$DIMAUNIT
 70
     0
  9
$DIMADEC
 70
     2
  9
$DIMALTRND
 40
0.0
  9
$DIMAZIN
 70
     2
  9
$DIMDSEP
 70
    46
  9
$DIMATFIT
 70
     3
  9
$DIMFRAC
 70
     0
  9
$DIMLDRBLK
  1

  9
$DIMLUNIT
 70
     2
  9
$DIMLWD
 70
    -2
  9
$DIMLWE
 70
    -2
  9
$DIMTMOVE
 70
     1
  9
$DIMFXL
 40
1.0
  9
$DIMFXLON
 70
     0
  9
$DIMJOGANG
 40
0.7853981633974483
  9
$DIMTFILL
 70
     0
  9
$DIMTFILLCLR
 70
     0
  9
$DIMARCSYM
 70
     0
  9
$DIMLTYPE
  6

  9
$DIMLTEX1
  6

  9
$DIMLTEX2
  6

  9
$DIMTXTDIRECTION
 70
     0
  9
$LUNITS
 70
     2
  9
$LUPREC
 70
     4
  9
$SKETCHINC
 40
0.1
  9
$FILLETRAD
 40
0.0
  9
$AUNITS
 70
     0
  9
$AUPREC
 70
     0
  9
$MENU
  1
acad
  9
$ELEVATION
 40
0.0
  9
$PELEVATION
 40
0.0
  9
$THICKNESS
 40
0.0
  9
$LIMCHECK
 70
     0
  9
$CHAMFERA
 40
10.0
  9
$CHAMFERB
 40
10.0
  9
$CHAMFERC
 40
20.0
  9
$CHAMFERD
 40
0.0
  9
$SKPOLY
 70
     0
  9
$TDCREATE
 40
2450912.645647222
  9
$TDUCREATE
 40
2450912.270647222
  9
$TDUPDATE
 40
2458249.390507199
  9
$TDUUPDATE
 40
2458249.015507199
  9
$TDINDWG
 40
5.7905056713
  9
$TDUSRTIMER
 40
5.7905056713
  9
$USRTIMER
 70
     1
  9
$ANGBASE
 50
0.0
  9
$ANGDIR
 70
     0
  9
$PDMODE
 70
     0
  9
$PDSIZE
 40
0.0
  9
$PLINEWID
 40
0.0
  9
$SPLFRAME
 70
     0
  9
$SPLINETYPE
 70
     6
  9
$SPLINESEGS
 70
     8
  9
$HANDSEED
  5
828E
  9
$SURFTAB1
 70
     6
  9
$SURFTAB2
 70
     6
  9
$SURFTYPE
 70
     6
  9
$SURFU
 70
     6
  9
$SURFV
 70
     6
  9
$UCSBASE
  2

  9
$UCSNAME
  2

  9
$UCSORG
 10
0.0
 20
0.0
 30
0.0
  9
$UCSXDIR
 10
1.0
 20
0.0
 30
0.0
  9
$UCSYDIR
 10
0.0
 20
1.0
 30
0.0
  9
$UCSORTHOREF
  2

  9
$UCSORTHOVIEW
 70
     0
  9
$UCSORGTOP
 10
0.0
 20
0.0
 30
0.0
  9
$UCSORGBOTTOM
 10
0.0
 20
0.0
 30
0.0
  9
$UCSORGLEFT
 10
0.0
 20
0.0
 30
0.0
  9
$UCSORGRIGHT
 10
0.0
 20
0.0
 30
0.0
  9
$UCSORGFRONT
 10
0.0
 20
0.0
 30
0.0
  9
$UCSORGBACK
 10
0.0
 20
0.0
 30
0.0
  9
$PUCSBASE
  2

  9
$PUCSNAME
  2

  9
$PUCSORG
 10
0.0
 20
0.0
 30
0.0
  9
$PUCSXDIR
 10
1.0
 20
0.0
 30
0.0
  9
$PUCSYDIR
 10
0.0
 20
1.0
 30
0.0
  9
$PUCSORTHOREF
  2

  9
$PUCSORTHOVIEW
 70
     0
  9
$PUCSORGTOP
 10
0.0
 20
0.0
 30
0.0
  9
$PUCSORGBOTTOM
 10
0.0
 20
0.0
 30
0.0
  9
$PUCSORGLEFT
 10
0.0
 20
0.0
 30
0.0
  9
$PUCSORGRIGHT
 10
0.0
 20
0.0
 30
0.0
  9
$PUCSORGFRONT
 10
0.0
 20
0.0
 30
0.0
  9
$PUCSORGBACK
 10
0.0
 20
0.0
 30
0.0
  9
$USERI1
 70
     0
  9
$USERI2
 70
     0
  9
$USERI3
 70
     0
  9
$USERI4
 70
     0
  9
$USERI5
 70
     0
  9
$USERR1
 40
0.0
  9
$USERR2
 40
0.0
  9
$USERR3
 40
0.0
  9
$USERR4
 40
0.0
  9
$USERR5
 40
0.0
  9
$WORLDVIEW
 70
     1
  9
$SHADEDGE
 70
     3
  9
$SHADEDIF
 70
    70
  9
$TILEMODE
 70
     1
  9
$MAXACTVP
 70
    16
  9
$PINSBASE
 10
0.0
 20
0.0
 30
0.0
  9
$PLIMCHECK
 70
     0
  9
$PEXTMIN
 10
1.000000000000000E+20
 20
1.000000000000000E+20
 30
1.000000000000000E+20
  9
$PEXTMAX
 10
-1.000000000000000E+20
 20
-1.000000000000000E+20
 30
-1.000000000000000E+20
  9
$PLIMMIN
 10
0.0
 20
0.0
  9
$PLIMMAX
 10
12.0
 20
9.0
  9
$UNITMODE
 70
     0
  9
$VISRETAIN
 70
     0
  9
$PLINEGEN
 70
     0
  9
$PSLTSCALE
 70
     1
  9
$TREEDEPTH
 70
  3020
  9
$CMLSTYLE
  2
STANDARD
  9
$CMLJUST
 70
     0
  9
$CMLSCALE
 40
20.0
  9
$PROXYGRAPHICS
 70
     1
  9
$MEASUREMENT
 70
     0
  9
$CELWEIGHT
370
    -1
  9
$ENDCAPS
280
     0
  9
$JOINSTYLE
280
     0
  9
$LWDISPLAY
290
     0
  9
$INSUNITS
 70
     0
  9
$HYPERLINKBASE
  1

  9
$STYLESHEET
  1
CanonLBP-830 light.ctb
  9
$XEDIT
290
     1
  9
$CEPSNTYPE
380
     0
  9
$PSTYLEMODE
290
     1
  9
$FINGERPRINTGUID
  2
{5E0348CB-91E9-11D7-A9B7-00074088341F}
  9
$VERSIONGUID
  2
{939D01BE-AD82-486C-8A46-D9159779B74F}
  9
$EXTNAMES
290
     1
  9
$PSVPSCALE
 40
0.0
  9
$OLESTARTUP
290
     0
  9
$SORTENTS
280
   127
  9
$INDEXCTL
280
     0
  9
$HIDETEXT
280
     0
  9
$XCLIPFRAME
280
     2
  9
$HALOGAP
280
     0
  9
$OBSCOLOR
 70
   257
  9
$OBSLTYPE
280
     0
  9
$INTERSECTIONDISPLAY
280
     0
  9
$INTERSECTIONCOLOR
 70
   257
  9
$DIMASSOC
280
     1
  9
$PROJECTNAME
  1

  9
$CAMERADISPLAY
290
     0
  9
$LENSLENGTH
 40
50.0
  9
$CAMERAHEIGHT
 40
0.0
  9
$STEPSPERSEC
 40
2.0
  9
$STEPSIZE
 40
6.0
  9
$3DDWFPREC
 40
2.0
  9
$PSOLWIDTH
 40
0.25
  9
$PSOLHEIGHT
 40
4.0
  9
$LOFTANG1
 40
1.570796326794896
  9
$LOFTANG2
 40
1.570796326794896
  9
$LOFTMAG1
 40
0.0
  9
$LOFTMAG2
 40
0.0
  9
$LOFTPARAM
 70
     7
  9
$LOFTNORMALS
280
     1
  9
$LATITUDE
 40
37.795
  9
$LONGITUDE
 40
-122.394
  9
$NORTHDIRECTION
 40
0.0
  9
$TIMEZONE
 70
 -8000
  9
$LIGHTGLYPHDISPLAY
280
     1
  9
$TILEMODELIGHTSYNCH
280
     1
  9
$CMATERIAL
347
C71
  9
$SOLIDHIST
280
     0
  9
$SHOWHIST
280
     1
  9
$DWFFRAME
280
     2
  9
$DGNFRAME
280
     0
  9
$REALWORLDSCALE
290
     1
  9
$INTERFERECOLOR
 62
     1
  9
$INTERFEREOBJVS
345
C7E
  9
$INTERFEREVPVS
346
12C5
  9
$CSHADOW
280
     0
  9
$SHADOWPLANELOCATION
 40
0.0
  0
ENDSEC
  0
SECTION
  2
CLASSES
  0
CLASS
  1
ACDBDICTIONARYWDFLT
  2
AcDbDictionaryWithDefault
  3
ObjectDBX Classes
 90
        0
 91
        1
280
     0
281
     0
  0
CLASS
  1
DICTIONARYVAR
  2
AcDbDictionaryVar
  3
ObjectDBX Classes
 90
        0
 91
       13
280
     0
281
     0
  0
CLASS
  1
SORTENTSTABLE
  2
AcDbSortentsTable
  3
ObjectDBX Classes
 90
        0
 91
        2
280
     0
281
     0
  0
CLASS
  1
MATERIAL
  2
AcDbMaterial
  3
ObjectDBX Classes
 90
     1153
 91
        3
280
     0
281
     0
  0
CLASS
  1
VISUALSTYLE
  2
AcDbVisualStyle
  3
ObjectDBX Classes
 90
     4095
 91
       26
280
     0
281
     0
  0
CLASS
  1
TABLESTYLE
  2
AcDbTableStyle
  3
ObjectDBX Classes
 90
     4095
 91
        1
280
     0
281
     0
  0
CLASS
  1
ACAD_EVALUATION_GRAPH
  2
AcDbEvalGraph
  3
ObjectDBX Classes
 90
     1153
 91
        0
280
     0
281
     0
  0
CLASS
  1
ACAECUSTOBJ
  2
AcAeEditorObj
  3
AcAeEditorObj
 90
     1024
 91
        0
280
     0
281
     0
  0
CLASS
  1
ACDB_DYNAMICBLOCKPURGEPREVENTER_VERSION
  2
AcDbDynamicBlockPurgePreventer
  3
ObjectDBX Classes
 90
     1153
 91
        0
280
     0
281
     0
  0
CLASS
  1
SCALE
  2
AcDbScale
  3
ObjectDBX Classes
 90
     1153
 91
       17
280
     0
281
     0
  0
CLASS
  1
MLEADERSTYLE
  2
AcDbMLeaderStyle
  3
ACDB_MLEADERSTYLE_CLASS
 90
     4095
 91
        2
280
     0
281
     0
  0
CLASS
  1
ACDBSECTIONVIEWSTYLE
  2
AcDbSectionViewStyle
  3
ObjectDBX Classes
 90
     1025
 91
        1
280
     0
281
     0
  0
CLASS
  1
ACDBDETAILVIEWSTYLE
  2
AcDbDetailViewStyle
  3
ObjectDBX Classes
 90
     1025
 91
        1
280
     0
281
     0
  0
CLASS
  1
MULTILEADER
  2
AcDbMLeader
  3
ACDB_MLEADER_CLASS
 90
     1025
 91
        0
280
     0
281
     1
  0
CLASS
  1
CELLSTYLEMAP
  2
AcDbCellStyleMap
  3
ObjectDBX Classes
 90
     1152
 91
        1
280
     0
281
     0
  0
CLASS
  1
SOLID_BACKGROUND
  2
AcDbSolidBackground
  3
SCENEOE
 90
     4095
 91
        0
280
     0
281
     0
  0
CLASS
  1
NPOCOLLECTION
  2
AcDbImpNonPersistentObjectsCollection
  3
ObjectDBX Classes
 90
     1153
 91
        0
280
     0
281
     0
  0
CLASS
  1
BREAKDATA
  2
AcDbBreakData
  3
ObjectDBX Classes
 90
     1024
 91
        0
280
     0
281
     0
  0
CLASS
  1
LSSTROKEPATTERNCOMPONENT
  2
AcDbLSStrokePatternComponent
  3
AcDgnLS
 90
        0
 91
       45
280
     0
281
     0
  0
CLASS
  1
LSINTERNALCOMPONENT
  2
AcDbLSInternalComponent
  3
AcDgnLS
 90
        0
 91
       90
280
     0
281
     0
  0
ENDSEC
  0
SECTION
  2
TABLES
  0
TABLE
  2
VPORT
  5
1D
102
{ACAD_XDICTIONARY
360
E64
102
}
330
0
100
AcDbSymbolTable
 70
     1
  0
VPORT
  5
C33
330
1D
100
AcDbSymbolTableRecord
100
AcDbViewportTableRecord
  2
*Active
 70
     0
 10
0.0
 20
0.0
 11
1.0
 21
1.0
 12
279.9899177378512
 22
199.9908444665376
 13
0.0
 23
0.0
 14
1.399999999999999
 24
1.399999999999999
 15
1.0
 25
1.0
 16
0.0
 26
0.0
 36
1.0
 17
0.0
 27
0.0
 37
0.0
 40
402.8921492319542
 41
2.11358574610245
 42
50.0
 43
0.0
 44
0.0
 50
0.0
 51
0.0
 71
     0
 72
   100
 73
     1
 74
     0
 75
     0
 76
     0
 77
     0
 78
     2
281
     0
 65
     1
110
0.0
120
0.0
130
0.0
111
1.0
121
0.0
131
0.0
112
0.0
122
1.0
132
0.0
 79
     0
146
0.0
348
C7A
 60
     3
 61
     5
292
     1
282
     1
141
0.0
142
0.0
 63
   250
421
  3355443
1001
ACAD_NAV_VCDISPLAY
1070
     3
  0
ENDTAB
  0
TABLE
  2
LTYPE
  5
18
330
0
100
AcDbSymbolTable
 70
     3
  0
LTYPE
  5
19
330
18
100
AcDbSymbolTableRecord
100
AcDbLinetypeTableRecord
  2
BYBLOCK
 70
     0
  3

 72
    65
 73
     0
 40
0.0
  0
LTYPE
  5
1A
330
18
100
AcDbSymbolTableRecord
100
AcDbLinetypeTableRecord
  2
BYLAYER
 70
     0
  3

 72
    65
 73
     0
 40
0.0
  0
LTYPE
  5
A
330
18
100
AcDbSymbolTableRecord
100
AcDbLinetypeTableRecord
  2
CONTINUOUS
 70
     0
  3
Solid line
 72
    65
 73
     0
 40
0.0
  0
LTYPE
  5
E14
330
18
100
AcDbSymbolTableRecord
100
AcDbLinetypeTableRecord
  2
CENTER
 70
     0
  3
____ _ ____ _ ____ _ ____ _ ____ _ ____ _ ____ 
 72
    65
 73
     4
 40
2.0
 49
1.25
 74
     0
 49
-0.25
 74
     0
 49
0.25
 74
     0
 49
-0.25
 74
     0
  0
LTYPE
  5
12E4
330
18
100
AcDbSymbolTableRecord
100
AcDbLinetypeTableRecord
  2
PHANTOM2
 70
     0
  3
___ _ _ ___ _ _ ___ _ _ ___ _ _
 72
    65
 73
     6
 40
1.25
 49
0.625
 74
     0
 49
-0.125
 74
     0
 49
0.125
 74
     0
 49
-0.125
 74
     0
 49
0.125
 74
     0
 49
-0.125
 74
     0
  0
ENDTAB
  0
TABLE
  2
LAYER
  5
14
102
{ACAD_XDICTIONARY
360
115
102
}
330
0
100
AcDbSymbolTable
 70
     3
  0
LAYER
  5
6
102
{ACAD_XDICTIONARY
360
12FA
102
}
330
14
100
AcDbSymbolTableRecord
100
AcDbLayerTableRecord
  2
0
 70
     0
 62
     7
  6
CONTINUOUS
370
    -3
390
7
347
C73
348
0
  0
LAYER
  5
111
102
{ACAD_XDICTIONARY
360
1304
102
}
330
14
100
AcDbSymbolTableRecord
100
AcDbLayerTableRecord
  2
WAKU
 70
     0
 62
     7
  6
CONTINUOUS
370
    -3
390
7
347
C73
348
0
  0
LAYER
  5
399
330
14
100
AcDbSymbolTableRecord
100
AcDbLayerTableRecord
  2
DEFPOINTS
 70
     0
 62
     6
  6
CONTINUOUS
290
     0
370
    -3
390
7
347
C73
348
0
  0
ENDTAB
  0
TABLE
  2
STYLE
  5
15
330
0
100
AcDbSymbolTable
 70
     1
  0
STYLE
  5
16
330
15
100
AcDbSymbolTableRecord
100
AcDbTextStyleTableRecord
  2
STANDARD
 70
     0
 40
0.0
 41
0.8
 50
0.0
 71
     0
 42
3.5
  3
romans.shx
  4
extfont.shx
  0
ENDTAB
  0
TABLE
  2
VIEW
  5
1B
330
0
100
AcDbSymbolTable
 70
     0
  0
ENDTAB
  0
TABLE
  2
UCS
  5
1C
330
0
100
AcDbSymbolTable
 70
     0
  0
ENDTAB
  0
TABLE
  2
APPID
  5
1F
330
0
100
AcDbSymbolTable
 70
    25
  0
APPID
  5
20
330
1F
100
AcDbSymbolTableRecord
100
AcDbRegAppTableRecord
  2
ACAD
 70
     0
  0
APPID
  5
606
330
1F
100
AcDbSymbolTableRecord
100
AcDbRegAppTableRecord
  2
ASKOBJSC
 70
     0
  0
APPID
  5
607
330
1F
100
AcDbSymbolTableRecord
100
AcDbRegAppTableRecord
  2
ASKDWGSC
 70
     0
  0
APPID
  5
C67
330
1F
100
AcDbSymbolTableRecord
100
AcDbRegAppTableRecord
  2
CONTENTBLOCKICON
 70
     0
  0
APPID
  5
D1F
330
1F
100
AcDbSymbolTableRecord
100
AcDbRegAppTableRecord
  2
ACAD_EXEMPT_FROM_CAD_STANDARDS
 70
     0
  0
APPID
  5
1107
330
1F
100
AcDbSymbolTableRecord
100
AcDbRegAppTableRecord
  2
ACAUTHENVIRON
 70
     0
  0
APPID
  5
110B
330
1F
100
AcDbSymbolTableRecord
100
AcDbRegAppTableRecord
  2
AcDbDynamicBlockTrueName
 70
     0
  0
APPID
  5
110C
330
1F
100
AcDbSymbolTableRecord
100
AcDbRegAppTableRecord
  2
AcDbDynamicBlockGUID
 70
     0
  0
APPID
  5
110E
330
1F
100
AcDbSymbolTableRecord
100
AcDbRegAppTableRecord
  2
AcDbBlockRepETag
 70
     0
  0
APPID
  5
12EF
330
1F
100
AcDbSymbolTableRecord
100
AcDbRegAppTableRecord
  2
ACAD_NAV_VCDISPLAY
 70
     0
  0
APPID
  5
12F0
330
1F
100
AcDbSymbolTableRecord
100
AcDbRegAppTableRecord
  2
ACAD_DSTYLE_DIMJAG
 70
     0
  0
APPID
  5
12F1
330
1F
100
AcDbSymbolTableRecord
100
AcDbRegAppTableRecord
  2
ACAD_DSTYLE_DIMBREAK
 70
     0
  0
APPID
  5
12F2
330
1F
100
AcDbSymbolTableRecord
100
AcDbRegAppTableRecord
  2
ACAD_DSTYLE_DIMTALN
 70
     0
  0
APPID
  5
1362
330
1F
100
AcDbSymbolTableRecord
100
AcDbRegAppTableRecord
  2
ACAD_MLEADERVER
 70
     0
  0
APPID
  5
13D5
330
1F
100
AcDbSymbolTableRecord
100
AcDbRegAppTableRecord
  2
GENIUS_GENODEF_13
 70
     0
  0
APPID
  5
13D6
330
1F
100
AcDbSymbolTableRecord
100
AcDbRegAppTableRecord
  2
GENIUS_GENOBJ-N-CEN_13
 70
     0
  0
APPID
  5
13D7
330
1F
100
AcDbSymbolTableRecord
100
AcDbRegAppTableRecord
  2
GENIUS_GENOBJ-N-FIL_13
 70
     0
  0
APPID
  5
13D8
330
1F
100
AcDbSymbolTableRecord
100
AcDbRegAppTableRecord
  2
GENIUS_GENREC_14
 70
     0
  0
APPID
  5
13D9
330
1F
100
AcDbSymbolTableRecord
100
AcDbRegAppTableRecord
  2
GENIUS_GENOBJ-N-REC_13
 70
     0
  0
APPID
  5
13DA
330
1F
100
AcDbSymbolTableRecord
100
AcDbRegAppTableRecord
  2
ACAD_PSEXT
 70
     0
  0
APPID
  5
1B9A
330
1F
100
AcDbSymbolTableRecord
100
AcDbRegAppTableRecord
  2
GradientColor1ACI
 70
     0
  0
APPID
  5
1B9B
330
1F
100
AcDbSymbolTableRecord
100
AcDbRegAppTableRecord
  2
GradientColor2ACI
 70
     0
  0
APPID
  5
508C
330
1F
100
AcDbSymbolTableRecord
100
AcDbRegAppTableRecord
  2
ACAD_DSTYLE_DIMRADIAL_EXTENSION
 70
     0
  0
APPID
  5
5236
330
1F
100
AcDbSymbolTableRecord
100
AcDbRegAppTableRecord
  2
AcadAnnoMonitorAlertIconDisabled
 70
     0
  0
APPID
  5
5CC8
330
1F
100
AcDbSymbolTableRecord
100
AcDbRegAppTableRecord
  2
ACAD_DSTYLE_DIMJAG_POSITION
 70
     0
  0
ENDTAB
  0
TABLE
  2
DIMSTYLE
  5
21
330
0
100
AcDbSymbolTable
 70
     2
100
AcDbDimStyleTable
 71
     1
340
104D
  0
DIMSTYLE
105
104D
330
21
100
AcDbSymbolTableRecord
100
AcDbDimStyleTableRecord
  2
S1
 70
     0
 41
2.0
 42
1.0
 43
0.0
 44
0.0
 73
     0
 74
     0
 77
     3
 78
     8
 79
     2
140
3.0
141
0.0
145
1.0
146
0.7
147
1.0
172
     1
179
     2
271
     2
272
     2
279
     1
283
     2
284
     8
285
     8
286
     8
340
16
  0
DIMSTYLE
105
104E
102
{ACAD_REACTORS
330
5B2F
330
7F2C
330
7F39
330
5277
330
5284
330
5312
330
5305
330
531F
330
51EC
330
520B
330
51FE
330
51DF
102
}
330
21
100
AcDbSymbolTableRecord
100
AcDbDimStyleTableRecord
  2
S1$0
 70
     0
 41
0.8
 42
1.0
 43
0.0
 44
0.0
 73
     0
 74
     0
 77
     3
 78
     8
 79
     2
140
3.0
141
0.0
145
1.0
146
0.7
147
1.0
172
     1
179
     2
271
     2
272
     2
279
     1
283
     2
284
     8
285
     8
286
     8
340
16
342
DBC
  0
ENDTAB
  0
TABLE
  2
BLOCK_RECORD
  5
1
330
0
100
AcDbSymbolTable
 70
    14
  0
BLOCK_RECORD
  5
2
102
{ACAD_XDICTIONARY
360
3
102
}
330
1
100
AcDbSymbolTableRecord
100
AcDbBlockTableRecord
  2
*MODEL_SPACE
340
C
 70
     0
280
     1
281
     0
  0
BLOCK_RECORD
  5
E
102
{ACAD_XDICTIONARY
360
F
102
}
330
1
100
AcDbSymbolTableRecord
100
AcDbBlockTableRecord
  2
*PAPER_SPACE
340
13
 70
     0
280
     1
281
     0
  0
BLOCK_RECORD
  5
DBC
330
1
100
AcDbSymbolTableRecord
100
AcDbBlockTableRecord
  2
_Dot
340
0
310
2800000020000000200000000100080000000000000400000000000000000000000000000000000000000000000080000080000000808000800000008000800080800000C0C0C000C0DCC000F0CAA6000020400000206000002080000020A0000020C0000020E00000400000004020000040400000406000004080000040A0
310
000040C0000040E00000600000006020000060400000606000006080000060A0000060C0000060E00000800000008020000080400000806000008080000080A0000080C0000080E00000A0000000A0200000A0400000A0600000A0800000A0A00000A0C00000A0E00000C0000000C0200000C0400000C0600000C0800000C0
310
A00000C0C00000C0E00000E0000000E0200000E0400000E0600000E0800000E0A00000E0C00000E0E00040000000400020004000400040006000400080004000A0004000C0004000E00040200000402020004020400040206000402080004020A0004020C0004020E000404000004040200040404000404060004040800040
310
40A0004040C0004040E00040600000406020004060400040606000406080004060A0004060C0004060E00040800000408020004080400040806000408080004080A0004080C0004080E00040A0000040A0200040A0400040A0600040A0800040A0A00040A0C00040A0E00040C0000040C0200040C0400040C0600040C08000
310
40C0A00040C0C00040C0E00040E0000040E0200040E0400040E0600040E0800040E0A00040E0C00040E0E00080000000800020008000400080006000800080008000A0008000C0008000E00080200000802020008020400080206000802080008020A0008020C0008020E00080400000804020008040400080406000804080
310
008040A0008040C0008040E00080600000806020008060400080606000806080008060A0008060C0008060E00080800000808020008080400080806000808080008080A0008080C0008080E00080A0000080A0200080A0400080A0600080A0800080A0A00080A0C00080A0E00080C0000080C0200080C0400080C0600080C0
310
800080C0A00080C0C00080C0E00080E0000080E0200080E0400080E0600080E0800080E0A00080E0C00080E0E000C0000000C0002000C0004000C0006000C0008000C000A000C000C000C000E000C0200000C0202000C0204000C0206000C0208000C020A000C020C000C020E000C0400000C0402000C0404000C0406000C0
310
408000C040A000C040C000C040E000C0600000C0602000C0604000C0606000C0608000C060A000C060C000C060E000C0800000C0802000C0804000C0806000C0808000C080A000C080C000C080E000C0A00000C0A02000C0A04000C0A06000C0A08000C0A0A000C0A0C000C0A0E000C0C00000C0C02000C0C04000C0C06000
310
C0C08000C0C0A000F0FBFF00A4A0A000808080000000FF0000FF000000FFFF00FF000000FF00FF00FFFF0000FFFFFF0000000000000000000000000000000000000000000000000000000000000000000000000000000000000000000000000000000000000000000000000000000000000000000000000000000000000000
310
000000000000000000000000000000000000000000000000000000000000000000000000000000000000000000000000000000000000000000000000000000000000000000000000000000000000000000000000000000000000000000000000000000FFFFFFFFFFFFFFFFFFFFFFFFFF000000000000000000000000000000
310
000000FF00FF000000000000000000FF00FF0000000000000000000000000000000000FF00FF000000000000000000FF00FF00000000000000000000000000000000FF000000FF00000000000000FF00000000000000000000000000000000000000FF000000FF00000000000000FF00000000000000000000000000000000
310
0000FF0000000000FF0000000000FF00000000000000000000000000000000000000FF0000000000FF0000000000FF000000000000000000000000000000000000FF00000000000000FF000000FF00000000000000000000000000000000000000FF00000000000000FF000000FF0000000000000000000000000000000000
310
00FF000000000000000000FF00FF00000000000000000000000000000000000000FF000000000000000000FFFFFF00000000FFFF00FFFFFFFFFFFFFFFFFFFFFFFFFFFFFFFFFFFFFFFFFFFFFFFFFFFFFFFFFF000000000000000000000000000000FF000000000000000000FF00FF0000000000000000000000000000000000
310
0000FF0000000000000000FF000000FF00000000000000000000000000000000000000FF00000000000000FF000000FF00000000000000000000000000000000000000FF000000000000FF0000000000FF00000000000000000000000000000000000000FF0000000000FF0000000000FF0000000000000000000000000000
310
000000000000FF000000FF00000000000000FF00000000000000000000000000000000000000FF000000FF00000000000000FF0000000000000000000000000000000000000000FF00FF000000000000000000FF00FF0000000000000000000000000000000000FF00FF000000000000000000FF00FF000000000000000000
310
000000000000000000FFFFFFFFFFFFFFFFFFFFFFFFFF000000000000000000000000000000000000000000000000000000000000000000000000000000000000000000000000000000000000000000000000000000000000000000000000000000000000000000000000000000000000000000000000000000000000000000
310
0000000000000000000000000000000000000000000000000000000000000000000000000000000000000000000000000000000000000000
102
{BLKREFS
331
8107
331
8108
331
8110
331
8111
331
8118
331
8119
331
8121
331
8122
331
812B
331
812C
331
813C
331
813D
331
8145
331
8146
331
814E
331
814F
331
815C
331
815D
331
8164
331
8165
331
816D
331
816E
331
817D
331
817E
102
}
 70
     0
280
     1
281
     0
  0
BLOCK_RECORD
  5
51E0
330
1
100
AcDbSymbolTableRecord
100
AcDbBlockTableRecord
  2
*D1
340
0
 70
     0
280
     1
281
     0
  0
BLOCK_RECORD
  5
51ED
330
1
100
AcDbSymbolTableRecord
100
AcDbBlockTableRecord
  2
*D2
340
0
 70
     0
280
     1
281
     0
  0
BLOCK_RECORD
  5
51FF
330
1
100
AcDbSymbolTableRecord
100
AcDbBlockTableRecord
  2
*D3
340
0
 70
     0
280
     1
281
     0
  0
BLOCK_RECORD
  5
520C
330
1
100
AcDbSymbolTableRecord
100
AcDbBlockTableRecord
  2
*D4
340
0
 70
     0
280
     1
281
     0
  0
BLOCK_RECORD
  5
5278
330
1
100
AcDbSymbolTableRecord
100
AcDbBlockTableRecord
  2
*D5
340
0
 70
     0
280
     1
281
     0
  0
BLOCK_RECORD
  5
5285
330
1
100
AcDbSymbolTableRecord
100
AcDbBlockTableRecord
  2
*D6
340
0
 70
     0
280
     1
281
     0
  0
BLOCK_RECORD
  5
5306
330
1
100
AcDbSymbolTableRecord
100
AcDbBlockTableRecord
  2
*D7
340
0
 70
     0
280
     1
281
     0
  0
BLOCK_RECORD
  5
5313
330
1
100
AcDbSymbolTableRecord
100
AcDbBlockTableRecord
  2
*D8
340
0
 70
     0
280
     1
281
     0
  0
BLOCK_RECORD
  5
5320
330
1
100
AcDbSymbolTableRecord
100
AcDbBlockTableRecord
  2
*D9
340
0
 70
     0
280
     1
281
     0
  0
BLOCK_RECORD
  5
5B30
330
1
100
AcDbSymbolTableRecord
100
AcDbBlockTableRecord
  2
*D10
340
0
 70
     0
280
     1
281
     0
  0
BLOCK_RECORD
  5
75BF
102
{ACAD_XDICTIONARY
360
75D7
102
}
330
1
100
AcDbSymbolTableRecord
100
AcDbBlockTableRecord
  2
A$C49292785
340
0
102
{BLKREFS
331
75DB
331
75DC
102
}
 70
     0
280
     1
281
     0
  0
BLOCK_RECORD
  5
7F2D
330
1
100
AcDbSymbolTableRecord
100
AcDbBlockTableRecord
  2
*D12
340
0
 70
     0
280
     1
281
     0
  0
BLOCK_RECORD
  5
7F3A
330
1
100
AcDbSymbolTableRecord
100
AcDbBlockTableRecord
  2
*D13
340
0
 70
     0
280
     1
281
     0
  0
ENDTAB
  0
ENDSEC
  0
SECTION
  2
BLOCKS
  0
BLOCK
  5
5
330
2
100
AcDbEntity
  8
0
100
AcDbBlockBegin
  2
*MODEL_SPACE
 70
     0
 10
0.0
 20
0.0
 30
0.0
  3
*MODEL_SPACE
  1

  0
ENDBLK
  5
B
330
2
100
AcDbEntity
  8
0
100
AcDbBlockEnd
  0
BLOCK
  5
11
330
E
100
AcDbEntity
 67
     1
  8
0
100
AcDbBlockBegin
  2
*PAPER_SPACE
 70
     0
 10
0.0
 20
0.0
 30
0.0
  3
*PAPER_SPACE
  1

  0
ENDBLK
  5
12
330
E
100
AcDbEntity
 67
     1
  8
0
100
AcDbBlockEnd
  0
BLOCK
  5
DBD
330
DBC
100
AcDbEntity
  8
0
100
AcDbBlockBegin
  2
_Dot
 70
     0
 10
0.0
 20
0.0
 30
0.0
  3
_Dot
  1

  0
LWPOLYLINE
  5
DBE
330
DBC
100
AcDbEntity
  8
0
  6
ByBlock
 62
     0
100
AcDbPolyline
 90
        2
 70
     1
 43
0.5
 10
-0.25
 20
0.0
 42
1.0
 10
0.25
 20
0.0
 42
1.0
  0
LINE
  5
DBF
330
DBC
100
AcDbEntity
  8
0
  6
ByBlock
 62
     0
370
    -2
100
AcDbLine
 10
-0.5
 20
0.0
 30
0.0
 11
-1.0
 21
0.0
 31
0.0
  0
ENDBLK
  5
DC0
330
DBC
100
AcDbEntity
  8
0
100
AcDbBlockEnd
  0
BLOCK
  5
51E1
330
51E0
100
AcDbEntity
  8
0
100
AcDbBlockBegin
  2
*D1
 70
     1
 10
0.0
 20
0.0
 30
0.0
  3
*D1
  1

  0
LINE
  5
814B
330
51E0
100
AcDbEntity
  8
0
 62
     0
440
 16777216
370
    -2
100
AcDbLine
 10
144.414943283861
 20
345.3658381621165
 30
0.0
 11
174.4149432838611
 21
345.3658381621165
 31
0.0
  0
LINE
  5
814C
330
51E0
100
AcDbEntity
  8
0
 62
     0
440
 16777216
370
    -2
100
AcDbLine
 10
144.414943283861
 20
85.36583816211642
 30
0.0
 11
174.414943283861
 21
85.3658381621164
 31
0.0
  0
LINE
  5
814D
330
51E0
100
AcDbEntity
  8
0
 62
     0
440
 16777216
370
    -2
100
AcDbLine
 10
174.4149432838611
 20
344.5658381621165
 30
0.0
 11
174.414943283861
 21
86.1658381621164
 31
0.0
  0
INSERT
  5
814E
330
51E0
100
AcDbEntity
  8
0
 62
     0
440
 16777216
370
    -2
100
AcDbBlockReference
  2
_Dot
 10
174.4149432838611
 20
345.3658381621165
 30
0.0
 41
0.8
 42
0.8
 43
0.8
 50
90.0
  0
INSERT
  5
814F
330
51E0
100
AcDbEntity
  8
0
 62
     0
440
 16777216
370
    -2
100
AcDbBlockReference
  2
_Dot
 10
174.414943283861
 20
85.3658381621164
 30
0.0
 41
0.8
 42
0.8
 43
0.8
 50
270.0
  0
MTEXT
  5
8150
330
51E0
100
AcDbEntity
  8
0
 62
     0
440
 16777216
100
AcDbMText
 10
171.914943283861
 20
215.3658381621165
 30
0.0
 40
3.0
 41
0.0
 46
0.0
 71
     5
 72
     1
  1
\A2;額縁内々寸法 H
 11
0.0000000000000001
 21
1.0
 31
0.0
 73
     1
 44
1.0
  0
POINT
  5
8151
330
51E0
100
AcDbEntity
  8
DEFPOINTS
 62
     0
440
 16777216
100
AcDbPoint
 10
143.414943283861
 20
345.3658381621165
 30
0.0
  0
POINT
  5
8152
330
51E0
100
AcDbEntity
  8
DEFPOINTS
 62
     0
440
 16777216
100
AcDbPoint
 10
143.414943283861
 20
85.36583816211642
 30
0.0
  0
POINT
  5
8153
330
51E0
100
AcDbEntity
  8
DEFPOINTS
 62
     0
440
 16777216
100
AcDbPoint
 10
174.414943283861
 20
85.3658381621164
 30
0.0
  0
ENDBLK
  5
51E2
330
51E0
100
AcDbEntity
  8
0
100
AcDbBlockEnd
  0
BLOCK
  5
51EE
330
51ED
100
AcDbEntity
  8
0
100
AcDbBlockBegin
  2
*D2
 70
     1
 10
0.0
 20
0.0
 30
0.0
  3
*D2
  1

  0
LINE
  5
8154
330
51ED
100
AcDbEntity
  8
0
 62
     0
440
 16777216
370
    -2
100
AcDbLine
 10
134.114943283861
 20
88.36583816211643
 30
0.0
 11
164.414943283861
 21
88.36583816211641
 31
0.0
  0
LINE
  5
8155
330
51ED
100
AcDbEntity
  8
0
 62
     0
440
 16777216
370
    -2
100
AcDbLine
 10
144.414943283861
 20
85.36583816211642
 30
0.0
 11
164.414943283861
 21
85.3658381621164
 31
0.0
  0
LINE
  5
8156
330
51ED
100
AcDbEntity
  8
0
 62
     0
440
 16777216
370
    -2
100
AcDbLine
 10
164.414943283861
 20
89.16583816211641
 30
0.0
 11
164.414943283861
 21
89.96583816211641
 31
0.0
  0
LINE
  5
8157
330
51ED
100
AcDbEntity
  8
0
 62
     0
440
 16777216
370
    -2
100
AcDbLine
 10
164.414943283861
 20
84.5658381621164
 30
0.0
 11
164.414943283861
 21
83.7658381621164
 31
0.0
  0
LINE
  5
8158
330
51ED
100
AcDbEntity
  8
0
 62
     0
440
 16777216
370
    -2
100
AcDbLine
 10
164.414943283861
 20
76.32139380909227
 30
0.0
 11
164.414943283861
 21
85.3658381621164
 31
0.0
  0
MTEXT
  5
8159
330
51ED
100
AcDbEntity
  8
0
 62
     0
440
 16777216
100
AcDbMText
 10
161.914943283861
 20
78.12139380909229
 30
0.0
 40
3.0
 41
0.0
 46
0.0
 71
     5
 72
     1
  1
\A2;3
 11
0.0000000000000001
 21
1.0
 31
0.0
 73
     1
 44
1.0
  0
LINE
  5
815A
330
51ED
100
AcDbEntity
  8
0
 62
     0
440
 16777216
370
    -2
100
AcDbLine
 10
164.414943283861
 20
88.36583816211641
 30
0.0
 11
164.414943283861
 21
85.3658381621164
 31
0.0
  0
LINE
  5
815B
330
51ED
100
AcDbEntity
  8
0
 62
     0
440
 16777216
370
    -2
100
AcDbLine
 10
164.414943283861
 20
88.36583816211641
 30
0.0
 11
164.414943283861
 21
85.3658381621164
 31
0.0
  0
INSERT
  5
815C
330
51ED
100
AcDbEntity
  8
0
 62
     0
440
 16777216
370
    -2
100
AcDbBlockReference
  2
_Dot
 10
164.414943283861
 20
88.36583816211641
 30
0.0
 41
0.8
 42
0.8
 43
0.8
 50
270.0
  0
INSERT
  5
815D
330
51ED
100
AcDbEntity
  8
0
 62
     0
440
 16777216
370
    -2
100
AcDbBlockReference
  2
_Dot
 10
164.414943283861
 20
85.3658381621164
 30
0.0
 41
0.8
 42
0.8
 43
0.8
 50
90.0
  0
POINT
  5
815E
330
51ED
100
AcDbEntity
  8
DEFPOINTS
 62
     0
440
 16777216
100
AcDbPoint
 10
133.114943283861
 20
88.36583816211643
 30
0.0
  0
POINT
  5
815F
330
51ED
100
AcDbEntity
  8
DEFPOINTS
 62
     0
440
 16777216
100
AcDbPoint
 10
143.414943283861
 20
85.36583816211642
 30
0.0
  0
POINT
  5
8160
330
51ED
100
AcDbEntity
  8
DEFPOINTS
 62
     0
440
 16777216
100
AcDbPoint
 10
164.414943283861
 20
85.3658381621164
 30
0.0
  0
ENDBLK
  5
51EF
330
51ED
100
AcDbEntity
  8
0
100
AcDbBlockEnd
  0
BLOCK
  5
5200
330
51FF
100
AcDbEntity
  8
0
100
AcDbBlockBegin
  2
*D3
 70
     1
 10
0.0
 20
0.0
 30
0.0
  3
*D3
  1

  0
LINE
  5
8161
330
51FF
100
AcDbEntity
  8
0
 62
     0
440
 16777216
370
    -2
100
AcDbLine
 10
134.114943283861
 20
88.36583816211641
 30
0.0
 11
164.414943283861
 21
88.36583816211641
 31
0.0
  0
LINE
  5
8162
330
51FF
100
AcDbEntity
  8
0
 62
     0
440
 16777216
370
    -2
100
AcDbLine
 10
134.114943283861
 20
335.3658381621164
 30
0.0
 11
164.414943283861
 21
335.3658381621164
 31
0.0
  0
LINE
  5
8163
330
51FF
100
AcDbEntity
  8
0
 62
     0
440
 16777216
370
    -2
100
AcDbLine
 10
164.414943283861
 20
89.16583816211639
 30
0.0
 11
164.414943283861
 21
334.5658381621164
 31
0.0
  0
INSERT
  5
8164
330
51FF
100
AcDbEntity
  8
0
 62
     0
440
 16777216
370
    -2
100
AcDbBlockReference
  2
_Dot
 10
164.414943283861
 20
88.36583816211641
 30
0.0
 41
0.8
 42
0.8
 43
0.8
 50
270.0
  0
INSERT
  5
8165
330
51FF
100
AcDbEntity
  8
0
 62
     0
440
 16777216
370
    -2
100
AcDbBlockReference
  2
_Dot
 10
164.414943283861
 20
335.3658381621164
 30
0.0
 41
0.8
 42
0.8
 43
0.8
 50
90.0
  0
MTEXT
  5
8166
330
51FF
100
AcDbEntity
  8
0
 62
     0
440
 16777216
100
AcDbMText
 10
161.914943283861
 20
211.8658381621165
 30
0.0
 40
3.0
 41
0.0
 46
0.0
 71
     5
 72
     1
  1
\A2;H-13
 11
0.0000000000000001
 21
1.0
 31
0.0
 73
     1
 44
1.0
  0
POINT
  5
8167
330
51FF
100
AcDbEntity
  8
DEFPOINTS
 62
     0
440
 16777216
100
AcDbPoint
 10
133.114943283861
 20
88.36583816211641
 30
0.0
  0
POINT
  5
8168
330
51FF
100
AcDbEntity
  8
DEFPOINTS
 62
     0
440
 16777216
100
AcDbPoint
 10
133.114943283861
 20
335.3658381621164
 30
0.0
  0
POINT
  5
8169
330
51FF
100
AcDbEntity
  8
DEFPOINTS
 62
     0
440
 16777216
100
AcDbPoint
 10
164.414943283861
 20
335.3658381621164
 30
0.0
  0
ENDBLK
  5
5201
330
51FF
100
AcDbEntity
  8
0
100
AcDbBlockEnd
  0
BLOCK
  5
520D
330
520C
100
AcDbEntity
  8
0
100
AcDbBlockBegin
  2
*D4
 70
     1
 10
0.0
 20
0.0
 30
0.0
  3
*D4
  1

  0
LINE
  5
816A
330
520C
100
AcDbEntity
  8
0
 62
     0
440
 16777216
370
    -2
100
AcDbLine
 10
134.114943283861
 20
335.3658381621164
 30
0.0
 11
164.414943283861
 21
335.3658381621164
 31
0.0
  0
LINE
  5
816B
330
520C
100
AcDbEntity
  8
0
 62
     0
440
 16777216
370
    -2
100
AcDbLine
 10
144.414943283861
 20
345.3658381621165
 30
0.0
 11
164.414943283861
 21
345.3658381621165
 31
0.0
  0
LINE
  5
816C
330
520C
100
AcDbEntity
  8
0
 62
     0
440
 16777216
370
    -2
100
AcDbLine
 10
164.414943283861
 20
336.1658381621164
 30
0.0
 11
164.414943283861
 21
344.5658381621165
 31
0.0
  0
INSERT
  5
816D
330
520C
100
AcDbEntity
  8
0
 62
     0
440
 16777216
370
    -2
100
AcDbBlockReference
  2
_Dot
 10
164.414943283861
 20
335.3658381621164
 30
0.0
 41
0.8
 42
0.8
 43
0.8
 50
270.0
  0
INSERT
  5
816E
330
520C
100
AcDbEntity
  8
0
 62
     0
440
 16777216
370
    -2
100
AcDbBlockReference
  2
_Dot
 10
164.414943283861
 20
345.3658381621165
 30
0.0
 41
0.8
 42
0.8
 43
0.8
 50
90.0
  0
MTEXT
  5
816F
330
520C
100
AcDbEntity
  8
0
 62
     0
440
 16777216
100
AcDbMText
 10
161.914943283861
 20
340.3658381621165
 30
0.0
 40
3.0
 41
0.0
 46
0.0
 71
     5
 72
     1
  1
\A2;10
 11
0.0000000000000001
 21
1.0
 31
0.0
 73
     1
 44
1.0
  0
POINT
  5
8170
330
520C
100
AcDbEntity
  8
DEFPOINTS
 62
     0
440
 16777216
100
AcDbPoint
 10
133.114943283861
 20
335.3658381621164
 30
0.0
  0
POINT
  5
8171
330
520C
100
AcDbEntity
  8
DEFPOINTS
 62
     0
440
 16777216
100
AcDbPoint
 10
143.414943283861
 20
345.3658381621165
 30
0.0
  0
POINT
  5
8172
330
520C
100
AcDbEntity
  8
DEFPOINTS
 62
     0
440
 16777216
100
AcDbPoint
 10
164.414943283861
 20
345.3658381621165
 30
0.0
  0
ENDBLK
  5
520E
330
520C
100
AcDbEntity
  8
0
100
AcDbBlockEnd
  0
BLOCK
  5
5279
330
5278
100
AcDbEntity
  8
0
100
AcDbBlockBegin
  2
*D5
 70
     1
 10
0.0
 20
0.0
 30
0.0
  3
*D5
  1

  0
LINE
  5
8103
330
5278
100
AcDbEntity
  8
0
 62
     0
440
 16777216
370
    -2
100
AcDbLine
 10
230.5141470085887
 20
126.6866085092766
 30
0.0
 11
230.5141470085887
 21
85.88660850927769
 31
0.0
  0
LINE
  5
8104
330
5278
100
AcDbEntity
  8
0
 62
     0
440
 16777216
370
    -2
100
AcDbLine
 10
524.5141470085882
 20
126.6866085092776
 30
0.0
 11
524.5141470085882
 21
85.88660850927769
 31
0.0
  0
LINE
  5
8105
330
5278
100
AcDbEntity
  8
0
 62
     0
440
 16777216
370
    -2
100
AcDbLine
 10
231.3141470085887
 20
85.88660850927769
 30
0.0
 11
523.7141470085882
 21
85.88660850927769
 31
0.0
  0
MTEXT
  5
8106
330
5278
100
AcDbEntity
  8
0
 62
     0
440
 16777216
100
AcDbMText
 10
377.5141470085885
 20
88.38660850927769
 30
0.0
 40
3.0
 41
0.0
 46
0.0
 71
     5
 72
     1
  1
\A2;額縁内々寸法 W
 73
     1
 44
1.0
  0
INSERT
  5
8107
330
5278
100
AcDbEntity
  8
0
 62
     0
440
 16777216
370
    -2
100
AcDbBlockReference
  2
_Dot
 10
230.5141470085887
 20
85.88660850927769
 30
0.0
 41
0.8
 42
0.8
 43
0.8
 50
180.0
  0
INSERT
  5
8108
330
5278
100
AcDbEntity
  8
0
 62
     0
440
 16777216
370
    -2
100
AcDbBlockReference
  2
_Dot
 10
524.5141470085882
 20
85.88660850927769
 30
0.0
 41
0.8
 42
0.8
 43
0.8
  0
POINT
  5
8109
330
5278
100
AcDbEntity
  8
DEFPOINTS
 62
     0
440
 16777216
100
AcDbPoint
 10
230.5141470085887
 20
127.6866085092766
 30
0.0
  0
POINT
  5
810A
330
5278
100
AcDbEntity
  8
DEFPOINTS
 62
     0
440
 16777216
100
AcDbPoint
 10
524.5141470085882
 20
127.6866085092776
 30
0.0
  0
POINT
  5
810B
330
5278
100
AcDbEntity
  8
DEFPOINTS
 62
     0
440
 16777216
100
AcDbPoint
 10
524.5141470085882
 20
85.88660850927769
 30
0.0
  0
ENDBLK
  5
527A
330
5278
100
AcDbEntity
  8
0
100
AcDbBlockEnd
  0
BLOCK
  5
5286
330
5285
100
AcDbEntity
  8
0
100
AcDbBlockBegin
  2
*D6
 70
     1
 10
0.0
 20
0.0
 30
0.0
  3
*D6
  1

  0
LINE
  5
810C
330
5285
100
AcDbEntity
  8
0
 62
     0
440
 16777216
370
    -2
100
AcDbLine
 10
342.5141470085887
 20
126.6866085092775
 30
0.0
 11
342.5141470085887
 21
95.88660850927769
 31
0.0
  0
LINE
  5
810D
330
5285
100
AcDbEntity
  8
0
 62
     0
440
 16777216
370
    -2
100
AcDbLine
 10
412.5141470085882
 20
126.6866085092766
 30
0.0
 11
412.5141470085882
 21
95.88660850927769
 31
0.0
  0
LINE
  5
810E
330
5285
100
AcDbEntity
  8
0
 62
     0
440
 16777216
370
    -2
100
AcDbLine
 10
343.3141470085887
 20
95.88660850927769
 30
0.0
 11
411.7141470085882
 21
95.88660850927769
 31
0.0
  0
MTEXT
  5
810F
330
5285
100
AcDbEntity
  8
0
 62
     0
440
 16777216
100
AcDbMText
 10
377.5141470085884
 20
98.38660850927769
 30
0.0
 40
3.0
 41
0.0
 46
0.0
 71
     5
 72
     1
  1
\A2;70
 73
     1
 44
1.0
  0
INSERT
  5
8110
330
5285
100
AcDbEntity
  8
0
 62
     0
440
 16777216
370
    -2
100
AcDbBlockReference
  2
_Dot
 10
342.5141470085887
 20
95.88660850927769
 30
0.0
 41
0.8
 42
0.8
 43
0.8
 50
180.0
  0
INSERT
  5
8111
330
5285
100
AcDbEntity
  8
0
 62
     0
440
 16777216
370
    -2
100
AcDbBlockReference
  2
_Dot
 10
412.5141470085882
 20
95.88660850927769
 30
0.0
 41
0.8
 42
0.8
 43
0.8
  0
POINT
  5
8112
330
5285
100
AcDbEntity
  8
DEFPOINTS
 62
     0
440
 16777216
100
AcDbPoint
 10
342.5141470085887
 20
127.6866085092775
 30
0.0
  0
POINT
  5
8113
330
5285
100
AcDbEntity
  8
DEFPOINTS
 62
     0
440
 16777216
100
AcDbPoint
 10
412.5141470085882
 20
127.6866085092766
 30
0.0
  0
POINT
  5
8114
330
5285
100
AcDbEntity
  8
DEFPOINTS
 62
     0
440
 16777216
100
AcDbPoint
 10
412.5141470085882
 20
95.88660850927769
 30
0.0
  0
ENDBLK
  5
5287
330
5285
100
AcDbEntity
  8
0
100
AcDbBlockEnd
  0
BLOCK
  5
5307
330
5306
100
AcDbEntity
  8
0
100
AcDbBlockBegin
  2
*D7
 70
     1
 10
0.0
 20
0.0
 30
0.0
  3
*D7
  1

  0
LINE
  5
8115
330
5306
100
AcDbEntity
  8
0
 62
     0
440
 16777216
370
    -2
100
AcDbLine
 10
511.5141470085882
 20
126.6866085092775
 30
0.0
 11
511.5141470085882
 21
95.88660850927769
 31
0.0
  0
LINE
  5
8116
330
5306
100
AcDbEntity
  8
0
 62
     0
440
 16777216
370
    -2
100
AcDbLine
 10
524.5141470085882
 20
126.6866085092776
 30
0.0
 11
524.5141470085882
 21
95.88660850927769
 31
0.0
  0
LINE
  5
8117
330
5306
100
AcDbEntity
  8
0
 62
     0
440
 16777216
370
    -2
100
AcDbLine
 10
512.3141470085881
 20
95.88660850927769
 30
0.0
 11
523.7141470085882
 21
95.88660850927769
 31
0.0
  0
INSERT
  5
8118
330
5306
100
AcDbEntity
  8
0
 62
     0
440
 16777216
370
    -2
100
AcDbBlockReference
  2
_Dot
 10
511.5141470085882
 20
95.88660850927769
 30
0.0
 41
0.8
 42
0.8
 43
0.8
 50
180.0
  0
INSERT
  5
8119
330
5306
100
AcDbEntity
  8
0
 62
     0
440
 16777216
370
    -2
100
AcDbBlockReference
  2
_Dot
 10
524.5141470085882
 20
95.88660850927769
 30
0.0
 41
0.8
 42
0.8
 43
0.8
  0
MTEXT
  5
811A
330
5306
100
AcDbEntity
  8
0
 62
     0
440
 16777216
100
AcDbMText
 10
518.0141470085882
 20
98.38660850927769
 30
0.0
 40
3.0
 41
0.0
 46
0.0
 71
     5
 72
     1
  1
\A2;13
 73
     1
 44
1.0
  0
POINT
  5
811B
330
5306
100
AcDbEntity
  8
DEFPOINTS
 62
     0
440
 16777216
100
AcDbPoint
 10
511.5141470085882
 20
127.6866085092775
 30
0.0
  0
POINT
  5
811C
330
5306
100
AcDbEntity
  8
DEFPOINTS
 62
     0
440
 16777216
100
AcDbPoint
 10
524.5141470085882
 20
127.6866085092776
 30
0.0
  0
POINT
  5
811D
330
5306
100
AcDbEntity
  8
DEFPOINTS
 62
     0
440
 16777216
100
AcDbPoint
 10
524.5141470085882
 20
95.88660850927769
 30
0.0
  0
ENDBLK
  5
5308
330
5306
100
AcDbEntity
  8
0
100
AcDbBlockEnd
  0
BLOCK
  5
5314
330
5313
100
AcDbEntity
  8
0
100
AcDbBlockBegin
  2
*D8
 70
     1
 10
0.0
 20
0.0
 30
0.0
  3
*D8
  1

  0
LINE
  5
811E
330
5313
100
AcDbEntity
  8
0
 62
     0
440
 16777216
370
    -2
100
AcDbLine
 10
243.5141470085887
 20
126.6866085092766
 30
0.0
 11
243.5141470085887
 21
95.88660850927769
 31
0.0
  0
LINE
  5
811F
330
5313
100
AcDbEntity
  8
0
 62
     0
440
 16777216
370
    -2
100
AcDbLine
 10
230.5141470085887
 20
126.6866085092766
 30
0.0
 11
230.5141470085887
 21
95.88660850927769
 31
0.0
  0
LINE
  5
8120
330
5313
100
AcDbEntity
  8
0
 62
     0
440
 16777216
370
    -2
100
AcDbLine
 10
242.7141470085887
 20
95.88660850927769
 30
0.0
 11
231.3141470085887
 21
95.88660850927769
 31
0.0
  0
INSERT
  5
8121
330
5313
100
AcDbEntity
  8
0
 62
     0
440
 16777216
370
    -2
100
AcDbBlockReference
  2
_Dot
 10
243.5141470085887
 20
95.88660850927769
 30
0.0
 41
0.8
 42
0.8
 43
0.8
  0
INSERT
  5
8122
330
5313
100
AcDbEntity
  8
0
 62
     0
440
 16777216
370
    -2
100
AcDbBlockReference
  2
_Dot
 10
230.5141470085887
 20
95.88660850927769
 30
0.0
 41
0.8
 42
0.8
 43
0.8
 50
180.0
  0
MTEXT
  5
8123
330
5313
100
AcDbEntity
  8
0
 62
     0
440
 16777216
100
AcDbMText
 10
237.0141470085887
 20
98.38660850927769
 30
0.0
 40
3.0
 41
0.0
 46
0.0
 71
     5
 72
     1
  1
\A2;13
 73
     1
 44
1.0
  0
POINT
  5
8124
330
5313
100
AcDbEntity
  8
DEFPOINTS
 62
     0
440
 16777216
100
AcDbPoint
 10
243.5141470085887
 20
127.6866085092766
 30
0.0
  0
POINT
  5
8125
330
5313
100
AcDbEntity
  8
DEFPOINTS
 62
     0
440
 16777216
100
AcDbPoint
 10
230.5141470085887
 20
127.6866085092766
 30
0.0
  0
POINT
  5
8126
330
5313
100
AcDbEntity
  8
DEFPOINTS
 62
     0
440
 16777216
100
AcDbPoint
 10
230.5141470085887
 20
95.88660850927769
 30
0.0
  0
ENDBLK
  5
5315
330
5313
100
AcDbEntity
  8
0
100
AcDbBlockEnd
  0
BLOCK
  5
5321
330
5320
100
AcDbEntity
  8
0
100
AcDbBlockBegin
  2
*D9
 70
     1
 10
0.0
 20
0.0
 30
0.0
  3
*D9
  1

  0
LINE
  5
8127
330
5320
100
AcDbEntity
  8
0
 62
     0
440
 16777216
370
    -2
100
AcDbLine
 10
351.6141470085881
 20
214.9866085092775
 30
0.0
 11
351.6141470085881
 21
244.4866085092776
 31
0.0
  0
LINE
  5
8128
330
5320
100
AcDbEntity
  8
0
 62
     0
440
 16777216
370
    -2
100
AcDbLine
 10
403.4141470085879
 20
214.9866085092775
 30
0.0
 11
403.4141470085879
 21
244.4866085092776
 31
0.0
  0
LINE
  5
8129
330
5320
100
AcDbEntity
  8
0
 62
     0
440
 16777216
370
    -2
100
AcDbLine
 10
352.4141470085881
 20
244.4866085092776
 30
0.0
 11
402.6141470085879
 21
244.4866085092776
 31
0.0
  0
MTEXT
  5
812A
330
5320
100
AcDbEntity
  8
0
 62
     0
440
 16777216
100
AcDbMText
 10
377.5141470085881
 20
246.9866085092776
 30
0.0
 40
3.0
 41
0.0
 46
0.0
 71
     5
 72
     1
  1
\A2;51.8
 73
     1
 44
1.0
  0
INSERT
  5
812B
330
5320
100
AcDbEntity
  8
0
 62
     0
440
 16777216
370
    -2
100
AcDbBlockReference
  2
_Dot
 10
351.6141470085881
 20
244.4866085092776
 30
0.0
 41
0.8
 42
0.8
 43
0.8
 50
180.0
  0
INSERT
  5
812C
330
5320
100
AcDbEntity
  8
0
 62
     0
440
 16777216
370
    -2
100
AcDbBlockReference
  2
_Dot
 10
403.4141470085879
 20
244.4866085092776
 30
0.0
 41
0.8
 42
0.8
 43
0.8
  0
POINT
  5
812D
330
5320
100
AcDbEntity
  8
DEFPOINTS
 62
     0
440
 16777216
100
AcDbPoint
 10
351.6141470085881
 20
213.9866085092775
 30
0.0
  0
POINT
  5
812E
330
5320
100
AcDbEntity
  8
DEFPOINTS
 62
     0
440
 16777216
100
AcDbPoint
 10
403.4141470085879
 20
213.9866085092775
 30
0.0
  0
POINT
  5
812F
330
5320
100
AcDbEntity
  8
DEFPOINTS
 62
     0
440
 16777216
100
AcDbPoint
 10
403.4141470085879
 20
244.4866085092776
 30
0.0
  0
ENDBLK
  5
5322
330
5320
100
AcDbEntity
  8
0
100
AcDbBlockEnd
  0
BLOCK
  5
5B31
330
5B30
100
AcDbEntity
  8
0
100
AcDbBlockBegin
  2
*D10
 70
     1
 10
0.0
 20
0.0
 30
0.0
  3
*D10
  1

  0
LINE
  5
817A
330
5B30
100
AcDbEntity
  8
0
 62
     0
440
 16777216
370
    -2
100
AcDbLine
 10
230.5141470085867
 20
127.6866085092766
 30
0.0
 11
209.5141470085887
 21
127.6866085092766
 31
0.0
  0
LINE
  5
817B
330
5B30
100
AcDbEntity
  8
0
 62
     0
440
 16777216
370
    -2
100
AcDbLine
 10
230.5141470085887
 20
212.6866085092753
 30
0.0
 11
209.5141470085887
 21
212.6866085092753
 31
0.0
  0
LINE
  5
817C
330
5B30
100
AcDbEntity
  8
0
 62
     0
440
 16777216
370
    -2
100
AcDbLine
 10
209.5141470085887
 20
128.4866085092766
 30
0.0
 11
209.5141470085887
 21
211.8866085092753
 31
0.0
  0
INSERT
  5
817D
330
5B30
100
AcDbEntity
  8
0
 62
     0
440
 16777216
370
    -2
100
AcDbBlockReference
  2
_Dot
 10
209.5141470085887
 20
127.6866085092766
 30
0.0
 41
0.8
 42
0.8
 43
0.8
 50
270.0
  0
INSERT
  5
817E
330
5B30
100
AcDbEntity
  8
0
 62
     0
440
 16777216
370
    -2
100
AcDbBlockReference
  2
_Dot
 10
209.5141470085887
 20
212.6866085092753
 30
0.0
 41
0.8
 42
0.8
 43
0.8
 50
90.0
  0
MTEXT
  5
817F
330
5B30
100
AcDbEntity
  8
0
 62
     0
440
 16777216
100
AcDbMText
 10
207.0141470085887
 20
170.186608509276
 30
0.0
 40
3.0
 41
0.0
 46
0.0
 71
     5
 72
     1
  1
\A2;85
 11
0.0000000000000001
 21
1.0
 31
0.0
 73
     1
 44
1.0
  0
POINT
  5
8180
330
5B30
100
AcDbEntity
  8
DEFPOINTS
 62
     0
440
 16777216
100
AcDbPoint
 10
231.5141470085867
 20
127.6866085092766
 30
0.0
  0
POINT
  5
8181
330
5B30
100
AcDbEntity
  8
DEFPOINTS
 62
     0
440
 16777216
100
AcDbPoint
 10
231.5141470085887
 20
212.6866085092753
 30
0.0
  0
POINT
  5
8182
330
5B30
100
AcDbEntity
  8
DEFPOINTS
 62
     0
440
 16777216
100
AcDbPoint
 10
209.5141470085887
 20
212.6866085092753
 30
0.0
  0
ENDBLK
  5
5B32
330
5B30
100
AcDbEntity
  8
0
100
AcDbBlockEnd
  0
BLOCK
  5
75D9
330
75BF
100
AcDbEntity
  8
0
100
AcDbBlockBegin
  2
A$C49292785
 70
     0
 10
0.0
 20
0.0
 30
0.0
  3
A$C49292785
  1

  0
LINE
  5
75C0
330
75BF
100
AcDbEntity
  8
0
 62
     0
100
AcDbLine
 10
11.0500010571302
 20
-0.0000005019188336
 30
0.0
 11
11.0500010571302
 21
14.89999949808114
 31
0.0
  0
LINE
  5
75C1
330
75BF
100
AcDbEntity
  8
0
 62
     0
100
AcDbLine
 10
11.05000105713031
 20
14.89999949808114
 30
0.0
 11
40.75000105713036
 21
14.89999949808114
 31
0.0
  0
LINE
  5
75C2
330
75BF
100
AcDbEntity
  8
0
 62
     0
100
AcDbLine
 10
40.75000105713036
 20
14.89999949808114
 30
0.0
 11
40.75000105713047
 21
-0.0000005019187199
 31
0.0
  0
LINE
  5
75C3
330
75BF
100
AcDbEntity
  8
0
 62
     0
100
AcDbLine
 10
41.95000105713041
 20
-0.0000005019187483
 30
0.0
 11
43.75000105713013
 21
3.699999498081183
 31
0.0
  0
LINE
  5
75C4
330
75BF
100
AcDbEntity
  8
0
 62
     0
100
AcDbLine
 10
43.75000105713013
 20
3.699999498081211
 30
0.0
 11
41.95000105713018
 21
3.699999498081211
 31
0.0
  0
LINE
  5
75C5
330
75BF
100
AcDbEntity
  8
0
 62
     0
100
AcDbLine
 10
41.95000105713018
 20
3.699999498081211
 30
0.0
 11
41.95000105713018
 21
14.89999949808114
 31
0.0
  0
LINE
  5
75C6
330
75BF
100
AcDbEntity
  8
0
 62
     0
100
AcDbLine
 10
41.95000105713018
 20
14.89999949808114
 30
0.0
 11
49.80000105713009
 21
14.89999949808114
 31
0.0
  0
LINE
  5
75C7
330
75BF
100
AcDbEntity
  8
0
 62
     0
100
AcDbLine
 10
49.80000105713009
 20
14.89999949808114
 30
0.0
 11
49.80000105713009
 21
6.499999498081166
 31
0.0
  0
LINE
  5
75C8
330
75BF
100
AcDbEntity
  8
0
 62
     0
100
AcDbLine
 10
49.80000105713009
 20
6.499999498081166
 30
0.0
 11
51.80000105713009
 21
6.499999498081166
 31
0.0
  0
LINE
  5
75C9
330
75BF
100
AcDbEntity
  8
0
 62
     0
100
AcDbLine
 10
51.80000105713009
 20
6.499999498081166
 30
0.0
 11
51.80000105713009
 21
15.99999949808116
 31
0.0
  0
ARC
  5
75CA
330
75BF
100
AcDbEntity
  8
0
 62
     0
100
AcDbCircle
 10
51.30000105713008
 20
15.99999949808116
 30
0.0
 40
0.5
100
AcDbArc
 50
0.0
 51
90.0
  0
LINE
  5
75CB
330
75BF
100
AcDbEntity
  8
0
 62
     0
100
AcDbLine
 10
51.30000105713008
 20
16.49999949808116
 30
0.0
 11
25.90000105713034
 21
16.49999949808116
 31
0.0
  0
LINE
  5
75CC
330
75BF
100
AcDbEntity
  8
0
 62
     0
100
AcDbLine
 10
25.90000105713034
 20
16.49999949808116
 30
0.0
 11
0.5000010571302483
 21
16.49999949808116
 31
0.0
  0
ARC
  5
75CD
330
75BF
100
AcDbEntity
  8
0
 62
     0
100
AcDbCircle
 10
0.5000010571302483
 20
15.99999949808116
 30
0.0
 40
0.5
100
AcDbArc
 50
90.0
 51
180.0
  0
LINE
  5
75CE
330
75BF
100
AcDbEntity
  8
0
 62
     0
100
AcDbLine
 10
0.0000010571302482
 20
15.99999949808116
 30
0.0
 11
0.0000010571302482
 21
6.499999498081166
 31
0.0
  0
LINE
  5
75CF
330
75BF
100
AcDbEntity
  8
0
 62
     0
100
AcDbLine
 10
0.0000010571302482
 20
6.499999498081166
 30
0.0
 11
2.000001057130248
 21
6.499999498081166
 31
0.0
  0
LINE
  5
75D0
330
75BF
100
AcDbEntity
  8
0
 62
     0
100
AcDbLine
 10
2.000001057130248
 20
6.499999498081166
 30
0.0
 11
2.000001057130248
 21
14.89999949808114
 31
0.0
  0
LINE
  5
75D1
330
75BF
100
AcDbEntity
  8
0
 62
     0
100
AcDbLine
 10
2.000001057130248
 20
14.89999949808114
 30
0.0
 11
9.850001057130157
 21
14.89999949808114
 31
0.0
  0
LINE
  5
75D2
330
75BF
100
AcDbEntity
  8
0
 62
     0
100
AcDbLine
 10
9.850001057130157
 20
14.89999949808114
 30
0.0
 11
9.850001057130157
 21
3.699999498081211
 31
0.0
  0
LINE
  5
75D3
330
75BF
100
AcDbEntity
  8
0
 62
     0
100
AcDbLine
 10
9.850001057130157
 20
3.699999498081211
 30
0.0
 11
8.050001057130202
 21
3.699999498081211
 31
0.0
  0
LINE
  5
75D4
330
75BF
100
AcDbEntity
  8
0
 62
     0
100
AcDbLine
 10
8.050001057130202
 20
3.699999498081183
 30
0.0
 11
9.850001057130043
 21
-0.0000005019188336
 31
0.0
  0
LINE
  5
75D5
330
75BF
100
AcDbEntity
  8
0
100
AcDbLine
 10
9.850001057130157
 20
-0.0000005019188336
 30
0.0
 11
11.0500010571302
 21
-0.000000501918862
 31
0.0
  0
LINE
  5
75D6
330
75BF
100
AcDbEntity
  8
0
100
AcDbLine
 10
40.75000105713047
 20
-0.0000005019187199
 30
0.0
 11
41.95000105713051
 21
-0.0000005019187199
 31
0.0
  0
ENDBLK
  5
75DA
330
75BF
100
AcDbEntity
  8
0
100
AcDbBlockEnd
  0
BLOCK
  5
7F2E
330
7F2D
100
AcDbEntity
  8
0
100
AcDbBlockBegin
  2
*D12
 70
     1
 10
0.0
 20
0.0
 30
0.0
  3
*D12
  1

  0
LINE
  5
8139
330
7F2D
100
AcDbEntity
  8
0
 62
     0
440
 16777216
370
    -2
100
AcDbLine
 10
348.8141470085889
 20
212.6866085092762
 30
0.0
 11
321.5141470085886
 21
212.6866085092762
 31
0.0
  0
LINE
  5
813A
330
7F2D
100
AcDbEntity
  8
0
 62
     0
440
 16777216
370
    -2
100
AcDbLine
 10
341.5141470085887
 20
127.6866085092775
 30
0.0
 11
321.5141470085885
 21
127.6866085092775
 31
0.0
  0
LINE
  5
813B
330
7F2D
100
AcDbEntity
  8
0
 62
     0
440
 16777216
370
    -2
100
AcDbLine
 10
321.5141470085886
 20
211.8866085092762
 30
0.0
 11
321.5141470085886
 21
128.4866085092775
 31
0.0
  0
INSERT
  5
813C
330
7F2D
100
AcDbEntity
  8
0
 62
     0
440
 16777216
370
    -2
100
AcDbBlockReference
  2
_Dot
 10
321.5141470085886
 20
212.6866085092762
 30
0.0
 41
0.8
 42
0.8
 43
0.8
 50
90.0
  0
INSERT
  5
813D
330
7F2D
100
AcDbEntity
  8
0
 62
     0
440
 16777216
370
    -2
100
AcDbBlockReference
  2
_Dot
 10
321.5141470085885
 20
127.6866085092775
 30
0.0
 41
0.8
 42
0.8
 43
0.8
 50
270.0
  0
MTEXT
  5
813E
330
7F2D
100
AcDbEntity
  8
0
 62
     0
440
 16777216
100
AcDbMText
 10
319.0141470085885
 20
170.1866085092769
 30
0.0
 40
3.0
 41
0.0
 46
0.0
 71
     5
 72
     1
  1
\A2;85
 11
0.0000000000000001
 21
1.0
 31
0.0
 73
     1
 44
1.0
  0
POINT
  5
813F
330
7F2D
100
AcDbEntity
  8
DEFPOINTS
 62
     0
440
 16777216
100
AcDbPoint
 10
349.8141470085889
 20
212.6866085092762
 30
0.0
  0
POINT
  5
8140
330
7F2D
100
AcDbEntity
  8
DEFPOINTS
 62
     0
440
 16777216
100
AcDbPoint
 10
342.5141470085887
 20
127.6866085092775
 30
0.0
  0
POINT
  5
8141
330
7F2D
100
AcDbEntity
  8
DEFPOINTS
 62
     0
440
 16777216
100
AcDbPoint
 10
321.5141470085885
 20
127.6866085092775
 30
0.0
  0
ENDBLK
  5
7F2F
330
7F2D
100
AcDbEntity
  8
0
100
AcDbBlockEnd
  0
BLOCK
  5
7F3B
330
7F3A
100
AcDbEntity
  8
0
100
AcDbBlockBegin
  2
*D13
 70
     1
 10
0.0
 20
0.0
 30
0.0
  3
*D13
  1

  0
LINE
  5
8142
330
7F3A
100
AcDbEntity
  8
0
 62
     0
440
 16777216
370
    -2
100
AcDbLine
 10
351.1141470085882
 20
223.4866085092775
 30
0.0
 11
314.5141470085885
 21
223.4866085092776
 31
0.0
  0
LINE
  5
8143
330
7F3A
100
AcDbEntity
  8
0
 62
     0
440
 16777216
370
    -2
100
AcDbLine
 10
351.1141470085882
 20
116.8866085092777
 30
0.0
 11
314.5141470085885
 21
116.8866085092777
 31
0.0
  0
LINE
  5
8144
330
7F3A
100
AcDbEntity
  8
0
 62
     0
440
 16777216
370
    -2
100
AcDbLine
 10
314.5141470085885
 20
222.6866085092776
 30
0.0
 11
314.5141470085885
 21
117.6866085092777
 31
0.0
  0
INSERT
  5
8145
330
7F3A
100
AcDbEntity
  8
0
 62
     0
440
 16777216
370
    -2
100
AcDbBlockReference
  2
_Dot
 10
314.5141470085885
 20
223.4866085092776
 30
0.0
 41
0.8
 42
0.8
 43
0.8
 50
90.0
  0
INSERT
  5
8146
330
7F3A
100
AcDbEntity
  8
0
 62
     0
440
 16777216
370
    -2
100
AcDbBlockReference
  2
_Dot
 10
314.5141470085885
 20
116.8866085092777
 30
0.0
 41
0.8
 42
0.8
 43
0.8
 50
270.0
  0
MTEXT
  5
8147
330
7F3A
100
AcDbEntity
  8
0
 62
     0
440
 16777216
100
AcDbMText
 10
312.0141470085885
 20
170.1866085092776
 30
0.0
 40
3.0
 41
0.0
 46
0.0
 71
     5
 72
     1
  1
\A2;106.6
 11
0.0000000000000001
 21
1.0
 31
0.0
 73
     1
 44
1.0
  0
POINT
  5
8148
330
7F3A
100
AcDbEntity
  8
DEFPOINTS
 62
     0
440
 16777216
100
AcDbPoint
 10
352.1141470085881
 20
223.4866085092775
 30
0.0
  0
POINT
  5
8149
330
7F3A
100
AcDbEntity
  8
DEFPOINTS
 62
     0
440
 16777216
100
AcDbPoint
 10
352.1141470085881
 20
116.8866085092777
 30
0.0
  0
POINT
  5
814A
330
7F3A
100
AcDbEntity
  8
DEFPOINTS
 62
     0
440
 16777216
100
AcDbPoint
 10
314.5141470085885
 20
116.8866085092777
 30
0.0
  0
ENDBLK
  5
7F3C
330
7F3A
100
AcDbEntity
  8
0
100
AcDbBlockEnd
  0
ENDSEC
  0
SECTION
  2
ENTITIES
  0
LINE
  5
32D4
330
2
100
AcDbEntity
  8
0
100
AcDbLine
 10
447.0141470085882
 20
153.0866085092776
 30
0.0
 11
459.5141470085883
 21
153.0866085092775
 31
0.0
  0
LINE
  5
32D6
330
2
100
AcDbEntity
  8
0
100
AcDbLine
 10
447.0141470085882
 20
157.0866085092776
 30
0.0
 11
459.5141470085883
 21
157.0866085092776
 31
0.0
  0
LINE
  5
32DB
330
2
100
AcDbEntity
  8
0
100
AcDbLine
 10
412.5141470085882
 20
129.2866085092774
 30
0.0
 11
459.5141470085882
 21
129.2866085092773
 31
0.0
  0
LINE
  5
32DC
330
2
100
AcDbEntity
  8
0
100
AcDbLine
 10
405.214147008588
 20
210.9866085092776
 30
0.0
 11
459.5141470085882
 21
210.9866085092773
 31
0.0
  0
LINE
  5
32DD
330
2
100
AcDbEntity
  8
0
100
AcDbLine
 10
412.5141470085882
 20
131.0866085092774
 30
0.0
 11
459.5141470085882
 21
131.0866085092773
 31
0.0
  0
LINE
  5
332D
330
2
100
AcDbEntity
  8
0
100
AcDbLine
 10
403.5141470085882
 20
193.6866085092742
 30
0.0
 11
459.5141470085882
 21
193.6866085092742
 31
0.0
  0
LINE
  5
332E
330
2
100
AcDbEntity
  8
0
100
AcDbLine
 10
403.5141470085882
 20
197.6866085092745
 30
0.0
 11
459.5141470085882
 21
197.6866085092744
 31
0.0
  0
LINE
  5
3596
330
2
100
AcDbEntity
  8
0
100
AcDbLine
 10
278.0141470085887
 20
153.0866085092776
 30
0.0
 11
290.5141470085884
 21
153.0866085092775
 31
0.0
  0
LINE
  5
3597
330
2
100
AcDbEntity
  8
0
100
AcDbLine
 10
278.0141470085887
 20
157.0866085092776
 30
0.0
 11
290.5141470085884
 21
157.0866085092776
 31
0.0
  0
LINE
  5
359D
330
2
100
AcDbEntity
  8
0
100
AcDbLine
 10
234.5141470085887
 20
193.6866085092742
 30
0.0
 11
290.5141470085884
 21
193.6866085092742
 31
0.0
  0
LINE
  5
359E
330
2
100
AcDbEntity
  8
0
100
AcDbLine
 10
234.5141470085887
 20
197.6866085092745
 30
0.0
 11
290.5141470085884
 21
197.6866085092743
 31
0.0
  0
LINE
  5
35A0
330
2
100
AcDbEntity
  8
0
100
AcDbLine
 10
342.5141470085887
 20
129.2866085092774
 30
0.0
 11
295.5141470085885
 21
129.2866085092774
 31
0.0
  0
LINE
  5
35A2
330
2
100
AcDbEntity
  8
0
100
AcDbLine
 10
342.5141470085887
 20
210.9866085092776
 30
0.0
 11
295.5141470085885
 21
210.9866085092775
 31
0.0
  0
LINE
  5
35A3
330
2
100
AcDbEntity
  8
0
100
AcDbLine
 10
349.8141470085889
 20
131.0866085092774
 30
0.0
 11
295.5141470085885
 21
131.0866085092773
 31
0.0
  0
LINE
  5
3DAF
330
2
100
AcDbEntity
  8
0
100
AcDbLine
 10
133.414943283861
 20
85.36583816211642
 30
0.0
 11
133.414943283861
 21
212.8658381621165
 31
0.0
  0
LINE
  5
3DB0
330
2
100
AcDbEntity
  8
0
100
AcDbLine
 10
143.414943283861
 20
85.36583816211642
 30
0.0
 11
143.414943283861
 21
212.8658381621164
 31
0.0
  0
LINE
  5
3DB1
330
2
100
AcDbEntity
  8
0
100
AcDbLine
 10
133.914943283861
 20
85.3658381621164
 30
0.0
 11
133.914943283861
 21
212.8658381621164
 31
0.0
  0
LINE
  5
3DB2
330
2
100
AcDbEntity
  8
0
100
AcDbLine
 10
46.81494328386108
 20
85.36583816211642
 30
0.0
 11
46.81494328386109
 21
212.8658381621165
 31
0.0
  0
LINE
  5
3DB3
330
2
100
AcDbEntity
  8
0
100
AcDbLine
 10
36.81494328386108
 20
85.36583816211642
 30
0.0
 11
36.81494328386108
 21
212.8658381621165
 31
0.0
  0
LINE
  5
3DB4
330
2
100
AcDbEntity
  8
0
100
AcDbLine
 10
46.31494328386108
 20
85.3658381621164
 30
0.0
 11
46.31494328386108
 21
212.8658381621165
 31
0.0
  0
LINE
  5
3DB5
330
2
100
AcDbEntity
  8
0
100
AcDbLine
 10
133.114943283861
 20
88.36583816211643
 30
0.0
 11
133.114943283861
 21
212.8658381621164
 31
0.0
  0
LINE
  5
3DBA
330
2
100
AcDbEntity
  8
0
100
AcDbLine
 10
47.11494328386106
 20
88.36583816211643
 30
0.0
 11
47.11494328386107
 21
212.8658381621164
 31
0.0
  0
LINE
  5
3DC1
330
2
100
AcDbEntity
  8
0
100
AcDbLine
 10
47.11494328386107
 20
335.3658381621165
 30
0.0
 11
133.114943283861
 21
335.3658381621164
 31
0.0
  0
LINE
  5
4CF9
330
2
100
AcDbEntity
  8
0
100
AcDbLine
 10
36.81494328386108
 20
85.36583816211642
 30
0.0
 11
46.81494328386107
 21
85.3658381621164
 31
0.0
  0
LINE
  5
4CFA
330
2
100
AcDbEntity
  8
0
100
AcDbLine
 10
47.11494328386107
 20
88.36583816211641
 30
0.0
 11
133.114943283861
 21
88.36583816211641
 31
0.0
  0
LINE
  5
4CFB
330
2
100
AcDbEntity
  8
0
100
AcDbLine
 10
133.414943283861
 20
85.36583816211638
 30
0.0
 11
143.414943283861
 21
85.3658381621164
 31
0.0
  0
LINE
  5
4D11
330
2
100
AcDbEntity
  8
0
100
AcDbLine
 10
47.11494328386107
 20
88.36583816211641
 30
0.0
 11
133.114943283861
 21
88.36583816211641
 31
0.0
  0
LINE
  5
5057
330
2
100
AcDbEntity
  8
0
  6
CENTER
 62
     4
100
AcDbLine
 10
339.2141470085882
 20
170.1866085092776
 30
0.0
 11
415.8141470085882
 21
170.1866085092776
 31
0.0
  0
LINE
  5
51A3
330
2
100
AcDbEntity
  8
0
100
AcDbLine
 10
290.5141470085884
 20
129.2866085092773
 30
0.0
 11
243.5141470085887
 21
129.2866085092772
 31
0.0
  0
LINE
  5
51A4
330
2
100
AcDbEntity
  8
0
100
AcDbLine
 10
290.5141470085884
 20
131.0866085092773
 30
0.0
 11
243.5141470085887
 21
131.0866085092772
 31
0.0
  0
LINE
  5
51A5
330
2
100
AcDbEntity
  8
0
100
AcDbLine
 10
295.5141470085885
 20
153.0866085092774
 30
0.0
 11
351.5141470085887
 21
153.0866085092768
 31
0.0
  0
LINE
  5
51A6
330
2
100
AcDbEntity
  8
0
100
AcDbLine
 10
295.5141470085885
 20
157.0866085092776
 30
0.0
 11
351.5141470085887
 21
157.0866085092776
 31
0.0
  0
LINE
  5
51A7
330
2
100
AcDbEntity
  8
0
100
AcDbLine
 10
295.5141470085885
 20
193.6866085092742
 30
0.0
 11
337.0141470085887
 21
193.6866085092742
 31
0.0
  0
LINE
  5
51A8
330
2
100
AcDbEntity
  8
0
100
AcDbLine
 10
295.5141470085885
 20
197.6866085092743
 30
0.0
 11
337.0141470085887
 21
197.6866085092742
 31
0.0
  0
LINE
  5
51A9
330
2
100
AcDbEntity
  8
0
100
AcDbLine
 10
290.5141470085884
 20
210.9866085092774
 30
0.0
 11
236.2141470085885
 21
210.9866085092772
 31
0.0
  0
LINE
  5
51AA
330
2
100
AcDbEntity
  8
0
100
AcDbLine
 10
464.5141470085881
 20
210.9866085092773
 30
0.0
 11
511.5141470085882
 21
210.9866085092771
 31
0.0
  0
LINE
  5
51AB
330
2
100
AcDbEntity
  8
0
100
AcDbLine
 10
464.5141470085881
 20
193.6866085092742
 30
0.0
 11
506.0141470085881
 21
193.6866085092742
 31
0.0
  0
LINE
  5
51AC
330
2
100
AcDbEntity
  8
0
100
AcDbLine
 10
464.5141470085881
 20
197.6866085092744
 30
0.0
 11
506.0141470085881
 21
197.6866085092742
 31
0.0
  0
LINE
  5
51AD
330
2
100
AcDbEntity
  8
0
100
AcDbLine
 10
464.5141470085881
 20
157.0866085092776
 30
0.0
 11
520.5141470085882
 21
157.0866085092776
 31
0.0
  0
LINE
  5
51AE
330
2
100
AcDbEntity
  8
0
100
AcDbLine
 10
464.5141470085881
 20
153.0866085092774
 30
0.0
 11
520.5141470085882
 21
153.0866085092768
 31
0.0
  0
LINE
  5
51AF
330
2
100
AcDbEntity
  8
0
100
AcDbLine
 10
464.5141470085881
 20
129.2866085092773
 30
0.0
 11
511.5141470085882
 21
129.2866085092772
 31
0.0
  0
LINE
  5
51B0
330
2
100
AcDbEntity
  8
0
100
AcDbLine
 10
464.5141470085881
 20
131.0866085092773
 30
0.0
 11
518.8141470085882
 21
131.0866085092772
 31
0.0
  0
DIMENSION
  5
51DF
330
2
100
AcDbEntity
  8
0
 62
     4
100
AcDbDimension
280
     0
  2
*D1
 10
174.414943283861
 20
85.3658381621164
 30
0.0
 11
171.914943283861
 21
215.3658381621165
 31
0.0
 70
    32
  1
額縁内々寸法 H
 71
     5
 42
260.0000000000001
 73
     0
 74
     0
 75
     0
  3
S1$0
100
AcDbAlignedDimension
 13
143.414943283861
 23
345.3658381621165
 33
0.0
 14
143.414943283861
 24
85.36583816211642
 34
0.0
 50
90.0
100
AcDbRotatedDimension
  0
DIMENSION
  5
51EC
330
2
100
AcDbEntity
  8
0
 62
     4
100
AcDbDimension
280
     0
  2
*D2
 10
164.414943283861
 20
85.3658381621164
 30
0.0
 11
164.4268088277984
 21
78.12139380909229
 31
0.0
 70
   160
 71
     5
 42
3.000000000000014
 73
     0
 74
     0
 75
     0
  3
S1$0
100
AcDbAlignedDimension
 13
133.114943283861
 23
88.36583816211643
 33
0.0
 14
143.414943283861
 24
85.36583816211642
 34
0.0
 50
90.0
100
AcDbRotatedDimension
  0
DIMENSION
  5
51FE
330
2
100
AcDbEntity
  8
0
 62
     4
100
AcDbDimension
280
     0
  2
*D3
 10
164.414943283861
 20
335.3658381621164
 30
0.0
 11
161.914943283861
 21
211.8658381621165
 31
0.0
 70
    32
  1
H-13
 71
     5
 42
247.0
 73
     0
 74
     0
 75
     0
  3
S1$0
100
AcDbAlignedDimension
 13
133.114943283861
 23
88.36583816211641
 33
0.0
 14
133.114943283861
 24
335.3658381621164
 34
0.0
 50
90.0
100
AcDbRotatedDimension
  0
DIMENSION
  5
520B
330
2
100
AcDbEntity
  8
0
 62
     4
100
AcDbDimension
280
     0
  2
*D4
 10
164.414943283861
 20
345.3658381621165
 30
0.0
 11
161.914943283861
 21
340.3658381621165
 31
0.0
 70
    32
 71
     5
 42
10.00000000000011
 73
     0
 74
     0
 75
     0
  3
S1$0
100
AcDbAlignedDimension
 13
133.114943283861
 23
335.3658381621164
 33
0.0
 14
143.414943283861
 24
345.3658381621165
 34
0.0
 50
90.0
100
AcDbRotatedDimension
  0
DIMENSION
  5
5277
330
2
100
AcDbEntity
  8
0
 62
     4
100
AcDbDimension
280
     0
  2
*D5
 10
524.5141470085882
 20
85.88660850927769
 30
0.0
 11
377.5141470085885
 21
85.88660850927769
 31
0.0
 70
   160
  1
額縁内々寸法 W
 71
     5
 42
293.9999999999995
 73
     0
 74
     0
 75
     0
  3
S1$0
100
AcDbAlignedDimension
 13
230.5141470085887
 23
127.6866085092766
 33
0.0
 14
524.5141470085882
 24
127.6866085092776
 34
0.0
100
AcDbRotatedDimension
  0
DIMENSION
  5
5284
330
2
100
AcDbEntity
  8
0
 62
     4
100
AcDbDimension
280
     0
  2
*D6
 10
412.5141470085882
 20
95.88660850927769
 30
0.0
 11
377.5141470085884
 21
95.88660850927769
 31
0.0
 70
   160
 71
     5
 42
69.99999999999954
 73
     0
 74
     0
 75
     0
  3
S1$0
100
AcDbAlignedDimension
 13
342.5141470085887
 23
127.6866085092775
 33
0.0
 14
412.5141470085882
 24
127.6866085092766
 34
0.0
100
AcDbRotatedDimension
  0
DIMENSION
  5
5305
330
2
100
AcDbEntity
  8
0
 62
     4
100
AcDbDimension
280
     0
  2
*D7
 10
524.5141470085882
 20
95.88660850927769
 30
0.0
 11
518.0141470085882
 21
98.38660850927769
 31
0.0
 70
    32
 71
     5
 42
13.0
 73
     0
 74
     0
 75
     0
  3
S1$0
100
AcDbAlignedDimension
 13
511.5141470085882
 23
127.6866085092775
 33
0.0
 14
524.5141470085882
 24
127.6866085092776
 34
0.0
100
AcDbRotatedDimension
  0
DIMENSION
  5
5312
330
2
100
AcDbEntity
  8
0
 62
     4
100
AcDbDimension
280
     0
  2
*D8
 10
230.5141470085887
 20
95.88660850927769
 30
0.0
 11
237.0141470085887
 21
98.38660850927769
 31
0.0
 70
    32
 71
     5
 42
12.99999999999994
 73
     0
 74
     0
 75
     0
  3
S1$0
100
AcDbAlignedDimension
 13
243.5141470085887
 23
127.6866085092766
 33
0.0
 14
230.5141470085887
 24
127.6866085092766
 34
0.0
100
AcDbRotatedDimension
  0
DIMENSION
  5
531F
330
2
100
AcDbEntity
  8
0
 62
     4
100
AcDbDimension
280
     0
  2
*D9
 10
403.4141470085879
 20
244.4866085092776
 30
0.0
 11
377.5141470085881
 21
244.4866085092776
 31
0.0
 70
   160
 71
     5
 42
51.79999999999984
 73
     0
 74
     0
 75
     0
  3
S1$0
100
AcDbAlignedDimension
 13
351.6141470085881
 23
213.9866085092775
 33
0.0
 14
403.4141470085879
 24
213.9866085092775
 34
0.0
100
AcDbRotatedDimension
  0
LINE
  5
5AB2
330
2
100
AcDbEntity
  8
0
100
AcDbLine
 10
47.11494328386107
 20
217.8658381621164
 30
0.0
 11
47.11494328386106
 21
335.3658381621165
 31
0.0
  0
LINE
  5
5AB3
330
2
100
AcDbEntity
  8
0
100
AcDbLine
 10
46.81494328386109
 20
217.8658381621165
 30
0.0
 11
46.81494328386109
 21
345.3658381621164
 31
0.0
  0
LINE
  5
5AB5
330
2
100
AcDbEntity
  8
0
100
AcDbLine
 10
36.81494328386108
 20
217.8658381621164
 30
0.0
 11
36.81494328386108
 21
345.3658381621165
 31
0.0
  0
LINE
  5
5AB6
330
2
100
AcDbEntity
  8
0
100
AcDbLine
 10
143.414943283861
 20
217.8658381621165
 30
0.0
 11
143.414943283861
 21
345.3658381621165
 31
0.0
  0
LINE
  5
5AB8
330
2
100
AcDbEntity
  8
0
100
AcDbLine
 10
133.414943283861
 20
217.8658381621164
 30
0.0
 11
133.414943283861
 21
345.3658381621165
 31
0.0
  0
LINE
  5
5AB9
330
2
100
AcDbEntity
  8
0
100
AcDbLine
 10
133.114943283861
 20
217.8658381621164
 30
0.0
 11
133.114943283861
 21
335.3658381621165
 31
0.0
  0
DIMENSION
  5
5B2F
330
2
100
AcDbEntity
  8
0
100
AcDbDimension
280
     0
  2
*D10
 10
209.5141470085887
 20
212.6866085092753
 30
0.0
 11
209.5141470085887
 21
170.186608509276
 31
0.0
 70
   160
 71
     5
 42
84.99999999999863
 73
     0
 74
     0
 75
     0
  3
S1$0
100
AcDbAlignedDimension
 13
231.5141470085867
 23
127.6866085092766
 33
0.0
 14
231.5141470085887
 24
212.6866085092753
 34
0.0
 50
90.0
100
AcDbRotatedDimension
1001
ACAD
1000
DSTYLE
1002
{
1070
   279
1070
     0
1002
}
  0
LWPOLYLINE
  5
72B1
330
2
100
AcDbEntity
  8
WAKU
100
AcDbPolyline
 90
        4
 70
     1
 43
0.0
 10
-0.0000003045362291
 20
-0.0000001921292778
 10
559.9999996954637
 20
-0.0000001921292778
 10
559.9999996954637
 20
399.9999998078707
 10
-0.0000003045362291
 20
399.9999998078707
  0
INSERT
  5
75DB
330
2
100
AcDbEntity
  8
0
100
AcDbBlockReference
  2
A$C49292785
 10
351.6141459514579
 20
206.9866090111964
 30
0.0
  0
INSERT
  5
75DC
330
2
100
AcDbEntity
  8
0
100
AcDbBlockReference
  2
A$C49292785
 10
351.6141459514579
 20
133.3866080073588
 30
0.0
 41
-1.0
 50
180.0
  0
LINE
  5
7DB3
330
2
100
AcDbEntity
  8
0
100
AcDbLine
 10
266.0141470085887
 20
161.7866085092775
 30
0.0
 11
245.0141470085882
 21
161.7866085092776
 31
0.0
  0
LINE
  5
7DB4
330
2
100
AcDbEntity
  8
0
100
AcDbLine
 10
266.0141470085887
 20
142.4866223877519
 30
0.0
 11
245.0141470085882
 21
142.4866223877519
 31
0.0
  0
ARC
  5
7DB5
330
2
100
AcDbEntity
  8
0
100
AcDbCircle
 10
266.0141470085887
 20
142.9866223877519
 30
0.0
 40
0.5
100
AcDbArc
 50
270.0
 51
0.0
  0
LINE
  5
7DB6
330
2
100
AcDbEntity
  8
0
100
AcDbLine
 10
278.0141470085887
 20
159.7866085092773
 30
0.0
 11
278.0141470085887
 21
144.4866223877519
 31
0.0
  0
LINE
  5
7DB7
330
2
100
AcDbEntity
  8
0
100
AcDbLine
 10
277.0141470085887
 20
143.4866223877519
 30
0.0
 11
266.5141470085887
 21
143.4866223877519
 31
0.0
  0
ARC
  5
7DB8
330
2
100
AcDbEntity
  8
0
100
AcDbCircle
 10
277.0141470085887
 20
144.4866223877519
 30
0.0
 40
1.0
100
AcDbArc
 50
270.0
 51
0.0
  0
LINE
  5
7DB9
330
2
100
AcDbEntity
  8
0
100
AcDbLine
 10
266.5141470085887
 20
160.7866085092773
 30
0.0
 11
277.0141470085887
 21
160.7866085092773
 31
0.0
  0
ARC
  5
7DBA
330
2
100
AcDbEntity
  8
0
100
AcDbCircle
 10
277.0141470085887
 20
159.7866085092773
 30
0.0
 40
1.0
100
AcDbArc
 50
0.0
 51
90.0
  0
LINE
  5
7DBB
330
2
100
AcDbEntity
  8
0
100
AcDbLine
 10
266.5141470085887
 20
143.4866223877519
 30
0.0
 11
266.5141470085887
 21
142.9866223877519
 31
0.0
  0
LINE
  5
7DBC
330
2
100
AcDbEntity
  8
0
100
AcDbLine
 10
266.5141470085887
 20
160.7866085092773
 30
0.0
 11
266.5141470085887
 21
161.2866085092774
 31
0.0
  0
ARC
  5
7DBD
330
2
100
AcDbEntity
  8
0
100
AcDbCircle
 10
266.0141470085887
 20
161.2866085092774
 30
0.0
 40
0.5
100
AcDbArc
 50
0.0
 51
90.0
  0
LINE
  5
7DBE
330
2
100
AcDbEntity
  8
0
100
AcDbLine
 10
244.5141470085882
 20
143.4866223877519
 30
0.0
 11
244.5141470085882
 21
142.9866223877519
 31
0.0
  0
ARC
  5
7DBF
330
2
100
AcDbEntity
  8
0
100
AcDbCircle
 10
245.0141470085882
 20
142.9866223877519
 30
0.0
 40
0.5
100
AcDbArc
 50
180.0
 51
270.0
  0
LINE
  5
7DC0
330
2
100
AcDbEntity
  8
0
100
AcDbLine
 10
244.5141470085882
 20
160.7866085092775
 30
0.0
 11
244.5141470085882
 21
161.2866085092776
 31
0.0
  0
ARC
  5
7DC1
330
2
100
AcDbEntity
  8
0
100
AcDbCircle
 10
245.0141470085882
 20
161.2866085092776
 30
0.0
 40
0.5
100
AcDbArc
 50
90.0
 51
180.0
  0
LINE
  5
7DC2
330
2
100
AcDbEntity
  8
0
100
AcDbLine
 10
244.5141470085882
 20
160.7866085092775
 30
0.0
 11
243.5141470085887
 21
160.7866085092773
 31
0.0
  0
LINE
  5
7DC3
330
2
100
AcDbEntity
  8
0
100
AcDbLine
 10
244.5141470085882
 20
143.4866223877519
 30
0.0
 11
243.5141470085887
 21
143.4866223877518
 31
0.0
  0
LINE
  5
7E2A
330
2
100
AcDbEntity
  8
0
100
AcDbLine
 10
510.5141470085881
 20
201.43660157004
 30
0.0
 11
511.5141470085882
 21
201.43660157004
 31
0.0
  0
LINE
  5
7E2B
330
2
100
AcDbEntity
  8
0
100
AcDbLine
 10
511.5141470085882
 20
184.1366154485146
 30
0.0
 11
510.5141470085881
 21
184.1366154485146
 31
0.0
  0
LINE
  5
7E2E
330
2
100
AcDbEntity
  8
0
100
AcDbLine
 10
506.0141470085881
 20
184.1366154485146
 30
0.0
 11
506.0141470085881
 21
201.43660157004
 31
0.0
  0
LINE
  5
7E2F
330
2
100
AcDbEntity
  8
0
100
AcDbLine
 10
510.5141470085881
 20
201.43660157004
 30
0.0
 11
510.5141470085881
 21
183.6366154485146
 31
0.0
  0
ARC
  5
7E30
330
2
100
AcDbEntity
  8
0
100
AcDbCircle
 10
507.0141470085882
 20
184.1366154485146
 30
0.0
 40
1.0
100
AcDbArc
 50
180.0
 51
270.0
  0
LINE
  5
7E31
330
2
100
AcDbEntity
  8
0
100
AcDbLine
 10
510.0141470085882
 20
183.1366154485145
 30
0.0
 11
507.0141470085882
 21
183.1366154485145
 31
0.0
  0
ARC
  5
7E32
330
2
100
AcDbEntity
  8
0
100
AcDbCircle
 10
510.0141470085882
 20
183.6366154485146
 30
0.0
 40
0.5
100
AcDbArc
 50
270.0
 51
0.0
  0
ARC
  5
7E33
330
2
100
AcDbEntity
  8
0
100
AcDbCircle
 10
507.0141470085882
 20
201.43660157004
 30
0.0
 40
1.0
100
AcDbArc
 50
90.0
 51
180.0
  0
LINE
  5
7E34
330
2
100
AcDbEntity
  8
0
100
AcDbLine
 10
510.5141470085881
 20
201.43660157004
 30
0.0
 11
510.5141470085881
 21
201.93660157004
 31
0.0
  0
ARC
  5
7E35
330
2
100
AcDbEntity
  8
0
100
AcDbCircle
 10
510.0141470085882
 20
201.93660157004
 30
0.0
 40
0.5
100
AcDbArc
 50
0.0
 51
90.0
  0
LINE
  5
7E36
330
2
100
AcDbEntity
  8
0
100
AcDbLine
 10
510.0141470085882
 20
202.43660157004
 30
0.0
 11
507.0141470085882
 21
202.43660157004
 31
0.0
  0
LINE
  5
7E4B
330
2
100
AcDbEntity
  8
0
100
AcDbLine
 10
435.0141470085882
 20
161.7866085092775
 30
0.0
 11
414.0141470085877
 21
161.7866085092776
 31
0.0
  0
LINE
  5
7E4C
330
2
100
AcDbEntity
  8
0
100
AcDbLine
 10
435.0141470085882
 20
142.4866223877519
 30
0.0
 11
414.0141470085877
 21
142.4866223877519
 31
0.0
  0
ARC
  5
7E4D
330
2
100
AcDbEntity
  8
0
100
AcDbCircle
 10
435.0141470085882
 20
142.9866223877519
 30
0.0
 40
0.5
100
AcDbArc
 50
270.0
 51
0.0
  0
LINE
  5
7E4E
330
2
100
AcDbEntity
  8
0
100
AcDbLine
 10
447.0141470085882
 20
159.7866085092773
 30
0.0
 11
447.0141470085882
 21
144.4866223877519
 31
0.0
  0
LINE
  5
7E4F
330
2
100
AcDbEntity
  8
0
100
AcDbLine
 10
446.0141470085882
 20
143.4866223877519
 30
0.0
 11
435.5141470085881
 21
143.4866223877519
 31
0.0
  0
ARC
  5
7E50
330
2
100
AcDbEntity
  8
0
100
AcDbCircle
 10
446.0141470085882
 20
144.4866223877519
 30
0.0
 40
1.0
100
AcDbArc
 50
270.0
 51
0.0
  0
LINE
  5
7E51
330
2
100
AcDbEntity
  8
0
100
AcDbLine
 10
435.5141470085881
 20
160.7866085092773
 30
0.0
 11
446.0141470085882
 21
160.7866085092773
 31
0.0
  0
ARC
  5
7E52
330
2
100
AcDbEntity
  8
0
100
AcDbCircle
 10
446.0141470085882
 20
159.7866085092773
 30
0.0
 40
1.0
100
AcDbArc
 50
0.0
 51
90.0
  0
LINE
  5
7E53
330
2
100
AcDbEntity
  8
0
100
AcDbLine
 10
435.5141470085881
 20
143.4866223877519
 30
0.0
 11
435.5141470085881
 21
142.9866223877519
 31
0.0
  0
LINE
  5
7E54
330
2
100
AcDbEntity
  8
0
100
AcDbLine
 10
435.5141470085881
 20
160.7866085092773
 30
0.0
 11
435.5141470085881
 21
161.2866085092774
 31
0.0
  0
ARC
  5
7E55
330
2
100
AcDbEntity
  8
0
100
AcDbCircle
 10
435.0141470085882
 20
161.2866085092774
 30
0.0
 40
0.5
100
AcDbArc
 50
0.0
 51
90.0
  0
LINE
  5
7E56
330
2
100
AcDbEntity
  8
0
100
AcDbLine
 10
413.5141470085877
 20
143.4866223877519
 30
0.0
 11
413.5141470085877
 21
142.9866223877519
 31
0.0
  0
ARC
  5
7E57
330
2
100
AcDbEntity
  8
0
100
AcDbCircle
 10
414.0141470085877
 20
142.9866223877519
 30
0.0
 40
0.5
100
AcDbArc
 50
180.0
 51
270.0
  0
LINE
  5
7E58
330
2
100
AcDbEntity
  8
0
100
AcDbLine
 10
413.5141470085877
 20
160.7866085092775
 30
0.0
 11
413.5141470085877
 21
161.2866085092776
 31
0.0
  0
ARC
  5
7E59
330
2
100
AcDbEntity
  8
0
100
AcDbCircle
 10
414.0141470085877
 20
161.2866085092776
 30
0.0
 40
0.5
100
AcDbArc
 50
90.0
 51
180.0
  0
LINE
  5
7E5A
330
2
100
AcDbEntity
  8
0
100
AcDbLine
 10
413.5141470085877
 20
160.7866085092775
 30
0.0
 11
412.5141470085882
 21
160.7866085092773
 31
0.0
  0
LINE
  5
7E5B
330
2
100
AcDbEntity
  8
0
100
AcDbLine
 10
413.5141470085877
 20
143.4866223877519
 30
0.0
 11
412.5141470085882
 21
143.4866223877518
 31
0.0
  0
LINE
  5
7E5C
330
2
100
AcDbEntity
  8
0
100
AcDbLine
 10
36.81494328386108
 20
85.36583816211646
 30
0.0
 11
143.414943283861
 21
85.36583816211642
 31
0.0
  0
LINE
  5
7E5D
330
2
100
AcDbEntity
  8
0
100
AcDbLine
 10
36.81494328386108
 20
345.3658381621165
 30
0.0
 11
143.414943283861
 21
345.3658381621165
 31
0.0
  0
LINE
  5
7F1E
330
2
100
AcDbEntity
  8
0
100
AcDbLine
 10
341.5141470085887
 20
201.43660157004
 30
0.0
 11
342.5141470085888
 21
201.43660157004
 31
0.0
  0
LINE
  5
7F1F
330
2
100
AcDbEntity
  8
0
100
AcDbLine
 10
342.5141470085888
 20
184.1366154485146
 30
0.0
 11
341.5141470085887
 21
184.1366154485146
 31
0.0
  0
LINE
  5
7F20
330
2
100
AcDbEntity
  8
0
100
AcDbLine
 10
337.0141470085887
 20
184.1366154485146
 30
0.0
 11
337.0141470085887
 21
201.43660157004
 31
0.0
  0
LINE
  5
7F21
330
2
100
AcDbEntity
  8
0
100
AcDbLine
 10
341.5141470085887
 20
201.43660157004
 30
0.0
 11
341.5141470085887
 21
183.6366154485146
 31
0.0
  0
ARC
  5
7F22
330
2
100
AcDbEntity
  8
0
100
AcDbCircle
 10
338.0141470085888
 20
184.1366154485146
 30
0.0
 40
1.0
100
AcDbArc
 50
180.0
 51
270.0
  0
LINE
  5
7F23
330
2
100
AcDbEntity
  8
0
100
AcDbLine
 10
341.0141470085887
 20
183.1366154485145
 30
0.0
 11
338.0141470085888
 21
183.1366154485145
 31
0.0
  0
ARC
  5
7F24
330
2
100
AcDbEntity
  8
0
100
AcDbCircle
 10
341.0141470085887
 20
183.6366154485146
 30
0.0
 40
0.5
100
AcDbArc
 50
270.0
 51
0.0
  0
ARC
  5
7F25
330
2
100
AcDbEntity
  8
0
100
AcDbCircle
 10
338.0141470085888
 20
201.43660157004
 30
0.0
 40
1.0
100
AcDbArc
 50
90.0
 51
180.0
  0
LINE
  5
7F26
330
2
100
AcDbEntity
  8
0
100
AcDbLine
 10
341.5141470085887
 20
201.43660157004
 30
0.0
 11
341.5141470085887
 21
201.93660157004
 31
0.0
  0
ARC
  5
7F27
330
2
100
AcDbEntity
  8
0
100
AcDbCircle
 10
341.0141470085887
 20
201.93660157004
 30
0.0
 40
0.5
100
AcDbArc
 50
0.0
 51
90.0
  0
LINE
  5
7F28
330
2
100
AcDbEntity
  8
0
100
AcDbLine
 10
341.0141470085887
 20
202.43660157004
 30
0.0
 11
338.0141470085888
 21
202.43660157004
 31
0.0
  0
DIMENSION
  5
7F2C
330
2
100
AcDbEntity
  8
0
 62
     4
100
AcDbDimension
280
     0
  2
*D12
 10
321.5141470085885
 20
127.6866085092775
 30
0.0
 11
319.0141470085885
 21
170.1866085092769
 31
0.0
 70
    32
 71
     5
 42
84.99999999999864
 73
     0
 74
     0
 75
     0
  3
S1$0
100
AcDbAlignedDimension
 13
349.8141470085889
 23
212.6866085092762
 33
0.0
 14
342.5141470085887
 24
127.6866085092775
 34
0.0
 50
90.0
100
AcDbRotatedDimension
  0
DIMENSION
  5
7F39
330
2
100
AcDbEntity
  8
0
 62
     4
100
AcDbDimension
280
     0
  2
*D13
 10
314.5141470085885
 20
116.8866085092777
 30
0.0
 11
312.0141470085885
 21
170.1866085092776
 31
0.0
 70
    32
 71
     5
 42
106.5999999999998
 73
     0
 74
     0
 75
     0
  3
S1$0
100
AcDbAlignedDimension
 13
352.1141470085881
 23
223.4866085092775
 33
0.0
 14
352.1141470085881
 24
116.8866085092777
 34
0.0
 50
90.0
100
AcDbRotatedDimension
  0
LINE
  5
7F75
330
2
100
AcDbEntity
  8
0
  6
CENTER
 62
     4
100
AcDbLine
 10
377.5141470085882
 20
111.8866085092775
 30
0.0
 11
377.5141470085882
 21
228.4866085092776
 31
0.0
  0
LINE
  5
808C
330
2
100
AcDbEntity
  8
0
  6
CENTER
 62
     4
100
AcDbLine
 10
90.11494328386106
 20
359.3258480549042
 30
0.0
 11
90.11494328386106
 21
74.62415559786393
 31
0.0
  0
LINE
  5
8196
330
2
100
AcDbEntity
  8
0
100
AcDbLine
 10
355.5141470085887
 20
128.9980159507024
 30
0.0
 11
355.5141470085882
 21
211.3752010678525
 31
0.0
  0
ARC
  5
8197
330
2
100
AcDbEntity
  8
0
100
AcDbCircle
 10
353.9541470085883
 20
210.1886093099168
 30
0.0
 40
1.960000000000144
100
AcDbArc
 50
354.8720091169139
 51
37.25791600132034
  0
ARC
  5
8198
330
2
100
AcDbEntity
  8
0
100
AcDbCircle
 10
356.2051014009607
 20
209.9866085092764
 30
0.0
 40
0.3000000000001239
100
AcDbArc
 50
174.8720091168941
 51
354.8719726855477
  0
ARC
  5
8199
330
2
100
AcDbEntity
  8
0
100
AcDbCircle
 10
353.9541470085887
 20
210.1886093099173
 30
0.0
 40
2.559999999999972
100
AcDbArc
 50
354.8720091169071
 51
77.36437490697873
  0
ARC
  5
819A
330
2
100
AcDbEntity
  8
0
100
AcDbCircle
 10
353.9541470085883
 20
130.1846077086374
 30
0.0
 40
1.960000000000136
100
AcDbArc
 50
322.7420839994229
 51
5.127990883073151
  0
ARC
  5
819B
330
2
100
AcDbEntity
  8
0
100
AcDbCircle
 10
353.9541470085883
 20
130.1846077086376
 30
0.0
 40
2.56000000000065
100
AcDbArc
 50
282.6356250930211
 51
5.127990883086125
  0
ARC
  5
819C
330
2
100
AcDbEntity
  8
0
100
AcDbCircle
 10
356.2051014009612
 20
130.3866085092773
 30
0.0
 40
0.3000000000004012
100
AcDbArc
 50
5.127990883210557
 51
185.1280119621041
  0
LWPOLYLINE
  5
819D
330
2
100
AcDbEntity
  8
0
100
AcDbPolyline
 90
        7
 70
     0
 43
0.0
 10
343.114147008589
 20
172.8366085092771
 10
343.114147008589
 20
170.4816503309644
 42
0.2945408340461451
 10
343.3492067564757
 20
170.1172402415968
 10
349.3378521976738
 20
167.4020558623451
 42
-0.9999998915195204
 10
349.0904418195073
 20
166.8554407282918
 10
343.1017963783061
 20
169.5706251075457
 42
-0.2945408340578595
 10
342.5141470085891
 20
170.4816503310076
  0
LINE
  5
819E
330
2
100
AcDbEntity
  8
0
100
AcDbLine
 10
351.5141470085887
 20
131.186608509277
 30
0.0
 11
351.5141470085887
 21
149.3366085092771
 31
0.0
  0
ARC
  5
819F
330
2
100
AcDbEntity
  8
0
100
AcDbCircle
 10
351.0141470085887
 20
149.3366085092771
 30
0.0
 40
0.5
100
AcDbArc
 50
0.0
 51
90.0
  0
LINE
  5
81A0
330
2
100
AcDbEntity
  8
0
100
AcDbLine
 10
351.0141470085887
 20
149.8366085092771
 30
0.0
 11
348.0141470085887
 21
149.8366085092771
 31
0.0
  0
ARC
  5
81A1
330
2
100
AcDbEntity
  8
0
100
AcDbCircle
 10
348.0141470085887
 20
150.336608509277
 30
0.0
 40
0.5
100
AcDbArc
 50
180.0
 51
270.0
  0
LINE
  5
81A2
330
2
100
AcDbEntity
  8
0
100
AcDbLine
 10
347.5141470085887
 20
150.336608509277
 30
0.0
 11
347.5141470085887
 21
150.4705831054925
 31
0.0
  0
ARC
  5
81A3
330
2
100
AcDbEntity
  8
0
100
AcDbCircle
 10
348.0141470085887
 20
150.4705831054924
 30
0.0
 40
0.5
100
AcDbArc
 50
119.9999999999997
 51
179.999999999987
  0
LINE
  5
81A4
330
2
100
AcDbEntity
  8
0
100
AcDbLine
 10
347.7641470085887
 20
150.9035958073846
 30
0.0
 11
348.5141470085887
 21
151.3366085092771
 31
0.0
  0
LINE
  5
81A5
330
2
100
AcDbEntity
  8
0
100
AcDbLine
 10
348.5141470085887
 20
151.3366085092771
 30
0.0
 11
351.0141470085887
 21
151.3366085092771
 31
0.0
  0
ARC
  5
81A6
330
2
100
AcDbEntity
  8
0
100
AcDbCircle
 10
351.0141470085887
 20
151.8366085092771
 30
0.0
 40
0.5
100
AcDbArc
 50
270.0
 51
0.0
  0
LINE
  5
81A7
330
2
100
AcDbEntity
  8
0
100
AcDbLine
 10
351.5141470085887
 20
151.836608509277
 30
0.0
 11
351.5141470085887
 21
172.836608509277
 31
0.0
  0
LINE
  5
81A8
330
2
100
AcDbEntity
  8
0
100
AcDbLine
 10
351.5141470085887
 20
172.836608509277
 30
0.0
 11
342.5141470085887
 21
172.836608509277
 31
0.0
  0
LINE
  5
81A9
330
2
100
AcDbEntity
  8
0
100
AcDbLine
 10
342.5141470085891
 20
170.4816503310076
 30
0.0
 11
342.5141470085887
 21
211.686608509277
 31
0.0
  0
LWPOLYLINE
  5
81AA
330
2
100
AcDbEntity
  8
0
100
AcDbPolyline
 90
        4
 70
     0
 43
0.0
 10
351.5141470085887
 20
133.186608509277
 42
-0.3966277858007638
 10
348.1625884215691
 20
139.1655932646404
 42
-0.9713730731218312
 10
348.7457578283533
 20
139.0244120980433
 42
0.3844485603994672
 10
351.5141470085887
 20
133.8198809403716
  0
LINE
  5
81AB
330
2
100
AcDbEntity
  8
0
100
AcDbLine
 10
342.5141470085887
 20
127.6866085092775
 30
0.0
 11
342.5141470085887
 21
130.5866085092772
 31
0.0
  0
LINE
  5
81AC
330
2
100
AcDbEntity
  8
0
100
AcDbLine
 10
342.5141470085887
 20
130.5866085092772
 30
0.0
 11
343.5141470085887
 21
130.5866085092772
 31
0.0
  0
LINE
  5
81AD
330
2
100
AcDbEntity
  8
0
100
AcDbLine
 10
343.5141470085887
 20
130.5866085092772
 30
0.0
 11
343.5141470085891
 21
129.2866085092774
 31
0.0
  0
LINE
  5
81AE
330
2
100
AcDbEntity
  8
0
100
AcDbLine
 10
343.5141470085891
 20
129.2866085092774
 30
0.0
 11
350.3141470085886
 21
129.286608509277
 31
0.0
  0
LINE
  5
81AF
330
2
100
AcDbEntity
  8
0
100
AcDbLine
 10
350.3141470085886
 20
129.286608509277
 30
0.0
 11
350.3141470085886
 21
130.7866085092775
 31
0.0
  0
LINE
  5
81B0
330
2
100
AcDbEntity
  8
0
100
AcDbLine
 10
351.3141470085885
 20
130.7866085092775
 30
0.0
 11
351.8141470085887
 21
130.7866085092775
 31
0.0
  0
LINE
  5
81B1
330
2
100
AcDbEntity
  8
0
100
AcDbLine
 10
351.8141470085887
 20
130.7866085092775
 30
0.0
 11
351.8141470085887
 21
129.2866085092774
 31
0.0
  0
LINE
  5
81B2
330
2
100
AcDbEntity
  8
0
100
AcDbLine
 10
351.8141470085887
 20
129.2866085092774
 30
0.0
 11
353.0141470085887
 21
129.2866085092774
 31
0.0
  0
LINE
  5
81B3
330
2
100
AcDbEntity
  8
0
100
AcDbLine
 10
353.0141470085887
 20
129.2866085092774
 30
0.0
 11
353.0141470085887
 21
131.186608509277
 31
0.0
  0
LINE
  5
81B4
330
2
100
AcDbEntity
  8
0
100
AcDbLine
 10
353.0141470085887
 20
131.186608509277
 30
0.0
 11
351.5141470085887
 21
131.186608509277
 31
0.0
  0
LINE
  5
81B5
330
2
100
AcDbEntity
  8
0
100
AcDbLine
 10
354.5141470085882
 20
127.6866085092775
 30
0.0
 11
342.5141470085886
 21
127.6866085092775
 31
0.0
  0
LINE
  5
81B6
330
2
100
AcDbEntity
  8
0
100
AcDbLine
 10
350.3141470085886
 20
130.7866085092775
 30
0.0
 11
349.8141470085887
 21
130.7866085092775
 31
0.0
  0
LINE
  5
81B7
330
2
100
AcDbEntity
  8
0
100
AcDbLine
 10
349.8141470085887
 20
130.7866085092775
 30
0.0
 11
349.8141470085887
 21
131.6866085092771
 31
0.0
  0
LINE
  5
81B8
330
2
100
AcDbEntity
  8
0
100
AcDbLine
 10
351.3141470085885
 20
130.7866085092775
 30
0.0
 11
351.3141470085886
 21
132.6295487001922
 31
0.0
  0
LINE
  5
81B9
330
2
100
AcDbEntity
  8
0
100
AcDbLine
 10
349.8141470085887
 20
131.6866085092771
 30
0.0
 11
351.3141470085885
 21
132.6295487001922
 31
0.0
  0
LINE
  5
81BA
330
2
100
AcDbEntity
  8
0
100
AcDbLine
 10
342.5141470085887
 20
211.686608509277
 30
0.0
 11
349.8141470085889
 21
211.686608509277
 31
0.0
  0
LINE
  5
81BB
330
2
100
AcDbEntity
  8
0
100
AcDbLine
 10
349.8141470085889
 20
211.686608509277
 30
0.0
 11
349.8141470085889
 21
212.6866085092762
 31
0.0
  0
LINE
  5
81BC
330
2
100
AcDbEntity
  8
0
100
AcDbLine
 10
349.8141470085889
 20
212.6866085092762
 30
0.0
 11
354.5141470085906
 21
212.6866085092762
 31
0.0
  0
LINE
  5
81BD
330
2
100
AcDbEntity
  8
0
100
AcDbLine
 10
399.5141470085883
 20
214.6866085092776
 30
0.0
 11
394.0141470085882
 21
212.1866085092775
 31
0.0
  0
LINE
  5
81BE
330
2
100
AcDbEntity
  8
0
100
AcDbLine
 10
394.0141470085882
 20
210.6866085092776
 30
0.0
 11
397.5141470085882
 21
210.6866085092776
 31
0.0
1001
GENIUS_GENREC_14
1002
{
1000
PYDIR
1011
401.0141470085882
1021
214.6866085092776
1031
0.0
1002
}
1002
{
1000
PXDIR
1011
354.0141470085882
1021
136.1866085092775
1031
0.0
1002
}
1002
{
1000
PORI
1011
401.0141470085882
1021
136.1866085092775
1031
0.0
1002
}
1002
{
1000
PINS
1011
377.5141470085882
1021
170.1866085092775
1031
0.0
1002
}
1002
{
1000
HVAL
1000
68
1002
}
1002
{
1000
H
1070
     2
1002
}
1002
{
1000
WVAL
1000
47
1002
}
1002
{
1000
W
1070
     2
1002
}
1002
{
1000
C
1070
     4
1002
}
1001
GENIUS_GENOBJ-N-REC_13
1002
{
1000
OWNER
1000
GEN
1002
}
1001
GENIUS_GENODEF_13
1002
{
1000
HIER
1070
     0
1002
}
1002
{
1000
MANEDIT
1070
     0
1002
}
1002
{
1000
NOSEL
1070
     0
1002
}
1002
{
1000
BEHIND
1070
     0
1002
}
1002
{
1000
OTHER
1070
     0
1002
}
1002
{
1000
REACTOR
1002
}
  0
LINE
  5
81BF
330
2
100
AcDbEntity
  8
0
100
AcDbLine
 10
381.0141470085882
 20
203.6866085092776
 30
0.0
 11
397.5141470085882
 21
203.6866085092776
 31
0.0
1001
GENIUS_GENREC_14
1002
{
1000
PYDIR
1011
401.0141470085882
1021
214.6866085092776
1031
0.0
1002
}
1002
{
1000
PXDIR
1011
354.0141470085882
1021
136.1866085092775
1031
0.0
1002
}
1002
{
1000
PORI
1011
401.0141470085882
1021
136.1866085092775
1031
0.0
1002
}
1002
{
1000
PINS
1011
377.5141470085882
1021
170.1866085092775
1031
0.0
1002
}
1002
{
1000
HVAL
1000
68
1002
}
1002
{
1000
H
1070
     2
1002
}
1002
{
1000
WVAL
1000
47
1002
}
1002
{
1000
W
1070
     2
1002
}
1002
{
1000
C
1070
     4
1002
}
1001
GENIUS_GENOBJ-N-REC_13
1002
{
1000
OWNER
1000
GEN
1002
}
1001
GENIUS_GENODEF_13
1002
{
1000
HIER
1070
     0
1002
}
1002
{
1000
MANEDIT
1070
     0
1002
}
1002
{
1000
NOSEL
1070
     0
1002
}
1002
{
1000
BEHIND
1070
     0
1002
}
1002
{
1000
OTHER
1070
     0
1002
}
1002
{
1000
REACTOR
1002
}
  0
LINE
  5
81C0
330
2
100
AcDbEntity
  8
0
100
AcDbLine
 10
374.0141470085882
 20
203.6866085092776
 30
0.0
 11
357.5141470085882
 21
203.6866085092776
 31
0.0
1001
GENIUS_GENREC_14
1002
{
1000
PYDIR
1011
354.0141470085882
1021
214.6866085092776
1031
0.0
1002
}
1002
{
1000
PXDIR
1011
401.0141470085882
1021
136.1866085092775
1031
0.0
1002
}
1002
{
1000
PORI
1011
354.0141470085882
1021
136.1866085092775
1031
0.0
1002
}
1002
{
1000
PINS
1011
377.5141470085882
1021
170.1866085092775
1031
0.0
1002
}
1002
{
1000
HVAL
1000
68
1002
}
1002
{
1000
H
1070
     2
1002
}
1002
{
1000
WVAL
1000
47
1002
}
1002
{
1000
W
1070
     2
1002
}
1002
{
1000
C
1070
     4
1002
}
1001
GENIUS_GENOBJ-N-REC_13
1002
{
1000
OWNER
1000
GEN
1002
}
1001
GENIUS_GENODEF_13
1002
{
1000
HIER
1070
     0
1002
}
1002
{
1000
MANEDIT
1070
     0
1002
}
1002
{
1000
NOSEL
1070
     0
1002
}
1002
{
1000
BEHIND
1070
     0
1002
}
1002
{
1000
OTHER
1070
     0
1002
}
1002
{
1000
REACTOR
1002
}
  0
LINE
  5
81C1
330
2
100
AcDbEntity
  8
0
100
AcDbLine
 10
361.0141470085882
 20
210.6866085092776
 30
0.0
 11
357.5141470085882
 21
210.6866085092776
 31
0.0
1001
GENIUS_GENREC_14
1002
{
1000
PYDIR
1011
354.0141470085882
1021
214.6866085092776
1031
0.0
1002
}
1002
{
1000
PXDIR
1011
401.0141470085882
1021
136.1866085092775
1031
0.0
1002
}
1002
{
1000
PORI
1011
354.0141470085882
1021
136.1866085092775
1031
0.0
1002
}
1002
{
1000
PINS
1011
377.5141470085882
1021
170.1866085092775
1031
0.0
1002
}
1002
{
1000
HVAL
1000
68
1002
}
1002
{
1000
H
1070
     2
1002
}
1002
{
1000
WVAL
1000
47
1002
}
1002
{
1000
W
1070
     2
1002
}
1002
{
1000
C
1070
     4
1002
}
1001
GENIUS_GENOBJ-N-REC_13
1002
{
1000
OWNER
1000
GEN
1002
}
1001
GENIUS_GENODEF_13
1002
{
1000
HIER
1070
     0
1002
}
1002
{
1000
MANEDIT
1070
     0
1002
}
1002
{
1000
NOSEL
1070
     0
1002
}
1002
{
1000
BEHIND
1070
     0
1002
}
1002
{
1000
OTHER
1070
     0
1002
}
1002
{
1000
REACTOR
1002
}
  0
LINE
  5
81C2
330
2
100
AcDbEntity
  8
0
100
AcDbLine
 10
355.5141470085882
 20
214.6866085092776
 30
0.0
 11
361.0141470085882
 21
212.1866085092775
 31
0.0
  0
ARC
  5
81C3
330
2
100
AcDbEntity
  8
0
100
AcDbCircle
 10
354.7641470085882
 20
213.9366085092776
 30
0.0
 40
0.7500000000000064
100
AcDbArc
 50
90.0
 51
270.0
  0
LINE
  5
81C4
330
2
100
AcDbEntity
  8
0
100
AcDbLine
 10
357.5141470085882
 20
210.6866085092776
 30
0.0
 11
357.5141470085882
 21
203.6866085092776
 31
0.0
1001
GENIUS_GENREC_14
1002
{
1000
PYDIR
1011
354.0141470085882
1021
214.6866085092776
1031
0.0
1002
}
1002
{
1000
PXDIR
1011
401.0141470085882
1021
136.1866085092775
1031
0.0
1002
}
1002
{
1000
PORI
1011
354.0141470085882
1021
136.1866085092775
1031
0.0
1002
}
1002
{
1000
PINS
1011
377.5141470085882
1021
170.1866085092775
1031
0.0
1002
}
1002
{
1000
HVAL
1000
68
1002
}
1002
{
1000
H
1070
     2
1002
}
1002
{
1000
WVAL
1000
47
1002
}
1002
{
1000
W
1070
     2
1002
}
1002
{
1000
C
1070
     4
1002
}
1001
GENIUS_GENOBJ-N-REC_13
1002
{
1000
OWNER
1000
GEN
1002
}
1001
GENIUS_GENODEF_13
1002
{
1000
HIER
1070
     0
1002
}
1002
{
1000
MANEDIT
1070
     0
1002
}
1002
{
1000
NOSEL
1070
     0
1002
}
1002
{
1000
BEHIND
1070
     0
1002
}
1002
{
1000
OTHER
1070
     0
1002
}
1002
{
1000
REACTOR
1002
}
  0
LINE
  5
81C5
330
2
100
AcDbEntity
  8
0
100
AcDbLine
 10
355.5141470085882
 20
213.1866085092775
 30
0.0
 11
354.7641470085882
 21
213.1866085092775
 31
0.0
1001
GENIUS_GENREC_14
1002
{
1000
PYDIR
1011
354.0141470085882
1021
214.6866085092776
1031
0.0
1002
}
1002
{
1000
PXDIR
1011
401.0141470085882
1021
136.1866085092775
1031
0.0
1002
}
1002
{
1000
PORI
1011
354.0141470085882
1021
136.1866085092775
1031
0.0
1002
}
1002
{
1000
PINS
1011
377.5141470085882
1021
170.1866085092775
1031
0.0
1002
}
1002
{
1000
HVAL
1000
68
1002
}
1002
{
1000
H
1070
     2
1002
}
1002
{
1000
WVAL
1000
47
1002
}
1002
{
1000
W
1070
     2
1002
}
1002
{
1000
C
1070
     4
1002
}
1001
GENIUS_GENOBJ-N-REC_13
1002
{
1000
OWNER
1000
GEN
1002
}
1001
GENIUS_GENODEF_13
1002
{
1000
HIER
1070
     0
1002
}
1002
{
1000
MANEDIT
1070
     0
1002
}
1002
{
1000
NOSEL
1070
     0
1002
}
1002
{
1000
BEHIND
1070
     0
1002
}
1002
{
1000
OTHER
1070
     0
1002
}
1002
{
1000
REACTOR
1002
}
  0
LINE
  5
81C6
330
2
100
AcDbEntity
  8
0
100
AcDbLine
 10
355.5141470085882
 20
214.6866085092776
 30
0.0
 11
354.7641470085882
 21
214.6866085092776
 31
0.0
1001
GENIUS_GENREC_14
1002
{
1000
PYDIR
1011
354.0141470085882
1021
214.6866085092776
1031
0.0
1002
}
1002
{
1000
PXDIR
1011
401.0141470085882
1021
136.1866085092775
1031
0.0
1002
}
1002
{
1000
PORI
1011
354.0141470085882
1021
136.1866085092775
1031
0.0
1002
}
1002
{
1000
PINS
1011
377.5141470085882
1021
170.1866085092775
1031
0.0
1002
}
1002
{
1000
HVAL
1000
68
1002
}
1002
{
1000
H
1070
     2
1002
}
1002
{
1000
WVAL
1000
47
1002
}
1002
{
1000
W
1070
     2
1002
}
1002
{
1000
C
1070
     4
1002
}
1001
GENIUS_GENOBJ-N-REC_13
1002
{
1000
OWNER
1000
GEN
1002
}
1001
GENIUS_GENODEF_13
1002
{
1000
HIER
1070
     0
1002
}
1002
{
1000
MANEDIT
1070
     0
1002
}
1002
{
1000
NOSEL
1070
     0
1002
}
1002
{
1000
BEHIND
1070
     0
1002
}
1002
{
1000
OTHER
1070
     0
1002
}
1002
{
1000
REACTOR
1002
}
  0
LINE
  5
81C7
330
2
100
AcDbEntity
  8
0
100
AcDbLine
 10
361.0141470085882
 20
212.1866085092775
 30
0.0
 11
361.0141470085882
 21
210.6866085092776
 31
0.0
1001
GENIUS_GENODEF_13
1002
{
1000
HIER
1070
     0
1002
}
1002
{
1000
MANEDIT
1070
     0
1002
}
1002
{
1000
NOSEL
1070
     0
1002
}
1002
{
1000
BEHIND
1070
     0
1002
}
1002
{
1000
OTHER
1070
     0
1002
}
1002
{
1000
REACTOR
1002
}
1001
GENIUS_GENOBJ-N-CEN_13
1002
{
1000
OWNER
1000
GEN
1002
}
  0
LINE
  5
81C8
330
2
100
AcDbEntity
  8
0
100
AcDbLine
 10
381.0141470085882
 20
203.6866085092776
 30
0.0
 11
381.0141470085882
 21
202.1866085092776
 31
0.0
1001
GENIUS_GENODEF_13
1002
{
1000
HIER
1070
     0
1002
}
1002
{
1000
MANEDIT
1070
     0
1002
}
1002
{
1000
NOSEL
1070
     0
1002
}
1002
{
1000
BEHIND
1070
     0
1002
}
1002
{
1000
OTHER
1070
     0
1002
}
1002
{
1000
REACTOR
1002
}
1001
GENIUS_GENOBJ-N-CEN_13
1002
{
1000
OWNER
1000
GEN
1002
}
  0
LINE
  5
81C9
330
2
100
AcDbEntity
  8
0
100
AcDbLine
 10
374.0141470085882
 20
203.6866085092776
 30
0.0
 11
374.0141470085882
 21
202.1866085092776
 31
0.0
1001
GENIUS_GENODEF_13
1002
{
1000
HIER
1070
     0
1002
}
1002
{
1000
MANEDIT
1070
     0
1002
}
1002
{
1000
NOSEL
1070
     0
1002
}
1002
{
1000
BEHIND
1070
     0
1002
}
1002
{
1000
OTHER
1070
     0
1002
}
1002
{
1000
REACTOR
1002
}
1001
GENIUS_GENOBJ-N-CEN_13
1002
{
1000
OWNER
1000
GEN
1002
}
  0
LINE
  5
81CA
330
2
100
AcDbEntity
  8
0
100
AcDbLine
 10
382.7641470085882
 20
197.1866085092775
 30
0.0
 11
372.2641470085882
 21
197.1866085092775
 31
0.0
1001
GENIUS_GENREC_14
1002
{
1000
PYDIR
1011
354.0141470085882
1021
214.6866085092776
1031
0.0
1002
}
1002
{
1000
PXDIR
1011
401.0141470085882
1021
136.1866085092775
1031
0.0
1002
}
1002
{
1000
PORI
1011
354.0141470085882
1021
136.1866085092775
1031
0.0
1002
}
1002
{
1000
PINS
1011
377.5141470085882
1021
170.1866085092775
1031
0.0
1002
}
1002
{
1000
HVAL
1000
68
1002
}
1002
{
1000
H
1070
     2
1002
}
1002
{
1000
WVAL
1000
47
1002
}
1002
{
1000
W
1070
     2
1002
}
1002
{
1000
C
1070
     4
1002
}
1001
GENIUS_GENOBJ-N-REC_13
1002
{
1000
OWNER
1000
GEN
1002
}
1001
GENIUS_GENODEF_13
1002
{
1000
HIER
1070
     0
1002
}
1002
{
1000
MANEDIT
1070
     0
1002
}
1002
{
1000
NOSEL
1070
     0
1002
}
1002
{
1000
BEHIND
1070
     0
1002
}
1002
{
1000
OTHER
1070
     0
1002
}
1002
{
1000
REACTOR
1002
}
  0
LINE
  5
81CB
330
2
100
AcDbEntity
  8
0
100
AcDbLine
 10
372.2641470085882
 20
202.1866085092776
 30
0.0
 11
372.2641470085882
 21
197.1866085092775
 31
0.0
1001
GENIUS_GENODEF_13
1002
{
1000
HIER
1070
     0
1002
}
1002
{
1000
MANEDIT
1070
     0
1002
}
1002
{
1000
NOSEL
1070
     0
1002
}
1002
{
1000
BEHIND
1070
     0
1002
}
1002
{
1000
OTHER
1070
     0
1002
}
1002
{
1000
REACTOR
1002
}
1001
GENIUS_GENOBJ-N-CEN_13
1002
{
1000
OWNER
1000
GEN
1002
}
  0
LINE
  5
81CC
330
2
100
AcDbEntity
  8
0
100
AcDbLine
 10
374.0141470085882
 20
202.1866085092776
 30
0.0
 11
372.2641470085882
 21
202.1866085092776
 31
0.0
1001
GENIUS_GENREC_14
1002
{
1000
PYDIR
1011
354.0141470085882
1021
214.6866085092776
1031
0.0
1002
}
1002
{
1000
PXDIR
1011
401.0141470085882
1021
136.1866085092775
1031
0.0
1002
}
1002
{
1000
PORI
1011
354.0141470085882
1021
136.1866085092775
1031
0.0
1002
}
1002
{
1000
PINS
1011
377.5141470085882
1021
170.1866085092775
1031
0.0
1002
}
1002
{
1000
HVAL
1000
68
1002
}
1002
{
1000
H
1070
     2
1002
}
1002
{
1000
WVAL
1000
47
1002
}
1002
{
1000
W
1070
     2
1002
}
1002
{
1000
C
1070
     4
1002
}
1001
GENIUS_GENOBJ-N-REC_13
1002
{
1000
OWNER
1000
GEN
1002
}
1001
GENIUS_GENODEF_13
1002
{
1000
HIER
1070
     0
1002
}
1002
{
1000
MANEDIT
1070
     0
1002
}
1002
{
1000
NOSEL
1070
     0
1002
}
1002
{
1000
BEHIND
1070
     0
1002
}
1002
{
1000
OTHER
1070
     0
1002
}
1002
{
1000
REACTOR
1002
}
  0
LINE
  5
81CD
330
2
100
AcDbEntity
  8
0
100
AcDbLine
 10
382.7641470085882
 20
202.1866085092776
 30
0.0
 11
382.7641470085882
 21
197.1866085092775
 31
0.0
1001
GENIUS_GENODEF_13
1002
{
1000
HIER
1070
     0
1002
}
1002
{
1000
MANEDIT
1070
     0
1002
}
1002
{
1000
NOSEL
1070
     0
1002
}
1002
{
1000
BEHIND
1070
     0
1002
}
1002
{
1000
OTHER
1070
     0
1002
}
1002
{
1000
REACTOR
1002
}
1001
GENIUS_GENOBJ-N-CEN_13
1002
{
1000
OWNER
1000
GEN
1002
}
  0
LINE
  5
81CE
330
2
100
AcDbEntity
  8
0
100
AcDbLine
 10
381.0141470085882
 20
202.1866085092776
 30
0.0
 11
382.7641470085882
 21
202.1866085092776
 31
0.0
1001
GENIUS_GENREC_14
1002
{
1000
PYDIR
1011
401.0141470085882
1021
214.6866085092776
1031
0.0
1002
}
1002
{
1000
PXDIR
1011
354.0141470085882
1021
136.1866085092775
1031
0.0
1002
}
1002
{
1000
PORI
1011
401.0141470085882
1021
136.1866085092775
1031
0.0
1002
}
1002
{
1000
PINS
1011
377.5141470085882
1021
170.1866085092775
1031
0.0
1002
}
1002
{
1000
HVAL
1000
68
1002
}
1002
{
1000
H
1070
     2
1002
}
1002
{
1000
WVAL
1000
47
1002
}
1002
{
1000
W
1070
     2
1002
}
1002
{
1000
C
1070
     4
1002
}
1001
GENIUS_GENOBJ-N-REC_13
1002
{
1000
OWNER
1000
GEN
1002
}
1001
GENIUS_GENODEF_13
1002
{
1000
HIER
1070
     0
1002
}
1002
{
1000
MANEDIT
1070
     0
1002
}
1002
{
1000
NOSEL
1070
     0
1002
}
1002
{
1000
BEHIND
1070
     0
1002
}
1002
{
1000
OTHER
1070
     0
1002
}
1002
{
1000
REACTOR
1002
}
  0
LINE
  5
81CF
330
2
100
AcDbEntity
  8
0
100
AcDbLine
 10
394.0141470085882
 20
212.1866085092775
 30
0.0
 11
394.0141470085882
 21
210.6866085092776
 31
0.0
1001
GENIUS_GENODEF_13
1002
{
1000
HIER
1070
     0
1002
}
1002
{
1000
MANEDIT
1070
     0
1002
}
1002
{
1000
NOSEL
1070
     0
1002
}
1002
{
1000
BEHIND
1070
     0
1002
}
1002
{
1000
OTHER
1070
     0
1002
}
1002
{
1000
REACTOR
1002
}
1001
GENIUS_GENOBJ-N-CEN_13
1002
{
1000
OWNER
1000
GEN
1002
}
  0
ARC
  5
81D0
330
2
100
AcDbEntity
  8
0
100
AcDbCircle
 10
400.2641470085881
 20
213.9366085092776
 30
0.0
 40
0.7500000000000064
100
AcDbArc
 50
270.0
 51
90.0
  0
LINE
  5
81D1
330
2
100
AcDbEntity
  8
0
100
AcDbLine
 10
397.5141470085882
 20
210.6866085092776
 30
0.0
 11
397.5141470085882
 21
203.6866085092776
 31
0.0
1001
GENIUS_GENREC_14
1002
{
1000
PYDIR
1011
401.0141470085882
1021
214.6866085092776
1031
0.0
1002
}
1002
{
1000
PXDIR
1011
354.0141470085882
1021
136.1866085092775
1031
0.0
1002
}
1002
{
1000
PORI
1011
401.0141470085882
1021
136.1866085092775
1031
0.0
1002
}
1002
{
1000
PINS
1011
377.5141470085882
1021
170.1866085092775
1031
0.0
1002
}
1002
{
1000
HVAL
1000
68
1002
}
1002
{
1000
H
1070
     2
1002
}
1002
{
1000
WVAL
1000
47
1002
}
1002
{
1000
W
1070
     2
1002
}
1002
{
1000
C
1070
     4
1002
}
1001
GENIUS_GENOBJ-N-REC_13
1002
{
1000
OWNER
1000
GEN
1002
}
1001
GENIUS_GENODEF_13
1002
{
1000
HIER
1070
     0
1002
}
1002
{
1000
MANEDIT
1070
     0
1002
}
1002
{
1000
NOSEL
1070
     0
1002
}
1002
{
1000
BEHIND
1070
     0
1002
}
1002
{
1000
OTHER
1070
     0
1002
}
1002
{
1000
REACTOR
1002
}
  0
LINE
  5
81D2
330
2
100
AcDbEntity
  8
0
100
AcDbLine
 10
399.5141470085883
 20
214.6866085092776
 30
0.0
 11
400.2641470085881
 21
214.6866085092776
 31
0.0
1001
GENIUS_GENREC_14
1002
{
1000
PYDIR
1011
401.0141470085882
1021
214.6866085092776
1031
0.0
1002
}
1002
{
1000
PXDIR
1011
354.0141470085882
1021
136.1866085092775
1031
0.0
1002
}
1002
{
1000
PORI
1011
401.0141470085882
1021
136.1866085092775
1031
0.0
1002
}
1002
{
1000
PINS
1011
377.5141470085882
1021
170.1866085092775
1031
0.0
1002
}
1002
{
1000
HVAL
1000
68
1002
}
1002
{
1000
H
1070
     2
1002
}
1002
{
1000
WVAL
1000
47
1002
}
1002
{
1000
W
1070
     2
1002
}
1002
{
1000
C
1070
     4
1002
}
1001
GENIUS_GENOBJ-N-REC_13
1002
{
1000
OWNER
1000
GEN
1002
}
1001
GENIUS_GENODEF_13
1002
{
1000
HIER
1070
     0
1002
}
1002
{
1000
MANEDIT
1070
     0
1002
}
1002
{
1000
NOSEL
1070
     0
1002
}
1002
{
1000
BEHIND
1070
     0
1002
}
1002
{
1000
OTHER
1070
     0
1002
}
1002
{
1000
REACTOR
1002
}
  0
LINE
  5
81D3
330
2
100
AcDbEntity
  8
0
100
AcDbLine
 10
399.5141470085883
 20
213.1866085092775
 30
0.0
 11
400.2641470085881
 21
213.1866085092775
 31
0.0
1001
GENIUS_GENREC_14
1002
{
1000
PYDIR
1011
401.0141470085882
1021
214.6866085092776
1031
0.0
1002
}
1002
{
1000
PXDIR
1011
354.0141470085882
1021
136.1866085092775
1031
0.0
1002
}
1002
{
1000
PORI
1011
401.0141470085882
1021
136.1866085092775
1031
0.0
1002
}
1002
{
1000
PINS
1011
377.5141470085882
1021
170.1866085092775
1031
0.0
1002
}
1002
{
1000
HVAL
1000
68
1002
}
1002
{
1000
H
1070
     2
1002
}
1002
{
1000
WVAL
1000
47
1002
}
1002
{
1000
W
1070
     2
1002
}
1002
{
1000
C
1070
     4
1002
}
1001
GENIUS_GENOBJ-N-REC_13
1002
{
1000
OWNER
1000
GEN
1002
}
1001
GENIUS_GENODEF_13
1002
{
1000
HIER
1070
     0
1002
}
1002
{
1000
MANEDIT
1070
     0
1002
}
1002
{
1000
NOSEL
1070
     0
1002
}
1002
{
1000
BEHIND
1070
     0
1002
}
1002
{
1000
OTHER
1070
     0
1002
}
1002
{
1000
REACTOR
1002
}
  0
LINE
  5
81D4
330
2
100
AcDbEntity
  8
0
100
AcDbLine
 10
399.5141470085883
 20
125.6866085092775
 30
0.0
 11
394.0141470085882
 21
128.1866085092776
 31
0.0
  0
LINE
  5
81D5
330
2
100
AcDbEntity
  8
0
100
AcDbLine
 10
394.0141470085882
 20
129.6866085092775
 30
0.0
 11
397.5141470085882
 21
129.6866085092775
 31
0.0
1001
GENIUS_GENREC_14
1002
{
1000
PYDIR
1011
401.0141470085882
1021
125.6866085092775
1031
0.0
1002
}
1002
{
1000
PXDIR
1011
354.0141470085882
1021
204.1866085092776
1031
0.0
1002
}
1002
{
1000
PORI
1011
401.0141470085882
1021
204.1866085092776
1031
0.0
1002
}
1002
{
1000
PINS
1011
377.5141470085882
1021
170.1866085092775
1031
0.0
1002
}
1002
{
1000
HVAL
1000
68
1002
}
1002
{
1000
H
1070
     2
1002
}
1002
{
1000
WVAL
1000
47
1002
}
1002
{
1000
W
1070
     2
1002
}
1002
{
1000
C
1070
     4
1002
}
1001
GENIUS_GENOBJ-N-REC_13
1002
{
1000
OWNER
1000
GEN
1002
}
1001
GENIUS_GENODEF_13
1002
{
1000
HIER
1070
     0
1002
}
1002
{
1000
MANEDIT
1070
     0
1002
}
1002
{
1000
NOSEL
1070
     0
1002
}
1002
{
1000
BEHIND
1070
     0
1002
}
1002
{
1000
OTHER
1070
     0
1002
}
1002
{
1000
REACTOR
1002
}
  0
LINE
  5
81D6
330
2
100
AcDbEntity
  8
0
100
AcDbLine
 10
381.0141470085882
 20
136.6866085092775
 30
0.0
 11
397.5141470085882
 21
136.6866085092775
 31
0.0
1001
GENIUS_GENREC_14
1002
{
1000
PYDIR
1011
401.0141470085882
1021
125.6866085092775
1031
0.0
1002
}
1002
{
1000
PXDIR
1011
354.0141470085882
1021
204.1866085092776
1031
0.0
1002
}
1002
{
1000
PORI
1011
401.0141470085882
1021
204.1866085092776
1031
0.0
1002
}
1002
{
1000
PINS
1011
377.5141470085882
1021
170.1866085092775
1031
0.0
1002
}
1002
{
1000
HVAL
1000
68
1002
}
1002
{
1000
H
1070
     2
1002
}
1002
{
1000
WVAL
1000
47
1002
}
1002
{
1000
W
1070
     2
1002
}
1002
{
1000
C
1070
     4
1002
}
1001
GENIUS_GENOBJ-N-REC_13
1002
{
1000
OWNER
1000
GEN
1002
}
1001
GENIUS_GENODEF_13
1002
{
1000
HIER
1070
     0
1002
}
1002
{
1000
MANEDIT
1070
     0
1002
}
1002
{
1000
NOSEL
1070
     0
1002
}
1002
{
1000
BEHIND
1070
     0
1002
}
1002
{
1000
OTHER
1070
     0
1002
}
1002
{
1000
REACTOR
1002
}
  0
LINE
  5
81D7
330
2
100
AcDbEntity
  8
0
100
AcDbLine
 10
374.0141470085882
 20
136.6866085092775
 30
0.0
 11
357.5141470085882
 21
136.6866085092775
 31
0.0
1001
GENIUS_GENREC_14
1002
{
1000
PYDIR
1011
354.0141470085882
1021
125.6866085092775
1031
0.0
1002
}
1002
{
1000
PXDIR
1011
401.0141470085882
1021
204.1866085092776
1031
0.0
1002
}
1002
{
1000
PORI
1011
354.0141470085882
1021
204.1866085092776
1031
0.0
1002
}
1002
{
1000
PINS
1011
377.5141470085882
1021
170.1866085092775
1031
0.0
1002
}
1002
{
1000
HVAL
1000
68
1002
}
1002
{
1000
H
1070
     2
1002
}
1002
{
1000
WVAL
1000
47
1002
}
1002
{
1000
W
1070
     2
1002
}
1002
{
1000
C
1070
     4
1002
}
1001
GENIUS_GENOBJ-N-REC_13
1002
{
1000
OWNER
1000
GEN
1002
}
1001
GENIUS_GENODEF_13
1002
{
1000
HIER
1070
     0
1002
}
1002
{
1000
MANEDIT
1070
     0
1002
}
1002
{
1000
NOSEL
1070
     0
1002
}
1002
{
1000
BEHIND
1070
     0
1002
}
1002
{
1000
OTHER
1070
     0
1002
}
1002
{
1000
REACTOR
1002
}
  0
LINE
  5
81D8
330
2
100
AcDbEntity
  8
0
100
AcDbLine
 10
355.5141470085882
 20
127.1866085092775
 30
0.0
 11
355.5141470085882
 21
213.1866085092776
 31
0.0
1001
GENIUS_GENREC_14
1002
{
1000
PYDIR
1011
354.0141470085882
1021
125.6866085092775
1031
0.0
1002
}
1002
{
1000
PXDIR
1011
401.0141470085882
1021
204.1866085092776
1031
0.0
1002
}
1002
{
1000
PORI
1011
354.0141470085882
1021
204.1866085092776
1031
0.0
1002
}
1002
{
1000
PINS
1011
377.5141470085882
1021
170.1866085092775
1031
0.0
1002
}
1002
{
1000
HVAL
1000
68
1002
}
1002
{
1000
H
1070
     2
1002
}
1002
{
1000
WVAL
1000
47
1002
}
1002
{
1000
W
1070
     2
1002
}
1002
{
1000
C
1070
     4
1002
}
1001
GENIUS_GENOBJ-N-REC_13
1002
{
1000
OWNER
1000
GEN
1002
}
1001
GENIUS_GENODEF_13
1002
{
1000
HIER
1070
     0
1002
}
1002
{
1000
MANEDIT
1070
     0
1002
}
1002
{
1000
NOSEL
1070
     0
1002
}
1002
{
1000
BEHIND
1070
     0
1002
}
1002
{
1000
OTHER
1070
     0
1002
}
1002
{
1000
REACTOR
1002
}
  0
LINE
  5
81D9
330
2
100
AcDbEntity
  8
0
100
AcDbLine
 10
361.0141470085882
 20
129.6866085092775
 30
0.0
 11
357.5141470085882
 21
129.6866085092775
 31
0.0
1001
GENIUS_GENREC_14
1002
{
1000
PYDIR
1011
354.0141470085882
1021
125.6866085092775
1031
0.0
1002
}
1002
{
1000
PXDIR
1011
401.0141470085882
1021
204.1866085092776
1031
0.0
1002
}
1002
{
1000
PORI
1011
354.0141470085882
1021
204.1866085092776
1031
0.0
1002
}
1002
{
1000
PINS
1011
377.5141470085882
1021
170.1866085092775
1031
0.0
1002
}
1002
{
1000
HVAL
1000
68
1002
}
1002
{
1000
H
1070
     2
1002
}
1002
{
1000
WVAL
1000
47
1002
}
1002
{
1000
W
1070
     2
1002
}
1002
{
1000
C
1070
     4
1002
}
1001
GENIUS_GENOBJ-N-REC_13
1002
{
1000
OWNER
1000
GEN
1002
}
1001
GENIUS_GENODEF_13
1002
{
1000
HIER
1070
     0
1002
}
1002
{
1000
MANEDIT
1070
     0
1002
}
1002
{
1000
NOSEL
1070
     0
1002
}
1002
{
1000
BEHIND
1070
     0
1002
}
1002
{
1000
OTHER
1070
     0
1002
}
1002
{
1000
REACTOR
1002
}
  0
LINE
  5
81DA
330
2
100
AcDbEntity
  8
0
100
AcDbLine
 10
355.5141470085882
 20
125.6866085092775
 30
0.0
 11
361.0141470085882
 21
128.1866085092776
 31
0.0
  0
ARC
  5
81DB
330
2
100
AcDbEntity
  8
0
100
AcDbCircle
 10
354.7641470085882
 20
126.4366085092775
 30
0.0
 40
0.7500000000000064
100
AcDbArc
 50
90.0
 51
270.0
  0
LINE
  5
81DC
330
2
100
AcDbEntity
  8
0
100
AcDbLine
 10
357.5141470085882
 20
129.6866085092775
 30
0.0
 11
357.5141470085882
 21
136.6866085092775
 31
0.0
1001
GENIUS_GENREC_14
1002
{
1000
PYDIR
1011
354.0141470085882
1021
125.6866085092775
1031
0.0
1002
}
1002
{
1000
PXDIR
1011
401.0141470085882
1021
204.1866085092776
1031
0.0
1002
}
1002
{
1000
PORI
1011
354.0141470085882
1021
204.1866085092776
1031
0.0
1002
}
1002
{
1000
PINS
1011
377.5141470085882
1021
170.1866085092775
1031
0.0
1002
}
1002
{
1000
HVAL
1000
68
1002
}
1002
{
1000
H
1070
     2
1002
}
1002
{
1000
WVAL
1000
47
1002
}
1002
{
1000
W
1070
     2
1002
}
1002
{
1000
C
1070
     4
1002
}
1001
GENIUS_GENOBJ-N-REC_13
1002
{
1000
OWNER
1000
GEN
1002
}
1001
GENIUS_GENODEF_13
1002
{
1000
HIER
1070
     0
1002
}
1002
{
1000
MANEDIT
1070
     0
1002
}
1002
{
1000
NOSEL
1070
     0
1002
}
1002
{
1000
BEHIND
1070
     0
1002
}
1002
{
1000
OTHER
1070
     0
1002
}
1002
{
1000
REACTOR
1002
}
  0
LINE
  5
81DD
330
2
100
AcDbEntity
  8
0
100
AcDbLine
 10
355.5141470085882
 20
127.1866085092775
 30
0.0
 11
354.7641470085882
 21
127.1866085092775
 31
0.0
1001
GENIUS_GENREC_14
1002
{
1000
PYDIR
1011
354.0141470085882
1021
125.6866085092775
1031
0.0
1002
}
1002
{
1000
PXDIR
1011
401.0141470085882
1021
204.1866085092776
1031
0.0
1002
}
1002
{
1000
PORI
1011
354.0141470085882
1021
204.1866085092776
1031
0.0
1002
}
1002
{
1000
PINS
1011
377.5141470085882
1021
170.1866085092775
1031
0.0
1002
}
1002
{
1000
HVAL
1000
68
1002
}
1002
{
1000
H
1070
     2
1002
}
1002
{
1000
WVAL
1000
47
1002
}
1002
{
1000
W
1070
     2
1002
}
1002
{
1000
C
1070
     4
1002
}
1001
GENIUS_GENOBJ-N-REC_13
1002
{
1000
OWNER
1000
GEN
1002
}
1001
GENIUS_GENODEF_13
1002
{
1000
HIER
1070
     0
1002
}
1002
{
1000
MANEDIT
1070
     0
1002
}
1002
{
1000
NOSEL
1070
     0
1002
}
1002
{
1000
BEHIND
1070
     0
1002
}
1002
{
1000
OTHER
1070
     0
1002
}
1002
{
1000
REACTOR
1002
}
  0
LINE
  5
81DE
330
2
100
AcDbEntity
  8
0
100
AcDbLine
 10
355.5141470085882
 20
125.6866085092775
 30
0.0
 11
354.7641470085882
 21
125.6866085092775
 31
0.0
1001
GENIUS_GENREC_14
1002
{
1000
PYDIR
1011
354.0141470085882
1021
125.6866085092775
1031
0.0
1002
}
1002
{
1000
PXDIR
1011
401.0141470085882
1021
204.1866085092776
1031
0.0
1002
}
1002
{
1000
PORI
1011
354.0141470085882
1021
204.1866085092776
1031
0.0
1002
}
1002
{
1000
PINS
1011
377.5141470085882
1021
170.1866085092775
1031
0.0
1002
}
1002
{
1000
HVAL
1000
68
1002
}
1002
{
1000
H
1070
     2
1002
}
1002
{
1000
WVAL
1000
47
1002
}
1002
{
1000
W
1070
     2
1002
}
1002
{
1000
C
1070
     4
1002
}
1001
GENIUS_GENOBJ-N-REC_13
1002
{
1000
OWNER
1000
GEN
1002
}
1001
GENIUS_GENODEF_13
1002
{
1000
HIER
1070
     0
1002
}
1002
{
1000
MANEDIT
1070
     0
1002
}
1002
{
1000
NOSEL
1070
     0
1002
}
1002
{
1000
BEHIND
1070
     0
1002
}
1002
{
1000
OTHER
1070
     0
1002
}
1002
{
1000
REACTOR
1002
}
  0
LINE
  5
81DF
330
2
100
AcDbEntity
  8
0
100
AcDbLine
 10
361.0141470085882
 20
128.1866085092776
 30
0.0
 11
361.0141470085882
 21
129.6866085092775
 31
0.0
1001
GENIUS_GENODEF_13
1002
{
1000
HIER
1070
     0
1002
}
1002
{
1000
MANEDIT
1070
     0
1002
}
1002
{
1000
NOSEL
1070
     0
1002
}
1002
{
1000
BEHIND
1070
     0
1002
}
1002
{
1000
OTHER
1070
     0
1002
}
1002
{
1000
REACTOR
1002
}
1001
GENIUS_GENOBJ-N-CEN_13
1002
{
1000
OWNER
1000
GEN
1002
}
  0
LINE
  5
81E0
330
2
100
AcDbEntity
  8
0
100
AcDbLine
 10
381.0141470085882
 20
136.6866085092775
 30
0.0
 11
381.0141470085882
 21
138.1866085092775
 31
0.0
1001
GENIUS_GENODEF_13
1002
{
1000
HIER
1070
     0
1002
}
1002
{
1000
MANEDIT
1070
     0
1002
}
1002
{
1000
NOSEL
1070
     0
1002
}
1002
{
1000
BEHIND
1070
     0
1002
}
1002
{
1000
OTHER
1070
     0
1002
}
1002
{
1000
REACTOR
1002
}
1001
GENIUS_GENOBJ-N-CEN_13
1002
{
1000
OWNER
1000
GEN
1002
}
  0
LINE
  5
81E1
330
2
100
AcDbEntity
  8
0
100
AcDbLine
 10
374.0141470085882
 20
136.6866085092775
 30
0.0
 11
374.0141470085882
 21
138.1866085092775
 31
0.0
1001
GENIUS_GENODEF_13
1002
{
1000
HIER
1070
     0
1002
}
1002
{
1000
MANEDIT
1070
     0
1002
}
1002
{
1000
NOSEL
1070
     0
1002
}
1002
{
1000
BEHIND
1070
     0
1002
}
1002
{
1000
OTHER
1070
     0
1002
}
1002
{
1000
REACTOR
1002
}
1001
GENIUS_GENOBJ-N-CEN_13
1002
{
1000
OWNER
1000
GEN
1002
}
  0
LINE
  5
81E2
330
2
100
AcDbEntity
  8
0
100
AcDbLine
 10
382.7641470085882
 20
143.1866085092775
 30
0.0
 11
372.2641470085882
 21
143.1866085092775
 31
0.0
1001
GENIUS_GENREC_14
1002
{
1000
PYDIR
1011
354.0141470085882
1021
125.6866085092775
1031
0.0
1002
}
1002
{
1000
PXDIR
1011
401.0141470085882
1021
204.1866085092776
1031
0.0
1002
}
1002
{
1000
PORI
1011
354.0141470085882
1021
204.1866085092776
1031
0.0
1002
}
1002
{
1000
PINS
1011
377.5141470085882
1021
170.1866085092775
1031
0.0
1002
}
1002
{
1000
HVAL
1000
68
1002
}
1002
{
1000
H
1070
     2
1002
}
1002
{
1000
WVAL
1000
47
1002
}
1002
{
1000
W
1070
     2
1002
}
1002
{
1000
C
1070
     4
1002
}
1001
GENIUS_GENOBJ-N-REC_13
1002
{
1000
OWNER
1000
GEN
1002
}
1001
GENIUS_GENODEF_13
1002
{
1000
HIER
1070
     0
1002
}
1002
{
1000
MANEDIT
1070
     0
1002
}
1002
{
1000
NOSEL
1070
     0
1002
}
1002
{
1000
BEHIND
1070
     0
1002
}
1002
{
1000
OTHER
1070
     0
1002
}
1002
{
1000
REACTOR
1002
}
  0
LINE
  5
81E3
330
2
100
AcDbEntity
  8
0
100
AcDbLine
 10
372.2641470085882
 20
138.1866085092775
 30
0.0
 11
372.2641470085882
 21
143.1866085092775
 31
0.0
1001
GENIUS_GENODEF_13
1002
{
1000
HIER
1070
     0
1002
}
1002
{
1000
MANEDIT
1070
     0
1002
}
1002
{
1000
NOSEL
1070
     0
1002
}
1002
{
1000
BEHIND
1070
     0
1002
}
1002
{
1000
OTHER
1070
     0
1002
}
1002
{
1000
REACTOR
1002
}
1001
GENIUS_GENOBJ-N-CEN_13
1002
{
1000
OWNER
1000
GEN
1002
}
  0
LINE
  5
81E4
330
2
100
AcDbEntity
  8
0
100
AcDbLine
 10
374.0141470085882
 20
138.1866085092775
 30
0.0
 11
372.2641470085882
 21
138.1866085092775
 31
0.0
1001
GENIUS_GENREC_14
1002
{
1000
PYDIR
1011
354.0141470085882
1021
125.6866085092775
1031
0.0
1002
}
1002
{
1000
PXDIR
1011
401.0141470085882
1021
204.1866085092776
1031
0.0
1002
}
1002
{
1000
PORI
1011
354.0141470085882
1021
204.1866085092776
1031
0.0
1002
}
1002
{
1000
PINS
1011
377.5141470085882
1021
170.1866085092775
1031
0.0
1002
}
1002
{
1000
HVAL
1000
68
1002
}
1002
{
1000
H
1070
     2
1002
}
1002
{
1000
WVAL
1000
47
1002
}
1002
{
1000
W
1070
     2
1002
}
1002
{
1000
C
1070
     4
1002
}
1001
GENIUS_GENOBJ-N-REC_13
1002
{
1000
OWNER
1000
GEN
1002
}
1001
GENIUS_GENODEF_13
1002
{
1000
HIER
1070
     0
1002
}
1002
{
1000
MANEDIT
1070
     0
1002
}
1002
{
1000
NOSEL
1070
     0
1002
}
1002
{
1000
BEHIND
1070
     0
1002
}
1002
{
1000
OTHER
1070
     0
1002
}
1002
{
1000
REACTOR
1002
}
  0
LINE
  5
81E5
330
2
100
AcDbEntity
  8
0
100
AcDbLine
 10
382.7641470085882
 20
138.1866085092775
 30
0.0
 11
382.7641470085882
 21
143.1866085092775
 31
0.0
1001
GENIUS_GENODEF_13
1002
{
1000
HIER
1070
     0
1002
}
1002
{
1000
MANEDIT
1070
     0
1002
}
1002
{
1000
NOSEL
1070
     0
1002
}
1002
{
1000
BEHIND
1070
     0
1002
}
1002
{
1000
OTHER
1070
     0
1002
}
1002
{
1000
REACTOR
1002
}
1001
GENIUS_GENOBJ-N-CEN_13
1002
{
1000
OWNER
1000
GEN
1002
}
  0
LINE
  5
81E6
330
2
100
AcDbEntity
  8
0
100
AcDbLine
 10
381.0141470085882
 20
138.1866085092775
 30
0.0
 11
382.7641470085882
 21
138.1866085092775
 31
0.0
1001
GENIUS_GENREC_14
1002
{
1000
PYDIR
1011
401.0141470085882
1021
125.6866085092775
1031
0.0
1002
}
1002
{
1000
PXDIR
1011
354.0141470085882
1021
204.1866085092776
1031
0.0
1002
}
1002
{
1000
PORI
1011
401.0141470085882
1021
204.1866085092776
1031
0.0
1002
}
1002
{
1000
PINS
1011
377.5141470085882
1021
170.1866085092775
1031
0.0
1002
}
1002
{
1000
HVAL
1000
68
1002
}
1002
{
1000
H
1070
     2
1002
}
1002
{
1000
WVAL
1000
47
1002
}
1002
{
1000
W
1070
     2
1002
}
1002
{
1000
C
1070
     4
1002
}
1001
GENIUS_GENOBJ-N-REC_13
1002
{
1000
OWNER
1000
GEN
1002
}
1001
GENIUS_GENODEF_13
1002
{
1000
HIER
1070
     0
1002
}
1002
{
1000
MANEDIT
1070
     0
1002
}
1002
{
1000
NOSEL
1070
     0
1002
}
1002
{
1000
BEHIND
1070
     0
1002
}
1002
{
1000
OTHER
1070
     0
1002
}
1002
{
1000
REACTOR
1002
}
  0
LINE
  5
81E7
330
2
100
AcDbEntity
  8
0
100
AcDbLine
 10
394.0141470085882
 20
128.1866085092776
 30
0.0
 11
394.0141470085882
 21
129.6866085092775
 31
0.0
1001
GENIUS_GENODEF_13
1002
{
1000
HIER
1070
     0
1002
}
1002
{
1000
MANEDIT
1070
     0
1002
}
1002
{
1000
NOSEL
1070
     0
1002
}
1002
{
1000
BEHIND
1070
     0
1002
}
1002
{
1000
OTHER
1070
     0
1002
}
1002
{
1000
REACTOR
1002
}
1001
GENIUS_GENOBJ-N-CEN_13
1002
{
1000
OWNER
1000
GEN
1002
}
  0
ARC
  5
81E8
330
2
100
AcDbEntity
  8
0
100
AcDbCircle
 10
400.2641470085881
 20
126.4366085092775
 30
0.0
 40
0.7500000000000064
100
AcDbArc
 50
270.0
 51
90.0
  0
LINE
  5
81E9
330
2
100
AcDbEntity
  8
0
100
AcDbLine
 10
397.5141470085882
 20
129.6866085092775
 30
0.0
 11
397.5141470085882
 21
136.6866085092775
 31
0.0
1001
GENIUS_GENREC_14
1002
{
1000
PYDIR
1011
401.0141470085882
1021
125.6866085092775
1031
0.0
1002
}
1002
{
1000
PXDIR
1011
354.0141470085882
1021
204.1866085092776
1031
0.0
1002
}
1002
{
1000
PORI
1011
401.0141470085882
1021
204.1866085092776
1031
0.0
1002
}
1002
{
1000
PINS
1011
377.5141470085882
1021
170.1866085092775
1031
0.0
1002
}
1002
{
1000
HVAL
1000
68
1002
}
1002
{
1000
H
1070
     2
1002
}
1002
{
1000
WVAL
1000
47
1002
}
1002
{
1000
W
1070
     2
1002
}
1002
{
1000
C
1070
     4
1002
}
1001
GENIUS_GENOBJ-N-REC_13
1002
{
1000
OWNER
1000
GEN
1002
}
1001
GENIUS_GENODEF_13
1002
{
1000
HIER
1070
     0
1002
}
1002
{
1000
MANEDIT
1070
     0
1002
}
1002
{
1000
NOSEL
1070
     0
1002
}
1002
{
1000
BEHIND
1070
     0
1002
}
1002
{
1000
OTHER
1070
     0
1002
}
1002
{
1000
REACTOR
1002
}
  0
LINE
  5
81EA
330
2
100
AcDbEntity
  8
0
100
AcDbLine
 10
399.5141470085883
 20
125.6866085092775
 30
0.0
 11
400.2641470085881
 21
125.6866085092775
 31
0.0
1001
GENIUS_GENREC_14
1002
{
1000
PYDIR
1011
401.0141470085882
1021
125.6866085092775
1031
0.0
1002
}
1002
{
1000
PXDIR
1011
354.0141470085882
1021
204.1866085092776
1031
0.0
1002
}
1002
{
1000
PORI
1011
401.0141470085882
1021
204.1866085092776
1031
0.0
1002
}
1002
{
1000
PINS
1011
377.5141470085882
1021
170.1866085092775
1031
0.0
1002
}
1002
{
1000
HVAL
1000
68
1002
}
1002
{
1000
H
1070
     2
1002
}
1002
{
1000
WVAL
1000
47
1002
}
1002
{
1000
W
1070
     2
1002
}
1002
{
1000
C
1070
     4
1002
}
1001
GENIUS_GENOBJ-N-REC_13
1002
{
1000
OWNER
1000
GEN
1002
}
1001
GENIUS_GENODEF_13
1002
{
1000
HIER
1070
     0
1002
}
1002
{
1000
MANEDIT
1070
     0
1002
}
1002
{
1000
NOSEL
1070
     0
1002
}
1002
{
1000
BEHIND
1070
     0
1002
}
1002
{
1000
OTHER
1070
     0
1002
}
1002
{
1000
REACTOR
1002
}
  0
LINE
  5
81EB
330
2
100
AcDbEntity
  8
0
100
AcDbLine
 10
399.5141470085883
 20
127.1866085092775
 30
0.0
 11
400.2641470085881
 21
127.1866085092775
 31
0.0
1001
GENIUS_GENREC_14
1002
{
1000
PYDIR
1011
401.0141470085882
1021
125.6866085092775
1031
0.0
1002
}
1002
{
1000
PXDIR
1011
354.0141470085882
1021
204.1866085092776
1031
0.0
1002
}
1002
{
1000
PORI
1011
401.0141470085882
1021
204.1866085092776
1031
0.0
1002
}
1002
{
1000
PINS
1011
377.5141470085882
1021
170.1866085092775
1031
0.0
1002
}
1002
{
1000
HVAL
1000
68
1002
}
1002
{
1000
H
1070
     2
1002
}
1002
{
1000
WVAL
1000
47
1002
}
1002
{
1000
W
1070
     2
1002
}
1002
{
1000
C
1070
     4
1002
}
1001
GENIUS_GENOBJ-N-REC_13
1002
{
1000
OWNER
1000
GEN
1002
}
1001
GENIUS_GENODEF_13
1002
{
1000
HIER
1070
     0
1002
}
1002
{
1000
MANEDIT
1070
     0
1002
}
1002
{
1000
NOSEL
1070
     0
1002
}
1002
{
1000
BEHIND
1070
     0
1002
}
1002
{
1000
OTHER
1070
     0
1002
}
1002
{
1000
REACTOR
1002
}
  0
LINE
  5
81EC
330
2
100
AcDbEntity
  8
0
100
AcDbLine
 10
399.5141470085883
 20
127.1866085092775
 30
0.0
 11
399.5141470085883
 21
213.1866085092775
 31
0.0
1001
GENIUS_GENREC_14
1002
{
1000
PYDIR
1011
401.0141470085882
1021
125.6866085092775
1031
0.0
1002
}
1002
{
1000
PXDIR
1011
354.0141470085882
1021
204.1866085092776
1031
0.0
1002
}
1002
{
1000
PORI
1011
401.0141470085882
1021
204.1866085092776
1031
0.0
1002
}
1002
{
1000
PINS
1011
377.5141470085882
1021
170.1866085092775
1031
0.0
1002
}
1002
{
1000
HVAL
1000
68
1002
}
1002
{
1000
H
1070
     2
1002
}
1002
{
1000
WVAL
1000
47
1002
}
1002
{
1000
W
1070
     2
1002
}
1002
{
1000
C
1070
     4
1002
}
1001
GENIUS_GENOBJ-N-REC_13
1002
{
1000
OWNER
1000
GEN
1002
}
1001
GENIUS_GENODEF_13
1002
{
1000
HIER
1070
     0
1002
}
1002
{
1000
MANEDIT
1070
     0
1002
}
1002
{
1000
NOSEL
1070
     0
1002
}
1002
{
1000
BEHIND
1070
     0
1002
}
1002
{
1000
OTHER
1070
     0
1002
}
1002
{
1000
REACTOR
1002
}
  0
LINE
  5
81ED
330
2
100
AcDbEntity
  8
0
100
AcDbLine
 10
399.5141470085883
 20
211.3752010678196
 30
0.0
 11
399.5141470085887
 21
128.9980159507004
 31
0.0
  0
ARC
  5
81EE
330
2
100
AcDbEntity
  8
0
100
AcDbCircle
 10
401.0741470085886
 20
130.184607708636
 30
0.0
 40
1.960000000000144
100
AcDbArc
 50
174.8720091169139
 51
217.2579160013236
  0
ARC
  5
81EF
330
2
100
AcDbEntity
  8
0
100
AcDbCircle
 10
398.8231926162161
 20
130.3866085092765
 30
0.0
 40
0.3000000000001239
100
AcDbArc
 50
354.8720091168941
 51
174.8719726855477
  0
ARC
  5
81F0
330
2
100
AcDbEntity
  8
0
100
AcDbCircle
 10
401.0741470085881
 20
130.1846077086355
 30
0.0
 40
2.559999999999972
100
AcDbArc
 50
174.8720091169071
 51
257.3643749069788
  0
ARC
  5
81F1
330
2
100
AcDbEntity
  8
0
100
AcDbCircle
 10
401.0741470085886
 20
210.1886093099155
 30
0.0
 40
1.960000000000136
100
AcDbArc
 50
142.742083999419
 51
185.1279908830731
  0
ARC
  5
81F2
330
2
100
AcDbEntity
  8
0
100
AcDbCircle
 10
401.0741470085886
 20
210.1886093099153
 30
0.0
 40
2.56000000000065
100
AcDbArc
 50
102.6356250930213
 51
185.1279908830861
  0
ARC
  5
81F3
330
2
100
AcDbEntity
  8
0
100
AcDbCircle
 10
398.8231926162157
 20
209.9866085092756
 30
0.0
 40
0.3000000000004012
100
AcDbArc
 50
185.1279908832105
 51
5.128011962104138
  0
LINE
  5
81F4
330
2
100
AcDbEntity
  8
0
100
AcDbLine
 10
400.5141470085882
 20
212.6866085092753
 30
0.0
 11
405.214147008588
 21
212.6866085092753
 31
0.0
  0
LINE
  5
81F5
330
2
100
AcDbEntity
  8
0
100
AcDbLine
 10
405.214147008588
 20
212.6866085092753
 30
0.0
 11
405.214147008588
 21
210.3866085092742
 31
0.0
  0
LINE
  5
81F6
330
2
100
AcDbEntity
  8
0
100
AcDbLine
 10
405.214147008588
 20
210.3866085092742
 30
0.0
 11
403.5141470085882
 21
209.3179429595726
 31
0.0
  0
LINE
  5
81F7
330
2
100
AcDbEntity
  8
0
100
AcDbLine
 10
412.5141470085882
 20
127.6866085092766
 30
0.0
 11
400.5141470085882
 21
127.6866085092766
 31
0.0
  0
LWPOLYLINE
  5
81F8
330
2
100
AcDbEntity
  8
0
100
AcDbPolyline
 90
        7
 70
     0
 43
0.0
 10
411.9141470085878
 20
169.4366085092762
 10
411.9141470085878
 20
171.7915666875889
 42
0.2945408340461451
 10
411.6790872607011
 20
172.1559767769564
 10
405.690441819503
 20
174.8711611562081
 42
-0.9999998915195204
 10
405.9378521976696
 20
175.4177762902615
 10
411.9264976388708
 20
172.7025919110075
 42
-0.2945408340578595
 10
412.5141470085877
 20
171.7915666875457
  0
LINE
  5
81F9
330
2
100
AcDbEntity
  8
0
100
AcDbLine
 10
403.5141470085882
 20
209.3179429595726
 30
0.0
 11
403.5141470085882
 21
192.9366085092762
 31
0.0
  0
ARC
  5
81FA
330
2
100
AcDbEntity
  8
0
100
AcDbCircle
 10
404.0141470085882
 20
192.9366085092762
 30
0.0
 40
0.5
100
AcDbArc
 50
180.0
 51
270.0
  0
LINE
  5
81FB
330
2
100
AcDbEntity
  8
0
100
AcDbLine
 10
404.0141470085882
 20
192.4366085092762
 30
0.0
 11
407.0141470085882
 21
192.4366085092762
 31
0.0
  0
ARC
  5
81FC
330
2
100
AcDbEntity
  8
0
100
AcDbCircle
 10
407.0141470085882
 20
191.9366085092762
 30
0.0
 40
0.5
100
AcDbArc
 50
0.0
 51
90.0
  0
LINE
  5
81FD
330
2
100
AcDbEntity
  8
0
100
AcDbLine
 10
407.5141470085882
 20
191.9366085092762
 30
0.0
 11
407.5141470085882
 21
191.8026339130607
 31
0.0
  0
ARC
  5
81FE
330
2
100
AcDbEntity
  8
0
100
AcDbCircle
 10
407.0141470085882
 20
191.8026339130608
 30
0.0
 40
0.5
100
AcDbArc
 50
300.0000000000001
 51
359.999999999987
  0
LINE
  5
81FF
330
2
100
AcDbEntity
  8
0
100
AcDbLine
 10
407.2641470085882
 20
191.3696212111687
 30
0.0
 11
406.5141470085881
 21
190.9366085092762
 31
0.0
  0
LINE
  5
8200
330
2
100
AcDbEntity
  8
0
100
AcDbLine
 10
406.5141470085881
 20
190.9366085092762
 30
0.0
 11
404.0141470085882
 21
190.9366085092762
 31
0.0
  0
ARC
  5
8201
330
2
100
AcDbEntity
  8
0
100
AcDbCircle
 10
404.0141470085882
 20
190.4366085092762
 30
0.0
 40
0.5
100
AcDbArc
 50
90.0
 51
180.0
  0
LINE
  5
8202
330
2
100
AcDbEntity
  8
0
100
AcDbLine
 10
403.5141470085882
 20
190.4366085092762
 30
0.0
 11
403.5141470085882
 21
169.4366085092762
 31
0.0
  0
LINE
  5
8203
330
2
100
AcDbEntity
  8
0
100
AcDbLine
 10
403.5141470085882
 20
169.4366085092762
 30
0.0
 11
412.5141470085882
 21
169.4366085092762
 31
0.0
  0
LINE
  5
8204
330
2
100
AcDbEntity
  8
0
100
AcDbLine
 10
412.5141470085877
 20
171.7915666875457
 30
0.0
 11
412.5141470085882
 21
127.6866085092766
 31
0.0
  0
LWPOLYLINE
  5
8205
330
2
100
AcDbEntity
  8
0
100
AcDbPolyline
 90
        4
 70
     0
 43
0.0
 10
403.5141470085882
 20
209.0866085092763
 42
-0.3966277858007638
 10
406.8657055956077
 20
203.1076237539129
 42
-0.9713730731218312
 10
406.2825361888235
 20
203.24880492051
 42
0.3844485603994672
 10
403.5141470085882
 20
208.4533360781817
  0
LINE
  5
8206
330
2
100
AcDbEntity
  8
0
100
AcDbLine
 10
230.5141470085887
 20
211.3752010678196
 30
0.0
 11
230.5141470085891
 21
128.9980159507004
 31
0.0
  0
ARC
  5
8207
330
2
100
AcDbEntity
  8
0
100
AcDbCircle
 10
232.0741470085891
 20
130.184607708636
 30
0.0
 40
1.960000000000144
100
AcDbArc
 50
174.8720091169137
 51
217.2579160013236
  0
ARC
  5
8208
330
2
100
AcDbEntity
  8
0
100
AcDbCircle
 10
229.8231926162166
 20
130.3866085092765
 30
0.0
 40
0.3000000000001239
100
AcDbArc
 50
354.8720091168941
 51
174.8719726855475
  0
ARC
  5
8209
330
2
100
AcDbEntity
  8
0
100
AcDbCircle
 10
232.0741470085886
 20
130.1846077086355
 30
0.0
 40
2.559999999999972
100
AcDbArc
 50
174.8720091169072
 51
257.3643749069788
  0
ARC
  5
820A
330
2
100
AcDbEntity
  8
0
100
AcDbCircle
 10
232.0741470085891
 20
210.1886093099155
 30
0.0
 40
1.960000000000136
100
AcDbArc
 50
142.742083999419
 51
185.1279908830731
  0
ARC
  5
820B
330
2
100
AcDbEntity
  8
0
100
AcDbCircle
 10
232.0741470085891
 20
210.1886093099153
 30
0.0
 40
2.56000000000065
100
AcDbArc
 50
102.6356250930213
 51
185.1279908830863
  0
ARC
  5
820C
330
2
100
AcDbEntity
  8
0
100
AcDbCircle
 10
229.8231926162161
 20
209.9866085092756
 30
0.0
 40
0.3000000000004012
100
AcDbArc
 50
185.1279908832105
 51
5.128011962103991
  0
LINE
  5
820D
330
2
100
AcDbEntity
  8
0
100
AcDbLine
 10
231.5141470085887
 20
212.6866085092753
 30
0.0
 11
236.2141470085885
 21
212.6866085092753
 31
0.0
  0
LINE
  5
820E
330
2
100
AcDbEntity
  8
0
100
AcDbLine
 10
236.2141470085885
 20
212.6866085092753
 30
0.0
 11
236.2141470085885
 21
210.3866085092742
 31
0.0
  0
LINE
  5
820F
330
2
100
AcDbEntity
  8
0
100
AcDbLine
 10
236.2141470085885
 20
210.3866085092742
 30
0.0
 11
234.5141470085887
 21
209.3179429595726
 31
0.0
  0
LINE
  5
8210
330
2
100
AcDbEntity
  8
0
100
AcDbLine
 10
243.5141470085887
 20
127.6866085092766
 30
0.0
 11
231.5141470085887
 21
127.6866085092766
 31
0.0
  0
LWPOLYLINE
  5
8211
330
2
100
AcDbEntity
  8
0
100
AcDbPolyline
 90
        7
 70
     0
 43
0.0
 10
242.9141470085883
 20
169.4366085092762
 10
242.9141470085883
 20
171.7915666875889
 42
0.2945408340461451
 10
242.6790872607016
 20
172.1559767769564
 10
236.6904418195036
 20
174.8711611562081
 42
-0.9999998915195204
 10
236.9378521976701
 20
175.4177762902615
 10
242.9264976388713
 20
172.7025919110075
 42
-0.2945408340578595
 10
243.5141470085882
 20
171.7915666875457
  0
LINE
  5
8212
330
2
100
AcDbEntity
  8
0
100
AcDbLine
 10
234.5141470085887
 20
209.3179429595726
 30
0.0
 11
234.5141470085887
 21
192.9366085092762
 31
0.0
  0
ARC
  5
8213
330
2
100
AcDbEntity
  8
0
100
AcDbCircle
 10
235.0141470085887
 20
192.9366085092762
 30
0.0
 40
0.5
100
AcDbArc
 50
180.0
 51
270.0
  0
LINE
  5
8214
330
2
100
AcDbEntity
  8
0
100
AcDbLine
 10
235.0141470085887
 20
192.4366085092762
 30
0.0
 11
238.0141470085887
 21
192.4366085092762
 31
0.0
  0
ARC
  5
8215
330
2
100
AcDbEntity
  8
0
100
AcDbCircle
 10
238.0141470085887
 20
191.9366085092762
 30
0.0
 40
0.5
100
AcDbArc
 50
0.0
 51
90.0
  0
LINE
  5
8216
330
2
100
AcDbEntity
  8
0
100
AcDbLine
 10
238.5141470085887
 20
191.9366085092762
 30
0.0
 11
238.5141470085887
 21
191.8026339130607
 31
0.0
  0
ARC
  5
8217
330
2
100
AcDbEntity
  8
0
100
AcDbCircle
 10
238.0141470085887
 20
191.8026339130608
 30
0.0
 40
0.5
100
AcDbArc
 50
300.0000000000001
 51
359.999999999987
  0
LINE
  5
8218
330
2
100
AcDbEntity
  8
0
100
AcDbLine
 10
238.2641470085887
 20
191.3696212111687
 30
0.0
 11
237.5141470085887
 21
190.9366085092762
 31
0.0
  0
LINE
  5
8219
330
2
100
AcDbEntity
  8
0
100
AcDbLine
 10
237.5141470085887
 20
190.9366085092762
 30
0.0
 11
235.0141470085887
 21
190.9366085092762
 31
0.0
  0
ARC
  5
821A
330
2
100
AcDbEntity
  8
0
100
AcDbCircle
 10
235.0141470085887
 20
190.4366085092762
 30
0.0
 40
0.5
100
AcDbArc
 50
90.0
 51
180.0
  0
LINE
  5
821B
330
2
100
AcDbEntity
  8
0
100
AcDbLine
 10
234.5141470085887
 20
190.4366085092762
 30
0.0
 11
234.5141470085887
 21
169.4366085092762
 31
0.0
  0
LINE
  5
821C
330
2
100
AcDbEntity
  8
0
100
AcDbLine
 10
234.5141470085887
 20
169.4366085092762
 30
0.0
 11
243.5141470085887
 21
169.4366085092762
 31
0.0
  0
LINE
  5
821D
330
2
100
AcDbEntity
  8
0
100
AcDbLine
 10
243.5141470085882
 20
171.7915666875457
 30
0.0
 11
243.5141470085887
 21
127.6866085092766
 31
0.0
  0
LWPOLYLINE
  5
821E
330
2
100
AcDbEntity
  8
0
100
AcDbPolyline
 90
        4
 70
     0
 43
0.0
 10
234.5141470085887
 20
209.0866085092763
 42
-0.3966277858007638
 10
237.8657055956082
 20
203.1076237539129
 42
-0.9713730731218312
 10
237.282536188824
 20
203.24880492051
 42
0.3844485603994672
 10
234.5141470085887
 20
208.4533360781817
  0
LINE
  5
821F
330
2
100
AcDbEntity
  8
0
100
AcDbLine
 10
524.5141470085882
 20
128.9980159507024
 30
0.0
 11
524.5141470085878
 21
211.3752010678525
 31
0.0
  0
ARC
  5
8220
330
2
100
AcDbEntity
  8
0
100
AcDbCircle
 10
522.9541470085877
 20
210.1886093099169
 30
0.0
 40
1.960000000000144
100
AcDbArc
 50
354.8720091169136
 51
37.25791600132034
  0
ARC
  5
8221
330
2
100
AcDbEntity
  8
0
100
AcDbCircle
 10
525.2051014009603
 20
209.9866085092764
 30
0.0
 40
0.3000000000001239
100
AcDbArc
 50
174.8720091168941
 51
354.8719726855477
  0
ARC
  5
8222
330
2
100
AcDbEntity
  8
0
100
AcDbCircle
 10
522.9541470085883
 20
210.1886093099173
 30
0.0
 40
2.559999999999972
100
AcDbArc
 50
354.8720091169071
 51
77.36437490697873
  0
ARC
  5
8223
330
2
100
AcDbEntity
  8
0
100
AcDbCircle
 10
522.9541470085877
 20
130.1846077086374
 30
0.0
 40
1.960000000000136
100
AcDbArc
 50
322.7420839994229
 51
5.127990883073442
  0
ARC
  5
8224
330
2
100
AcDbEntity
  8
0
100
AcDbCircle
 10
522.9541470085877
 20
130.1846077086376
 30
0.0
 40
2.56000000000065
100
AcDbArc
 50
282.6356250930211
 51
5.127990883086416
  0
ARC
  5
8225
330
2
100
AcDbEntity
  8
0
100
AcDbCircle
 10
525.2051014009607
 20
130.3866085092773
 30
0.0
 40
0.3000000000004012
100
AcDbArc
 50
5.127990883210266
 51
185.1280119621041
  0
LWPOLYLINE
  5
8226
330
2
100
AcDbEntity
  8
0
100
AcDbPolyline
 90
        7
 70
     0
 43
0.0
 10
512.1141470085886
 20
172.8366085092771
 10
512.1141470085886
 20
170.4816503309644
 42
0.2945408340461451
 10
512.3492067564752
 20
170.1172402415968
 10
518.3378521976733
 20
167.4020558623452
 42
-0.9999998915195204
 10
518.0904418195068
 20
166.8554407282918
 10
512.1017963783056
 20
169.5706251075458
 42
-0.2945408340578595
 10
511.5141470085887
 20
170.4816503310076
  0
LINE
  5
8227
330
2
100
AcDbEntity
  8
0
100
AcDbLine
 10
520.5141470085882
 20
131.186608509277
 30
0.0
 11
520.5141470085882
 21
149.3366085092771
 31
0.0
  0
ARC
  5
8228
330
2
100
AcDbEntity
  8
0
100
AcDbCircle
 10
520.0141470085882
 20
149.3366085092771
 30
0.0
 40
0.5
100
AcDbArc
 50
0.0
 51
90.0
  0
LINE
  5
8229
330
2
100
AcDbEntity
  8
0
100
AcDbLine
 10
520.0141470085882
 20
149.8366085092771
 30
0.0
 11
517.0141470085882
 21
149.8366085092771
 31
0.0
  0
ARC
  5
822A
330
2
100
AcDbEntity
  8
0
100
AcDbCircle
 10
517.0141470085882
 20
150.3366085092771
 30
0.0
 40
0.5
100
AcDbArc
 50
180.0
 51
270.0
  0
LINE
  5
822B
330
2
100
AcDbEntity
  8
0
100
AcDbLine
 10
516.5141470085882
 20
150.3366085092771
 30
0.0
 11
516.5141470085882
 21
150.4705831054925
 31
0.0
  0
ARC
  5
822C
330
2
100
AcDbEntity
  8
0
100
AcDbCircle
 10
517.0141470085882
 20
150.4705831054924
 30
0.0
 40
0.5
100
AcDbArc
 50
119.9999999999997
 51
179.999999999987
  0
LINE
  5
822D
330
2
100
AcDbEntity
  8
0
100
AcDbLine
 10
516.7641470085881
 20
150.9035958073846
 30
0.0
 11
517.5141470085882
 21
151.3366085092771
 31
0.0
  0
LINE
  5
822E
330
2
100
AcDbEntity
  8
0
100
AcDbLine
 10
517.5141470085882
 20
151.3366085092771
 30
0.0
 11
520.0141470085882
 21
151.3366085092771
 31
0.0
  0
ARC
  5
822F
330
2
100
AcDbEntity
  8
0
100
AcDbCircle
 10
520.0141470085882
 20
151.8366085092771
 30
0.0
 40
0.5
100
AcDbArc
 50
270.0
 51
0.0
  0
LINE
  5
8230
330
2
100
AcDbEntity
  8
0
100
AcDbLine
 10
520.5141470085882
 20
151.8366085092771
 30
0.0
 11
520.5141470085882
 21
172.8366085092771
 31
0.0
  0
LINE
  5
8231
330
2
100
AcDbEntity
  8
0
100
AcDbLine
 10
520.5141470085882
 20
172.8366085092771
 30
0.0
 11
511.5141470085882
 21
172.8366085092771
 31
0.0
  0
LINE
  5
8232
330
2
100
AcDbEntity
  8
0
100
AcDbLine
 10
511.5141470085887
 20
170.4816503310076
 30
0.0
 11
511.5141470085882
 21
211.686608509277
 31
0.0
  0
LWPOLYLINE
  5
8233
330
2
100
AcDbEntity
  8
0
100
AcDbPolyline
 90
        4
 70
     0
 43
0.0
 10
520.5141470085882
 20
133.186608509277
 42
-0.3966277858007638
 10
517.1625884215687
 20
139.1655932646404
 42
-0.9713730731218312
 10
517.7457578283529
 20
139.0244120980433
 42
0.3844485603994672
 10
520.5141470085882
 20
133.8198809403716
  0
LINE
  5
8234
330
2
100
AcDbEntity
  8
0
100
AcDbLine
 10
511.5141470085882
 20
127.6866085092776
 30
0.0
 11
511.5141470085882
 21
130.5866085092772
 31
0.0
  0
LINE
  5
8235
330
2
100
AcDbEntity
  8
0
100
AcDbLine
 10
511.5141470085882
 20
130.5866085092772
 30
0.0
 11
512.5141470085882
 21
130.5866085092772
 31
0.0
  0
LINE
  5
8236
330
2
100
AcDbEntity
  8
0
100
AcDbLine
 10
512.5141470085882
 20
130.5866085092772
 30
0.0
 11
512.5141470085886
 21
129.2866085092775
 31
0.0
  0
LINE
  5
8237
330
2
100
AcDbEntity
  8
0
100
AcDbLine
 10
512.5141470085886
 20
129.2866085092775
 30
0.0
 11
519.3141470085882
 21
129.286608509277
 31
0.0
  0
LINE
  5
8238
330
2
100
AcDbEntity
  8
0
100
AcDbLine
 10
519.3141470085882
 20
129.286608509277
 30
0.0
 11
519.3141470085882
 21
130.7866085092775
 31
0.0
  0
LINE
  5
8239
330
2
100
AcDbEntity
  8
0
100
AcDbLine
 10
520.314147008588
 20
130.7866085092775
 30
0.0
 11
520.8141470085881
 21
130.7866085092775
 31
0.0
  0
LINE
  5
823A
330
2
100
AcDbEntity
  8
0
100
AcDbLine
 10
520.8141470085881
 20
130.7866085092775
 30
0.0
 11
520.8141470085881
 21
129.2866085092775
 31
0.0
  0
LINE
  5
823B
330
2
100
AcDbEntity
  8
0
100
AcDbLine
 10
520.8141470085881
 20
129.2866085092775
 30
0.0
 11
522.0141470085882
 21
129.2866085092775
 31
0.0
  0
LINE
  5
823C
330
2
100
AcDbEntity
  8
0
100
AcDbLine
 10
522.0141470085882
 20
129.2866085092775
 30
0.0
 11
522.0141470085882
 21
131.186608509277
 31
0.0
  0
LINE
  5
823D
330
2
100
AcDbEntity
  8
0
100
AcDbLine
 10
522.0141470085882
 20
131.186608509277
 30
0.0
 11
520.5141470085882
 21
131.186608509277
 31
0.0
  0
LINE
  5
823E
330
2
100
AcDbEntity
  8
0
100
AcDbLine
 10
523.5141470085877
 20
127.6866085092776
 30
0.0
 11
511.514147008588
 21
127.6866085092776
 31
0.0
  0
LINE
  5
823F
330
2
100
AcDbEntity
  8
0
100
AcDbLine
 10
519.3141470085882
 20
130.7866085092775
 30
0.0
 11
518.8141470085882
 21
130.7866085092775
 31
0.0
  0
LINE
  5
8240
330
2
100
AcDbEntity
  8
0
100
AcDbLine
 10
518.8141470085882
 20
130.7866085092775
 30
0.0
 11
518.8141470085882
 21
131.6866085092771
 31
0.0
  0
LINE
  5
8241
330
2
100
AcDbEntity
  8
0
100
AcDbLine
 10
520.314147008588
 20
130.7866085092775
 30
0.0
 11
520.3141470085881
 21
132.6295487001922
 31
0.0
  0
LINE
  5
8242
330
2
100
AcDbEntity
  8
0
100
AcDbLine
 10
518.8141470085882
 20
131.6866085092771
 30
0.0
 11
520.314147008588
 21
132.6295487001922
 31
0.0
  0
LINE
  5
8243
330
2
100
AcDbEntity
  8
0
100
AcDbLine
 10
511.5141470085882
 20
211.686608509277
 30
0.0
 11
518.8141470085883
 21
211.686608509277
 31
0.0
  0
LINE
  5
8244
330
2
100
AcDbEntity
  8
0
100
AcDbLine
 10
518.8141470085883
 20
211.686608509277
 30
0.0
 11
518.8141470085883
 21
212.6866085092762
 31
0.0
  0
LINE
  5
8245
330
2
100
AcDbEntity
  8
0
100
AcDbLine
 10
518.8141470085883
 20
212.6866085092762
 30
0.0
 11
523.5141470085901
 21
212.6866085092762
 31
0.0
  0
TEXT
  5
826A
330
2
100
AcDbEntity
  8
0
100
AcDbText
 10
539.4894733090731
 20
8.725378407955872
 30
0.0
 40
3.5
  1
PG01
 41
0.8
100
AcDbText
  0
ENDSEC
  0
SECTION
  2
OBJECTS
  0
DICTIONARY
  5
9
330
0
100
AcDbDictionary
281
     1
  3
ACAD_BACKGROUND
350
4CD2
  3
ACAD_CIP_PREVIOUS_PRODUCT_INFO
350
12EC
  3
ACAD_COLOR
350
FE
  3
ACAD_DETAILVIEWSTYLE
350
12E6
  3
ACAD_DGNLINESTYLECOMP
350
6157
  3
ACAD_GROUP
350
23
  3
ACAD_LAYOUT
350
D
  3
ACAD_MATERIAL
350
FD
  3
ACAD_MLEADERSTYLE
350
12E1
  3
ACAD_MLINESTYLE
350
24
  3
ACAD_PLOTSETTINGS
350
25
  3
ACAD_PLOTSTYLENAME
350
8
  3
ACAD_SCALELIST
350
12CF
  3
ACAD_SECTIONVIEWSTYLE
350
12E3
  3
ACAD_TABLESTYLE
350
C85
  3
ACAD_VISUALSTYLE
350
C74
  3
AcadDim
350
4F7
  3
ACDB_RECOMPOSE_DATA
350
828D
  3
AcDbVariableDictionary
350
21E
  0
DICTIONARY
  5
E64
330
1D
100
AcDbDictionary
280
     1
281
     1
  0
DICTIONARY
  5
115
330
14
100
AcDbDictionary
280
     1
281
     1
  3
ACAD_LAYERFILTERS
360
48C
  3
ACAD_LAYERSTATES
360
116
  0
DICTIONARY
  5
12FA
330
6
100
AcDbDictionary
280
     1
281
     1
  3
ADSK_XREC_LAYER_RECONCILED
360
12FB
  0
DICTIONARY
  5
1304
330
111
100
AcDbDictionary
280
     1
281
     1
  3
ADSK_XREC_LAYER_RECONCILED
360
1305
  0
DICTIONARY
  5
3
330
2
100
AcDbDictionary
280
     1
281
     1
  3
ACAD_LAYOUTSELFREF
360
C5F
  3
ACAD_SORTENTS
360
D1D
  0
DICTIONARY
  5
F
330
E
100
AcDbDictionary
280
     1
281
     1
  3
ACAD_LAYOUTSELFREF
360
C64
  0
DICTIONARY
  5
75D7
330
75BF
100
AcDbDictionary
280
     1
281
     1
  3
ACAD_SORTENTS
360
75D8
  0
DICTIONARY
  5
4CD2
102
{ACAD_REACTORS
330
9
102
}
330
9
100
AcDbDictionary
281
     1
  0
XRECORD
  5
12EC
102
{ACAD_REACTORS
330
9
102
}
330
9
100
AcDbXrecord
280
     1
300
ACDLT
300
2013
300
ACDLT_F_S
  0
DICTIONARY
  5
FE
102
{ACAD_REACTORS
330
9
102
}
330
9
100
AcDbDictionary
281
     1
  0
DICTIONARY
  5
12E6
102
{ACAD_REACTORS
330
9
102
}
330
9
100
AcDbDictionary
281
     1
  3
Imperial24
350
12E7
  0
DICTIONARY
  5
6157
102
{ACAD_REACTORS
330
9
102
}
330
9
100
AcDbDictionary
280
     1
281
     1
  3
(UD)_EZ_Beverly Hills_watches_vetrine wall$0$AIP 3292_A1 FRAME$0$AIP 3292_A1 FRAME.dgn-StrokePattern-5568
360
6158
  3
(UD)_EZ_Beverly Hills_watches_vetrine wall$0$AIP 3292_A1 FRAME$0$DGN1
360
6159
  3
(UD)_EZ_Beverly Hills_watches_vetrine wall$0$AIP 3292_A1 FRAME$0$DGN7
360
615A
  3
AIP 3292_A1 FRAME$0$AIP 3292_A1 FRAME.dgn-StrokePattern-5568
360
615B
  3
AIP 3292_A1 FRAME$0$DGN1
360
615C
  3
AIP 3292_A1 FRAME$0$DGN7
360
615D
  3
xfcd-gfsh-01$0$AIP 3292_A1 FRAME$0$AIP 3292_A1 FRAME.dgn-StrokePattern-5568
360
615E
  3
xfcd-gfsh-01$0$AIP 3292_A1 FRAME$0$DGN1
360
615F
  3
xfcd-gfsh-01$0$AIP 3292_A1 FRAME$0$DGN7
360
6160
  3
xfcd-zosk-ext-01$0$(UD)_EZ_Beverly Hills_watches_vetrine wall$0$AIP 3292_A1 FRAME$0$AIP 3292_A1 FRAME.dgn-StrokePattern-5568
360
6161
  3
xfcd-zosk-ext-01$0$(UD)_EZ_Beverly Hills_watches_vetrine wall$0$AIP 3292_A1 FRAME$0$DGN1
360
6162
  3
xfcd-zosk-ext-01$0$(UD)_EZ_Beverly Hills_watches_vetrine wall$0$AIP 3292_A1 FRAME$0$DGN7
360
6163
  3
xfcd-zosk-ext-01$0$AIP 3292_A1 FRAME$0$AIP 3292_A1 FRAME.dgn-StrokePattern-5568
360
6164
  3
xfcd-zosk-ext-01$0$AIP 3292_A1 FRAME$0$DGN1
360
6165
  3
xfcd-zosk-ext-01$0$AIP 3292_A1 FRAME$0$DGN7
360
6166
  3
xfcd-zosk-ext-01$0$xfcd-gfsh-01$0$AIP 3292_A1 FRAME$0$AIP 3292_A1 FRAME.dgn-StrokePattern-5568
360
6167
  3
xfcd-zosk-ext-01$0$xfcd-gfsh-01$0$AIP 3292_A1 FRAME$0$DGN1
360
6168
  3
xfcd-zosk-ext-01$0$xfcd-gfsh-01$0$AIP 3292_A1 FRAME$0$DGN7
360
6169
  3
xfcd-zosk-ext-01$0$xpln-zosk-int-01$0$(UD)_EZ_Beverly Hills_watches_vetrine wall$0$AIP 3292_A1 FRAME$0$AIP 3292_A1 FRAME.dgn-StrokePattern-5568
360
616A
  3
xfcd-zosk-ext-01$0$xpln-zosk-int-01$0$(UD)_EZ_Beverly Hills_watches_vetrine wall$0$AIP 3292_A1 FRAME$0$DGN1
360
616B
  3
xfcd-zosk-ext-01$0$xpln-zosk-int-01$0$(UD)_EZ_Beverly Hills_watches_vetrine wall$0$AIP 3292_A1 FRAME$0$DGN7
360
616C
  3
xfcd-zosk-ext-01$0$xpln-zosk-int-01$0$AIP 3292_A1 FRAME$0$AIP 3292_A1 FRAME.dgn-StrokePattern-5568
360
616D
  3
xfcd-zosk-ext-01$0$xpln-zosk-int-01$0$AIP 3292_A1 FRAME$0$DGN1
360
616E
  3
xfcd-zosk-ext-01$0$xpln-zosk-int-01$0$AIP 3292_A1 FRAME$0$DGN7
360
616F
  3
xfcd-zosk-ext-01$0$xpln-zosk-int-02$0$(UD)_EZ_Beverly Hills_watches_vetrine wall$0$AIP 3292_A1 FRAME$0$AIP 3292_A1 FRAME.dgn-StrokePattern-5568
360
6170
  3
xfcd-zosk-ext-01$0$xpln-zosk-int-02$0$(UD)_EZ_Beverly Hills_watches_vetrine wall$0$AIP 3292_A1 FRAME$0$DGN1
360
6171
  3
xfcd-zosk-ext-01$0$xpln-zosk-int-02$0$(UD)_EZ_Beverly Hills_watches_vetrine wall$0$AIP 3292_A1 FRAME$0$DGN7
360
6172
  3
xfcd-zosk-ext-01$0$xpln-zosk-int-02$0$AIP 3292_A1 FRAME$0$AIP 3292_A1 FRAME.dgn-StrokePattern-5568
360
6173
  3
xfcd-zosk-ext-01$0$xpln-zosk-int-02$0$AIP 3292_A1 FRAME$0$DGN1
360
6174
  3
xfcd-zosk-ext-01$0$xpln-zosk-int-02$0$AIP 3292_A1 FRAME$0$DGN7
360
6175
  3
xfcd-zosk-ext-01$0$xpln-zosk-str-01$0$(UD)_EZ_Beverly Hills_watches_vetrine wall$0$AIP 3292_A1 FRAME$0$AIP 3292_A1 FRAME.dgn-StrokePattern-5568
360
6176
  3
xfcd-zosk-ext-01$0$xpln-zosk-str-01$0$(UD)_EZ_Beverly Hills_watches_vetrine wall$0$AIP 3292_A1 FRAME$0$DGN1
360
6177
  3
xfcd-zosk-ext-01$0$xpln-zosk-str-01$0$(UD)_EZ_Beverly Hills_watches_vetrine wall$0$AIP 3292_A1 FRAME$0$DGN7
360
6178
  3
xfcd-zosk-ext-01$0$xpln-zosk-str-01$0$AIP 3292_A1 FRAME$0$AIP 3292_A1 FRAME.dgn-StrokePattern-5568
360
6179
  3
xfcd-zosk-ext-01$0$xpln-zosk-str-01$0$AIP 3292_A1 FRAME$0$DGN1
360
617A
  3
xfcd-zosk-ext-01$0$xpln-zosk-str-01$0$AIP 3292_A1 FRAME$0$DGN7
360
617B
  3
xfcd-zosk-ext-01$0$xpln-zosk-str-02$0$(UD)_EZ_Beverly Hills_watches_vetrine wall$0$AIP 3292_A1 FRAME$0$AIP 3292_A1 FRAME.dgn-StrokePattern-5568
360
617C
  3
xfcd-zosk-ext-01$0$xpln-zosk-str-02$0$(UD)_EZ_Beverly Hills_watches_vetrine wall$0$AIP 3292_A1 FRAME$0$DGN1
360
617D
  3
xfcd-zosk-ext-01$0$xpln-zosk-str-02$0$(UD)_EZ_Beverly Hills_watches_vetrine wall$0$AIP 3292_A1 FRAME$0$DGN7
360
617E
  3
xfcd-zosk-ext-01$0$xpln-zosk-str-02$0$AIP 3292_A1 FRAME$0$AIP 3292_A1 FRAME.dgn-StrokePattern-5568
360
617F
  3
xfcd-zosk-ext-01$0$xpln-zosk-str-02$0$AIP 3292_A1 FRAME$0$DGN1
360
6180
  3
xfcd-zosk-ext-01$0$xpln-zosk-str-02$0$AIP 3292_A1 FRAME$0$DGN7
360
6181
  3
xpln-zosk-int-01$0$(UD)_EZ_Beverly Hills_watches_vetrine wall$0$AIP 3292_A1 FRAME$0$AIP 3292_A1 FRAME.dgn-StrokePattern-5568
360
6182
  3
xpln-zosk-int-01$0$(UD)_EZ_Beverly Hills_watches_vetrine wall$0$AIP 3292_A1 FRAME$0$DGN1
360
6183
  3
xpln-zosk-int-01$0$(UD)_EZ_Beverly Hills_watches_vetrine wall$0$AIP 3292_A1 FRAME$0$DGN7
360
6184
  3
xpln-zosk-int-01$0$AIP 3292_A1 FRAME$0$AIP 3292_A1 FRAME.dgn-StrokePattern-5568
360
6185
  3
xpln-zosk-int-01$0$AIP 3292_A1 FRAME$0$DGN1
360
6186
  3
xpln-zosk-int-01$0$AIP 3292_A1 FRAME$0$DGN7
360
6187
  3
xpln-zosk-int-01$0$xfcd-gfsh-01$0$AIP 3292_A1 FRAME$0$AIP 3292_A1 FRAME.dgn-StrokePattern-5568
360
6188
  3
xpln-zosk-int-01$0$xfcd-gfsh-01$0$AIP 3292_A1 FRAME$0$DGN1
360
6189
  3
xpln-zosk-int-01$0$xfcd-gfsh-01$0$AIP 3292_A1 FRAME$0$DGN7
360
618A
  3
xpln-zosk-int-01$0$xpln-zosk-int-01$0$(UD)_EZ_Beverly Hills_watches_vetrine wall$0$AIP 3292_A1 FRAME$0$AIP 3292_A1 FRAME.dgn-StrokePattern-5568
360
618B
  3
xpln-zosk-int-01$0$xpln-zosk-int-01$0$(UD)_EZ_Beverly Hills_watches_vetrine wall$0$AIP 3292_A1 FRAME$0$DGN1
360
618C
  3
xpln-zosk-int-01$0$xpln-zosk-int-01$0$(UD)_EZ_Beverly Hills_watches_vetrine wall$0$AIP 3292_A1 FRAME$0$DGN7
360
618D
  3
xpln-zosk-int-01$0$xpln-zosk-int-01$0$AIP 3292_A1 FRAME$0$AIP 3292_A1 FRAME.dgn-StrokePattern-5568
360
618E
  3
xpln-zosk-int-01$0$xpln-zosk-int-01$0$AIP 3292_A1 FRAME$0$DGN1
360
618F
  3
xpln-zosk-int-01$0$xpln-zosk-int-01$0$AIP 3292_A1 FRAME$0$DGN7
360
6190
  3
xpln-zosk-int-01$0$xpln-zosk-int-02$0$(UD)_EZ_Beverly Hills_watches_vetrine wall$0$AIP 3292_A1 FRAME$0$AIP 3292_A1 FRAME.dgn-StrokePattern-5568
360
6191
  3
xpln-zosk-int-01$0$xpln-zosk-int-02$0$(UD)_EZ_Beverly Hills_watches_vetrine wall$0$AIP 3292_A1 FRAME$0$DGN1
360
6192
  3
xpln-zosk-int-01$0$xpln-zosk-int-02$0$(UD)_EZ_Beverly Hills_watches_vetrine wall$0$AIP 3292_A1 FRAME$0$DGN7
360
6193
  3
xpln-zosk-int-01$0$xpln-zosk-int-02$0$AIP 3292_A1 FRAME$0$AIP 3292_A1 FRAME.dgn-StrokePattern-5568
360
6194
  3
xpln-zosk-int-01$0$xpln-zosk-int-02$0$AIP 3292_A1 FRAME$0$DGN1
360
6195
  3
xpln-zosk-int-01$0$xpln-zosk-int-02$0$AIP 3292_A1 FRAME$0$DGN7
360
6196
  3
xpln-zosk-int-01$0$xpln-zosk-str-01$0$(UD)_EZ_Beverly Hills_watches_vetrine wall$0$AIP 3292_A1 FRAME$0$AIP 3292_A1 FRAME.dgn-StrokePattern-5568
360
6197
  3
xpln-zosk-int-01$0$xpln-zosk-str-01$0$(UD)_EZ_Beverly Hills_watches_vetrine wall$0$AIP 3292_A1 FRAME$0$DGN1
360
6198
  3
xpln-zosk-int-01$0$xpln-zosk-str-01$0$(UD)_EZ_Beverly Hills_watches_vetrine wall$0$AIP 3292_A1 FRAME$0$DGN7
360
6199
  3
xpln-zosk-int-01$0$xpln-zosk-str-01$0$AIP 3292_A1 FRAME$0$AIP 3292_A1 FRAME.dgn-StrokePattern-5568
360
619A
  3
xpln-zosk-int-01$0$xpln-zosk-str-01$0$AIP 3292_A1 FRAME$0$DGN1
360
619B
  3
xpln-zosk-int-01$0$xpln-zosk-str-01$0$AIP 3292_A1 FRAME$0$DGN7
360
619C
  3
xpln-zosk-int-01$0$xpln-zosk-str-02$0$(UD)_EZ_Beverly Hills_watches_vetrine wall$0$AIP 3292_A1 FRAME$0$AIP 3292_A1 FRAME.dgn-StrokePattern-5568
360
619D
  3
xpln-zosk-int-01$0$xpln-zosk-str-02$0$(UD)_EZ_Beverly Hills_watches_vetrine wall$0$AIP 3292_A1 FRAME$0$DGN1
360
619E
  3
xpln-zosk-int-01$0$xpln-zosk-str-02$0$(UD)_EZ_Beverly Hills_watches_vetrine wall$0$AIP 3292_A1 FRAME$0$DGN7
360
619F
  3
xpln-zosk-int-01$0$xpln-zosk-str-02$0$AIP 3292_A1 FRAME$0$AIP 3292_A1 FRAME.dgn-StrokePattern-5568
360
61A0
  3
xpln-zosk-int-01$0$xpln-zosk-str-02$0$AIP 3292_A1 FRAME$0$DGN1
360
61A1
  3
xpln-zosk-int-01$0$xpln-zosk-str-02$0$AIP 3292_A1 FRAME$0$DGN7
360
61A2
  3
xpln-zosk-int-02$0$(UD)_EZ_Beverly Hills_watches_vetrine wall$0$AIP 3292_A1 FRAME$0$AIP 3292_A1 FRAME.dgn-StrokePattern-5568
360
61A3
  3
xpln-zosk-int-02$0$(UD)_EZ_Beverly Hills_watches_vetrine wall$0$AIP 3292_A1 FRAME$0$DGN1
360
61A4
  3
xpln-zosk-int-02$0$(UD)_EZ_Beverly Hills_watches_vetrine wall$0$AIP 3292_A1 FRAME$0$DGN7
360
61A5
  3
xpln-zosk-int-02$0$AIP 3292_A1 FRAME$0$AIP 3292_A1 FRAME.dgn-StrokePattern-5568
360
61A6
  3
xpln-zosk-int-02$0$AIP 3292_A1 FRAME$0$DGN1
360
61A7
  3
xpln-zosk-int-02$0$AIP 3292_A1 FRAME$0$DGN7
360
61A8
  3
xpln-zosk-int-02$0$xfcd-gfsh-01$0$AIP 3292_A1 FRAME$0$AIP 3292_A1 FRAME.dgn-StrokePattern-5568
360
61A9
  3
xpln-zosk-int-02$0$xfcd-gfsh-01$0$AIP 3292_A1 FRAME$0$DGN1
360
61AA
  3
xpln-zosk-int-02$0$xfcd-gfsh-01$0$AIP 3292_A1 FRAME$0$DGN7
360
61AB
  3
xpln-zosk-int-02$0$xpln-zosk-int-01$0$(UD)_EZ_Beverly Hills_watches_vetrine wall$0$AIP 3292_A1 FRAME$0$AIP 3292_A1 FRAME.dgn-StrokePattern-5568
360
61AC
  3
xpln-zosk-int-02$0$xpln-zosk-int-01$0$(UD)_EZ_Beverly Hills_watches_vetrine wall$0$AIP 3292_A1 FRAME$0$DGN1
360
61AD
  3
xpln-zosk-int-02$0$xpln-zosk-int-01$0$(UD)_EZ_Beverly Hills_watches_vetrine wall$0$AIP 3292_A1 FRAME$0$DGN7
360
61AE
  3
xpln-zosk-int-02$0$xpln-zosk-int-01$0$AIP 3292_A1 FRAME$0$AIP 3292_A1 FRAME.dgn-StrokePattern-5568
360
61AF
  3
xpln-zosk-int-02$0$xpln-zosk-int-01$0$AIP 3292_A1 FRAME$0$DGN1
360
61B0
  3
xpln-zosk-int-02$0$xpln-zosk-int-01$0$AIP 3292_A1 FRAME$0$DGN7
360
61B1
  3
xpln-zosk-int-02$0$xpln-zosk-int-02$0$(UD)_EZ_Beverly Hills_watches_vetrine wall$0$AIP 3292_A1 FRAME$0$AIP 3292_A1 FRAME.dgn-StrokePattern-5568
360
61B2
  3
xpln-zosk-int-02$0$xpln-zosk-int-02$0$(UD)_EZ_Beverly Hills_watches_vetrine wall$0$AIP 3292_A1 FRAME$0$DGN1
360
61B3
  3
xpln-zosk-int-02$0$xpln-zosk-int-02$0$(UD)_EZ_Beverly Hills_watches_vetrine wall$0$AIP 3292_A1 FRAME$0$DGN7
360
61B4
  3
xpln-zosk-int-02$0$xpln-zosk-int-02$0$AIP 3292_A1 FRAME$0$AIP 3292_A1 FRAME.dgn-StrokePattern-5568
360
61B5
  3
xpln-zosk-int-02$0$xpln-zosk-int-02$0$AIP 3292_A1 FRAME$0$DGN1
360
61B6
  3
xpln-zosk-int-02$0$xpln-zosk-int-02$0$AIP 3292_A1 FRAME$0$DGN7
360
61B7
  3
xpln-zosk-int-02$0$xpln-zosk-str-01$0$(UD)_EZ_Beverly Hills_watches_vetrine wall$0$AIP 3292_A1 FRAME$0$AIP 3292_A1 FRAME.dgn-StrokePattern-5568
360
61B8
  3
xpln-zosk-int-02$0$xpln-zosk-str-01$0$(UD)_EZ_Beverly Hills_watches_vetrine wall$0$AIP 3292_A1 FRAME$0$DGN1
360
61B9
  3
xpln-zosk-int-02$0$xpln-zosk-str-01$0$(UD)_EZ_Beverly Hills_watches_vetrine wall$0$AIP 3292_A1 FRAME$0$DGN7
360
61BA
  3
xpln-zosk-int-02$0$xpln-zosk-str-01$0$AIP 3292_A1 FRAME$0$AIP 3292_A1 FRAME.dgn-StrokePattern-5568
360
61BB
  3
xpln-zosk-int-02$0$xpln-zosk-str-01$0$AIP 3292_A1 FRAME$0$DGN1
360
61BC
  3
xpln-zosk-int-02$0$xpln-zosk-str-01$0$AIP 3292_A1 FRAME$0$DGN7
360
61BD
  3
xpln-zosk-int-02$0$xpln-zosk-str-02$0$(UD)_EZ_Beverly Hills_watches_vetrine wall$0$AIP 3292_A1 FRAME$0$AIP 3292_A1 FRAME.dgn-StrokePattern-5568
360
61BE
  3
xpln-zosk-int-02$0$xpln-zosk-str-02$0$(UD)_EZ_Beverly Hills_watches_vetrine wall$0$AIP 3292_A1 FRAME$0$DGN1
360
61BF
  3
xpln-zosk-int-02$0$xpln-zosk-str-02$0$(UD)_EZ_Beverly Hills_watches_vetrine wall$0$AIP 3292_A1 FRAME$0$DGN7
360
61C0
  3
xpln-zosk-int-02$0$xpln-zosk-str-02$0$AIP 3292_A1 FRAME$0$AIP 3292_A1 FRAME.dgn-StrokePattern-5568
360
61C1
  3
xpln-zosk-int-02$0$xpln-zosk-str-02$0$AIP 3292_A1 FRAME$0$DGN1
360
61C2
  3
xpln-zosk-int-02$0$xpln-zosk-str-02$0$AIP 3292_A1 FRAME$0$DGN7
360
61C3
  3
xpln-zosk-int-03$0$(UD)_EZ_Beverly Hills_watches_vetrine wall$0$AIP 3292_A1 FRAME$0$AIP 3292_A1 FRAME.dgn-StrokePattern-5568
360
61C4
  3
xpln-zosk-int-03$0$(UD)_EZ_Beverly Hills_watches_vetrine wall$0$AIP 3292_A1 FRAME$0$DGN1
360
61C5
  3
xpln-zosk-int-03$0$(UD)_EZ_Beverly Hills_watches_vetrine wall$0$AIP 3292_A1 FRAME$0$DGN7
360
61C6
  3
xpln-zosk-int-03$0$AIP 3292_A1 FRAME$0$AIP 3292_A1 FRAME.dgn-StrokePattern-5568
360
61C7
  3
xpln-zosk-int-03$0$AIP 3292_A1 FRAME$0$DGN1
360
61C8
  3
xpln-zosk-int-03$0$AIP 3292_A1 FRAME$0$DGN7
360
61C9
  3
xpln-zosk-str-01$0$(UD)_EZ_Beverly Hills_watches_vetrine wall$0$AIP 3292_A1 FRAME$0$AIP 3292_A1 FRAME.dgn-StrokePattern-5568
360
61CA
  3
xpln-zosk-str-01$0$(UD)_EZ_Beverly Hills_watches_vetrine wall$0$AIP 3292_A1 FRAME$0$DGN1
360
61CB
  3
xpln-zosk-str-01$0$(UD)_EZ_Beverly Hills_watches_vetrine wall$0$AIP 3292_A1 FRAME$0$DGN7
360
61CC
  3
xpln-zosk-str-01$0$AIP 3292_A1 FRAME$0$AIP 3292_A1 FRAME.dgn-StrokePattern-5568
360
61CD
  3
xpln-zosk-str-01$0$AIP 3292_A1 FRAME$0$DGN1
360
61CE
  3
xpln-zosk-str-01$0$AIP 3292_A1 FRAME$0$DGN7
360
61CF
  3
xpln-zosk-str-02$0$(UD)_EZ_Beverly Hills_watches_vetrine wall$0$AIP 3292_A1 FRAME$0$AIP 3292_A1 FRAME.dgn-StrokePattern-5568
360
61D0
  3
xpln-zosk-str-02$0$(UD)_EZ_Beverly Hills_watches_vetrine wall$0$AIP 3292_A1 FRAME$0$DGN1
360
61D1
  3
xpln-zosk-str-02$0$(UD)_EZ_Beverly Hills_watches_vetrine wall$0$AIP 3292_A1 FRAME$0$DGN7
360
61D2
  3
xpln-zosk-str-02$0$AIP 3292_A1 FRAME$0$AIP 3292_A1 FRAME.dgn-StrokePattern-5568
360
61D3
  3
xpln-zosk-str-02$0$AIP 3292_A1 FRAME$0$DGN1
360
61D4
  3
xpln-zosk-str-02$0$AIP 3292_A1 FRAME$0$DGN7
360
61D5
  3
xpln-zosk-str-03$0$(UD)_EZ_Beverly Hills_watches_vetrine wall$0$AIP 3292_A1 FRAME$0$AIP 3292_A1 FRAME.dgn-StrokePattern-5568
360
61D6
  3
xpln-zosk-str-03$0$(UD)_EZ_Beverly Hills_watches_vetrine wall$0$AIP 3292_A1 FRAME$0$DGN1
360
61D7
  3
xpln-zosk-str-03$0$(UD)_EZ_Beverly Hills_watches_vetrine wall$0$AIP 3292_A1 FRAME$0$DGN7
360
61D8
  3
xpln-zosk-str-03$0$AIP 3292_A1 FRAME$0$AIP 3292_A1 FRAME.dgn-StrokePattern-5568
360
61D9
  3
xpln-zosk-str-03$0$AIP 3292_A1 FRAME$0$DGN1
360
61DA
  3
xpln-zosk-str-03$0$AIP 3292_A1 FRAME$0$DGN7
360
61DB
  3
xpln-zosk-str-03$0$xfcd-gfsh-01$0$AIP 3292_A1 FRAME$0$AIP 3292_A1 FRAME.dgn-StrokePattern-5568
360
61DC
  3
xpln-zosk-str-03$0$xfcd-gfsh-01$0$AIP 3292_A1 FRAME$0$DGN1
360
61DD
  3
xpln-zosk-str-03$0$xfcd-gfsh-01$0$AIP 3292_A1 FRAME$0$DGN7
360
61DE
  0
DICTIONARY
  5
23
102
{ACAD_REACTORS
330
9
102
}
330
9
100
AcDbDictionary
281
     1
  0
DICTIONARY
  5
D
102
{ACAD_REACTORS
330
9
102
}
330
9
100
AcDbDictionary
281
     1
  3
Model
350
C
  3
ﾚｲｱｳﾄ1
350
13
  0
DICTIONARY
  5
FD
102
{ACAD_REACTORS
330
9
102
}
330
9
100
AcDbDictionary
281
     1
  3
ByBlock
350
C72
  3
ByLayer
350
C71
  3
Global
350
C73
  0
DICTIONARY
  5
12E1
102
{ACAD_REACTORS
330
9
102
}
330
9
100
AcDbDictionary
281
     1
  3
S1
350
12F3
  3
Standard
350
12E2
  0
DICTIONARY
  5
24
102
{ACAD_REACTORS
330
9
102
}
330
9
100
AcDbDictionary
281
     1
  3
STANDARD
350
27
  0
DICTIONARY
  5
25
102
{ACAD_REACTORS
330
9
102
}
330
9
100
AcDbDictionary
281
     1
  0
ACDBDICTIONARYWDFLT
  5
8
102
{ACAD_REACTORS
330
9
102
}
330
9
100
AcDbDictionary
281
     1
  3
Normal
350
7
100
AcDbDictionaryWithDefault
340
7
  0
DICTIONARY
  5
12CF
102
{ACAD_REACTORS
330
9
102
}
330
9
100
AcDbDictionary
281
     1
  3
A0
350
12D0
  3
A1
350
12D1
  3
A2
350
12D2
  3
A3
350
12D3
  3
A4
350
12D4
  3
A5
350
12D5
  3
A6
350
12D6
  3
A7
350
12D7
  3
A8
350
12D8
  3
A9
350
12D9
  3
B0
350
12DA
  3
B1
350
12DB
  3
B2
350
12DC
  3
B3
350
12DD
  3
B4
350
12DE
  3
B5
350
12DF
  3
B6
350
12E0
  0
DICTIONARY
  5
12E3
102
{ACAD_REACTORS
330
9
102
}
330
9
100
AcDbDictionary
281
     1
  3
Imperial24
350
12E5
  0
DICTIONARY
  5
C85
102
{ACAD_REACTORS
330
9
102
}
330
9
100
AcDbDictionary
281
     1
  3
Standard
350
C86
  0
DICTIONARY
  5
C74
102
{ACAD_REACTORS
330
9
102
}
330
9
100
AcDbDictionary
281
     1
  3
2dWireframe
350
C7A
  3
3D Hidden
350
C7C
  3
3dWireframe
350
C7B
  3
Basic
350
C79
  3
Brighten
350
C80
  3
ColorChange
350
C84
  3
Conceptual
350
C7D
  3
Dim
350
C7F
  3
EdgeColorOff
350
12CE
  3
Facepattern
350
C83
  3
Flat
350
C75
  3
FlatWithEdges
350
C76
  3
Gouraud
350
C77
  3
GouraudWithEdges
350
C78
  3
Hidden
350
12C6
  3
JitterOff
350
12CC
  3
Linepattern
350
C82
  3
OverhangOff
350
12CD
  3
Realistic
350
C7E
  3
Shaded
350
12CB
  3
Shaded with edges
350
12CA
  3
Shades of Gray
350
12C7
  3
Sketchy
350
12C8
  3
Thicken
350
C81
  3
Wireframe
350
12C5
  3
X-Ray
350
12C9
  0
XRECORD
  5
4F7
102
{ACAD_REACTORS
330
9
102
}
330
9
100
AcDbXrecord
280
     1
 90
   990106
  3

 60
     0
 61
     0
 62
     4
 63
     4
 64
     1
 65
     0
 66
     0
 67
     3
 68
     1
 69
     0
 70
     0
 71
     0
 72
     0
 40
0.0
170
     2
340
0
  0
XRECORD
  5
828D
102
{ACAD_REACTORS
330
9
102
}
330
9
100
AcDbXrecord
280
     1
 90
        1
330
C86
  0
DICTIONARY
  5
21E
102
{ACAD_REACTORS
330
9
102
}
330
9
100
AcDbDictionary
281
     1
  3
CANNOSCALE
350
136D
  3
CMLEADERSTYLE
350
1369
  3
CTABLESTYLE
350
E8E
  3
CVIEWDETAILSTYLE
350
136A
  3
CVIEWSECTIONSTYLE
350
136B
  3
DIMASSOC
350
21F
  3
INDEXCTL
350
E90
  3
LAYEREVAL
350
136F
  3
LAYERNOTIFY
350
1370
  3
LIGHTINGUNITS
350
136E
  3
MSLTSCALE
350
136C
  3
PROJECTNAME
350
220
  3
SORTENTS
350
E8F
  0
DICTIONARY
  5
48C
102
{ACAD_REACTORS
330
115
102
}
330
115
100
AcDbDictionary
281
     1
  0
DICTIONARY
  5
116
102
{ACAD_REACTORS
330
115
102
}
330
115
100
AcDbDictionary
281
     1
  0
XRECORD
  5
12FB
102
{ACAD_REACTORS
330
12FA
102
}
330
12FA
100
AcDbXrecord
280
     1
290
     1
  0
XRECORD
  5
1305
102
{ACAD_REACTORS
330
1304
102
}
330
1304
100
AcDbXrecord
280
     1
290
     1
  0
XRECORD
  5
C5F
102
{ACAD_REACTORS
330
3
102
}
330
3
100
AcDbXrecord
280
     1
340
2
  0
SORTENTSTABLE
  5
D1D
102
{ACAD_REACTORS
330
3
102
}
330
3
100
AcDbSortentsTable
330
2
331
72B1
  5
72B1
331
7DB8
  5
81A4
331
7F27
  5
8200
331
35A0
  5
3ADC
331
7DC0
  5
81AC
331
5305
  5
5426
331
5057
  5
51A3
331
8212
  5
7F2C
331
7E30
  5
81DD
331
51FE
  5
541E
331
819C
  5
8221
331
81DB
  5
7E35
331
821A
  5
819A
331
81A4
  5
8229
331
81E3
  5
7E51
331
8222
  5
81B4
331
81AC
  5
8231
331
81EB
  5
7E59
331
822A
  5
81BC
331
81B4
  5
8239
331
3DB0
  5
3DC2
331
7E50
  5
81E9
331
51A7
  5
3AD8
331
7E58
  5
81F1
331
51AF
  5
3AAE
331
81F3
  5
8208
331
81BC
  5
8241
331
8232
  5
81C5
331
81FB
  5
8210
331
81C4
  5
7DB7
331
823A
  5
81CD
331
8203
  5
8218
331
81CC
  5
7DBF
331
8242
  5
81D5
331
820B
  5
7F23
331
81D4
  5
7E2E
331
7DB9
  5
81A5
331
51DF
  5
541C
331
5AB5
  5
4217
331
7F20
  5
81F9
331
7DC1
  5
81AD
331
7F28
  5
8201
331
8213
  5
7F39
331
7E31
  5
81DE
331
819D
  5
8222
331
81DC
  5
7E36
331
821B
  5
819B
331
81A5
  5
822A
331
81E4
  5
7E52
331
8223
  5
81B5
331
81AD
  5
8232
331
81EC
  5
7E5A
331
822B
  5
81BD
331
81B5
  5
823A
331
3DB1
  5
4212
331
7E51
  5
81EA
331
3DC1
  5
4231
331
51A8
  5
3ADA
331
7E59
  5
81F2
331
51B0
  5
3AB2
331
81F4
  5
8209
331
5277
  5
5420
331
81BD
  5
75DB
331
8233
  5
81C6
331
826A
  5
826A
331
81FC
  5
8211
331
81C5
  5
7DB8
331
823B
  5
81CE
331
8204
  5
8219
331
81CD
  5
7DC0
331
8243
  5
81D6
331
820C
  5
7F24
331
8196
  5
821B
331
81D5
  5
7E2F
331
4CF9
  5
4D86
331
4D11
  5
4D88
331
5AB6
  5
4210
331
7DBA
  5
81A6
331
7F21
  5
81FA
331
35A2
  5
3ADF
331
7DC2
  5
81AE
331
7F39
  5
8243
331
7E2A
  5
81D9
331
8214
  5
7F75
331
7E32
  5
81DF
331
819E
  5
8223
331
81DD
  5
7E4B
331
821C
  5
819C
331
81A6
  5
822B
331
81E5
  5
7E53
331
8224
  5
81B6
331
81AE
  5
8233
331
81ED
  5
8202
331
81B6
  5
823B
331
822C
  5
81BE
331
3DB2
  5
4214
331
3DBA
  5
4224
331
32DB
  5
3AAD
331
51A9
  5
3AE0
331
7E52
  5
81EB
331
531F
  5
5428
331
75DB
  5
7E5B
331
7E5A
  5
81F3
331
81F5
  5
820A
331
7DB3
  5
819F
331
81BE
  5
75DC
331
8234
  5
81C7
331
81FD
  5
8212
331
81C6
  5
7DB9
331
823C
  5
81CF
331
8205
  5
821A
331
81CE
  5
7DC1
331
8244
  5
81D7
331
820D
  5
7F25
331
8197
  5
821C
331
81D6
  5
7E30
331
4CFA
  5
4D87
331
7DBB
  5
81A7
331
7F22
  5
81FB
331
35A3
  5
3AE1
331
7DC3
  5
81AF
331
5B2F
  5
5B2F
331
7E2B
  5
81DA
331
8215
  5
808C
331
7E33
  5
81E0
331
819F
  5
8224
331
81DE
  5
7E4C
331
821D
  5
819D
331
81A7
  5
822C
331
81E6
  5
7E54
331
8225
  5
81B7
331
81AF
  5
8234
331
81EE
  5
8203
331
81B7
  5
823C
331
822D
  5
81BF
331
3DB3
  5
4216
331
32D4
  5
3AA8
331
7E4B
  5
81E4
331
51AA
  5
3AB0
331
32DC
  5
3AAF
331
7E53
  5
81EC
331
75DC
  5
7E5C
331
7E5B
  5
81F4
331
81F6
  5
820B
331
7DB4
  5
81A0
331
81BF
  5
7DB2
331
8235
  5
81C8
331
81FE
  5
8213
331
81C7
  5
7DBA
331
823D
  5
81D0
331
8206
  5
7F1E
331
81CF
  5
7DC2
331
8245
  5
81D8
331
820E
  5
7F26
331
81D7
  5
7E31
331
4CFB
  5
4D89
331
5AB8
  5
3DC1
331
7DBC
  5
81A8
331
7F23
  5
81FC
331
8198
  5
821D
331
8216
  5
8196
331
7E34
  5
81E1
331
81A0
  5
8225
331
81DF
  5
7E4D
331
821E
  5
819E
331
81A8
  5
822D
331
81E7
  5
7E55
331
8226
  5
81B8
331
81B0
  5
8235
331
81EF
  5
8204
331
822E
  5
81C0
331
3DB4
  5
4218
331
51A3
  5
3ADD
331
7E4C
  5
81E5
331
51AB
  5
3AB5
331
32DD
  5
3AB1
331
7E54
  5
81ED
331
332D
  5
3AB4
331
7E5C
  5
81F5
331
81B8
  5
823D
331
81F7
  5
820C
331
7DB5
  5
81A1
331
81C0
  5
7DB3
331
8236
  5
81C9
331
81FF
  5
8214
331
81C8
  5
7DBB
331
823E
  5
81D1
331
8207
  5
7F1F
331
81D0
  5
7DC3
331
820F
  5
7F27
331
359D
  5
3AD7
331
5AB9
  5
421B
331
7DBD
  5
81A9
331
7F24
  5
81FD
331
7F2C
  5
8242
331
8199
  5
821E
331
81D8
  5
7E32
331
8217
  5
8197
331
7E35
  5
81E2
331
81A1
  5
8226
331
81E0
  5
7E4E
331
821F
  5
81B1
331
81A9
  5
822E
331
81E8
  5
7E56
331
8227
  5
81B9
331
81B1
  5
8236
331
822F
  5
81C2
331
3DB5
  5
421A
331
520B
  5
541F
331
51A4
  5
3AE2
331
32D6
  5
3AAA
331
5312
  5
5427
331
7E4D
  5
81E6
331
51AC
  5
3AB7
331
7E55
  5
81EE
331
808C
  5
8245
331
81F0
  5
8205
331
332E
  5
3AB6
331
7E5D
  5
81F6
331
81B9
  5
823E
331
81F8
  5
820D
331
7DB6
  5
81A2
331
81C1
  5
7DB4
331
8237
  5
81CA
331
8200
  5
8215
331
81C9
  5
7DBC
331
823F
  5
81D2
331
8208
  5
7F20
331
81D1
  5
7E28
331
3596
  5
3AD1
331
5AB2
  5
4225
331
359E
  5
3AD9
331
7DBE
  5
81AA
331
7F25
  5
81FE
331
51EC
  5
541D
331
8210
  5
7F28
331
7E2E
  5
81DB
331
819A
  5
821F
331
81D9
  5
7E33
331
8218
  5
8198
331
7E36
  5
81E3
331
81A2
  5
8227
331
81E1
  5
7E4F
331
8220
  5
81B2
331
81AA
  5
822F
331
81E9
  5
7E57
331
8228
  5
81BA
331
81B2
  5
8237
331
7F75
  5
8244
331
51A5
  5
3AD2
331
7E4E
  5
81E7
331
51AD
  5
3AAB
331
7E56
  5
81EF
331
81F1
  5
8206
331
81BA
  5
823F
331
8230
  5
81C3
331
81F9
  5
820E
331
7DB7
  5
81A3
331
7F1E
  5
81F7
331
81C2
  5
7DB5
331
8238
  5
81CB
331
8201
  5
8216
331
81CA
  5
7DBD
331
8240
  5
81D3
331
8209
  5
7F21
331
81D2
  5
7E2A
331
3597
  5
3AD3
331
5AB3
  5
4215
331
5284
  5
5421
331
7DBF
  5
81AB
331
7F26
  5
81FF
331
8211
  5
7F29
331
3DAF
  5
3DC0
331
7E2F
  5
81DC
331
819B
  5
8220
331
81DA
  5
7E34
331
8219
  5
8199
331
81A3
  5
8228
331
81E2
  5
7E50
331
81EA
  5
7E58
331
81AB
  5
8230
331
8221
  5
81B3
331
8229
  5
81BB
331
81B3
  5
8238
331
51A6
  5
3AD4
331
7E4F
  5
81E8
331
7E57
  5
81F0
331
51AE
  5
3AA9
331
81F2
  5
8207
331
81BB
  5
8240
331
8231
  5
81C4
331
81FA
  5
820F
331
7F1F
  5
81F8
331
81C3
  5
7DB6
331
8239
  5
81CC
331
8202
  5
8217
331
81CB
  5
7DBE
331
8241
  5
81D4
331
820A
  5
7F22
331
81D3
  5
7E2B
  0
XRECORD
  5
C64
102
{ACAD_REACTORS
330
F
102
}
330
F
100
AcDbXrecord
280
     1
340
E
  0
SORTENTSTABLE
  5
75D8
102
{ACAD_REACTORS
330
75D7
102
}
330
75D7
100
AcDbSortentsTable
330
75BF
  0
ACDBDETAILVIEWSTYLE
  5
12E7
102
{ACAD_REACTORS
330
12E6
102
}
330
12E6
100
AcDbModelDocViewStyle
 70
     0
  3
Imperial24
290
     0
100
AcDbDetailViewStyle
 70
     0
 71
     0
 90
        3
 71
     1
340
16
 62
   256
 40
0.24
340
0
 62
   256
 40
0.24
300

 40
0.36
280
     3
 71
     2
340
A
 90
       25
 62
   256
 71
     3
340
16
 62
   256
 40
0.24
 90
        1
 40
0.75
 90
        1
300
%<\AcVar ViewType \f "%tc1">% %<\AcVar ViewDetailId>%\PSCALE %<\AcVar ViewScale \f "%sn">%
 71
     4
340
A
 90
       25
 62
   256
340
A
 90
       25
 62
   256
280
     0
  0
LAYOUT
  5
C
102
{ACAD_XDICTIONARY
360
132C
102
}
102
{ACAD_REACTORS
330
D
102
}
330
D
100
AcDbPlotSettings
  1

  2
FX ApeosPort-IV C5575
  4
A3
  6

 40
4.900083065032958
 41
4.857729434967041
 42
4.900054931640625
 43
4.90008544921875
 44
297.0106506347656
 45
419.9889831542968
 46
0.0
 47
0.0
 48
3.04025694931704
 49
-23.99575925119666
140
137.2216949342541
141
75.89725909520268
142
1.0
143
1.0
 70
 11952
 72
     1
 73
     1
 74
     1
  7
Canon LBP-830.ctb
 75
    16
147
1.0
 76
     0
 77
     2
 78
   300
148
0.020304396031861
149
0.0122062920709141
100
AcDbLayout
  1
Model
 70
     1
 71
     0
 10
0.0
 20
0.0
 11
12.0
 21
9.0
 12
0.0
 22
0.0
 32
0.0
 14
0.0
 24
0.0
 34
0.0
 15
0.0
 25
0.0
 35
0.0
146
0.0
 13
0.0
 23
0.0
 33
0.0
 16
1.0
 26
0.0
 36
0.0
 17
0.0
 27
1.0
 37
0.0
 76
     0
330
2
331
C33
1001
ACAD_PSEXT
1000
FX ApeosPort-IV C5575
1000
FX ApeosPort-IV C5575
1000
10.34.2.213
1000

1070
     0
  0
LAYOUT
  5
13
102
{ACAD_REACTORS
330
D
102
}
330
D
100
AcDbPlotSettings
  1

  2
Canon LBP-830 LIPS4
  4

  6

 40
0.0
 41
0.0
 42
0.0
 43
0.0
 44
0.0
 45
0.0
 46
0.0
 47
0.0
 48
0.0
 49
0.0
140
0.0
141
0.0
142
1.0
143
1.0
 70
   688
 72
     0
 73
     0
 74
     5
  7
Canon LBP-830.ctb
 75
    16
147
1.0
 76
     0
 77
     2
 78
   300
148
0.0
149
0.0
100
AcDbLayout
  1
ﾚｲｱｳﾄ1
 70
     1
 71
     1
 10
0.0
 20
0.0
 11
12.0
 21
9.0
 12
0.0
 22
0.0
 32
0.0
 14
1.000000000000000E+20
 24
1.000000000000000E+20
 34
1.000000000000000E+20
 15
-1.000000000000000E+20
 25
-1.000000000000000E+20
 35
-1.000000000000000E+20
146
0.0
 13
0.0
 23
0.0
 33
0.0
 16
1.0
 26
0.0
 36
0.0
 17
0.0
 27
1.0
 37
0.0
 76
     0
330
E
  0
MATERIAL
  5
C72
102
{ACAD_REACTORS
330
FD
102
}
330
FD
100
AcDbMaterial
  1
ByBlock
 73
     1
 78
     1
172
     1
176
     1
270
     1
274
     1
 94
       63
  0
MATERIAL
  5
C71
102
{ACAD_REACTORS
330
FD
102
}
330
FD
100
AcDbMaterial
  1
ByLayer
 73
     1
 78
     1
172
     1
176
     1
270
     1
274
     1
 94
       63
  0
MATERIAL
  5
C73
102
{ACAD_REACTORS
330
FD
102
}
330
FD
100
AcDbMaterial
  1
Global
 73
     1
 78
     1
172
     1
176
     1
270
     1
274
     1
 94
       63
  0
MLEADERSTYLE
  5
12F3
102
{ACAD_REACTORS
330
12E1
102
}
330
12E1
100
AcDbMLeaderStyle
179
     2
170
     2
171
     1
172
     0
 90
        2
 40
0.0
 41
0.0
173
     1
 91
-1056964608
340
19
 92
       -2
290
     1
 42
1.0
291
     1
 43
0.36
  3
Standard
 44
2.0
300

342
16
174
     5
178
     5
175
     1
176
     0
 93
-1056964608
 45
3.0
292
     0
297
     0
 46
0.18
 94
-1056964608
 47
1.0
 49
1.0
140
1.0
293
     1
141
0.0
294
     1
177
     0
142
1.0
295
     0
296
     0
143
0.125
271
     0
272
     9
273
     9
298
     1
  0
MLEADERSTYLE
  5
12E2
102
{ACAD_REACTORS
330
12E1
102
}
330
12E1
100
AcDbMLeaderStyle
179
     2
170
     2
171
     1
172
     0
 90
        2
 40
0.0
 41
0.0
173
     1
 91
-1056964608
340
19
 92
       -2
290
     1
 42
0.09
291
     1
 43
0.36
  3
Standard
 44
0.18
300

342
16
174
     1
178
     6
175
     1
176
     0
 93
-1056964608
 45
0.18
292
     0
297
     0
 46
0.18
 94
-1056964608
 47
1.0
 49
1.0
140
1.0
293
     1
141
0.0
294
     1
177
     0
142
1.0
295
     0
296
     0
143
0.125
271
     0
272
     9
273
     9
298
     1
  0
MLINESTYLE
  5
27
102
{ACAD_REACTORS
330
24
102
}
330
24
100
AcDbMlineStyle
  2
STANDARD
 70
     0
  3

 62
     0
 51
90.0
 52
90.0
 71
     2
 49
0.5
 62
   256
  6
BYLAYER
 49
-0.5
 62
   256
  6
BYLAYER
  0
ACDBPLACEHOLDER
  5
7
102
{ACAD_REACTORS
330
8
102
}
330
8
  0
SCALE
  5
12D0
102
{ACAD_REACTORS
330
12CF
102
}
330
12CF
100
AcDbScale
 70
     0
300
1:1
140
1.0
141
1.0
290
     1
  0
SCALE
  5
12D1
102
{ACAD_REACTORS
330
12CF
102
}
330
12CF
100
AcDbScale
 70
     0
300
1/128" = 1'-0"
140
0.0078125
141
12.0
290
     0
  0
SCALE
  5
12D2
102
{ACAD_REACTORS
330
12CF
102
}
330
12CF
100
AcDbScale
 70
     0
300
1/64" = 1'-0"
140
0.015625
141
12.0
290
     0
  0
SCALE
  5
12D3
102
{ACAD_REACTORS
330
12CF
102
}
330
12CF
100
AcDbScale
 70
     0
300
1/32" = 1'-0"
140
0.03125
141
12.0
290
     0
  0
SCALE
  5
12D4
102
{ACAD_REACTORS
330
12CF
102
}
330
12CF
100
AcDbScale
 70
     0
300
1/16" = 1'-0"
140
0.0625
141
12.0
290
     0
  0
SCALE
  5
12D5
102
{ACAD_REACTORS
330
12CF
102
}
330
12CF
100
AcDbScale
 70
     0
300
3/32" = 1'-0"
140
0.09375
141
12.0
290
     0
  0
SCALE
  5
12D6
102
{ACAD_REACTORS
330
12CF
102
}
330
12CF
100
AcDbScale
 70
     0
300
1/8" = 1'-0"
140
0.125
141
12.0
290
     0
  0
SCALE
  5
12D7
102
{ACAD_REACTORS
330
12CF
102
}
330
12CF
100
AcDbScale
 70
     0
300
3/16" = 1'-0"
140
0.1875
141
12.0
290
     0
  0
SCALE
  5
12D8
102
{ACAD_REACTORS
330
12CF
102
}
330
12CF
100
AcDbScale
 70
     0
300
1/4" = 1'-0"
140
0.25
141
12.0
290
     0
  0
SCALE
  5
12D9
102
{ACAD_REACTORS
330
12CF
102
}
330
12CF
100
AcDbScale
 70
     0
300
3/8" = 1'-0"
140
0.375
141
12.0
290
     0
  0
SCALE
  5
12DA
102
{ACAD_REACTORS
330
12CF
102
}
330
12CF
100
AcDbScale
 70
     0
300
1/2" = 1'-0"
140
0.5
141
12.0
290
     0
  0
SCALE
  5
12DB
102
{ACAD_REACTORS
330
12CF
102
}
330
12CF
100
AcDbScale
 70
     0
300
3/4" = 1'-0"
140
0.75
141
12.0
290
     0
  0
SCALE
  5
12DC
102
{ACAD_REACTORS
330
12CF
102
}
330
12CF
100
AcDbScale
 70
     0
300
1" = 1'-0"
140
1.0
141
12.0
290
     0
  0
SCALE
  5
12DD
102
{ACAD_REACTORS
330
12CF
102
}
330
12CF
100
AcDbScale
 70
     0
300
1-1/2" = 1'-0"
140
1.5
141
12.0
290
     0
  0
SCALE
  5
12DE
102
{ACAD_REACTORS
330
12CF
102
}
330
12CF
100
AcDbScale
 70
     0
300
3" = 1'-0"
140
3.0
141
12.0
290
     0
  0
SCALE
  5
12DF
102
{ACAD_REACTORS
330
12CF
102
}
330
12CF
100
AcDbScale
 70
     0
300
6" = 1'-0"
140
6.0
141
12.0
290
     0
  0
SCALE
  5
12E0
102
{ACAD_REACTORS
330
12CF
102
}
330
12CF
100
AcDbScale
 70
     0
300
1'-0" = 1'-0"
140
12.0
141
12.0
290
     0
  0
ACDBSECTIONVIEWSTYLE
  5
12E5
102
{ACAD_REACTORS
330
12E3
102
}
330
12E3
100
AcDbModelDocViewStyle
 70
     0
  3
Imperial24
290
     0
100
AcDbSectionViewStyle
 70
     0
 71
     0
 90
       78
 71
     1
340
16
 62
   256
 40
0.24
340
0
340
0
 62
   256
 40
0.24
300
I, O, Q, S, X, Z
 40
0.48
 90
        3
 40
0.18
 90
        1
 71
     2
340
12E4
 90
       25
 62
   256
340
A
 90
       50
 62
   256
 40
0.24
 40
0.0
 40
0.24
 71
     3
340
16
 62
   256
 40
0.24
 90
        1
 40
0.75
 90
        1
300
%<\AcVar ViewType \f "%tc1">% %<\AcVar ViewSectionStartId>%-%<\AcVar ViewSectionEndId>%\PSCALE %<\AcVar ViewScale \f "%sn">%
 71
     4
 62
   256
 62
   257
300
ANSI31
 40
1.0
 90
        0
290
     0
290
     0
 90
        6
 40
0.0
 40
1.570796326794896
 40
0.2617993877991494
 40
1.308996938995747
 40
-0.2617993877991494
 40
1.832595714594046
  0
TABLESTYLE
  5
C86
102
{ACAD_XDICTIONARY
360
1321
102
}
102
{ACAD_REACTORS
330
C85
102
}
330
C85
100
AcDbTableStyle
280
     0
  3
Standard
 70
     0
 71
     0
 40
0.06
 41
0.06
280
     0
281
     0
  7
STANDARD
140
0.18
170
     2
 62
     0
 63
     7
283
     0
 90
      512
 91
        0
  1

274
    -2
284
     1
 64
     0
275
    -2
285
     1
 65
     0
276
    -2
286
     1
 66
     0
277
    -2
287
     1
 67
     0
278
    -2
288
     1
 68
     0
279
    -2
289
     1
 69
     0
  7
STANDARD
140
0.25
170
     5
 62
     0
 63
     7
283
     0
 90
      512
 91
        0
  1

274
    -2
284
     1
 64
     0
275
    -2
285
     1
 65
     0
276
    -2
286
     1
 66
     0
277
    -2
287
     1
 67
     0
278
    -2
288
     1
 68
     0
279
    -2
289
     1
 69
     0
  7
STANDARD
140
0.18
170
     5
 62
     0
 63
     7
283
     0
 90
      512
 91
        0
  1

274
    -2
284
     1
 64
     0
275
    -2
285
     1
 65
     0
276
    -2
286
     1
 66
     0
277
    -2
287
     1
 67
     0
278
    -2
288
     1
 68
     0
279
    -2
289
     1
 69
     0
  0
VISUALSTYLE
  5
C7A
102
{ACAD_REACTORS
330
C74
102
}
330
C74
100
AcDbVisualStyle
  2
2dWireframe
 70
     4
177
     3
291
     0
 70
    58
 90
        0
176
     1
 90
        2
176
     1
 90
        0
176
     1
 90
        0
176
     1
 40
0.6
176
     1
 40
30.0
176
     1
 62
     7
176
     1
 90
        1
176
     1
 90
        4
176
     1
 62
     7
176
     1
 62
   257
176
     1
 90
        1
176
     1
 90
        1
176
     1
 40
1.0
176
     1
 90
        0
176
     1
 62
   257
176
     1
 40
1.0
176
     1
 90
        1
176
     1
 90
        6
176
     1
 90
        2
176
     1
 62
     7
176
     1
 90
        5
176
     1
 90
        0
176
     1
 90
        0
176
     1
290
     0
176
     1
 90
        1
176
     1
 40
0.0
176
     1
 90
        0
176
     1
290
     1
176
     1
290
     1
176
     1
290
     0
176
     1
290
     0
176
     1
290
     0
176
     1
290
     0
176
     1
290
     0
176
     1
290
     0
176
     1
290
     0
176
     1
 90
       50
176
     1
 40
0.0
176
     1
 40
1.0
176
     1
 90
        0
176
     1
 62
    18
420
        0
176
     1
 90
       50
176
     1
 90
        3
176
     1
 62
     5
420
      255
176
     1
290
     0
176
     1
 90
       50
176
     1
 90
       50
176
     1
 90
       50
176
     1
290
     0
176
     1
 90
       50
176
     1
 62
   256
176
     0
 40
1.0
176
     0
 90
        2
176
     1
  1
strokes_ogs.tif
176
     1
290
     0
176
     1
 40
1.0
176
     1
 40
1.0
176
     1
  0
VISUALSTYLE
  5
C7C
102
{ACAD_REACTORS
330
C74
102
}
330
C74
100
AcDbVisualStyle
  2
3D Hidden
 70
     6
177
     3
291
     0
 70
    58
 90
        1
176
     1
 90
        2
176
     1
 90
        2
176
     1
 90
        0
176
     1
 40
0.6
176
     1
 40
30.0
176
     1
 62
     7
176
     1
 90
        2
176
     1
 90
        2
176
     1
 62
     7
176
     1
 62
   257
176
     1
 90
        2
176
     1
 90
        1
176
     1
 40
40.0
176
     1
 90
        0
176
     1
 62
   257
176
     1
 40
1.0
176
     1
 90
        1
176
     1
 90
        6
176
     1
 90
        2
176
     1
 62
     7
176
     1
 90
        3
176
     1
 90
        0
176
     1
 90
        0
176
     1
290
     0
176
     1
 90
        1
176
     1
 40
0.0
176
     1
 90
        0
176
     1
290
     0
176
     1
290
     1
176
     1
290
     1
176
     1
290
     0
176
     1
290
     0
176
     1
290
     0
176
     1
290
     0
176
     1
290
     0
176
     1
290
     0
176
     1
 90
       50
176
     1
 40
0.0
176
     1
 40
1.0
176
     1
 90
        0
176
     1
 62
    18
420
        0
176
     1
 90
       50
176
     1
 90
        3
176
     1
 62
     5
420
      255
176
     1
290
     0
176
     1
 90
       50
176
     1
 90
       50
176
     1
 90
       50
176
     1
290
     0
176
     1
 90
       50
176
     1
 62
   256
176
     0
 40
1.0
176
     0
 90
        2
176
     1
  1
strokes_ogs.tif
176
     1
290
     0
176
     1
 40
1.0
176
     1
 40
1.0
176
     1
  0
VISUALSTYLE
  5
C7B
102
{ACAD_REACTORS
330
C74
102
}
330
C74
100
AcDbVisualStyle
  2
3dWireframe
 70
     5
177
     3
291
     0
 70
    58
 90
        0
176
     1
 90
        2
176
     1
 90
        0
176
     1
 90
        0
176
     1
 40
0.6
176
     1
 40
30.0
176
     1
 62
     7
176
     1
 90
        1
176
     1
 90
        4
176
     1
 62
     7
176
     1
 62
   257
176
     1
 90
        1
176
     1
 90
        1
176
     1
 40
1.0
176
     1
 90
        0
176
     1
 62
   257
176
     1
 40
1.0
176
     1
 90
        1
176
     1
 90
        6
176
     1
 90
        2
176
     1
 62
     7
176
     1
 90
        5
176
     1
 90
        0
176
     1
 90
        0
176
     1
290
     0
176
     1
 90
        1
176
     1
 40
0.0
176
     1
 90
        0
176
     1
290
     0
176
     1
290
     1
176
     1
290
     1
176
     1
290
     0
176
     1
290
     0
176
     1
290
     0
176
     1
290
     0
176
     1
290
     0
176
     1
290
     0
176
     1
 90
       50
176
     1
 40
0.0
176
     1
 40
1.0
176
     1
 90
        0
176
     1
 62
    18
420
        0
176
     1
 90
       50
176
     1
 90
        3
176
     1
 62
     5
420
      255
176
     1
290
     0
176
     1
 90
       50
176
     1
 90
       50
176
     1
 90
       50
176
     1
290
     0
176
     1
 90
       50
176
     1
 62
   256
176
     0
 40
1.0
176
     0
 90
        2
176
     1
  1
strokes_ogs.tif
176
     1
290
     0
176
     1
 40
1.0
176
     1
 40
1.0
176
     1
  0
VISUALSTYLE
  5
C79
102
{ACAD_REACTORS
330
C74
102
}
330
C74
100
AcDbVisualStyle
  2
Basic
 70
     7
177
     3
291
     1
 70
    58
 90
        1
176
     1
 90
        0
176
     1
 90
        1
176
     1
 90
        0
176
     1
 40
0.6
176
     1
 40
30.0
176
     1
 62
     7
176
     1
 90
        0
176
     1
 90
        4
176
     1
 62
     7
176
     1
 62
   257
176
     1
 90
        1
176
     1
 90
        1
176
     1
 40
1.0
176
     1
 90
        8
176
     1
 62
     7
176
     1
 40
1.0
176
     1
 90
        1
176
     1
 90
        6
176
     1
 90
        2
176
     1
 62
     7
176
     1
 90
        5
176
     1
 90
        0
176
     1
 90
        0
176
     1
290
     0
176
     1
 90
        1
176
     1
 40
0.0
176
     1
 90
        0
176
     1
290
     0
176
     1
290
     1
176
     1
290
     1
176
     1
290
     0
176
     1
290
     0
176
     1
290
     0
176
     1
290
     0
176
     1
290
     0
176
     1
290
     0
176
     1
 90
       50
176
     1
 40
0.0
176
     1
 40
1.0
176
     1
 90
        0
176
     1
 62
    18
420
        0
176
     1
 90
       50
176
     1
 90
        3
176
     1
 62
     5
420
      255
176
     1
290
     0
176
     1
 90
       50
176
     1
 90
       50
176
     1
 90
       50
176
     1
290
     0
176
     1
 90
       50
176
     1
 62
   256
176
     0
 40
1.0
176
     0
 90
        2
176
     1
  1
strokes_ogs.tif
176
     1
290
     0
176
     1
 40
1.0
176
     1
 40
1.0
176
     1
  0
VISUALSTYLE
  5
C80
102
{ACAD_REACTORS
330
C74
102
}
330
C74
100
AcDbVisualStyle
  2
Brighten
 70
    12
177
     3
291
     1
 70
    58
 90
        2
176
     1
 90
        2
176
     1
 90
        0
176
     1
 90
        0
176
     1
 40
0.6
176
     1
 40
30.0
176
     1
 62
     7
176
     1
 90
        1
176
     1
 90
        4
176
     1
 62
     7
176
     1
 62
   257
176
     1
 90
        1
176
     1
 90
        1
176
     1
 40
1.0
176
     1
 90
        8
176
     1
 62
     7
176
     1
 40
1.0
176
     1
 90
        1
176
     1
 90
        6
176
     1
 90
        2
176
     1
 62
     7
176
     1
 90
        5
176
     1
 90
        0
176
     1
 90
        0
176
     1
290
     0
176
     1
 90
        1
176
     1
 40
50.0
176
     1
 90
        0
176
     1
290
     0
176
     1
290
     1
176
     1
290
     1
176
     1
290
     0
176
     1
290
     0
176
     1
290
     0
176
     1
290
     0
176
     1
290
     0
176
     1
290
     0
176
     1
 90
       50
176
     1
 40
0.0
176
     1
 40
1.0
176
     1
 90
        0
176
     1
 62
    18
420
        0
176
     1
 90
       50
176
     1
 90
        3
176
     1
 62
     5
420
      255
176
     1
290
     0
176
     1
 90
       50
176
     1
 90
       50
176
     1
 90
       50
176
     1
290
     0
176
     1
 90
       50
176
     1
 62
   256
176
     0
 40
1.0
176
     0
 90
        2
176
     1
  1
strokes_ogs.tif
176
     1
290
     0
176
     1
 40
1.0
176
     1
 40
1.0
176
     1
  0
VISUALSTYLE
  5
C84
102
{ACAD_REACTORS
330
C74
102
}
330
C74
100
AcDbVisualStyle
  2
ColorChange
 70
    16
177
     3
291
     1
 70
    58
 90
        2
176
     1
 90
        2
176
     1
 90
        3
176
     1
 90
        0
176
     1
 40
0.6
176
     1
 40
30.0
176
     1
 62
     8
176
     1
 90
        1
176
     1
 90
        4
176
     1
 62
     7
176
     1
 62
   257
176
     1
 90
        1
176
     1
 90
        1
176
     1
 40
1.0
176
     1
 90
        8
176
     1
 62
     8
176
     1
 40
1.0
176
     1
 90
        1
176
     1
 90
        6
176
     1
 90
        2
176
     1
 62
     7
176
     1
 90
        5
176
     1
 90
        0
176
     1
 90
        0
176
     1
290
     0
176
     1
 90
        1
176
     1
 40
0.0
176
     1
 90
        0
176
     1
290
     0
176
     1
290
     1
176
     1
290
     1
176
     1
290
     0
176
     1
290
     0
176
     1
290
     0
176
     1
290
     0
176
     1
290
     0
176
     1
290
     0
176
     1
 90
       50
176
     1
 40
0.0
176
     1
 40
1.0
176
     1
 90
        0
176
     1
 62
    18
420
        0
176
     1
 90
       50
176
     1
 90
        3
176
     1
 62
     5
420
      255
176
     1
290
     0
176
     1
 90
       50
176
     1
 90
       50
176
     1
 90
       50
176
     1
290
     0
176
     1
 90
       50
176
     1
 62
   256
176
     0
 40
1.0
176
     0
 90
        2
176
     1
  1
strokes_ogs.tif
176
     1
290
     0
176
     1
 40
1.0
176
     1
 40
1.0
176
     1
  0
VISUALSTYLE
  5
C7D
102
{ACAD_REACTORS
330
C74
102
}
330
C74
100
AcDbVisualStyle
  2
Conceptual
 70
     9
177
     3
291
     0
 70
    58
 90
        3
176
     1
 90
        2
176
     1
 90
        0
176
     1
 90
        0
176
     1
 40
0.6
176
     1
 40
30.0
176
     1
 62
     7
176
     1
 90
        2
176
     1
 90
        2
176
     1
 62
     7
176
     1
 62
   257
176
     1
 90
        1
176
     1
 90
        1
176
     1
 40
40.0
176
     1
 90
        8
176
     1
 62
     7
176
     1
 40
1.0
176
     1
 90
        1
176
     1
 90
        6
176
     1
 90
        2
176
     1
 62
     7
176
     1
 90
        3
176
     1
 90
        0
176
     1
 90
        0
176
     1
290
     0
176
     1
 90
        1
176
     1
 40
0.0
176
     1
 90
        0
176
     1
290
     0
176
     1
290
     1
176
     1
290
     1
176
     1
290
     0
176
     1
290
     0
176
     1
290
     0
176
     1
290
     0
176
     1
290
     0
176
     1
290
     0
176
     1
 90
       50
176
     1
 40
0.0
176
     1
 40
1.0
176
     1
 90
        0
176
     1
 62
    18
420
        0
176
     1
 90
       50
176
     1
 90
        3
176
     1
 62
     5
420
      255
176
     1
290
     0
176
     1
 90
       50
176
     1
 90
       50
176
     1
 90
       50
176
     1
290
     0
176
     1
 90
       50
176
     1
 62
   256
176
     0
 40
1.0
176
     0
 90
        2
176
     1
  1
strokes_ogs.tif
176
     1
290
     0
176
     1
 40
1.0
176
     1
 40
1.0
176
     1
  0
VISUALSTYLE
  5
C7F
102
{ACAD_REACTORS
330
C74
102
}
330
C74
100
AcDbVisualStyle
  2
Dim
 70
    11
177
     3
291
     1
 70
    58
 90
        2
176
     1
 90
        2
176
     1
 90
        0
176
     1
 90
        0
176
     1
 40
0.6
176
     1
 40
30.0
176
     1
 62
     7
176
     1
 90
        1
176
     1
 90
        4
176
     1
 62
     7
176
     1
 62
   257
176
     1
 90
        1
176
     1
 90
        1
176
     1
 40
1.0
176
     1
 90
        8
176
     1
 62
     7
176
     1
 40
1.0
176
     1
 90
        1
176
     1
 90
        6
176
     1
 90
        2
176
     1
 62
     7
176
     1
 90
        5
176
     1
 90
        0
176
     1
 90
        0
176
     1
290
     0
176
     1
 90
        1
176
     1
 40
-50.0
176
     1
 90
        0
176
     1
290
     0
176
     1
290
     1
176
     1
290
     1
176
     1
290
     0
176
     1
290
     0
176
     1
290
     0
176
     1
290
     0
176
     1
290
     0
176
     1
290
     0
176
     1
 90
       50
176
     1
 40
0.0
176
     1
 40
1.0
176
     1
 90
        0
176
     1
 62
    18
420
        0
176
     1
 90
       50
176
     1
 90
        3
176
     1
 62
     5
420
      255
176
     1
290
     0
176
     1
 90
       50
176
     1
 90
       50
176
     1
 90
       50
176
     1
290
     0
176
     1
 90
       50
176
     1
 62
   256
176
     0
 40
1.0
176
     0
 90
        2
176
     1
  1
strokes_ogs.tif
176
     1
290
     0
176
     1
 40
1.0
176
     1
 40
1.0
176
     1
  0
VISUALSTYLE
  5
12CE
102
{ACAD_REACTORS
330
C74
102
}
330
C74
100
AcDbVisualStyle
  2
EdgeColorOff
 70
    22
177
     3
291
     1
 70
    58
 90
        2
176
     0
 90
        2
176
     0
 90
        0
176
     0
 90
        0
176
     0
 40
0.6
176
     0
 40
30.0
176
     0
 62
     7
420
 16777215
176
     0
 90
        1
176
     0
 90
        4
176
     0
 62
     7
176
     0
 62
   257
176
     0
 90
        1
176
     0
 90
        1
176
     0
 40
1.0
176
     0
 90
        8
176
     2
 62
     7
176
     0
 40
1.0
176
     0
 90
        1
176
     0
 90
        6
176
     0
 90
        2
176
     0
 62
     7
176
     0
 90
        5
176
     0
 90
        0
176
     0
 90
        0
176
     0
290
     0
176
     0
 90
        1
176
     0
 40
0.0
176
     0
 90
        0
176
     0
290
     0
176
     0
290
     1
176
     0
290
     1
176
     0
290
     0
176
     0
290
     0
176
     0
290
     0
176
     0
290
     0
176
     0
290
     0
176
     0
290
     0
176
     0
 90
       50
176
     0
 40
0.0
176
     0
 40
1.0
176
     0
 90
        0
176
     0
 62
    18
420
        0
176
     0
 90
       50
176
     0
 90
        3
176
     0
 62
     5
420
      255
176
     0
290
     0
176
     0
 90
       50
176
     0
 90
       50
176
     0
 90
       50
176
     0
290
     0
176
     0
 90
       50
176
     0
 62
   256
176
     0
 40
1.0
176
     0
 90
        2
176
     0
  1
strokes_ogs.tif
176
     0
290
     0
176
     0
 40
1.0
176
     0
 40
1.0
176
     0
  0
VISUALSTYLE
  5
C83
102
{ACAD_REACTORS
330
C74
102
}
330
C74
100
AcDbVisualStyle
  2
Facepattern
 70
    15
177
     3
291
     1
 70
    58
 90
        2
176
     1
 90
        2
176
     1
 90
        0
176
     1
 90
        0
176
     1
 40
0.6
176
     1
 40
30.0
176
     1
 62
     7
176
     1
 90
        1
176
     1
 90
        4
176
     1
 62
     7
176
     1
 62
   257
176
     1
 90
        1
176
     1
 90
        1
176
     1
 40
1.0
176
     1
 90
        8
176
     1
 62
     7
176
     1
 40
1.0
176
     1
 90
        1
176
     1
 90
        6
176
     1
 90
        2
176
     1
 62
     7
176
     1
 90
        5
176
     1
 90
        0
176
     1
 90
        0
176
     1
290
     0
176
     1
 90
        1
176
     1
 40
0.0
176
     1
 90
        0
176
     1
290
     0
176
     1
290
     1
176
     1
290
     1
176
     1
290
     0
176
     1
290
     0
176
     1
290
     0
176
     1
290
     0
176
     1
290
     0
176
     1
290
     0
176
     1
 90
       50
176
     1
 40
0.0
176
     1
 40
1.0
176
     1
 90
        0
176
     1
 62
    18
420
        0
176
     1
 90
       50
176
     1
 90
        3
176
     1
 62
     5
420
      255
176
     1
290
     0
176
     1
 90
       50
176
     1
 90
       50
176
     1
 90
       50
176
     1
290
     0
176
     1
 90
       50
176
     1
 62
   256
176
     0
 40
1.0
176
     0
 90
        2
176
     1
  1
strokes_ogs.tif
176
     1
290
     0
176
     1
 40
1.0
176
     1
 40
1.0
176
     1
  0
VISUALSTYLE
  5
C75
102
{ACAD_REACTORS
330
C74
102
}
330
C74
100
AcDbVisualStyle
  2
Flat
 70
     0
177
     3
291
     1
 70
    58
 90
        2
176
     1
 90
        1
176
     1
 90
        1
176
     1
 90
        2
176
     1
 40
0.6
176
     1
 40
30.0
176
     1
 62
     7
176
     1
 90
        0
176
     1
 90
        4
176
     1
 62
     7
176
     1
 62
   257
176
     1
 90
        1
176
     1
 90
        1
176
     1
 40
1.0
176
     1
 90
        8
176
     1
 62
     7
176
     1
 40
1.0
176
     1
 90
        1
176
     1
 90
        6
176
     1
 90
        2
176
     1
 62
     7
176
     1
 90
        5
176
     1
 90
        0
176
     1
 90
        0
176
     1
290
     0
176
     1
 90
       13
176
     1
 40
0.0
176
     1
 90
        0
176
     1
290
     0
176
     1
290
     1
176
     1
290
     1
176
     1
290
     0
176
     1
290
     0
176
     1
290
     0
176
     1
290
     0
176
     1
290
     0
176
     1
290
     0
176
     1
 90
       50
176
     1
 40
0.0
176
     1
 40
1.0
176
     1
 90
        0
176
     1
 62
    18
420
        0
176
     1
 90
       50
176
     1
 90
        3
176
     1
 62
     5
420
      255
176
     1
290
     0
176
     1
 90
       50
176
     1
 90
       50
176
     1
 90
       50
176
     1
290
     0
176
     1
 90
       50
176
     1
 62
   256
176
     0
 40
1.0
176
     0
 90
        2
176
     1
  1
strokes_ogs.tif
176
     1
290
     0
176
     1
 40
1.0
176
     1
 40
1.0
176
     1
  0
VISUALSTYLE
  5
C76
102
{ACAD_REACTORS
330
C74
102
}
330
C74
100
AcDbVisualStyle
  2
FlatWithEdges
 70
     1
177
     3
291
     1
 70
    58
 90
        2
176
     1
 90
        1
176
     1
 90
        1
176
     1
 90
        2
176
     1
 40
0.6
176
     1
 40
30.0
176
     1
 62
     7
176
     1
 90
        1
176
     1
 90
        4
176
     1
 62
     7
176
     1
 62
   257
176
     1
 90
        1
176
     1
 90
        1
176
     1
 40
1.0
176
     1
 90
        0
176
     1
 62
   257
176
     1
 40
1.0
176
     1
 90
        1
176
     1
 90
        6
176
     1
 90
        2
176
     1
 62
     7
176
     1
 90
        5
176
     1
 90
        0
176
     1
 90
        0
176
     1
290
     0
176
     1
 90
       13
176
     1
 40
0.0
176
     1
 90
        0
176
     1
290
     0
176
     1
290
     1
176
     1
290
     1
176
     1
290
     0
176
     1
290
     0
176
     1
290
     0
176
     1
290
     0
176
     1
290
     0
176
     1
290
     0
176
     1
 90
       50
176
     1
 40
0.0
176
     1
 40
1.0
176
     1
 90
        0
176
     1
 62
    18
420
        0
176
     1
 90
       50
176
     1
 90
        3
176
     1
 62
     5
420
      255
176
     1
290
     0
176
     1
 90
       50
176
     1
 90
       50
176
     1
 90
       50
176
     1
290
     0
176
     1
 90
       50
176
     1
 62
   256
176
     0
 40
1.0
176
     0
 90
        2
176
     1
  1
strokes_ogs.tif
176
     1
290
     0
176
     1
 40
1.0
176
     1
 40
1.0
176
     1
  0
VISUALSTYLE
  5
C77
102
{ACAD_REACTORS
330
C74
102
}
330
C74
100
AcDbVisualStyle
  2
Gouraud
 70
     2
177
     3
291
     1
 70
    58
 90
        2
176
     1
 90
        2
176
     1
 90
        1
176
     1
 90
        2
176
     1
 40
0.6
176
     1
 40
30.0
176
     1
 62
     7
176
     1
 90
        0
176
     1
 90
        4
176
     1
 62
     7
176
     1
 62
   257
176
     1
 90
        1
176
     1
 90
        1
176
     1
 40
1.0
176
     1
 90
        0
176
     1
 62
     7
176
     1
 40
1.0
176
     1
 90
        1
176
     1
 90
        6
176
     1
 90
        2
176
     1
 62
     7
176
     1
 90
        5
176
     1
 90
        0
176
     1
 90
        0
176
     1
290
     0
176
     1
 90
       13
176
     1
 40
0.0
176
     1
 90
        0
176
     1
290
     0
176
     1
290
     1
176
     1
290
     1
176
     1
290
     0
176
     1
290
     0
176
     1
290
     0
176
     1
290
     0
176
     1
290
     0
176
     1
290
     0
176
     1
 90
       50
176
     1
 40
0.0
176
     1
 40
1.0
176
     1
 90
        0
176
     1
 62
    18
420
        0
176
     1
 90
       50
176
     1
 90
        3
176
     1
 62
     5
420
      255
176
     1
290
     0
176
     1
 90
       50
176
     1
 90
       50
176
     1
 90
       50
176
     1
290
     0
176
     1
 90
       50
176
     1
 62
   256
176
     0
 40
1.0
176
     0
 90
        2
176
     1
  1
strokes_ogs.tif
176
     1
290
     0
176
     1
 40
1.0
176
     1
 40
1.0
176
     1
  0
VISUALSTYLE
  5
C78
102
{ACAD_REACTORS
330
C74
102
}
330
C74
100
AcDbVisualStyle
  2
GouraudWithEdges
 70
     3
177
     3
291
     1
 70
    58
 90
        2
176
     1
 90
        2
176
     1
 90
        1
176
     1
 90
        2
176
     1
 40
0.6
176
     1
 40
30.0
176
     1
 62
     7
176
     1
 90
        1
176
     1
 90
        4
176
     1
 62
     7
176
     1
 62
   257
176
     1
 90
        1
176
     1
 90
        1
176
     1
 40
1.0
176
     1
 90
        0
176
     1
 62
   257
176
     1
 40
1.0
176
     1
 90
        1
176
     1
 90
        6
176
     1
 90
        2
176
     1
 62
     7
176
     1
 90
        5
176
     1
 90
        0
176
     1
 90
        0
176
     1
290
     0
176
     1
 90
       13
176
     1
 40
0.0
176
     1
 90
        0
176
     1
290
     0
176
     1
290
     1
176
     1
290
     1
176
     1
290
     0
176
     1
290
     0
176
     1
290
     0
176
     1
290
     0
176
     1
290
     0
176
     1
290
     0
176
     1
 90
       50
176
     1
 40
0.0
176
     1
 40
1.0
176
     1
 90
        0
176
     1
 62
    18
420
        0
176
     1
 90
       50
176
     1
 90
        3
176
     1
 62
     5
420
      255
176
     1
290
     0
176
     1
 90
       50
176
     1
 90
       50
176
     1
 90
       50
176
     1
290
     0
176
     1
 90
       50
176
     1
 62
   256
176
     0
 40
1.0
176
     0
 90
        2
176
     1
  1
strokes_ogs.tif
176
     1
290
     0
176
     1
 40
1.0
176
     1
 40
1.0
176
     1
  0
VISUALSTYLE
  5
12C6
102
{ACAD_REACTORS
330
C74
102
}
330
C74
100
AcDbVisualStyle
  2
Hidden
 70
     6
177
     3
291
     0
 70
    58
 90
        1
176
     1
 90
        2
176
     1
 90
        2
176
     1
 90
        0
176
     1
 40
0.6
176
     1
 40
30.0
176
     1
 62
     7
420
 16777215
176
     1
 90
        2
176
     1
 90
        2
176
     1
 62
     7
176
     1
 62
   257
176
     1
 90
        2
176
     1
 90
        1
176
     1
 40
40.0
176
     1
 90
        0
176
     1
 62
   257
176
     1
 40
1.0
176
     1
 90
        1
176
     1
 90
        6
176
     1
 90
        2
176
     1
 62
     7
176
     1
 90
        3
176
     1
 90
        0
176
     1
 90
        0
176
     1
290
     0
176
     1
 90
        1
176
     1
 40
0.0
176
     1
 90
        0
176
     1
290
     0
176
     1
290
     1
176
     1
290
     1
176
     1
290
     0
176
     1
290
     0
176
     1
290
     0
176
     1
290
     0
176
     1
290
     0
176
     1
290
     0
176
     1
 90
       50
176
     1
 40
0.0
176
     1
 40
1.0
176
     1
 90
        0
176
     1
 62
    18
420
        0
176
     1
 90
       50
176
     1
 90
        3
176
     1
 62
     5
420
      255
176
     1
290
     0
176
     1
 90
       50
176
     1
 90
       50
176
     1
 90
       50
176
     1
290
     0
176
     1
 90
       50
176
     1
 62
   256
176
     0
 40
1.0
176
     0
 90
        2
176
     1
  1
strokes_ogs.tif
176
     1
290
     0
176
     1
 40
1.0
176
     1
 40
1.0
176
     1
  0
VISUALSTYLE
  5
12CC
102
{ACAD_REACTORS
330
C74
102
}
330
C74
100
AcDbVisualStyle
  2
JitterOff
 70
    20
177
     3
291
     1
 70
    58
 90
        2
176
     0
 90
        2
176
     0
 90
        0
176
     0
 90
        0
176
     0
 40
0.6
176
     0
 40
30.0
176
     0
 62
     7
420
 16777215
176
     0
 90
        1
176
     0
 90
        4
176
     0
 62
     7
176
     0
 62
   257
176
     0
 90
        1
176
     0
 90
        1
176
     0
 40
1.0
176
     0
 90
       10
176
     2
 62
     7
176
     0
 40
1.0
176
     0
 90
        1
176
     0
 90
        6
176
     0
 90
        2
176
     0
 62
     7
176
     0
 90
        5
176
     0
 90
        0
176
     0
 90
        0
176
     0
290
     0
176
     0
 90
        1
176
     0
 40
0.0
176
     0
 90
        0
176
     0
290
     0
176
     0
290
     1
176
     0
290
     1
176
     0
290
     0
176
     0
290
     0
176
     0
290
     0
176
     0
290
     0
176
     0
290
     0
176
     0
290
     0
176
     0
 90
       50
176
     0
 40
0.0
176
     0
 40
1.0
176
     0
 90
        0
176
     0
 62
    18
420
        0
176
     0
 90
       50
176
     0
 90
        3
176
     0
 62
     5
420
      255
176
     0
290
     0
176
     0
 90
       50
176
     0
 90
       50
176
     0
 90
       50
176
     0
290
     0
176
     0
 90
       50
176
     0
 62
   256
176
     0
 40
1.0
176
     0
 90
        2
176
     0
  1
strokes_ogs.tif
176
     0
290
     0
176
     0
 40
1.0
176
     0
 40
1.0
176
     0
  0
VISUALSTYLE
  5
C82
102
{ACAD_REACTORS
330
C74
102
}
330
C74
100
AcDbVisualStyle
  2
Linepattern
 70
    14
177
     3
291
     1
 70
    58
 90
        2
176
     1
 90
        2
176
     1
 90
        0
176
     1
 90
        0
176
     1
 40
0.6
176
     1
 40
30.0
176
     1
 62
     7
176
     1
 90
        1
176
     1
 90
        4
176
     1
 62
     7
176
     1
 62
   257
176
     1
 90
        7
176
     1
 90
        7
176
     1
 40
1.0
176
     1
 90
        8
176
     1
 62
     7
176
     1
 40
1.0
176
     1
 90
        1
176
     1
 90
        6
176
     1
 90
        2
176
     1
 62
     7
176
     1
 90
        5
176
     1
 90
        0
176
     1
 90
        0
176
     1
290
     0
176
     1
 90
        1
176
     1
 40
0.0
176
     1
 90
        0
176
     1
290
     0
176
     1
290
     1
176
     1
290
     1
176
     1
290
     0
176
     1
290
     0
176
     1
290
     0
176
     1
290
     0
176
     1
290
     0
176
     1
290
     0
176
     1
 90
       50
176
     1
 40
0.0
176
     1
 40
1.0
176
     1
 90
        0
176
     1
 62
    18
420
        0
176
     1
 90
       50
176
     1
 90
        3
176
     1
 62
     5
420
      255
176
     1
290
     0
176
     1
 90
       50
176
     1
 90
       50
176
     1
 90
       50
176
     1
290
     0
176
     1
 90
       50
176
     1
 62
   256
176
     0
 40
1.0
176
     0
 90
        2
176
     1
  1
strokes_ogs.tif
176
     1
290
     0
176
     1
 40
1.0
176
     1
 40
1.0
176
     1
  0
VISUALSTYLE
  5
12CD
102
{ACAD_REACTORS
330
C74
102
}
330
C74
100
AcDbVisualStyle
  2
OverhangOff
 70
    21
177
     3
291
     1
 70
    58
 90
        2
176
     0
 90
        2
176
     0
 90
        0
176
     0
 90
        0
176
     0
 40
0.6
176
     0
 40
30.0
176
     0
 62
     7
420
 16777215
176
     0
 90
        1
176
     0
 90
        4
176
     0
 62
     7
176
     0
 62
   257
176
     0
 90
        1
176
     0
 90
        1
176
     0
 40
1.0
176
     0
 90
        9
176
     2
 62
     7
176
     0
 40
1.0
176
     0
 90
        1
176
     0
 90
        6
176
     0
 90
        2
176
     0
 62
     7
176
     0
 90
        5
176
     0
 90
        0
176
     0
 90
        0
176
     0
290
     0
176
     0
 90
        1
176
     0
 40
0.0
176
     0
 90
        0
176
     0
290
     0
176
     0
290
     1
176
     0
290
     1
176
     0
290
     0
176
     0
290
     0
176
     0
290
     0
176
     0
290
     0
176
     0
290
     0
176
     0
290
     0
176
     0
 90
       50
176
     0
 40
0.0
176
     0
 40
1.0
176
     0
 90
        0
176
     0
 62
    18
420
        0
176
     0
 90
       50
176
     0
 90
        3
176
     0
 62
     5
420
      255
176
     0
290
     0
176
     0
 90
       50
176
     0
 90
       50
176
     0
 90
       50
176
     0
290
     0
176
     0
 90
       50
176
     0
 62
   256
176
     0
 40
1.0
176
     0
 90
        2
176
     0
  1
strokes_ogs.tif
176
     0
290
     0
176
     0
 40
1.0
176
     0
 40
1.0
176
     0
  0
VISUALSTYLE
  5
C7E
102
{ACAD_REACTORS
330
C74
102
}
330
C74
100
AcDbVisualStyle
  2
Realistic
 70
     8
177
     3
291
     0
 70
    58
 90
        2
176
     1
 90
        2
176
     1
 90
        0
176
     1
 90
        0
176
     1
 40
0.6
176
     1
 40
30.0
176
     1
 62
     7
176
     1
 90
        1
176
     1
 90
        0
176
     1
 62
     7
176
     1
 62
   257
176
     1
 90
        1
176
     1
 90
        1
176
     1
 40
1.0
176
     1
 90
        8
176
     1
 62
     8
176
     1
 40
1.0
176
     1
 90
        1
176
     1
 90
        6
176
     1
 90
        2
176
     1
 62
     7
176
     1
 90
        5
176
     1
 90
        0
176
     1
 90
        0
176
     1
290
     0
176
     1
 90
       13
176
     1
 40
0.0
176
     1
 90
        0
176
     1
290
     0
176
     1
290
     1
176
     1
290
     1
176
     1
290
     0
176
     1
290
     0
176
     1
290
     0
176
     1
290
     0
176
     1
290
     0
176
     1
290
     0
176
     1
 90
       50
176
     1
 40
0.0
176
     1
 40
1.0
176
     1
 90
        0
176
     1
 62
    18
420
        0
176
     1
 90
       50
176
     1
 90
        3
176
     1
 62
     5
420
      255
176
     1
290
     0
176
     1
 90
       50
176
     1
 90
       50
176
     1
 90
       50
176
     1
290
     0
176
     1
 90
       50
176
     1
 62
   256
176
     0
 40
1.0
176
     0
 90
        2
176
     1
  1
strokes_ogs.tif
176
     1
290
     0
176
     1
 40
1.0
176
     1
 40
1.0
176
     1
  0
VISUALSTYLE
  5
12CB
102
{ACAD_REACTORS
330
C74
102
}
330
C74
100
AcDbVisualStyle
  2
Shaded
 70
    27
177
     3
291
     0
 70
    58
 90
        2
176
     1
 90
        2
176
     1
 90
        1
176
     1
 90
        2
176
     1
 40
0.6
176
     1
 40
30.0
176
     1
 62
     7
420
 16777215
176
     1
 90
        0
176
     1
 90
        4
176
     1
 62
     7
176
     1
 62
   257
176
     1
 90
        1
176
     1
 90
        1
176
     1
 40
1.0
176
     1
 90
        8
176
     1
 62
   257
176
     1
 40
1.0
176
     1
 90
        1
176
     1
 90
        6
176
     1
 90
        2
176
     1
 62
     8
420
  7895160
176
     1
 90
        3
176
     1
 90
        0
176
     1
 90
        0
176
     1
290
     0
176
     1
 90
        5
176
     1
 40
0.0
176
     1
 90
        0
176
     1
290
     0
176
     1
290
     1
176
     1
290
     1
176
     1
290
     0
176
     1
290
     0
176
     1
290
     0
176
     1
290
     0
176
     1
290
     0
176
     1
290
     0
176
     1
 90
       50
176
     1
 40
0.0
176
     1
 40
1.0
176
     1
 90
        0
176
     1
 62
    18
420
        0
176
     1
 90
       50
176
     1
 90
        3
176
     1
 62
     5
420
      255
176
     1
290
     0
176
     1
 90
       50
176
     1
 90
       50
176
     1
 90
       50
176
     1
290
     0
176
     1
 90
       50
176
     1
 62
   256
176
     0
 40
1.0
176
     0
 90
        2
176
     1
  1
strokes_ogs.tif
176
     1
290
     0
176
     1
 40
1.0
176
     1
 40
1.0
176
     1
  0
VISUALSTYLE
  5
12CA
102
{ACAD_REACTORS
330
C74
102
}
330
C74
100
AcDbVisualStyle
  2
Shaded with edges
 70
    26
177
     3
291
     0
 70
    58
 90
        2
176
     1
 90
        2
176
     1
 90
        1
176
     1
 90
        2
176
     1
 40
0.6
176
     1
 40
30.0
176
     1
 62
     7
420
 16777215
176
     1
 90
        1
176
     1
 90
       10
176
     1
 62
     7
176
     1
 62
   257
176
     1
 90
        2
176
     1
 90
        1
176
     1
 40
1.0
176
     1
 90
        8
176
     1
 62
   257
176
     1
 40
1.0
176
     1
 90
        1
176
     1
 90
        6
176
     1
 90
        2
176
     1
 62
     7
176
     1
 90
        3
176
     1
 90
        0
176
     1
 90
        0
176
     1
290
     0
176
     1
 90
        5
176
     1
 40
0.0
176
     1
 90
        0
176
     1
290
     0
176
     1
290
     1
176
     1
290
     1
176
     1
290
     0
176
     1
290
     0
176
     1
290
     0
176
     1
290
     0
176
     1
290
     0
176
     1
290
     0
176
     1
 90
       50
176
     1
 40
0.0
176
     1
 40
1.0
176
     1
 90
        0
176
     1
 62
    18
420
        0
176
     1
 90
       50
176
     1
 90
        3
176
     1
 62
     5
420
      255
176
     1
290
     0
176
     1
 90
       50
176
     1
 90
       50
176
     1
 90
       50
176
     1
290
     0
176
     1
 90
       50
176
     1
 62
   256
176
     0
 40
1.0
176
     0
 90
        2
176
     1
  1
strokes_ogs.tif
176
     1
290
     0
176
     1
 40
1.0
176
     1
 40
1.0
176
     1
  0
VISUALSTYLE
  5
12C7
102
{ACAD_REACTORS
330
C74
102
}
330
C74
100
AcDbVisualStyle
  2
Shades of Gray
 70
    23
177
     3
291
     0
 70
    58
 90
        2
176
     1
 90
        2
176
     1
 90
        3
176
     1
 90
        0
176
     1
 40
0.6
176
     1
 40
30.0
176
     1
 62
     7
420
 16777215
176
     1
 90
        2
176
     1
 90
        2
176
     1
 62
     7
176
     1
 62
     7
176
     1
 90
        1
176
     1
 90
        1
176
     1
 40
40.0
176
     1
 90
        8
176
     1
 62
     7
176
     1
 40
1.0
176
     1
 90
        1
176
     1
 90
        6
176
     1
 90
        2
176
     1
 62
     7
176
     1
 90
        3
176
     1
 90
        0
176
     1
 90
        0
176
     1
290
     0
176
     1
 90
        1
176
     1
 40
0.0
176
     1
 90
        0
176
     1
290
     0
176
     1
290
     1
176
     1
290
     1
176
     1
290
     0
176
     1
290
     0
176
     1
290
     0
176
     1
290
     0
176
     1
290
     0
176
     1
290
     0
176
     1
 90
       50
176
     1
 40
0.0
176
     1
 40
1.0
176
     1
 90
        0
176
     1
 62
    18
420
        0
176
     1
 90
       50
176
     1
 90
        3
176
     1
 62
     5
420
      255
176
     1
290
     0
176
     1
 90
       50
176
     1
 90
       50
176
     1
 90
       50
176
     1
290
     0
176
     1
 90
       50
176
     1
 62
   256
176
     0
 40
1.0
176
     0
 90
        2
176
     1
  1
strokes_ogs.tif
176
     1
290
     0
176
     1
 40
1.0
176
     1
 40
1.0
176
     1
  0
VISUALSTYLE
  5
12C8
102
{ACAD_REACTORS
330
C74
102
}
330
C74
100
AcDbVisualStyle
  2
Sketchy
 70
    24
177
     3
291
     0
 70
    58
 90
        1
176
     1
 90
        2
176
     1
 90
        2
176
     1
 90
        0
176
     1
 40
0.6
176
     1
 40
30.0
176
     1
 62
     7
420
 16777215
176
     1
 90
        2
176
     1
 90
        2
176
     1
 62
     7
176
     1
 62
     7
176
     1
 90
        1
176
     1
 90
        1
176
     1
 40
40.0
176
     1
 90
       11
176
     1
 62
     7
176
     1
 40
1.0
176
     1
 90
        1
176
     1
 90
        6
176
     1
 90
        2
176
     1
 62
     7
176
     1
 90
        6
176
     1
 90
        0
176
     1
 90
        0
176
     1
290
     0
176
     1
 90
        1
176
     1
 40
0.0
176
     1
 90
        0
176
     1
290
     0
176
     1
290
     1
176
     1
290
     1
176
     1
290
     0
176
     1
290
     0
176
     1
290
     0
176
     1
290
     0
176
     1
290
     0
176
     1
290
     0
176
     1
 90
       50
176
     1
 40
0.0
176
     1
 40
1.0
176
     1
 90
        0
176
     1
 62
    18
420
        0
176
     1
 90
       50
176
     1
 90
        3
176
     1
 62
     5
420
      255
176
     1
290
     0
176
     1
 90
       50
176
     1
 90
       50
176
     1
 90
       50
176
     1
290
     0
176
     1
 90
       50
176
     1
 62
   256
176
     0
 40
1.0
176
     0
 90
        2
176
     1
  1
strokes_ogs.tif
176
     1
290
     0
176
     1
 40
1.0
176
     1
 40
1.0
176
     1
  0
VISUALSTYLE
  5
C81
102
{ACAD_REACTORS
330
C74
102
}
330
C74
100
AcDbVisualStyle
  2
Thicken
 70
    13
177
     3
291
     1
 70
    58
 90
        2
176
     1
 90
        2
176
     1
 90
        0
176
     1
 90
        0
176
     1
 40
0.6
176
     1
 40
30.0
176
     1
 62
     7
176
     1
 90
        1
176
     1
 90
        4
176
     1
 62
     7
176
     1
 62
   257
176
     1
 90
        1
176
     1
 90
        1
176
     1
 40
1.0
176
     1
 90
       12
176
     1
 62
     7
176
     1
 40
1.0
176
     1
 90
        1
176
     1
 90
        6
176
     1
 90
        2
176
     1
 62
     7
176
     1
 90
        5
176
     1
 90
        0
176
     1
 90
        0
176
     1
290
     0
176
     1
 90
        1
176
     1
 40
0.0
176
     1
 90
        0
176
     1
290
     0
176
     1
290
     1
176
     1
290
     1
176
     1
290
     0
176
     1
290
     0
176
     1
290
     0
176
     1
290
     0
176
     1
290
     0
176
     1
290
     0
176
     1
 90
       50
176
     1
 40
0.0
176
     1
 40
1.0
176
     1
 90
        0
176
     1
 62
    18
420
        0
176
     1
 90
       50
176
     1
 90
        3
176
     1
 62
     5
420
      255
176
     1
290
     0
176
     1
 90
       50
176
     1
 90
       50
176
     1
 90
       50
176
     1
290
     0
176
     1
 90
       50
176
     1
 62
   256
176
     0
 40
1.0
176
     0
 90
        2
176
     1
  1
strokes_ogs.tif
176
     1
290
     0
176
     1
 40
1.0
176
     1
 40
1.0
176
     1
  0
VISUALSTYLE
  5
12C5
102
{ACAD_REACTORS
330
C74
102
}
330
C74
100
AcDbVisualStyle
  2
Wireframe
 70
     5
177
     3
291
     0
 70
    58
 90
        0
176
     1
 90
        2
176
     1
 90
        0
176
     1
 90
        0
176
     1
 40
0.6
176
     1
 40
30.0
176
     1
 62
     7
420
 16777215
176
     1
 90
        1
176
     1
 90
        4
176
     1
 62
     7
176
     1
 62
   257
176
     1
 90
        1
176
     1
 90
        1
176
     1
 40
1.0
176
     1
 90
        0
176
     1
 62
   257
176
     1
 40
1.0
176
     1
 90
        1
176
     1
 90
        6
176
     1
 90
        2
176
     1
 62
     7
176
     1
 90
        3
176
     1
 90
        0
176
     1
 90
        0
176
     1
290
     0
176
     1
 90
        1
176
     1
 40
0.0
176
     1
 90
        0
176
     1
290
     0
176
     1
290
     1
176
     1
290
     1
176
     1
290
     0
176
     1
290
     0
176
     1
290
     0
176
     1
290
     0
176
     1
290
     0
176
     1
290
     0
176
     1
 90
       50
176
     1
 40
0.0
176
     1
 40
1.0
176
     1
 90
        0
176
     1
 62
    18
420
        0
176
     1
 90
       50
176
     1
 90
        3
176
     1
 62
     5
420
      255
176
     1
290
     0
176
     1
 90
       50
176
     1
 90
       50
176
     1
 90
       50
176
     1
290
     0
176
     1
 90
       50
176
     1
 62
   256
176
     0
 40
1.0
176
     0
 90
        2
176
     1
  1
strokes_ogs.tif
176
     1
290
     0
176
     1
 40
1.0
176
     1
 40
1.0
176
     1
  0
VISUALSTYLE
  5
12C9
102
{ACAD_REACTORS
330
C74
102
}
330
C74
100
AcDbVisualStyle
  2
X-Ray
 70
    25
177
     3
291
     0
 70
    58
 90
        2
176
     1
 90
        2
176
     1
 90
        1
176
     1
 90
        1
176
     1
 40
0.5
176
     1
 40
30.0
176
     1
 62
     7
420
 16777215
176
     1
 90
        1
176
     1
 90
        0
176
     1
 62
     7
176
     1
 62
   257
176
     1
 90
        1
176
     1
 90
        1
176
     1
 40
1.0
176
     1
 90
        8
176
     1
 62
     7
176
     1
 40
1.0
176
     1
 90
        1
176
     1
 90
        6
176
     1
 90
        2
176
     1
 62
     7
176
     1
 90
        3
176
     1
 90
        0
176
     1
 90
        0
176
     1
290
     0
176
     1
 90
       13
176
     1
 40
0.0
176
     1
 90
        0
176
     1
290
     0
176
     1
290
     1
176
     1
290
     1
176
     1
290
     0
176
     1
290
     0
176
     1
290
     0
176
     1
290
     0
176
     1
290
     0
176
     1
290
     0
176
     1
 90
       50
176
     1
 40
0.0
176
     1
 40
1.0
176
     1
 90
        0
176
     1
 62
    18
420
        0
176
     1
 90
       50
176
     1
 90
        3
176
     1
 62
     5
420
      255
176
     1
290
     0
176
     1
 90
       50
176
     1
 90
       50
176
     1
 90
       50
176
     1
290
     0
176
     1
 90
       50
176
     1
 62
   256
176
     0
 40
1.0
176
     0
 90
        2
176
     1
  1
strokes_ogs.tif
176
     1
290
     0
176
     1
 40
1.0
176
     1
 40
1.0
176
     1
  0
DICTIONARYVAR
  5
136D
102
{ACAD_REACTORS
330
21E
102
}
330
21E
100
DictionaryVariables
280
     0
  1
1:1
  0
DICTIONARYVAR
  5
1369
102
{ACAD_REACTORS
330
21E
102
}
330
21E
100
DictionaryVariables
280
     0
  1
S1
  0
DICTIONARYVAR
  5
E8E
102
{ACAD_REACTORS
330
21E
102
}
330
21E
100
DictionaryVariables
280
     0
  1
STANDARD
  0
DICTIONARYVAR
  5
136A
102
{ACAD_REACTORS
330
21E
102
}
330
21E
100
DictionaryVariables
280
     0
  1
Imperial24
  0
DICTIONARYVAR
  5
136B
102
{ACAD_REACTORS
330
21E
102
}
330
21E
100
DictionaryVariables
280
     0
  1
Imperial24
  0
DICTIONARYVAR
  5
21F
102
{ACAD_REACTORS
330
21E
102
}
330
21E
100
DictionaryVariables
280
     0
  1
1
  0
DICTIONARYVAR
  5
E90
102
{ACAD_REACTORS
330
21E
102
}
330
21E
100
DictionaryVariables
280
     0
  1
0
  0
DICTIONARYVAR
  5
136F
102
{ACAD_REACTORS
330
21E
102
}
330
21E
100
DictionaryVariables
280
     0
  1
1
  0
DICTIONARYVAR
  5
1370
102
{ACAD_REACTORS
330
21E
102
}
330
21E
100
DictionaryVariables
280
     0
  1
15
  0
DICTIONARYVAR
  5
136E
102
{ACAD_REACTORS
330
21E
102
}
330
21E
100
DictionaryVariables
280
     0
  1
0
  0
DICTIONARYVAR
  5
136C
102
{ACAD_REACTORS
330
21E
102
}
330
21E
100
DictionaryVariables
280
     0
  1
0
  0
DICTIONARYVAR
  5
220
102
{ACAD_REACTORS
330
21E
102
}
330
21E
100
DictionaryVariables
280
     0
  1

  0
DICTIONARYVAR
  5
E8F
102
{ACAD_REACTORS
330
21E
102
}
330
21E
100
DictionaryVariables
280
     0
  1
127
  0
DICTIONARY
  5
132C
330
C
100
AcDbDictionary
280
     1
281
     1
  0
DICTIONARY
  5
1321
330
C86
100
AcDbDictionary
280
     1
281
     1
  3
ACAD_ROUNDTRIP_2008_TABLESTYLE_CELLSTYLEMAP
360
828C
  0
CELLSTYLEMAP
  5
828C
102
{ACAD_REACTORS
330
1321
102
}
330
1321
100
AcDbCellStyleMap
 90
        3
300
CELLSTYLE
  1
TABLEFORMAT_BEGIN
 90
        5
170
     1
 91
        0
 92
    32768
 62
   257
 93
        1
300
CONTENTFORMAT
  1
CONTENTFORMAT_BEGIN
 90
        0
 91
        0
 92
      512
 93
        0
300

 40
0.0
140
1.0
 94
        5
 62
     0
340
16
144
0.25
309
CONTENTFORMAT_END
171
     0
 94
        6
 95
        1
302
GRIDFORMAT
  1
GRIDFORMAT_BEGIN
 90
        0
 91
        1
 62
     0
 92
       -2
340
0
 93
        0
 40
0.045
309
GRIDFORMAT_END
 95
        2
302
GRIDFORMAT
  1
GRIDFORMAT_BEGIN
 90
        0
 91
        1
 62
     0
 92
       -2
340
0
 93
        0
 40
0.045
309
GRIDFORMAT_END
 95
        4
302
GRIDFORMAT
  1
GRIDFORMAT_BEGIN
 90
        0
 91
        1
 62
     0
 92
       -2
340
0
 93
        0
 40
0.045
309
GRIDFORMAT_END
 95
        8
302
GRIDFORMAT
  1
GRIDFORMAT_BEGIN
 90
        0
 91
        1
 62
     0
 92
       -2
340
0
 93
        0
 40
0.045
309
GRIDFORMAT_END
 95
       16
302
GRIDFORMAT
  1
GRIDFORMAT_BEGIN
 90
        0
 91
        1
 62
     0
 92
       -2
340
0
 93
        0
 40
0.045
309
GRIDFORMAT_END
 95
       32
302
GRIDFORMAT
  1
GRIDFORMAT_BEGIN
 90
        0
 91
        1
 62
     0
 92
       -2
340
0
 93
        0
 40
0.045
309
GRIDFORMAT_END
309
TABLEFORMAT_END
  1
CELLSTYLE_BEGIN
 90
        1
 91
        1
300
_TITLE
309
CELLSTYLE_END
300
CELLSTYLE
  1
TABLEFORMAT_BEGIN
 90
        5
170
     1
 91
        0
 92
        0
 62
   257
 93
        1
300
CONTENTFORMAT
  1
CONTENTFORMAT_BEGIN
 90
        0
 91
        0
 92
      512
 93
        0
300

 40
0.0
140
1.0
 94
        5
 62
     0
340
16
144
0.18
309
CONTENTFORMAT_END
171
     0
 94
        6
 95
        1
302
GRIDFORMAT
  1
GRIDFORMAT_BEGIN
 90
        0
 91
        1
 62
     0
 92
       -2
340
0
 93
        0
 40
0.045
309
GRIDFORMAT_END
 95
        2
302
GRIDFORMAT
  1
GRIDFORMAT_BEGIN
 90
        0
 91
        1
 62
     0
 92
       -2
340
0
 93
        0
 40
0.045
309
GRIDFORMAT_END
 95
        4
302
GRIDFORMAT
  1
GRIDFORMAT_BEGIN
 90
        0
 91
        1
 62
     0
 92
       -2
340
0
 93
        0
 40
0.045
309
GRIDFORMAT_END
 95
        8
302
GRIDFORMAT
  1
GRIDFORMAT_BEGIN
 90
        0
 91
        1
 62
     0
 92
       -2
340
0
 93
        0
 40
0.045
309
GRIDFORMAT_END
 95
       16
302
GRIDFORMAT
  1
GRIDFORMAT_BEGIN
 90
        0
 91
        1
 62
     0
 92
       -2
340
0
 93
        0
 40
0.045
309
GRIDFORMAT_END
 95
       32
302
GRIDFORMAT
  1
GRIDFORMAT_BEGIN
 90
        0
 91
        1
 62
     0
 92
       -2
340
0
 93
        0
 40
0.045
309
GRIDFORMAT_END
309
TABLEFORMAT_END
  1
CELLSTYLE_BEGIN
 90
        2
 91
        1
300
_HEADER
309
CELLSTYLE_END
300
CELLSTYLE
  1
TABLEFORMAT_BEGIN
 90
        5
170
     1
 91
        0
 92
        0
 62
   257
 93
        1
300
CONTENTFORMAT
  1
CONTENTFORMAT_BEGIN
 90
        0
 91
        0
 92
      512
 93
        0
300

 40
0.0
140
1.0
 94
        2
 62
     0
340
16
144
0.18
309
CONTENTFORMAT_END
171
     0
 94
        6
 95
        1
302
GRIDFORMAT
  1
GRIDFORMAT_BEGIN
 90
        0
 91
        1
 62
     0
 92
       -2
340
0
 93
        0
 40
0.045
309
GRIDFORMAT_END
 95
        2
302
GRIDFORMAT
  1
GRIDFORMAT_BEGIN
 90
        0
 91
        1
 62
     0
 92
       -2
340
0
 93
        0
 40
0.045
309
GRIDFORMAT_END
 95
        4
302
GRIDFORMAT
  1
GRIDFORMAT_BEGIN
 90
        0
 91
        1
 62
     0
 92
       -2
340
0
 93
        0
 40
0.045
309
GRIDFORMAT_END
 95
        8
302
GRIDFORMAT
  1
GRIDFORMAT_BEGIN
 90
        0
 91
        1
 62
     0
 92
       -2
340
0
 93
        0
 40
0.045
309
GRIDFORMAT_END
 95
       16
302
GRIDFORMAT
  1
GRIDFORMAT_BEGIN
 90
        0
 91
        1
 62
     0
 92
       -2
340
0
 93
        0
 40
0.045
309
GRIDFORMAT_END
 95
       32
302
GRIDFORMAT
  1
GRIDFORMAT_BEGIN
 90
        0
 91
        1
 62
     0
 92
       -2
340
0
 93
        0
 40
0.045
309
GRIDFORMAT_END
309
TABLEFORMAT_END
  1
CELLSTYLE_BEGIN
 90
        3
 91
        2
300
_DATA
309
CELLSTYLE_END
  0
ENDSEC
  0
SECTION
  2
ACDSDATA
 70
     2
 71
     7
  0
ACDSSCHEMA
 90
        0
  1
AcDb_Thumbnail_Schema
  2
AcDbDs::ID
280
    10
 91
        8
  2
Thumbnail_Data
280
    15
 91
        0
101
ACDSRECORD
 95
        0
 90
        1
  2
AcDbDs::TreatedAsObjectData
280
     1
291
     1
101
ACDSRECORD
 95
        0
 90
        2
  2
AcDbDs::Legacy
280
     1
291
     1
101
ACDSRECORD
  1
AcDbDs::ID
 90
        3
  2
AcDs:Indexable
280
     1
291
     1
101
ACDSRECORD
  1
AcDbDs::ID
 90
        4
  2
AcDbDs::HandleAttribute
280
     7
282
     1
  0
ACDSSCHEMA
 90
        1
  1
AcDbDs::TreatedAsObjectDataSchema
  2
AcDbDs::TreatedAsObjectData
280
     1
 91
        0
  0
ACDSSCHEMA
 90
        2
  1
AcDbDs::LegacySchema
  2
AcDbDs::Legacy
280
     1
 91
        0
  0
ACDSSCHEMA
 90
        3
  1
AcDbDs::IndexedPropertySchema
  2
AcDs:Indexable
280
     1
 91
        0
  0
ACDSSCHEMA
 90
        4
  1
AcDbDs::HandleAttributeSchema
  2
AcDbDs::HandleAttribute
280
     7
 91
        1
284
     1
  0
ACDSRECORD
 90
        0
  2
AcDbDs::ID
280
    10
320
C
  2
Thumbnail_Data
280
    15
 94
     2931
310
89504E470D0A1A0A0000000D49484452000001000000007808030000002AAADC4C00000300504C5445000000000000C8C8C80000000000000000000000000000000000000000000000000000330000660000990000CC0000FF0033000033330033660033990033CC0033FF0066000066330066660066990066CC0066FF0099
310
000099330099660099990099CC0099FF00CC0000CC3300CC6600CC9900CCCC00CCFF00FF0000FF3300FF6600FF9900FFCC00FFFF3300003300333300663300993300CC3300FF3333003333333333663333993333CC3333FF3366003366333366663366993366CC3366FF3399003399333399663399993399CC3399FF33CC00
310
33CC3333CC6633CC9933CCCC33CCFF33FF0033FF3333FF6633FF9933FFCC33FFFF6600006600336600666600996600CC6600FF6633006633336633666633996633CC6633FF6666006666336666666666996666CC6666FF6699006699336699666699996699CC6699FF66CC0066CC3366CC6666CC9966CCCC66CCFF66FF0066
310
FF3366FF6666FF9966FFCC66FFFF9900009900339900669900999900CC9900FF9933009933339933669933999933CC9933FF9966009966339966669966999966CC9966FF9999009999339999669999999999CC9999FF99CC0099CC3399CC6699CC9999CCCC99CCFF99FF0099FF3399FF6699FF9999FFCC99FFFFCC0000CC00
310
33CC0066CC0099CC00CCCC00FFCC3300CC3333CC3366CC3399CC33CCCC33FFCC6600CC6633CC6666CC6699CC66CCCC66FFCC9900CC9933CC9966CC9999CC99CCCC99FFCCCC00CCCC33CCCC66CCCC99CCCCCCCCCCFFCCFF00CCFF33CCFF66CCFF99CCFFCCCCFFFFFF0000FF0033FF0066FF0099FF00CCFF00FFFF3300FF3333
310
FF3366FF3399FF33CCFF33FFFF6600FF6633FF6666FF6699FF66CCFF66FFFF9900FF9933FF9966FF9999FF99CCFF99FFFFCC00FFCC33FFCC66FFCC99FFCCCCFFCCFFFFFF00FFFF33FFFF66FFFF99FFFFCCFFFFFF0000000D0D0D1A1A1A2828283535354343435050505D5D5D6B6B6B787878868686939393A1A1A1AEAEAEBB
310
BBBBC9C9C9D6D6D6E4E4E4F1F1F1FFFFFF00000000000000000000000000000000000000000000000000000000000008F1915C000002474944415478DAEDDD517283201080612EB4F73F19EF4D623480B0A0531377F999E9A44D84E8278B0A4A433890A29114AE4AD7956C6435010000000000000000000000609704000000
310
00A0F6AE380528FB2064F7C69ABC0214DF23C572AF0FC5730D0020B4434092FA3F750D0800000000000000000000000000000000000000000000000000000000000063E9ECC8A2030029D27C00EA9F000000C02C00621FE0400B2ED30324A9B8ED62BA1AB0DD6353F9A69B00749AAD759F9E0578EF75497EB758037280DED3
310
7E12B30848018E3D2D785780E5BDF60E95772171592A03E8AFD72D014205208C023C9793B16741E36EDDEE791E3004B07CBC549607809A638B2D6B00CD36E0B5B33F007103E887BF478035B33F003504AA00BE42201C06083301C4C901C2F11A100070D1088A02D06B054D00AC5BF13CD0C5C6D5F0EBB578E4E07965F0F811
310
B511C8886E0F105580B492889A2327B013028D55DC4220897A5173EC8E0486006A53DEE8009D4972CCD680FDA970BA95A2E7684C1E048029805A08E800BE1AC1E136A0B3792E1BC1AD3FC07323189410D87A84FA1B15DD01647D82730224BDC2AE00626C1DCA247F00B90030392E9003F4A63C94900D0C2600BD6B012BE701
310
9F25EB03699FD7FDD8A03AC25614098055006D787C06804A51522F1F80690002001E01D2BE2F7D5B653804444C01E8F7CD48357573980A810BD22F00CECD23340A70F04EF1AF039C9E4B4C2E4A5F0618DBAFBF9964EF56F709023035C08F12D3EA02000000000000000000000000000000000000000000000000FC4FC90EFF
310
EDEE1F0BF6FF2D9366BD0E0000000049454E44AE42608200000049454E44AE426082C190C4C324A09DF736D09BDD0B5473350080ED06A0BBDC412D02FECA682E09F873006A5FC4A0B6091600D0BA2B3ACFEBDB00B6951E0E2A07670985AF24E02D008721A40A003F0440B3C82D3192AC136F2C1316F302D88D7CD4108FDD52
310
899207006A6DDA726E109D0CC159189887538F18164B8898A200BF01571BC03CE854F4632D1550E5749DE2A82D5B76E448005C01C0D26B3115A82E0E3B31FFEEFA5AE1F0A41F702509D86B857609F0552000BE30578F0CBB4158470250154B955242447087469CEEE794797A66B71BE47E2B48006A1508B54608093C15E07C
310
5B364D3ADD940A9058489664FAD400108305506D00041780A8408D04115C0F08BC820DA8158D4605AA0D7001849B0016B00132983380AE1738F4A401E0BBC130BD0448152098204FC70196804A0A89794CEF548B27067E707209608EA75A61150734FB614D562C462A65C7EEB659A9319859023200C6B311AC5A60EBC87541
310
B1B5017E3C34B9041047A2CD089EBD40D5EE230366006CEF9203212F47BA82049C42E1CA8030C25E16720A71502A6B2A00A9BECFFD3AA1D08A6B813D12ACA5925B5988EA04B68CB654D276F6CF60B64830DE03B04782B52CE404C014524B5D71D6273A01982E128C375560B70125E771B6012C45F4523DA29343D82BB30933
310
4B40F1026E3EA0F56FAA933D4CE16684A6B301B1E3059A3A41BD16F00148AE436A07B8E4462E32E8612915B8D9380320E2EB12A9058BA58FBC4837292AFE81251F2A0FE205FA22802A7A5AEED0D476D27A04206F0B6400C12D909C2C2D1EDFD91DEE0130B6AFEE8B80AE9F3F03505F614A00741F4073271FA6387607E707D0
310
3D391ABD83934300789C441F739A088011DF23BA8FFBCB1B009AACD1BE3BBE04007B7C9C8E90DFDDDD750158FFB08C0498E3F376FCE12680F6CE76407A1D095000ECABF03600EC8AC3E4126054E06AFC837A389523323F77B2C8534940C063DBEF7AFC23009D03015EB77900E899DA0E3EF0A8A8E3AAECE5BA787C2E1BA045
310
F7F84B527835C0DF6D7300B05F06559518FEE339980EC09D0227A78D8BA5E702D0C6711D41FF35006141007F4CE89793800FFE0A1F0F8080EEB4BDBC193A7F1697CB11CAF65A7B09E412D7A67FEBBF02807B00F600B1A7D8F998F1F535C83B4644E558F2D16309007B83F0439A7D0F9B12507925133483FD4B12B0C5C37F13
310
C04F22FE51FD25E858A10000000049454E44AE4260829302517AB626593E85BF0CE03FDB9AD271BD1B3DAD0000000049454E44AE42608200000049454E44AE426082816C306A2498F6D259945D1FF55363AC9256FBB9866AE300ECD403600217183F397A09009CD805F2A355366279719D42D71DE02241EC5A40B29BDF0140
310
6F02C80F27D88A9030F0BA844C04407F0480170A0900701E00F55B696DFDDEAE010078AC84235BDC0B20F5D6E8666AD193770104A5449C11407E43C1E39EA2A8BD5AE1E0CE966430E8807C321580FC868AE19E9AE8F7FD6D00F90AB3B940C8EAFC0D15E5F835427E1790376681E00C135A809B920E3B2071835504C0337376
310
751A4C02E7D95C2014FA21BAA7A8C67E73F31080B117BFE70272FCA0C5F807EEA98ABDA6B7E884CA2080E8336FB9B5B64CF58E5B6B8F34B276FB5DEB97850F7EE61D00E4FE9C0570D1CE7D0D001EF71425F824809357CBDC0220B9A4057CC47E667878D5722380449CE806037F53AAAEFFE4FAED2F7EFDDBE6BD72B479C03F
310
0A00E6BC7638BBBCED9A655E0BC0CF1DE5F535E01F803F05804E2FF2AF00AADA9F07ACBE41ED2DC87FA51F721D5AD5F9A352241ECC37E5A492BF55E5CCDE83EECC1B8A5F3784B55F47AC7B1D805D934F5AC055002C676E9521F9D27400E4A2E0C72CB5E11CF71F4F0D2ACFF714B84621125759DC2182A75D201AE73EFAFF7E
310
7EF2BF10AAB2B26006209975953D6F6A5D2000F02B5D28828A3A46E08217326B99FF29809F2680B4C5986A6418808E34E016004A02F0436D0088C3B8AA06C400600400AFC8D793F8176FD20092BB9D87AA645F330FF01680A24795B6F80E80C6CC1C4DDCE4BFA9F9E380FF019E3A4A5D05C5C05E0000000049454E44AE4260
310
826082454E44AE426082
  0
ENDSEC
  0
EOF
